  0
SECTION
  2
HEADER
  9
$ACADVER
  1
AC1009
  9
$INSBASE
 10
0.0
 20
0.0
 30
0.0
  9
$EXTMIN
 10
1000.0
 20
1200.0
 30
0.0
  9
$EXTMAX
 10
7400.0
 20
11146.609046400001
 30
0.0
  9
$LIMMIN
 10
0.0
 20
0.0
  9
$LIMMAX
 10
297.0
 20
210.0
  9
$ORTHOMODE
 70
     0
  9
$REGENMODE
 70
     1
  9
$FILLMODE
 70
     0
  9
$QTEXTMODE
 70
     0
  9
$MIRRTEXT
 70
     1
  9
$DRAGMODE
 70
     2
  9
$LTSCALE
 40
100.0
  9
$OSMODE
 70
    37
  9
$ATTMODE
 70
     1
  9
$TEXTSIZE
 40
180.0
  9
$TRACEWID
 40
0.05
  9
$TEXTSTYLE
  7
STANDARD
  9
$CLAYER
  8
3
  9
$CELTYPE
  6
BYLAYER
  9
$CECOLOR
 62
   256
  9
$DIMSCALE
 40
40.0
  9
$DIMASZ
 40
2.0
  9
$DIMEXO
 40
0.5
  9
$DIMDLI
 40
10.0
  9
$DIMRND
 40
0.0
  9
$DIMDLE
 40
0.0
  9
$DIMEXE
 40
1.0
  9
$DIMTP
 40
1.0
  9
$DIMTM
 40
1.0
  9
$DIMTXT
 40
3.0
  9
$DIMCEN
 40
0.0
  9
$DIMTSZ
 40
0.0
  9
$DIMTOL
 70
     0
  9
$DIMLIM
 70
     0
  9
$DIMTIH
 70
     0
  9
$DIMTOH
 70
     0
  9
$DIMSE1
 70
     0
  9
$DIMSE2
 70
     0
  9
$DIMTAD
 70
     1
  9
$DIMZIN
 70
     8
  9
$DIMBLK
  1

  9
$DIMASO
 70
     1
  9
$DIMSHO
 70
     1
  9
$DIMPOST
  1

  9
$DIMAPOST
  1

  9
$DIMALT
 70
     0
  9
$DIMALTD
 70
     2
  9
$DIMALTF
 40
0.039
  9
$DIMLFAC
 40
1.0
  9
$DIMTOFL
 70
     1
  9
$DIMTVP
 40
0.0
  9
$DIMTIX
 70
     0
  9
$DIMSOXD
 70
     0
  9
$DIMSAH
 70
     1
  9
$DIMBLK1
  1
OPEN
  9
$DIMBLK2
  1
OPEN
  9
$DIMSTYLE
  2
IGA
  9
$DIMCLRD
 70
     0
  9
$DIMCLRE
 70
     0
  9
$DIMCLRT
 70
     0
  9
$DIMTFAC
 40
10.0
  9
$DIMGAP
 40
1.0
  9
$LUNITS
 70
     2
  9
$LUPREC
 70
     3
  9
$SKETCHINC
 40
0.1
  9
$FILLETRAD
 40
50.0
  9
$AUNITS
 70
     0
  9
$AUPREC
 70
     0
  9
$MENU
  1
acad
  9
$ELEVATION
 40
0.0
  9
$PELEVATION
 40
0.0
  9
$THICKNESS
 40
0.0
  9
$LIMCHECK
 70
     0
  9
$BLIPMODE
 70
     0
  9
$CHAMFERA
 40
0.5
  9
$CHAMFERB
 40
0.5
  9
$SKPOLY
 70
     0
  9
$TDCREATE
 40
2450751.631596759
  9
$TDUPDATE
 40
2454953.6868478698
  9
$TDINDWG
 40
0.0063572222
  9
$TDUSRTIMER
 40
0.0063572222
  9
$USRTIMER
 70
     1
  9
$ANGBASE
 50
0.0
  9
$ANGDIR
 70
     0
  9
$PDMODE
 70
     0
  9
$PDSIZE
 40
0.0
  9
$PLINEWID
 40
0.0
  9
$COORDS
 70
     1
  9
$SPLFRAME
 70
     0
  9
$SPLINETYPE
 70
     6
  9
$SPLINESEGS
 70
     8
  9
$ATTDIA
 70
     0
  9
$ATTREQ
 70
     1
  9
$HANDLING
 70
 10241
  9
$HANDSEED
  5
8042
  9
$SURFTAB1
 70
     6
  9
$SURFTAB2
 70
     6
  9
$SURFTYPE
 70
     6
  9
$SURFU
 70
     6
  9
$SURFV
 70
     6
  9
$UCSNAME
  2

  9
$UCSORG
 10
0.0
 20
0.0
 30
0.0
  9
$UCSXDIR
 10
1.0
 20
0.0
 30
0.0
  9
$UCSYDIR
 10
0.0
 20
1.0
 30
0.0
  9
$PUCSNAME
  2

  9
$PUCSORG
 10
0.0
 20
0.0
 30
0.0
  9
$PUCSXDIR
 10
1.0
 20
0.0
 30
0.0
  9
$PUCSYDIR
 10
0.0
 20
1.0
 30
0.0
  9
$USERI1
 70
     0
  9
$USERI2
 70
     0
  9
$USERI3
 70
     0
  9
$USERI4
 70
     0
  9
$USERI5
 70
     0
  9
$USERR1
 40
0.0
  9
$USERR2
 40
0.0
  9
$USERR3
 40
0.0
  9
$USERR4
 40
0.0
  9
$USERR5
 40
0.0
  9
$WORLDVIEW
 70
     1
  9
$SHADEDGE
 70
     3
  9
$SHADEDIF
 70
    70
  9
$TILEMODE
 70
     1
  9
$MAXACTVP
 70
    16
  9
$PLIMCHECK
 70
     0
  9
$PEXTMIN
 10
1.0000000000000000E+020
 20
1.0000000000000000E+020
 30
1.0000000000000000E+020
  9
$PEXTMAX
 10
-1.0000000000000000E+020
 20
-1.0000000000000000E+020
 30
-1.0000000000000000E+020
  9
$PLIMMIN
 10
0.0
 20
0.0
  9
$PLIMMAX
 10
12.0
 20
9.0
  9
$UNITMODE
 70
     0
  9
$VISRETAIN
 70
     0
  9
$PLINEGEN
 70
     0
  9
$PSLTSCALE
 70
     1
  0
ENDSEC
  0
SECTION
  2
TABLES
  0
TABLE
  2
VPORT
 70
     2
  0
VPORT
  2
*ACTIVE
 70
     0
 10
0.0
 20
0.0
 11
1.0
 21
1.0
 12
15396.13867857327
 22
6675.8014365828203
 13
0.0
 23
0.0
 14
10.0
 24
10.0
 15
10.0
 25
10.0
 16
0.0
 26
0.0
 36
1.0
 17
0.0
 27
0.0
 37
0.0
 40
11418.966919902499
 41
3.1666666666666661
 42
50.0
 43
0.0
 44
0.0
 50
0.0
 51
0.0
 71
     0
 72
   100
 73
     1
 74
     0
 75
     0
 76
     0
 77
     0
 78
     0
  0
ENDTAB
  0
TABLE
  2
LTYPE
 70
     2
  0
LTYPE
  2
CONTINUOUS
 70
     0
  3
Solid line
 72
    65
 73
     0
 40
0.0
  0
LTYPE
  2
CENTER
 70
     0
  3
____ _ ____ _ ____ _ ____ _ ____ _ ____ _ ____ 
 72
    65
 73
     4
 40
2.0
 49
1.25
 49
-0.25
 49
0.25
 49
-0.25
  0
ENDTAB
  0
TABLE
  2
LAYER
 70
     6
  0
LAYER
  2
0
 70
     0
 62
     7
  6
CONTINUOUS
  0
LAYER
  2
3
 70
     0
 62
     2
  6
CONTINUOUS
  0
LAYER
  2
2
 70
     0
 62
     3
  6
CENTER
  0
LAYER
  2
1
 70
     0
 62
     4
  6
CONTINUOUS
  0
LAYER
  2
4
 70
     0
 62
     7
  6
CONTINUOUS
  0
LAYER
  2
DEFPOINTS
 70
     0
 62
     7
  6
CONTINUOUS
  0
ENDTAB
  0
TABLE
  2
STYLE
 70
     1
  0
STYLE
  2
STANDARD
 70
     0
 40
0.0
 41
1.0
 50
0.0
 71
     0
 42
180.0
  3
simplex.shx
  4
extfont.shx
  0
ENDTAB
  0
TABLE
  2
VIEW
 70
     0
  0
ENDTAB
  0
TABLE
  2
UCS
 70
     0
  0
ENDTAB
  0
TABLE
  2
APPID
 70
     1
  0
APPID
  2
ACAD
 70
     0
  0
ENDTAB
  0
TABLE
  2
DIMSTYLE
 70
     1
  0
DIMSTYLE
  2
IGA
 70
     0
  3

  4

  5

  6
OPEN
  7
OPEN
 40
2.0
 41
2.0
 42
0.5
 43
10.0
 44
1.0
 45
0.0
 46
0.0
 47
1.0
 48
1.0
140
3.0
141
0.0
142
0.0
143
0.03937
144
1.0
145
0.0
146
10.0
147
1.0
 71
     0
 72
     0
 73
     0
 74
     0
 75
     0
 76
     0
 77
     1
 78
     8
170
     0
171
     2
172
     0
173
     1
174
     0
175
     0
176
     0
177
     0
178
     0
  0
ENDTAB
  0
ENDSEC
  0
SECTION
  2
BLOCKS
  0
BLOCK
  8
0
  2
$MODEL_SPACE
 70
     0
 10
0.0
 20
0.0
 30
0.0
  3
$MODEL_SPACE
  1

  0
ENDBLK
  5
1B
  8
0
  0
BLOCK
 67
     1
  8
0
  2
$PAPER_SPACE
 70
     0
 10
0.0
 20
0.0
 30
0.0
  3
$PAPER_SPACE
  1

  0
ENDBLK
  5
18
 67
     1
  8
0
  0
BLOCK
  8
0
  2
_OPEN
 70
     0
 10
0.0
 20
0.0
 30
0.0
  3
_OPEN
  1

  0
LINE
  5
7AEA
  8
0
  6
BYBLOCK
 62
     0
 10
-1.0
 20
0.166667
 30
0.0
 11
0.0
 21
0.0
 31
0.0
  0
LINE
  5
7AEB
  8
0
  6
BYBLOCK
 62
     0
 10
0.0
 20
0.0
 30
0.0
 11
-1.0
 21
-0.166667
 31
0.0
  0
LINE
  5
7AEC
  8
0
  6
BYBLOCK
 62
     0
 10
0.0
 20
0.0
 30
0.0
 11
-1.0
 21
0.0
 31
0.0
  0
ENDBLK
  5
7AED
  8
0
  0
BLOCK
  8
0
  2
*D1
 70
     1
 10
0.0
 20
0.0
 30
0.0
  3
*D1
  1

  0
LINE
  5
7F95
  8
3
  6
CONTINUOUS
 62
     0
 10
1107.7332409752451
 20
3239.3399822033698
 30
0.0
 11
1107.7332409752451
 21
2907.0692184942382
 31
0.0
  0
LINE
  5
7F96
  8
3
  6
CONTINUOUS
 62
     0
 10
2602.7332409752448
 20
3172.178885203371
 30
0.0
 11
2602.7332409752448
 21
2907.0692184942382
 31
0.0
  0
LINE
  5
7F97
  8
3
  6
CONTINUOUS
 62
     0
 10
1187.7332409752451
 20
2947.0692184942382
 30
0.0
 11
2522.7332409752448
 21
2947.0692184942382
 31
0.0
  0
INSERT
  5
7F98
  8
3
  6
CONTINUOUS
 62
     0
  2
_OPEN
 10
1107.7332409752451
 20
2947.0692184942382
 30
0.0
 41
80.0
 42
80.0
 43
80.0
 50
180.0
  0
INSERT
  5
7F99
  8
3
  6
CONTINUOUS
 62
     0
  2
_OPEN
 10
2602.7332409752448
 20
2947.0692184942382
 30
0.0
 41
80.0
 42
80.0
 43
80.0
  0
TEXT
  8
3
  40
120
  5
8030
  62
0
  72
0
  71
0
 10
1571.88
 20
2834.67
 30
0.000000
  1
1495
  0
POINT
  5
7F9B
  8
DEFPOINTS
  6
CONTINUOUS
 62
     0
 10
1107.7332409752451
 20
3259.3399822033689
 30
0.0
  0
POINT
  5
7F9C
  8
DEFPOINTS
  6
CONTINUOUS
 62
     0
 10
2602.7332409752448
 20
3192.178885203371
 30
0.0
  0
POINT
  5
7F9D
  8
DEFPOINTS
  6
CONTINUOUS
 62
     0
 10
2602.7332409752448
 20
2947.0692184942382
 30
0.0
  0
ENDBLK
  5
7E4A
  8
0
  0
BLOCK
  8
0
  2
*D2
 70
     1
 10
0.0
 20
0.0
 30
0.0
  3
*D2
  1

  0
LINE
  5
7F9E
  8
3
  6
CONTINUOUS
 62
     0
 10
2602.7332409752448
 20
3172.178885203371
 30
0.0
 11
2602.7332409752448
 21
2907.0692184942382
 31
0.0
  0
LINE
  5
7F9F
  8
3
  6
CONTINUOUS
 62
     0
 10
3227.7332409752448
 20
3239.3399822033698
 30
0.0
 11
3227.7332409752448
 21
2907.0692184942382
 31
0.0
  0
LINE
  5
7FA0
  8
3
  6
CONTINUOUS
 62
     0
 10
2682.7332409752448
 20
2947.0692184942382
 30
0.0
 11
3147.7332409752448
 21
2947.0692184942382
 31
0.0
  0
INSERT
  5
7FA1
  8
3
  6
CONTINUOUS
 62
     0
  2
_OPEN
 10
2602.7332409752448
 20
2947.0692184942382
 30
0.0
 41
80.0
 42
80.0
 43
80.0
 50
180.0
  0
INSERT
  5
7FA2
  8
3
  6
CONTINUOUS
 62
     0
  2
_OPEN
 10
3227.7332409752448
 20
2947.0692184942382
 30
0.0
 41
80.0
 42
80.0
 43
80.0
  0
TEXT
  8
3
  40
120
  5
8031
  62
0
  72
0
  71
0
 10
2675.23
 20
2834.67
 30
0.000000
  1
625
  0
POINT
  5
7FA4
  8
DEFPOINTS
  6
CONTINUOUS
 62
     0
 10
2602.7332409752448
 20
3192.178885203371
 30
0.0
  0
POINT
  5
7FA5
  8
DEFPOINTS
  6
CONTINUOUS
 62
     0
 10
3227.7332409752448
 20
3259.3399822033689
 30
0.0
  0
POINT
  5
7FA6
  8
DEFPOINTS
  6
CONTINUOUS
 62
     0
 10
3227.7332409752448
 20
2947.0692184942382
 30
0.0
  0
ENDBLK
  5
7E55
  8
0
  0
BLOCK
  8
0
  2
*D3
 70
     1
 10
0.0
 20
0.0
 30
0.0
  3
*D3
  1

  0
LINE
  5
7FA7
  8
3
  6
CONTINUOUS
 62
     0
 10
3302.7332409752448
 20
4509.3399822033689
 30
0.0
 11
3680.7383089752439
 21
4509.3399822033689
 31
0.0
  0
LINE
  5
7FA8
  8
3
  6
CONTINUOUS
 62
     0
 10
3302.7332409752448
 20
3479.3399822033698
 30
0.0
 11
3680.7383089752439
 21
3479.3399822033698
 31
0.0
  0
LINE
  5
7FA9
  8
3
  6
CONTINUOUS
 62
     0
 10
3640.7383089752439
 20
4429.3399822033689
 30
0.0
 11
3640.7383089752439
 21
3559.3399822033689
 31
0.0
  0
INSERT
  5
7FAA
  8
3
  6
CONTINUOUS
 62
     0
  2
_OPEN
 10
3640.7383089752439
 20
4509.3399822033689
 30
0.0
 41
80.0
 42
80.0
 43
80.0
 50
90.0
  0
INSERT
  5
7FAB
  8
3
  6
CONTINUOUS
 62
     0
  2
_OPEN
 10
3640.7383089752439
 20
3479.3399822033698
 30
0.0
 41
80.0
 42
80.0
 43
80.0
 50
270.0
  0
TEXT
  8
3
  40
120
  5
8032
  62
0
  72
0
  71
0
 10
3300.74
 20
3805.80
 30
0.000000
  1
1030
  0
POINT
  5
7FAD
  8
DEFPOINTS
  6
CONTINUOUS
 62
     0
 10
3282.7332409752448
 20
4509.3399822033689
 30
0.0
  0
POINT
  5
7FAE
  8
DEFPOINTS
  6
CONTINUOUS
 62
     0
 10
3282.7332409752448
 20
3479.3399822033698
 30
0.0
  0
POINT
  5
7FAF
  8
DEFPOINTS
  6
CONTINUOUS
 62
     0
 10
3640.7383089752439
 20
3479.3399822033698
 30
0.0
  0
ENDBLK
  5
7D5F
  8
0
  0
BLOCK
  8
0
  2
*D4
 70
     1
 10
0.0
 20
0.0
 30
0.0
  3
*D4
  1

  0
LINE
  5
7FB0
  8
3
  6
CONTINUOUS
 62
     0
 10
2628.3332409752438
 20
5273.3399822033698
 30
0.0
 11
4120.6380013329017
 21
5273.3399822033698
 31
0.0
  0
LINE
  5
7FB1
  8
3
  6
CONTINUOUS
 62
     0
 10
3218.0279769752451
 20
4553.3399822033698
 30
0.0
 11
4120.6380013329017
 21
4553.3399822033698
 31
0.0
  0
LINE
  5
7FB2
  8
3
  6
CONTINUOUS
 62
     0
 10
4080.6380013329031
 20
5193.3399822033698
 30
0.0
 11
4080.6380013329031
 21
4633.3399822033689
 31
0.0
  0
INSERT
  5
7FB3
  8
3
  6
CONTINUOUS
 62
     0
  2
_OPEN
 10
4080.6380013329031
 20
5273.3399822033698
 30
0.0
 41
80.0
 42
80.0
 43
80.0
 50
90.0
  0
INSERT
  5
7FB4
  8
3
  6
CONTINUOUS
 62
     0
  2
_OPEN
 10
4080.6380013329031
 20
4553.3399822033698
 30
0.0
 41
80.0
 42
80.0
 43
80.0
 50
270.0
  0
TEXT
  8
3
  40
120
  5
8033
  62
0
  72
0
  71
0
 10
3740.64
 20
4786.65
 30
0.000000
  1
720
  0
POINT
  5
7FB6
  8
DEFPOINTS
  6
CONTINUOUS
 62
     0
 10
2608.3332409752438
 20
5273.3399822033698
 30
0.0
  0
POINT
  5
7FB7
  8
DEFPOINTS
  6
CONTINUOUS
 62
     0
 10
3198.0279769752451
 20
4553.3399822033698
 30
0.0
  0
POINT
  5
7FB8
  8
DEFPOINTS
  6
CONTINUOUS
 62
     0
 10
4080.6380013329031
 20
4553.3399822033698
 30
0.0
  0
ENDBLK
  5
7E9B
  8
0
  0
BLOCK
  8
0
  2
*D5
 70
     1
 10
0.0
 20
0.0
 30
0.0
  3
*D5
  1

  0
LINE
  5
7FB9
  8
3
  6
CONTINUOUS
 62
     0
 10
3218.0279769752451
 20
4553.3399822033698
 30
0.0
 11
4120.6380013329017
 21
4553.3399822033698
 31
0.0
  0
LINE
  5
7FBA
  8
3
  6
CONTINUOUS
 62
     0
 10
3247.7332409752448
 20
3343.3399822033698
 30
0.0
 11
4120.6380013329017
 21
3343.3399822033698
 31
0.0
  0
LINE
  5
7FBB
  8
3
  6
CONTINUOUS
 62
     0
 10
4080.6380013329021
 20
4473.3399822033689
 30
0.0
 11
4080.6380013329021
 21
3423.3399822033689
 31
0.0
  0
INSERT
  5
7FBC
  8
3
  6
CONTINUOUS
 62
     0
  2
_OPEN
 10
4080.6380013329021
 20
4553.3399822033698
 30
0.0
 41
80.0
 42
80.0
 43
80.0
 50
90.0
  0
INSERT
  5
7FBD
  8
3
  6
CONTINUOUS
 62
     0
  2
_OPEN
 10
4080.6380013329021
 20
3343.3399822033698
 30
0.0
 41
80.0
 42
80.0
 43
80.0
 50
270.0
  0
TEXT
  8
3
  40
120
  5
8034
  62
0
  72
0
  71
0
 10
3740.64
 20
3735.94
 30
0.000000
  1
1210
  0
POINT
  5
7FBF
  8
DEFPOINTS
  6
CONTINUOUS
 62
     0
 10
3198.0279769752451
 20
4553.3399822033698
 30
0.0
  0
POINT
  5
7FC0
  8
DEFPOINTS
  6
CONTINUOUS
 62
     0
 10
3227.7332409752448
 20
3343.3399822033698
 30
0.0
  0
POINT
  5
7FC1
  8
DEFPOINTS
  6
CONTINUOUS
 62
     0
 10
4080.6380013329021
 20
3343.3399822033698
 30
0.0
  0
ENDBLK
  5
7E06
  8
0
  0
BLOCK
  8
0
  2
*D6
 70
     1
 10
0.0
 20
0.0
 30
0.0
  3
*D6
  1

  0
LINE
  5
7FC2
  8
3
  6
CONTINUOUS
 62
     0
 10
3247.7332409752448
 20
3343.3399822033698
 30
0.0
 11
4120.6380013329017
 21
3343.3399822033698
 31
0.0
  0
LINE
  5
7FC3
  8
3
  6
CONTINUOUS
 62
     0
 10
3247.7332409752448
 20
3259.3399822033689
 30
0.0
 11
4120.6380013329017
 21
3259.3399822033689
 31
0.0
  0
LINE
  5
7FC4
  8
3
  6
CONTINUOUS
 62
     0
 10
4080.6380013329031
 20
3423.3399822033689
 30
0.0
 11
4080.6380013329031
 21
3503.3399822033698
 31
0.0
  0
LINE
  5
7FC5
  8
3
  6
CONTINUOUS
 62
     0
 10
4080.6380013329031
 20
3179.3399822033689
 30
0.0
 11
4080.6380013329031
 21
2819.3399822033698
 31
0.0
  0
LINE
  5
7FC6
  8
3
  6
CONTINUOUS
 62
     0
 10
4080.6380013329031
 20
3343.3399822033698
 30
0.0
 11
4080.6380013329031
 21
3259.3399822033689
 31
0.0
  0
INSERT
  5
7FC7
  8
3
  6
CONTINUOUS
 62
     0
  2
_OPEN
 10
4080.6380013329031
 20
3343.3399822033698
 30
0.0
 41
80.0
 42
80.0
 43
80.0
 50
270.0
  0
INSERT
  5
7FC8
  8
3
  6
CONTINUOUS
 62
     0
  2
_OPEN
 10
4080.6380013329031
 20
3259.3399822033689
 30
0.0
 41
80.0
 42
80.0
 43
80.0
 50
90.0
  0
TEXT
  8
3
  40
120
  5
8035
  62
0
  72
0
  71
0
 10
3740.64
 20
2746.94
 30
0.000000
  1
84
  0
POINT
  5
7FCA
  8
DEFPOINTS
  6
CONTINUOUS
 62
     0
 10
3227.7332409752448
 20
3343.3399822033698
 30
0.0
  0
POINT
  5
7FCB
  8
DEFPOINTS
  6
CONTINUOUS
 62
     0
 10
3227.7332409752448
 20
3259.3399822033689
 30
0.0
  0
POINT
  5
7FCC
  8
DEFPOINTS
  6
CONTINUOUS
 62
     0
 10
4080.6380013329031
 20
3259.3399822033689
 30
0.0
  0
ENDBLK
  5
7E13
  8
0
  0
BLOCK
  8
0
  2
*D7
 70
     1
 10
0.0
 20
0.0
 30
0.0
  3
*D7
  1

  0
LINE
  5
7FCD
  8
3
  6
CONTINUOUS
 62
     0
 10
2622.7332409752448
 20
5273.3399822033698
 30
0.0
 11
4363.442830568305
 21
5273.3399822033698
 31
0.0
  0
LINE
  5
7FCE
  8
3
  6
CONTINUOUS
 62
     0
 10
3247.7332409752448
 20
3259.3399822033689
 30
0.0
 11
4363.442830568305
 21
3259.3399822033689
 31
0.0
  0
LINE
  5
7FCF
  8
3
  6
CONTINUOUS
 62
     0
 10
4323.4428305683059
 20
5193.3399822033698
 30
0.0
 11
4323.4428305683059
 21
3339.3399822033698
 31
0.0
  0
INSERT
  5
7FD0
  8
3
  6
CONTINUOUS
 62
     0
  2
_OPEN
 10
4323.4428305683059
 20
5273.3399822033698
 30
0.0
 41
80.0
 42
80.0
 43
80.0
 50
90.0
  0
INSERT
  5
7FD1
  8
3
  6
CONTINUOUS
 62
     0
  2
_OPEN
 10
4323.4428305683059
 20
3259.3399822033689
 30
0.0
 41
80.0
 42
80.0
 43
80.0
 50
270.0
  0
TEXT
  8
3
  40
120
  5
8036
  62
0
  72
0
  71
0
 10
3983.44
 20
4052.73
 30
0.000000
  1
2014
  0
POINT
  5
7FD3
  8
DEFPOINTS
  6
CONTINUOUS
 62
     0
 10
2602.7332409752448
 20
5273.3399822033698
 30
0.0
  0
POINT
  5
7FD4
  8
DEFPOINTS
  6
CONTINUOUS
 62
     0
 10
3227.7332409752448
 20
3259.3399822033689
 30
0.0
  0
POINT
  5
7FD5
  8
DEFPOINTS
  6
CONTINUOUS
 62
     0
 10
4323.4428305683059
 20
3259.3399822033689
 30
0.0
  0
ENDBLK
  5
7E90
  8
0
  0
BLOCK
  8
0
  2
*D8
 70
     1
 10
0.0
 20
0.0
 30
0.0
  3
*D8
  1

  0
LINE
  5
7FD6
  8
3
  6
CONTINUOUS
 62
     0
 10
1734.7332409752451
 20
4573.3399822033698
 30
0.0
 11
1734.7332409752451
 21
5485.6157712033701
 31
0.0
  0
LINE
  5
7FD7
  8
3
  6
CONTINUOUS
 62
     0
 10
2602.7332409752448
 20
5292.3653442033701
 30
0.0
 11
2602.7332409752448
 21
5485.6157712033701
 31
0.0
  0
LINE
  5
7FD8
  8
3
  6
CONTINUOUS
 62
     0
 10
1814.7332409752451
 20
5445.6157712033701
 30
0.0
 11
2522.7332409752448
 21
5445.6157712033701
 31
0.0
  0
INSERT
  5
7FD9
  8
3
  6
CONTINUOUS
 62
     0
  2
_OPEN
 10
1734.7332409752451
 20
5445.6157712033701
 30
0.0
 41
80.0
 42
80.0
 43
80.0
 50
180.0
  0
INSERT
  5
7FDA
  8
3
  6
CONTINUOUS
 62
     0
  2
_OPEN
 10
2602.7332409752448
 20
5445.6157712033701
 30
0.0
 41
80.0
 42
80.0
 43
80.0
  0
TEXT
  8
3
  40
120
  5
8037
  62
0
  72
0
  71
0
 10
1929.82
 20
5333.22
 30
0.000000
  1
868
  0
POINT
  5
7FDC
  8
DEFPOINTS
  6
CONTINUOUS
 62
     0
 10
1734.7332409752451
 20
4553.3399822033698
 30
0.0
  0
POINT
  5
7FDD
  8
DEFPOINTS
  6
CONTINUOUS
 62
     0
 10
2602.7332409752448
 20
5272.3653442033701
 30
0.0
  0
POINT
  5
7FDE
  8
DEFPOINTS
  6
CONTINUOUS
 62
     0
 10
2602.7332409752448
 20
5445.6157712033701
 30
0.0
  0
ENDBLK
  5
7E77
  8
0
  0
BLOCK
  8
0
  2
*D9
 70
     1
 10
0.0
 20
0.0
 30
0.0
  3
*D9
  1

  0
LINE
  5
7FDF
  8
3
  6
CONTINUOUS
 62
     0
 10
2602.7332409752448
 20
5292.3653442033701
 30
0.0
 11
2602.7332409752448
 21
5485.6157712033701
 31
0.0
  0
LINE
  5
7FE0
  8
3
  6
CONTINUOUS
 62
     0
 10
3282.7332409752448
 20
4582.3399822033698
 30
0.0
 11
3282.7332409752448
 21
5485.6157712033701
 31
0.0
  0
LINE
  5
7FE1
  8
3
  6
CONTINUOUS
 62
     0
 10
2682.7332409752448
 20
5445.6157712033701
 30
0.0
 11
3202.7332409752448
 21
5445.6157712033701
 31
0.0
  0
INSERT
  5
7FE2
  8
3
  6
CONTINUOUS
 62
     0
  2
_OPEN
 10
2602.7332409752448
 20
5445.6157712033701
 30
0.0
 41
80.0
 42
80.0
 43
80.0
 50
180.0
  0
INSERT
  5
7FE3
  8
3
  6
CONTINUOUS
 62
     0
  2
_OPEN
 10
3282.7332409752448
 20
5445.6157712033701
 30
0.0
 41
80.0
 42
80.0
 43
80.0
  0
TEXT
  8
3
  40
120
  5
8038
  62
0
  72
0
  71
0
 10
2702.73
 20
5333.22
 30
0.000000
  1
680
  0
POINT
  5
7FE5
  8
DEFPOINTS
  6
CONTINUOUS
 62
     0
 10
2602.7332409752448
 20
5272.3653442033701
 30
0.0
  0
POINT
  5
7FE6
  8
DEFPOINTS
  6
CONTINUOUS
 62
     0
 10
3282.7332409752448
 20
4562.3399822033689
 30
0.0
  0
POINT
  5
7FE7
  8
DEFPOINTS
  6
CONTINUOUS
 62
     0
 10
3282.7332409752448
 20
5445.6157712033701
 30
0.0
  0
ENDBLK
  5
7D1B
  8
0
  0
BLOCK
  8
0
  2
*D10
 70
     1
 10
0.0
 20
0.0
 30
0.0
  3
*D10
  1

  0
LINE
  5
7FE8
  8
3
  6
CONTINUOUS
 62
     0
 10
1107.7332409752451
 20
7589.9463193859738
 30
0.0
 11
1107.7332409752451
 21
7080.0676383859754
 31
0.0
  0
LINE
  5
7FE9
  8
3
  6
CONTINUOUS
 62
     0
 10
3227.7332409752448
 20
7589.9463193859738
 30
0.0
 11
3227.7332409752448
 21
7080.0676383859754
 31
0.0
  0
LINE
  5
7FEA
  8
3
  6
CONTINUOUS
 62
     0
 10
1187.7332409752451
 20
7120.0676383859754
 30
0.0
 11
3147.7332409752448
 21
7120.0676383859754
 31
0.0
  0
INSERT
  5
7FEB
  8
3
  6
CONTINUOUS
 62
     0
  2
_OPEN
 10
1107.7332409752451
 20
7120.0676383859754
 30
0.0
 41
80.0
 42
80.0
 43
80.0
 50
180.0
  0
INSERT
  5
7FEC
  8
3
  6
CONTINUOUS
 62
     0
  2
_OPEN
 10
3227.7332409752448
 20
7120.0676383859754
 30
0.0
 41
80.0
 42
80.0
 43
80.0
  0
TEXT
  8
3
  40
120
  5
8039
  62
0
  72
0
  71
0
 10
2008.12
 20
7007.67
 30
0.000000
  1
2120
  0
POINT
  5
7FEE
  8
DEFPOINTS
  6
CONTINUOUS
 62
     0
 10
1107.7332409752451
 20
7609.9463193859729
 30
0.0
  0
POINT
  5
7FEF
  8
DEFPOINTS
  6
CONTINUOUS
 62
     0
 10
3227.7332409752448
 20
7609.9463193859729
 30
0.0
  0
POINT
  5
7FF0
  8
DEFPOINTS
  6
CONTINUOUS
 62
     0
 10
3227.7332409752448
 20
7120.0676383859754
 30
0.0
  0
ENDBLK
  5
7D10
  8
0
  0
BLOCK
  8
0
  2
*D11
 70
     1
 10
0.0
 20
0.0
 30
0.0
  3
*D11
  1

  0
LINE
  5
7FF1
  8
3
  6
CONTINUOUS
 62
     0
 10
3247.7332409752448
 20
8669.9463193859738
 30
0.0
 11
3759.038036975247
 21
8669.9463193859738
 31
0.0
  0
LINE
  5
7FF2
  8
3
  6
CONTINUOUS
 62
     0
 10
3247.7332409752448
 20
7609.9463193859729
 30
0.0
 11
3759.038036975247
 21
7609.9463193859729
 31
0.0
  0
LINE
  5
7FF3
  8
3
  6
CONTINUOUS
 62
     0
 10
3719.038036975247
 20
8589.9463193859738
 30
0.0
 11
3719.038036975247
 21
7689.9463193859738
 31
0.0
  0
INSERT
  5
7FF4
  8
3
  6
CONTINUOUS
 62
     0
  2
_OPEN
 10
3719.038036975247
 20
8669.9463193859738
 30
0.0
 41
80.0
 42
80.0
 43
80.0
 50
90.0
  0
INSERT
  5
7FF5
  8
3
  6
CONTINUOUS
 62
     0
  2
_OPEN
 10
3719.038036975247
 20
7609.9463193859729
 30
0.0
 41
80.0
 42
80.0
 43
80.0
 50
270.0
  0
TEXT
  8
3
  40
120
  5
803A
  62
0
  72
0
  71
0
 10
3379.04
 20
7988.14
 30
0.000000
  1
1060
  0
POINT
  5
7FF7
  8
DEFPOINTS
  6
CONTINUOUS
 62
     0
 10
3227.7332409752448
 20
8669.9463193859738
 30
0.0
  0
POINT
  5
7FF8
  8
DEFPOINTS
  6
CONTINUOUS
 62
     0
 10
3227.7332409752448
 20
7609.9463193859729
 30
0.0
  0
POINT
  5
7FF9
  8
DEFPOINTS
  6
CONTINUOUS
 62
     0
 10
3719.038036975247
 20
7609.9463193859729
 30
0.0
  0
ENDBLK
  5
7D05
  8
0
  0
BLOCK
  8
0
  2
*D12
 70
     1
 10
0.0
 20
0.0
 30
0.0
  3
*D12
  1

  0
LINE
  5
7FFA
  8
3
  6
CONTINUOUS
 62
     0
 10
5823.7394544368044
 20
5296.2399822033703
 30
0.0
 11
5823.7394544368044
 21
5485.0601952033703
 31
0.0
  0
LINE
  5
7FFB
  8
3
  6
CONTINUOUS
 62
     0
 10
6573.7394544368026
 20
5296.2399822033703
 30
0.0
 11
6573.7394544368026
 21
5485.0601952033703
 31
0.0
  0
LINE
  5
7FFC
  8
3
  6
CONTINUOUS
 62
     0
 10
5903.7394544368026
 20
5445.0601952033712
 30
0.0
 11
6493.7394544368026
 21
5445.0601952033712
 31
0.0
  0
INSERT
  5
7FFD
  8
3
  6
CONTINUOUS
 62
     0
  2
_OPEN
 10
5823.7394544368044
 20
5445.0601952033712
 30
0.0
 41
80.0
 42
80.0
 43
80.0
 50
180.0
  0
INSERT
  5
7FFE
  8
3
  6
CONTINUOUS
 62
     0
  2
_OPEN
 10
6573.7394544368026
 20
5445.0601952033712
 30
0.0
 41
80.0
 42
80.0
 43
80.0
  0
TEXT
  8
3
  40
120
  5
803B
  62
0
  72
0
  71
0
 10
5858.03
 20
5332.66
 30
0.000000
  1
750
  0
POINT
  5
8000
  8
DEFPOINTS
  6
CONTINUOUS
 62
     0
 10
5823.7394544368044
 20
5276.2399822033713
 30
0.0
  0
POINT
  5
8001
  8
DEFPOINTS
  6
CONTINUOUS
 62
     0
 10
6573.7394544368026
 20
5276.2399822033713
 30
0.0
  0
POINT
  5
8002
  8
DEFPOINTS
  6
CONTINUOUS
 62
     0
 10
6573.7394544368026
 20
5445.0601952033712
 30
0.0
  0
ENDBLK
  5
7CFA
  8
0
  0
BLOCK
  8
0
  2
*D13
 70
     1
 10
0.0
 20
0.0
 30
0.0
  3
*D13
  1

  0
LINE
  5
8003
  8
3
  6
CONTINUOUS
 62
     0
 10
5518.7394544368026
 20
4840.0399822033714
 30
0.0
 11
5518.7394544368026
 21
5776.1294132033699
 31
0.0
  0
LINE
  5
8004
  8
3
  6
CONTINUOUS
 62
     0
 10
6198.7394544368044
 20
5666.2258492033698
 30
0.0
 11
6198.7394544368044
 21
5776.1294132033699
 31
0.0
  0
LINE
  5
8005
  8
3
  6
CONTINUOUS
 62
     0
 10
5598.7394544368026
 20
5736.1294132033699
 30
0.0
 11
6118.7394544368026
 21
5736.1294132033699
 31
0.0
  0
INSERT
  5
8006
  8
3
  6
CONTINUOUS
 62
     0
  2
_OPEN
 10
5518.7394544368026
 20
5736.1294132033699
 30
0.0
 41
80.0
 42
80.0
 43
80.0
 50
180.0
  0
INSERT
  5
8007
  8
3
  6
CONTINUOUS
 62
     0
  2
_OPEN
 10
6198.7394544368044
 20
5736.1294132033699
 30
0.0
 41
80.0
 42
80.0
 43
80.0
  0
TEXT
  8
3
  40
120
  5
803C
  62
0
  72
0
  71
0
 10
5570.17
 20
5723.73
 30
0.000000
  1
MAX
  0
TEXT
  8
3
  40
120
  5
803D
  62
0
  72
0
  71
0
 10
5570.17
 20
5567.73
 30
0.000000
  1
770
  0
POINT
  5
8009
  8
DEFPOINTS
  6
CONTINUOUS
 62
     0
 10
5518.7394544368026
 20
4820.0399822033714
 30
0.0
  0
POINT
  5
800A
  8
DEFPOINTS
  6
CONTINUOUS
 62
     0
 10
6198.7394544368044
 20
5646.2258492033698
 30
0.0
  0
POINT
  5
800B
  8
DEFPOINTS
  6
CONTINUOUS
 62
     0
 10
6198.7394544368044
 20
5736.1294132033699
 30
0.0
  0
ENDBLK
  5
7CEF
  8
0
  0
BLOCK
  8
0
  2
*D14
 70
     1
 10
0.0
 20
0.0
 30
0.0
  3
*D14
  1

  0
LINE
  5
7D8D
  8
0
  6
BYBLOCK
 62
     0
 10
6198.7394544368044
 20
5666.2258492033698
 30
0.0
 11
6198.7394544368044
 21
5776.6852672033701
 31
0.0
  0
LINE
  5
7D8E
  8
0
  6
BYBLOCK
 62
     0
 10
6676.7394544368026
 20
5123.3399822033689
 30
0.0
 11
6676.7394544368026
 21
5776.6852672033701
 31
0.0
  0
LINE
  5
7D8F
  8
0
  6
BYBLOCK
 62
     0
 10
6278.7394544368026
 20
5736.6852672033701
 30
0.0
 11
6596.7394544368044
 21
5736.6852672033701
 31
0.0
  0
TEXT
  5
7D90
  8
3
 62
     0
 10
6283.4537401510888
 20
5792.206660350821
 30
0.0
 40
120.0
  1
478
  0
INSERT
  5
7D91
  8
0
  6
BYBLOCK
 62
     0
  2
_OPEN
 10
6198.7394544368044
 20
5736.6852672033701
 30
0.0
 41
80.0
 42
80.0
 43
80.0
 50
180.0
  0
INSERT
  5
7D92
  8
0
  6
BYBLOCK
 62
     0
  2
_OPEN
 10
6676.7394544368026
 20
5736.6852672033701
 30
0.0
 41
80.0
 42
80.0
 43
80.0
  0
POINT
  5
7D93
  8
DEFPOINTS
  6
BYBLOCK
 62
     0
 10
6198.7394544368044
 20
5646.2258492033698
 30
0.0
  0
POINT
  5
7D94
  8
DEFPOINTS
  6
BYBLOCK
 62
     0
 10
6676.7394544368026
 20
5103.3399822033698
 30
0.0
  0
POINT
  5
7D95
  8
DEFPOINTS
  6
BYBLOCK
 62
     0
 10
6676.7394544368026
 20
5736.6852672033701
 30
0.0
  0
ENDBLK
  5
7D96
  8
0
  0
BLOCK
  8
0
  2
*D15
 70
     1
 10
0.0
 20
0.0
 30
0.0
  3
*D15
  1

  0
LINE
  5
800C
  8
3
  6
CONTINUOUS
 62
     0
 10
6696.7394544368026
 20
5053.3399822033698
 30
0.0
 11
7086.6996834368019
 21
5053.3399822033698
 31
0.0
  0
LINE
  5
800D
  8
3
  6
CONTINUOUS
 62
     0
 10
6696.7394544368026
 20
4053.3399822033698
 30
0.0
 11
7086.6996834368019
 21
4053.3399822033698
 31
0.0
  0
LINE
  5
800E
  8
3
  6
CONTINUOUS
 62
     0
 10
7046.6996834368028
 20
4973.3399822033698
 30
0.0
 11
7046.6996834368028
 21
4133.3399822033689
 31
0.0
  0
INSERT
  5
800F
  8
3
  6
CONTINUOUS
 62
     0
  2
_OPEN
 10
7046.6996834368028
 20
5053.3399822033698
 30
0.0
 41
80.0
 42
80.0
 43
80.0
 50
90.0
  0
INSERT
  5
8010
  8
3
  6
CONTINUOUS
 62
     0
  2
_OPEN
 10
7046.6996834368028
 20
4053.3399822033698
 30
0.0
 41
80.0
 42
80.0
 43
80.0
 50
270.0
  0
TEXT
  8
3
  40
120
  5
803E
  62
0
  72
0
  71
0
 10
6706.70
 20
4334.30
 30
0.000000
  1
φ1000
  0
POINT
  5
8012
  8
DEFPOINTS
  6
CONTINUOUS
 62
     0
 10
6676.7394544368026
 20
5053.3399822033698
 30
0.0
  0
POINT
  5
8013
  8
DEFPOINTS
  6
CONTINUOUS
 62
     0
 10
6676.7394544368026
 20
4053.3399822033698
 30
0.0
  0
POINT
  5
8014
  8
DEFPOINTS
  6
CONTINUOUS
 62
     0
 10
7046.6996834368028
 20
4053.3399822033698
 30
0.0
  0
ENDBLK
  5
7DAC
  8
0
  0
BLOCK
  8
0
  2
*D16
 70
     1
 10
0.0
 20
0.0
 30
0.0
  3
*D16
  1

  0
LINE
  5
8015
  8
3
  6
CONTINUOUS
 62
     0
 10
5581.7394544368026
 20
3239.3399822033698
 30
0.0
 11
5581.7394544368026
 21
2920.3583286022581
 31
0.0
  0
LINE
  5
8016
  8
3
  6
CONTINUOUS
 62
     0
 10
6198.7394544368044
 20
3205.9905562033709
 30
0.0
 11
6198.7394544368044
 21
2920.3583286022581
 31
0.0
  0
LINE
  5
8017
  8
3
  6
CONTINUOUS
 62
     0
 10
5661.7394544368044
 20
2960.358328602259
 30
0.0
 11
6118.7394544368026
 21
2960.358328602259
 31
0.0
  0
INSERT
  5
8018
  8
3
  6
CONTINUOUS
 62
     0
  2
_OPEN
 10
5581.7394544368026
 20
2960.358328602259
 30
0.0
 41
80.0
 42
80.0
 43
80.0
 50
180.0
  0
INSERT
  5
8019
  8
3
  6
CONTINUOUS
 62
     0
  2
_OPEN
 10
6198.7394544368044
 20
2960.358328602259
 30
0.0
 41
80.0
 42
80.0
 43
80.0
  0
TEXT
  8
3
  40
120
  5
803F
  62
0
  72
0
  71
0
 10
5695.88
 20
2847.96
 30
0.000000
  1
617
  0
POINT
  5
801B
  8
DEFPOINTS
  6
CONTINUOUS
 62
     0
 10
5581.7394544368026
 20
3259.3399822033689
 30
0.0
  0
POINT
  5
801C
  8
DEFPOINTS
  6
CONTINUOUS
 62
     0
 10
6198.7394544368044
 20
3225.99055620337
 30
0.0
  0
POINT
  5
801D
  8
DEFPOINTS
  6
CONTINUOUS
 62
     0
 10
6198.7394544368044
 20
2960.358328602259
 30
0.0
  0
ENDBLK
  5
7E60
  8
0
  0
BLOCK
  8
0
  2
*D17
 70
     1
 10
0.0
 20
0.0
 30
0.0
  3
*D17
  1

  0
LINE
  5
7E62
  8
0
  6
BYBLOCK
 62
     0
 10
6198.7394544368044
 20
3205.9905562033709
 30
0.0
 11
6198.7394544368044
 21
2920.3583286022581
 31
0.0
  0
LINE
  5
7E63
  8
0
  6
BYBLOCK
 62
     0
 10
6641.7394544368044
 20
3239.3399822033698
 30
0.0
 11
6641.7394544368044
 21
2920.3583286022581
 31
0.0
  0
LINE
  5
7E64
  8
0
  6
BYBLOCK
 62
     0
 10
6278.7394544368026
 20
2960.358328602259
 30
0.0
 11
6561.7394544368026
 21
2960.358328602259
 31
0.0
  0
TEXT
  5
7E65
  8
3
 62
     0
 10
6265.9537401510888
 20
3003.8281337791959
 30
0.0
 40
120.0
  1
443
  0
INSERT
  5
7E66
  8
0
  6
BYBLOCK
 62
     0
  2
_OPEN
 10
6198.7394544368044
 20
2960.358328602259
 30
0.0
 41
80.0
 42
80.0
 43
80.0
 50
180.0
  0
INSERT
  5
7E67
  8
0
  6
BYBLOCK
 62
     0
  2
_OPEN
 10
6641.7394544368044
 20
2960.358328602259
 30
0.0
 41
80.0
 42
80.0
 43
80.0
  0
POINT
  5
7E68
  8
DEFPOINTS
  6
BYBLOCK
 62
     0
 10
6198.7394544368044
 20
3225.99055620337
 30
0.0
  0
POINT
  5
7E69
  8
DEFPOINTS
  6
BYBLOCK
 62
     0
 10
6641.7394544368044
 20
3259.3399822033689
 30
0.0
  0
POINT
  5
7E6A
  8
DEFPOINTS
  6
BYBLOCK
 62
     0
 10
6641.7394544368044
 20
2960.358328602259
 30
0.0
  0
ENDBLK
  5
7E6B
  8
0
  0
BLOCK
  8
0
  2
*D18
 70
     1
 10
0.0
 20
0.0
 30
0.0
  3
*D18
  1

  0
LINE
  5
801E
  8
3
  6
CONTINUOUS
 62
     0
 10
3218.0279779752441
 20
4553.3399822033698
 30
0.0
 11
3899.7607717672131
 21
4553.3399822033698
 31
0.0
  0
LINE
  5
801F
  8
3
  6
CONTINUOUS
 62
     0
 10
3302.7332409752448
 20
3479.3399822033698
 30
0.0
 11
3899.7607717672131
 21
3479.3399822033698
 31
0.0
  0
LINE
  5
8020
  8
3
  6
CONTINUOUS
 62
     0
 10
3859.7607717672131
 20
4473.3399822033689
 30
0.0
 11
3859.7607717672131
 21
3559.3399822033689
 31
0.0
  0
INSERT
  5
8021
  8
3
  6
CONTINUOUS
 62
     0
  2
_OPEN
 10
3859.7607717672131
 20
4553.3399822033698
 30
0.0
 41
80.0
 42
80.0
 43
80.0
 50
90.0
  0
INSERT
  5
8022
  8
3
  6
CONTINUOUS
 62
     0
  2
_OPEN
 10
3859.7607717672131
 20
3479.3399822033698
 30
0.0
 41
80.0
 42
80.0
 43
80.0
 50
270.0
  0
TEXT
  8
3
  40
120
  5
8040
  62
0
  72
0
  71
0
 10
3519.76
 20
3833.39
 30
0.000000
  1
1074
  0
POINT
  5
8024
  8
DEFPOINTS
  6
CONTINUOUS
 62
     0
 10
3198.0279779752432
 20
4553.3399822033698
 30
0.0
  0
POINT
  5
8025
  8
DEFPOINTS
  6
CONTINUOUS
 62
     0
 10
3282.7332409752448
 20
3479.3399822033698
 30
0.0
  0
POINT
  5
8026
  8
DEFPOINTS
  6
CONTINUOUS
 62
     0
 10
3859.7607717672131
 20
3479.3399822033698
 30
0.0
  0
ENDBLK
  5
7E1E
  8
0
  0
BLOCK
  8
0
  2
*D19
 70
     1
 10
0.0
 20
0.0
 30
0.0
  3
*D19
  1

  0
LINE
  5
8027
  8
3
 62
     0
 10
3282.7332409752448
 20
4582.3399822033698
 30
0.0
 11
3282.7332409752448
 21
5740.4038396589776
 31
0.0
  0
LINE
  5
8028
  8
3
 62
     0
 10
1107.7332409752451
 20
3488.3399822033698
 30
0.0
 11
1107.7332409752451
 21
5740.4038396589776
 31
0.0
  0
LINE
  5
8029
  8
3
 62
     0
 10
3202.7332409752448
 20
5700.4038396589776
 30
0.0
 11
1187.7332409752451
 21
5700.4038396589776
 31
0.0
  0
INSERT
  5
802A
  8
3
 62
     0
  2
_OPEN
 10
3282.7332409752448
 20
5700.4038396589776
 30
0.0
 41
80.0
 42
80.0
 43
80.0
  0
INSERT
  5
802B
  8
3
 62
     0
  2
_OPEN
 10
1107.7332409752451
 20
5700.4038396589776
 30
0.0
 41
80.0
 42
80.0
 43
80.0
 50
180.0
  0
TEXT
  8
3
  40
120
  5
8041
  62
0
  72
0
  71
0
 10
1962.95
 20
5588.00
 30
0.000000
  1
2175
  0
POINT
  5
802D
  8
DEFPOINTS
 62
     0
 10
3282.7332409752448
 20
4562.3399822033689
 30
0.0
  0
POINT
  5
802E
  8
DEFPOINTS
 62
     0
 10
1107.7332409752451
 20
3468.3399822033698
 30
0.0
  0
POINT
  5
802F
  8
DEFPOINTS
 62
     0
 10
1107.7332409752451
 20
5700.4038396589776
 30
0.0
  0
ENDBLK
  5
7E83
  8
0
  0
ENDSEC
  0
SECTION
  2
ENTITIES
  0
LINE
  5
7A76
  8
1
  6
CONTINUOUS
 10
3193.7332409752448
 20
4509.3399822033689
 30
0.0
 11
3282.7332409752448
 21
4509.3399822033689
 31
0.0
  0
POLYLINE
  5
7A77
  8
1
  6
CONTINUOUS
 66
     1
 10
0.0
 20
0.0
 30
0.0
  0
VERTEX
  5
7F8E
  8
1
  6
CONTINUOUS
 10
3282.7332409752448
 20
3479.3399822033698
 30
0.0
  0
VERTEX
  5
7F8F
  8
1
  6
CONTINUOUS
 10
2602.7332409752448
 20
3537.3399822033689
 30
0.0
 42
-0.4
  0
VERTEX
  5
7F90
  8
1
  6
CONTINUOUS
 10
1731.8332409752441
 20
4479.3399822033689
 30
0.0
 42
-0.4
  0
VERTEX
  5
7F91
  8
1
  6
CONTINUOUS
 10
2608.3332409752438
 20
5272.2399822033703
 30
0.0
 42
-0.4
  0
VERTEX
  5
7F92
  8
1
  6
CONTINUOUS
 10
3203.9332409752442
 20
4613.8399822033689
 30
0.0
  0
VERTEX
  5
7F93
  8
1
  6
CONTINUOUS
 10
3193.7332409752448
 20
4509.3399822033689
 30
0.0
 42
-0.4
  0
SEQEND
  5
7F94
  8
1
  6
CONTINUOUS
  0
LINE
  5
7A7F
  8
1
  6
CONTINUOUS
 10
3227.7332409752448
 20
3343.3399822033698
 30
0.0
 11
1107.7332409752451
 21
3343.3399822033698
 31
0.0
  0
LINE
  5
7A80
  8
1
  6
CONTINUOUS
 10
3227.7332409752448
 20
3468.3399822033698
 30
0.0
 11
1107.7332409752451
 21
3468.3399822033698
 31
0.0
  0
LINE
  5
7A81
  8
1
  6
CONTINUOUS
 10
3227.7332409752448
 20
3259.3399822033689
 30
0.0
 11
1107.7332409752451
 21
3259.3399822033689
 31
0.0
  0
LINE
  5
7A82
  8
1
  6
CONTINUOUS
 10
3227.7332409752448
 20
3324.3399822033698
 30
0.0
 11
1107.7332409752451
 21
3324.3399822033698
 31
0.0
  0
LINE
  5
7A83
  8
1
  6
CONTINUOUS
 10
1436.5332409752441
 20
3619.0399822033701
 30
0.0
 11
2688.8332409752438
 21
4418.4399822033702
 31
0.0
  0
LINE
  5
7A84
  8
1
  6
CONTINUOUS
 10
1490.3332409752429
 20
3534.739982203369
 30
0.0
 11
2742.6332409752449
 21
4334.13998220337
 31
0.0
  0
LINE
  5
7A85
  8
1
  6
CONTINUOUS
 10
1261.8332409752429
 20
3862.6399822033709
 30
0.0
 11
2445.6332409752449
 21
4760.4399822033702
 31
0.0
  0
LINE
  5
7A86
  8
1
  6
CONTINUOUS
 10
1322.3332409752429
 20
3782.9399822033702
 30
0.0
 11
2506.033240975245
 21
4680.7399822033703
 31
0.0
  0
ARC
  5
7A87
  8
1
  6
CONTINUOUS
 10
1382.7332409752451
 20
3703.3399822033698
 30
0.0
 40
182.5
 50
326.60000000000002
 51
213.40000000000001
  0
LINE
  5
7A88
  8
1
  6
CONTINUOUS
 10
1172.7332409752451
 20
3523.3399822033689
 30
0.0
 11
1592.7332409752451
 21
3523.3399822033689
 31
0.0
  0
CIRCLE
  5
7A89
  8
1
  6
CONTINUOUS
 10
1382.7332409752451
 20
3703.3399822033698
 30
0.0
 40
100.0
  0
LINE
  5
7A8A
  8
2
  6
CENTER
 10
1277.7332409752451
 20
3703.3399822033698
 30
0.0
 11
1487.7332409752451
 21
3703.3399822033698
 31
0.0
  0
ARC
  5
7A8B
  8
1
  6
CONTINUOUS
 10
1382.7332409752451
 20
3703.3399822033698
 30
0.0
 40
200.0
 50
127.2
 51
302.60000000000002
  0
LINE
  5
7A8C
  8
2
  6
CENTER
 10
1382.7332409752451
 20
3598.3399822033689
 30
0.0
 11
1382.7332409752451
 21
3808.3399822033689
 31
0.0
  0
LINE
  5
7A8D
  8
1
  6
CONTINUOUS
 10
1107.7332409752451
 20
3468.3399822033698
 30
0.0
 11
1107.7332409752451
 21
3343.3399822033698
 31
0.0
  0
LINE
  5
7A8E
  8
1
  6
CONTINUOUS
 10
1220.7332409752451
 20
3593.3399822033698
 30
0.0
 11
1230.3332409752441
 21
3602.8399822033698
 31
0.0
  0
LINE
  5
7A8F
  8
1
  6
CONTINUOUS
 10
1220.7332409752451
 20
3523.3399822033689
 30
0.0
 11
1220.7332409752451
 21
3593.3399822033698
 31
0.0
  0
LINE
  5
7A90
  8
1
  6
CONTINUOUS
 10
1157.7332409752451
 20
3468.3399822033698
 30
0.0
 11
1172.7332409752451
 21
3523.3399822033689
 31
0.0
  0
LINE
  5
7A91
  8
1
  6
CONTINUOUS
 10
1107.7332409752451
 20
3324.3399822033698
 30
0.0
 11
1107.7332409752451
 21
3259.3399822033689
 31
0.0
  0
LINE
  5
7A92
  8
1
  6
CONTINUOUS
 10
1544.7332409752451
 20
3593.3399822033698
 30
0.0
 11
1535.1332409752449
 21
3602.8399822033698
 31
0.0
  0
LINE
  5
7A93
  8
1
  6
CONTINUOUS
 10
1544.7332409752451
 20
3523.3399822033689
 30
0.0
 11
1544.7332409752451
 21
3593.3399822033698
 31
0.0
  0
LINE
  5
7A94
  8
1
  6
CONTINUOUS
 10
1607.7332409752451
 20
3468.3399822033698
 30
0.0
 11
1592.7332409752451
 21
3523.3399822033689
 31
0.0
  0
LINE
  5
7A95
  8
2
  6
CENTER
 10
2602.7332409752448
 20
3192.178885203371
 30
0.0
 11
2602.7332409752448
 21
5369.6382412033699
 31
0.0
  0
CIRCLE
  5
7A96
  8
1
  6
CONTINUOUS
 10
2602.7332409752448
 20
4553.3399822033698
 30
0.0
 40
160.0
  0
CIRCLE
  5
7A97
  8
1
  6
CONTINUOUS
 10
2602.7332409752448
 20
4553.3399822033698
 30
0.0
 40
500.0
  0
CIRCLE
  5
7A98
  8
1
  6
CONTINUOUS
 10
2602.7332409752448
 20
4553.3399822033698
 30
0.0
 40
550.0
  0
ARC
  5
7A99
  8
1
  6
CONTINUOUS
 10
2602.7332409752448
 20
4553.3399822033698
 30
0.0
 40
260.0
 50
302.60000000000002
 51
127.2
  0
LINE
  5
7A9A
  8
2
  6
CENTER
 10
6691.6287634368027
 20
4553.3399822033698
 30
0.0
 11
5421.4268774368029
 21
4553.3399822033698
 31
0.0
  0
LINE
  5
7A9B
  8
1
  6
CONTINUOUS
 10
5518.7394544368026
 20
4820.0399822033714
 30
0.0
 11
5718.7394544368026
 21
4820.0399822033714
 31
0.0
  0
LINE
  5
7A9C
  8
1
  6
CONTINUOUS
 10
5518.7394544368026
 20
3503.3399822033698
 30
0.0
 11
5718.7394544368026
 21
3503.3399822033698
 31
0.0
  0
LINE
  5
7A9D
  8
1
  6
CONTINUOUS
 10
3282.7332409752448
 20
4562.3399822033689
 30
0.0
 11
3282.7332409752448
 21
3426.3399822033689
 31
0.0
  0
LINE
  5
7A9E
  8
1
  6
CONTINUOUS
 10
5518.7394544368026
 20
4820.0399822033714
 30
0.0
 11
5518.7394544368026
 21
3503.3399822033698
 31
0.0
  0
LINE
  5
7A9F
  8
1
  6
CONTINUOUS
 10
3232.7332409752448
 20
4509.3399822033689
 30
0.0
 11
3232.7332409752448
 21
3479.3399822033698
 31
0.0
  0
LINE
  5
7AA0
  8
1
  6
CONTINUOUS
 10
3227.7332409752448
 20
3468.3399822033698
 30
0.0
 11
3227.7332409752448
 21
3343.3399822033698
 31
0.0
  0
LINE
  5
7AA1
  8
1
  6
CONTINUOUS
 10
3227.7332409752448
 20
3324.3399822033698
 30
0.0
 11
3227.7332409752448
 21
3259.3399822033689
 31
0.0
  0
LINE
  5
7AA4
  8
1
  6
CONTINUOUS
 10
5718.7394544368026
 20
4820.0399822033714
 30
0.0
 11
5718.7394544368026
 21
3503.3399822033698
 31
0.0
  0
LINE
  5
7AA5
  8
1
  6
CONTINUOUS
 10
6573.7394544368026
 20
5276.2399822033713
 30
0.0
 11
6573.7394544368026
 21
3468.3399822033698
 31
0.0
  0
LINE
  5
7AA6
  8
1
  6
CONTINUOUS
 10
5823.7394544368044
 20
5276.2399822033713
 30
0.0
 11
5823.7394544368044
 21
3468.3399822033698
 31
0.0
  0
LINE
  5
7AA7
  8
1
  6
CONTINUOUS
 10
6676.7394544368026
 20
5103.3399822033698
 30
0.0
 11
6676.7394544368026
 21
4003.3399822033698
 31
0.0
  0
LINE
  5
7AA8
  8
1
  6
CONTINUOUS
 10
5568.7394544368026
 20
4720.0399822033696
 30
0.0
 11
5568.7394544368026
 21
4386.5399822033714
 31
0.0
  0
LINE
  5
7AA9
  8
1
  6
CONTINUOUS
 10
5668.7394544368026
 20
4720.0399822033696
 30
0.0
 11
5668.7394544368026
 21
4386.5399822033714
 31
0.0
  0
LINE
  5
7AAA
  8
1
  6
CONTINUOUS
 10
6573.7394544368026
 20
4509.3399822033689
 30
0.0
 11
5823.7394544368044
 21
4509.3399822033689
 31
0.0
  0
LINE
  5
7AAB
  8
1
  6
CONTINUOUS
 10
6641.7394544368044
 20
3468.3399822033698
 30
0.0
 11
5581.7394544368026
 21
3468.3399822033698
 31
0.0
  0
LINE
  5
7AAC
  8
1
  6
CONTINUOUS
 10
6641.7394544368044
 20
3343.3399822033698
 30
0.0
 11
5581.7394544368026
 21
3343.3399822033698
 31
0.0
  0
LINE
  5
7AAD
  8
1
  6
CONTINUOUS
 10
6573.7394544368026
 20
3479.3399822033698
 30
0.0
 11
5823.7394544368044
 21
3479.3399822033698
 31
0.0
  0
LINE
  5
7AAE
  8
1
  6
CONTINUOUS
 10
5823.7394544368044
 20
4509.3399822033689
 30
0.0
 11
6573.7394544368026
 21
3479.3399822033698
 31
0.0
  0
LINE
  5
7AAF
  8
1
  6
CONTINUOUS
 10
5823.7394544368044
 20
3479.3399822033698
 30
0.0
 11
6573.7394544368026
 21
4509.3399822033689
 31
0.0
  0
LINE
  5
7AB0
  8
1
  6
CONTINUOUS
 10
6641.7394544368044
 20
3259.3399822033689
 30
0.0
 11
5581.7394544368026
 21
3259.3399822033689
 31
0.0
  0
LINE
  5
7AB1
  8
1
  6
CONTINUOUS
 10
6641.7394544368044
 20
3324.3399822033698
 30
0.0
 11
5581.7394544368026
 21
3324.3399822033698
 31
0.0
  0
LINE
  5
7AB2
  8
1
  6
CONTINUOUS
 10
5568.7394544368026
 20
3803.3399822033698
 30
0.0
 11
5568.7394544368026
 21
3603.3399822033698
 31
0.0
  0
LINE
  5
7AB3
  8
1
  6
CONTINUOUS
 10
5668.7394544368026
 20
3803.3399822033698
 30
0.0
 11
5668.7394544368026
 21
3603.3399822033698
 31
0.0
  0
LINE
  5
7AB4
  8
1
  6
CONTINUOUS
 10
5581.7394544368026
 20
3468.3399822033698
 30
0.0
 11
5581.7394544368026
 21
3343.3399822033698
 31
0.0
  0
LINE
  5
7AB5
  8
1
  6
CONTINUOUS
 10
5568.7394544368026
 20
3603.3399822033698
 30
0.0
 11
5668.7394544368026
 21
3603.3399822033698
 31
0.0
  0
POINT
  5
7AB6
  8
1
  6
CONTINUOUS
 10
5581.7394544368026
 20
3324.3399822033698
 30
0.0
  0
LINE
  5
7AB7
  8
1
  6
CONTINUOUS
 10
5581.7394544368026
 20
3324.3399822033698
 30
0.0
 11
5581.7394544368026
 21
3259.3399822033689
 31
0.0
  0
LINE
  5
7AB8
  8
1
  6
CONTINUOUS
 10
5568.7394544368026
 20
3803.3399822033698
 30
0.0
 11
5668.7394544368026
 21
3803.3399822033698
 31
0.0
  0
LINE
  5
7AB9
  8
1
  6
CONTINUOUS
 10
5568.7394544368026
 20
4386.5399822033714
 30
0.0
 11
5668.7394544368026
 21
4386.5399822033714
 31
0.0
  0
LINE
  5
7ABA
  8
1
  6
CONTINUOUS
 10
5823.7394544368044
 20
4536.0399822033696
 30
0.0
 11
5668.7394544368026
 21
4536.0399822033696
 31
0.0
  0
LINE
  5
7ABB
  8
1
  6
CONTINUOUS
 10
5823.7394544368044
 20
3686.0399822033701
 30
0.0
 11
5668.7394544368026
 21
3686.0399822033701
 31
0.0
  0
LINE
  5
7ABC
  8
1
  6
CONTINUOUS
 10
5823.7394544368044
 20
3734.0399822033701
 30
0.0
 11
5668.7394544368026
 21
3734.0399822033701
 31
0.0
  0
LINE
  5
7ABD
  8
1
  6
CONTINUOUS
 10
6641.7394544368044
 20
3468.3399822033698
 30
0.0
 11
6641.7394544368044
 21
3343.3399822033698
 31
0.0
  0
LINE
  5
7ABE
  8
1
  6
CONTINUOUS
 10
6641.7394544368044
 20
3324.3399822033698
 30
0.0
 11
6641.7394544368044
 21
3259.3399822033689
 31
0.0
  0
LINE
  5
7ABF
  8
1
  6
CONTINUOUS
 10
6676.7394544368026
 20
4053.3399822033698
 30
0.0
 11
6573.7394544368026
 21
4053.3399822033698
 31
0.0
  0
LINE
  5
7AC0
  8
1
  6
CONTINUOUS
 10
6573.7394544368026
 20
5276.2399822033713
 30
0.0
 11
5823.7394544368044
 21
5276.2399822033713
 31
0.0
  0
LINE
  5
7AC1
  8
1
  6
CONTINUOUS
 10
5568.7394544368026
 20
4720.0399822033696
 30
0.0
 11
5668.7394544368026
 21
4720.0399822033696
 31
0.0
  0
LINE
  5
7AC2
  8
1
  6
CONTINUOUS
 10
5823.7394544368044
 20
4584.0399822033696
 30
0.0
 11
5668.7394544368026
 21
4584.0399822033696
 31
0.0
  0
LINE
  5
7AC3
  8
1
  6
CONTINUOUS
 10
6676.7394544368026
 20
5053.3399822033698
 30
0.0
 11
6573.7394544368026
 21
5053.3399822033698
 31
0.0
  0
LINE
  5
7AC4
  8
1
  6
CONTINUOUS
 10
3227.7332409752448
 20
7609.9463193859729
 30
0.0
 11
2762.7332409752448
 21
7609.9463193859729
 31
0.0
  0
LINE
  5
7AC5
  8
1
  6
CONTINUOUS
 10
3227.7332409752448
 20
8669.9463193859738
 30
0.0
 11
3102.7332409752448
 21
8669.9463193859738
 31
0.0
  0
LINE
  5
7AC6
  8
1
  6
CONTINUOUS
 10
3282.7332409752448
 20
8601.9463193859738
 30
0.0
 11
1731.8332409752441
 21
8601.9463193859738
 31
0.0
  0
LINE
  5
7AC7
  8
1
  6
CONTINUOUS
 10
3282.7332409752448
 20
7851.9463193859729
 30
0.0
 11
1731.8332409752441
 21
7851.9463193859729
 31
0.0
  0
LINE
  5
7AC8
  8
1
  6
CONTINUOUS
 10
2442.7332409752448
 20
7609.9463193859729
 30
0.0
 11
1482.7332409752451
 21
7609.9463193859729
 31
0.0
  0
LINE
  5
7AC9
  8
1
  6
CONTINUOUS
 10
2102.7332409752448
 20
8669.9463193859738
 30
0.0
 11
1107.7332409752451
 21
8669.9463193859738
 31
0.0
  0
LINE
  5
7ACA
  8
1
  6
CONTINUOUS
 10
2862.7332409752448
 20
7746.9463193859738
 30
0.0
 11
1182.7332409752451
 21
7746.9463193859738
 31
0.0
  0
LINE
  5
7ACB
  8
1
  6
CONTINUOUS
 10
2862.7332409752448
 20
7546.9463193859729
 30
0.0
 11
1182.7332409752451
 21
7546.9463193859729
 31
0.0
  0
LINE
  5
7ACC
  8
1
  6
CONTINUOUS
 10
1200.2332409752451
 20
7770.3463193859752
 30
0.0
 11
1565.2332409752451
 21
7770.3463193859752
 31
0.0
  0
LINE
  5
7ACD
  8
1
  6
CONTINUOUS
 10
1200.2332409752451
 20
8331.8463193859752
 30
0.0
 11
1565.2332409752451
 21
8331.8463193859752
 31
0.0
  0
LINE
  5
7ACE
  8
1
  6
CONTINUOUS
 10
1482.7332409752451
 20
7596.9463193859738
 30
0.0
 11
1282.7332409752451
 21
7596.9463193859738
 31
0.0
  0
LINE
  5
7ACF
  8
1
  6
CONTINUOUS
 10
1482.7332409752451
 20
7696.9463193859738
 30
0.0
 11
1282.7332409752451
 21
7696.9463193859738
 31
0.0
  0
LINE
  5
7AD0
  8
1
  6
CONTINUOUS
 10
1200.2332409752451
 20
7770.3463193859752
 30
0.0
 11
1200.2332409752451
 21
8331.8463193859752
 31
0.0
  0
LINE
  5
7AD1
  8
1
  6
CONTINUOUS
 10
1107.7332409752451
 20
8669.9463193859738
 30
0.0
 11
1107.7332409752451
 21
7609.9463193859729
 31
0.0
  0
LINE
  5
7AD2
  8
1
  6
CONTINUOUS
 10
1282.7332409752451
 20
7609.9463193859729
 30
0.0
 11
1107.7332409752451
 21
7609.9463193859729
 31
0.0
  0
LINE
  5
7AD3
  8
1
  6
CONTINUOUS
 10
1358.7332409752451
 20
7696.9463193859738
 30
0.0
 11
1358.7332409752451
 21
7770.3463193859752
 31
0.0
  0
LINE
  5
7AD4
  8
1
  6
CONTINUOUS
 10
1182.7332409752451
 20
7546.9463193859729
 30
0.0
 11
1182.7332409752451
 21
7746.9463193859738
 31
0.0
  0
LINE
  5
7AD5
  8
1
  6
CONTINUOUS
 10
1282.7332409752451
 20
7596.9463193859738
 30
0.0
 11
1282.7332409752451
 21
7696.9463193859738
 31
0.0
  0
LINE
  5
7AD6
  8
1
  6
CONTINUOUS
 10
1565.2332409752451
 20
7770.3463193859752
 30
0.0
 11
1565.2332409752451
 21
8331.8463193859752
 31
0.0
  0
LINE
  5
7AD7
  8
1
  6
CONTINUOUS
 10
1731.8332409752441
 20
7851.9463193859729
 30
0.0
 11
1731.8332409752441
 21
8601.9463193859738
 31
0.0
  0
LINE
  5
7AD8
  8
1
  6
CONTINUOUS
 10
1406.7332409752451
 20
7696.9463193859738
 30
0.0
 11
1406.7332409752451
 21
7770.3463193859752
 31
0.0
  0
LINE
  5
7AD9
  8
1
  6
CONTINUOUS
 10
1482.7332409752451
 20
7596.9463193859738
 30
0.0
 11
1482.7332409752451
 21
7696.9463193859738
 31
0.0
  0
LINE
  5
7ADA
  8
1
  6
CONTINUOUS
 10
2762.7332409752448
 20
7696.9463193859738
 30
0.0
 11
2442.7332409752448
 21
7696.9463193859738
 31
0.0
  0
LINE
  5
7ADB
  8
1
  6
CONTINUOUS
 10
2762.7332409752448
 20
7596.9463193859738
 30
0.0
 11
2442.7332409752448
 21
7596.9463193859738
 31
0.0
  0
LINE
  5
7ADC
  8
1
  6
CONTINUOUS
 10
3152.7332409752448
 20
8704.9463193859738
 30
0.0
 11
2052.7332409752448
 21
8704.9463193859738
 31
0.0
  0
LINE
  5
7ADD
  8
1
  6
CONTINUOUS
 10
2442.7332409752448
 20
7596.9463193859738
 30
0.0
 11
2442.7332409752448
 21
7696.9463193859738
 31
0.0
  0
LINE
  5
7ADE
  8
1
  6
CONTINUOUS
 10
2578.7332409752448
 20
7696.9463193859738
 30
0.0
 11
2578.7332409752448
 21
7851.9463193859729
 31
0.0
  0
LINE
  5
7ADF
  8
1
  6
CONTINUOUS
 10
2102.7332409752448
 20
8601.9463193859738
 30
0.0
 11
2102.7332409752448
 21
8704.9463193859738
 31
0.0
  0
LINE
  5
7AE0
  8
1
  6
CONTINUOUS
 10
2862.7332409752448
 20
7546.9463193859729
 30
0.0
 11
2862.7332409752448
 21
7746.9463193859738
 31
0.0
  0
LINE
  5
7AE1
  8
1
  6
CONTINUOUS
 10
2762.7332409752448
 20
7596.9463193859738
 30
0.0
 11
2762.7332409752448
 21
7696.9463193859738
 31
0.0
  0
LINE
  5
7AE2
  8
1
  6
CONTINUOUS
 10
2626.7332409752448
 20
7696.9463193859738
 30
0.0
 11
2626.7332409752448
 21
7851.9463193859729
 31
0.0
  0
LINE
  5
7AE3
  8
1
  6
CONTINUOUS
 10
3102.7332409752448
 20
8601.9463193859738
 30
0.0
 11
3102.7332409752448
 21
8704.9463193859738
 31
0.0
  0
LINE
  5
7AE4
  8
1
  6
CONTINUOUS
 10
3232.7332409752448
 20
7851.9463193859729
 30
0.0
 11
3232.7332409752448
 21
8601.9463193859738
 31
0.0
  0
LINE
  5
7AE5
  8
1
  6
CONTINUOUS
 10
3282.7332409752448
 20
7801.9463193859729
 30
0.0
 11
3282.7332409752448
 21
8651.9463193859738
 31
0.0
  0
LINE
  5
7AE6
  8
1
  6
CONTINUOUS
 10
3227.7332409752448
 20
7851.9463193859729
 30
0.0
 11
3227.7332409752448
 21
7609.9463193859729
 31
0.0
  0
LINE
  5
7AE7
  8
1
  6
CONTINUOUS
 10
3227.7332409752448
 20
8669.9463193859738
 30
0.0
 11
3227.7332409752448
 21
8601.9463193859738
 31
0.0
  0
DIMENSION
  5
7AFB
  8
3
  6
CONTINUOUS
  2
*D1
 10
2602.7332409752448
 20
2947.0692184942382
 30
0.0
 11
1811.881216975243
 21
2947.0692184942382
 31
0.0
 70
   128
 13
1107.7332409752451
 23
3259.3399822033689
 33
0.0
 14
2602.7332409752448
 24
3192.178885203371
 34
0.0
1001
ACAD
1000
DSTYLE
1002
{
1070
   287
1070
     3
1070
   287
1070
     3
1070
    40
1040
40.0
1070
   143
1040
0.039
1070
   172
1070
     1
1070
   271
1070
     0
1070
   279
1070
     0
1070
   288
1070
     1
1002
}
  0
DIMENSION
  5
7B07
  8
3
  6
CONTINUOUS
  2
*D2
 10
3227.7332409752448
 20
2947.0692184942382
 30
0.0
 11
2915.2332409752448
 21
3047.0692184942382
 31
0.0
 70
     0
 13
2602.7332409752448
 23
3192.178885203371
 33
0.0
 14
3227.7332409752448
 24
3259.3399822033689
 34
0.0
1001
ACAD
1000
DSTYLE
1002
{
1070
   287
1070
     3
1070
   287
1070
     3
1070
    40
1040
40.0
1070
   143
1040
0.039
1070
   172
1070
     1
1070
   271
1070
     0
1070
   279
1070
     0
1070
   288
1070
     1
1002
}
  0
DIMENSION
  5
7B14
  8
3
  6
CONTINUOUS
  2
*D3
 10
3640.7383089752439
 20
3479.3399822033698
 30
0.0
 11
3640.7383089752429
 21
4018.2038032033711
 31
0.0
 70
   128
 13
3282.7332409752448
 23
4509.3399822033689
 33
0.0
 14
3282.7332409752448
 24
3479.3399822033698
 34
0.0
 50
90.0
1001
ACAD
1000
DSTYLE
1002
{
1070
   287
1070
     3
1070
   287
1070
     3
1070
    40
1040
40.0
1070
   143
1040
0.039
1070
   172
1070
     1
1070
   271
1070
     0
1070
   279
1070
     0
1070
   288
1070
     1
1002
}
  0
DIMENSION
  5
7B21
  8
3
  6
CONTINUOUS
  2
*D4
 10
4080.6380013329031
 20
4553.3399822033698
 30
0.0
 11
4080.6380013329021
 21
4999.0542679176551
 31
0.0
 70
   128
 13
2608.3332409752438
 23
5273.3399822033698
 33
0.0
 14
3198.0279769752451
 24
4553.3399822033698
 34
0.0
 50
90.0
1001
ACAD
1000
DSTYLE
1002
{
1070
   287
1070
     3
1070
   287
1070
     3
1070
    40
1040
40.0
1070
   143
1040
0.039
1070
   172
1070
     1
1070
   271
1070
     0
1070
   279
1070
     0
1070
   288
1070
     1
1002
}
  0
DIMENSION
  5
7B2D
  8
3
  6
CONTINUOUS
  2
*D5
 10
4080.6380013329021
 20
3343.3399822033698
 30
0.0
 11
3980.6380013329008
 21
3948.3399822033698
 31
0.0
 70
     0
 13
3198.0279769752451
 23
4553.3399822033698
 33
0.0
 14
3227.7332409752448
 24
3343.3399822033698
 34
0.0
 50
90.0
1001
ACAD
1000
DSTYLE
1002
{
1070
   287
1070
     3
1070
   287
1070
     3
1070
    40
1040
40.0
1070
   143
1040
0.039
1070
   172
1070
     1
1070
   271
1070
     0
1070
   279
1070
     0
1070
   288
1070
     1
1002
}
  0
DIMENSION
  5
7B3D
  8
3
  6
CONTINUOUS
  2
*D6
 10
4080.6380013329031
 20
3259.3399822033689
 30
0.0
 11
4080.6380013329021
 21
2959.3399822033698
 31
0.0
 70
   128
 13
3227.7332409752448
 23
3343.3399822033698
 33
0.0
 14
3227.7332409752448
 24
3259.3399822033689
 34
0.0
 50
90.0
1001
ACAD
1000
DSTYLE
1002
{
1070
   287
1070
     3
1070
   287
1070
     3
1070
    40
1040
40.0
1070
   143
1040
0.039
1070
   172
1070
     1
1070
   271
1070
     0
1070
   279
1070
     0
1070
   288
1070
     1
1002
}
  0
DIMENSION
  5
7B64
  8
3
  6
CONTINUOUS
  2
*D7
 10
4323.4428305683059
 20
3259.3399822033689
 30
0.0
 11
4323.442830568305
 21
4265.1344382033712
 31
0.0
 70
   128
 13
2602.7332409752448
 23
5273.3399822033698
 33
0.0
 14
3227.7332409752448
 24
3259.3399822033689
 34
0.0
 50
90.0
1001
ACAD
1000
DSTYLE
1002
{
1070
   287
1070
     3
1070
   287
1070
     3
1070
    40
1040
40.0
1070
   143
1040
0.039
1070
   172
1070
     1
1070
   271
1070
     0
1070
   279
1070
     0
1070
   288
1070
     1
1002
}
  0
DIMENSION
  5
7B71
  8
3
  6
CONTINUOUS
  2
*D8
 10
2602.7332409752448
 20
5445.6157712033701
 30
0.0
 11
2169.8226999752442
 21
5445.6157712033701
 31
0.0
 70
   128
 13
1734.7332409752451
 23
4553.3399822033698
 33
0.0
 14
2602.7332409752448
 24
5272.3653442033701
 34
0.0
1001
ACAD
1000
DSTYLE
1002
{
1070
   287
1070
     3
1070
   287
1070
     3
1070
    40
1040
40.0
1070
   143
1040
0.039
1070
   172
1070
     1
1070
   271
1070
     0
1070
   279
1070
     0
1070
   288
1070
     1
1002
}
  0
DIMENSION
  5
7B7D
  8
3
  6
CONTINUOUS
  2
*D9
 10
3282.7332409752448
 20
5445.6157712033701
 30
0.0
 11
2942.7332409752448
 21
5545.6157712033701
 31
0.0
 70
     0
 13
2602.7332409752448
 23
5272.3653442033701
 33
0.0
 14
3282.7332409752448
 24
4562.3399822033689
 34
0.0
1001
ACAD
1000
DSTYLE
1002
{
1070
   287
1070
     3
1070
   287
1070
     3
1070
    40
1040
40.0
1070
   143
1040
0.039
1070
   172
1070
     1
1070
   271
1070
     0
1070
   279
1070
     0
1070
   288
1070
     1
1002
}
  0
LINE
  5
7B7E
  8
2
  6
CENTER
 10
2602.7332409752448
 20
7449.6885843859736
 30
0.0
 11
2602.7332409752448
 21
8774.4509393859753
 31
0.0
  0
DIMENSION
  5
7B8B
  8
3
  6
CONTINUOUS
  2
*D10
 10
3227.7332409752448
 20
7120.0676383859754
 30
0.0
 11
2248.1223749752439
 21
7120.0676383859754
 31
0.0
 70
   128
 13
1107.7332409752451
 23
7609.9463193859729
 33
0.0
 14
3227.7332409752448
 24
7609.9463193859729
 34
0.0
1001
ACAD
1000
DSTYLE
1002
{
1070
   287
1070
     3
1070
   287
1070
     3
1070
    40
1040
40.0
1070
   143
1040
0.039
1070
   172
1070
     1
1070
   271
1070
     0
1070
   279
1070
     0
1070
   288
1070
     1
1002
}
  0
DIMENSION
  5
7B98
  8
3
  6
CONTINUOUS
  2
*D11
 10
3719.038036975247
 20
7609.9463193859729
 30
0.0
 11
3719.0380369752452
 21
8200.5425193859737
 31
0.0
 70
   128
 13
3227.7332409752448
 23
8669.9463193859738
 33
0.0
 14
3227.7332409752448
 24
7609.9463193859729
 34
0.0
 50
90.0
1001
ACAD
1000
DSTYLE
1002
{
1070
   287
1070
     3
1070
   287
1070
     3
1070
    40
1040
40.0
1070
   143
1040
0.039
1070
   172
1070
     1
1070
   271
1070
     0
1070
   279
1070
     0
1070
   288
1070
     1
1002
}
  0
LINE
  5
7B99
  8
2
  6
CENTER
 10
1659.1263539752431
 20
8226.9463193859738
 30
0.0
 11
3333.132399975244
 21
8226.9463193859738
 31
0.0
  0
LINE
  5
7B9A
  8
2
  6
CENTER
 10
6198.7394544368044
 20
5461.44519620337
 30
0.0
 11
6198.7394544368044
 21
3225.99055620337
 31
0.0
  0
DIMENSION
  5
7BA7
  8
3
  6
CONTINUOUS
  2
*D12
 10
6573.7394544368026
 20
5445.0601952033712
 30
0.0
 11
6098.0251687225182
 21
5445.0601952033712
 31
0.0
 70
   128
 13
5823.7394544368044
 23
5276.2399822033713
 33
0.0
 14
6573.7394544368026
 24
5276.2399822033713
 34
0.0
1001
ACAD
1000
DSTYLE
1002
{
1070
   287
1070
     3
1070
   287
1070
     3
1070
    40
1040
40.0
1070
   143
1040
0.039
1070
   172
1070
     1
1070
   271
1070
     0
1070
   279
1070
     0
1070
   288
1070
     1
1002
}
  0
DIMENSION
  5
7BB4
  8
3
  6
CONTINUOUS
  2
*D13
 10
6198.7394544368044
 20
5736.1294132033699
 30
0.0
 11
5810.1680258653751
 21
5736.1294132033699
 31
0.0
 70
   128
  1
MAX\P770
 13
5518.7394544368026
 23
4820.0399822033714
 33
0.0
 14
6198.7394544368044
 24
5646.2258492033698
 34
0.0
1001
ACAD
1000
DSTYLE
1002
{
1070
   287
1070
     3
1070
   287
1070
     3
1070
    40
1040
40.0
1070
   143
1040
0.039
1070
   172
1070
     1
1070
   271
1070
     0
1070
   279
1070
     0
1070
   288
1070
     1
1002
}
  0
DIMENSION
  5
7BC2
  8
3
  6
CONTINUOUS
  2
*D14
 10
6676.7394544368026
 20
5736.6852672033701
 30
0.0
 11
6437.7394544368026
 21
5852.206660350821
 31
0.0
 70
   128
 13
6198.7394544368044
 23
5646.2258492033698
 33
0.0
 14
6676.7394544368026
 24
5103.3399822033698
 34
0.0
1001
ACAD
1000
DSTYLE
1002
{
1070
   288
1070
     1
1070
   172
1070
     1
1070
    40
1040
40.0
1070
   271
1070
     0
1070
   143
1040
0.039
1002
}
  0
DIMENSION
  5
7BE5
  8
3
  6
CONTINUOUS
  2
*D15
 10
7046.6996834368028
 20
4053.3399822033698
 30
0.0
 11
7046.6996834368019
 21
4546.6977252033703
 31
0.0
 70
   128
 13
6676.7394544368026
 23
5053.3399822033698
 33
0.0
 14
6676.7394544368026
 24
4053.3399822033698
 34
0.0
 50
90.0
1001
ACAD
1000
DSTYLE
1002
{
1070
   287
1070
     3
1070
   287
1070
     3
1070
     3
1000
φ<>
1070
    40
1040
40.0
1070
   143
1040
0.039
1070
   172
1070
     1
1070
   271
1070
     0
1070
   279
1070
     0
1070
   288
1070
     1
1002
}
  0
LINE
  5
7BE6
  8
2
  6
CENTER
 10
3398.004346975245
 20
4553.3399822033698
 30
0.0
 11
1682.107648975245
 21
4553.3399822033698
 31
0.0
  0
DIMENSION
  5
7BF3
  8
3
  6
CONTINUOUS
  2
*D16
 10
6198.7394544368044
 20
2960.358328602259
 30
0.0
 11
5935.8823115796613
 21
2960.358328602259
 31
0.0
 70
   128
 13
5581.7394544368026
 23
3259.3399822033689
 33
0.0
 14
6198.7394544368044
 24
3225.99055620337
 34
0.0
1001
ACAD
1000
DSTYLE
1002
{
1070
   287
1070
     3
1070
   287
1070
     3
1070
    40
1040
40.0
1070
   143
1040
0.039
1070
   172
1070
     1
1070
   271
1070
     0
1070
   279
1070
     0
1070
   288
1070
     1
1002
}
  0
DIMENSION
  5
7C01
  8
3
  6
CONTINUOUS
  2
*D17
 10
6641.7394544368044
 20
2960.358328602259
 30
0.0
 11
6420.2394544368026
 21
3063.8281337791959
 31
0.0
 70
   128
 13
6198.7394544368044
 23
3225.99055620337
 33
0.0
 14
6641.7394544368044
 24
3259.3399822033689
 34
0.0
1001
ACAD
1000
DSTYLE
1002
{
1070
   288
1070
     1
1070
   172
1070
     1
1070
    40
1040
40.0
1070
   271
1070
     0
1070
   143
1040
0.039
1002
}
  0
LINE
  5
7C18
  8
4
  6
CONTINUOUS
 10
7400.0
 20
2000.0
 30
0.0
 11
7400.0
 21
1200.0
 31
0.0
  0
LINE
  5
7C19
  8
4
  6
CONTINUOUS
 10
4600.0
 20
2000.0
 30
0.0
 11
4600.0
 21
1200.0
 31
0.0
  0
LINE
  5
7C1A
  8
4
  6
CONTINUOUS
 10
2600.0
 20
2000.0
 30
0.0
 11
2600.0
 21
1200.0
 31
0.0
  0
LINE
  5
7C1D
  8
4
  6
CONTINUOUS
 10
2600.0
 20
1200.0
 30
0.0
 11
7400.0
 21
1200.0
 31
0.0
  0
LINE
  5
7C1E
  8
4
  6
CONTINUOUS
 10
2600.0
 20
1600.0
 30
0.0
 11
7400.0
 21
1600.0
 31
0.0
  0
TEXT
  5
7C1F
  8
4
  6
CONTINUOUS
 10
2754.0083232000002
 20
1726.1721031999989
 30
0.0
 40
200.0
  1
機器名称
  0
TEXT
  5
7C20
  8
4
  6
CONTINUOUS
 10
2745.032424
 20
1286.5806264
 30
0.0
 40
200.0
  1
機器型番
  0
TEXT
  5
7C21
  8
4
  6
CONTINUOUS
 10
4710.7149823999989
 20
1690.2870751999999
 30
0.0
 40
168.88888879999999
  1
ミツヤリミットロードファン
  0
TEXT
  5
7C22
  8
4
  6
CONTINUOUS
 10
4746.6179824000001
 20
1268.6383367999999
 30
0.0
 40
200.0
  1
LLE#6-4
  0
TEXT
  5
7C24
  8
4
  6
CONTINUOUS
 10
3048.0428775999999
 20
9533.7153655999991
 30
0.0
 40
216.0
  1
床置防振ベット
  0
TEXT
  5
7C25
  8
4
  6
CONTINUOUS
 10
1264.6703735999999
 20
10135.5239048
 30
0.0
 40
240.0
  1
ベルト駆動式片吸込両持排煙ファン
  0
LINE
  5
7C26
  8
4
  6
CONTINUOUS
 10
1000.0
 20
9877.635016799999
 30
0.0
 11
7400.0
 21
9877.635016799999
 31
0.0
  0
LINE
  5
7C27
  8
4
  6
CONTINUOUS
 10
1000.0
 20
10677.635016800001
 30
0.0
 11
7400.0
 21
10677.635016800001
 31
0.0
  0
LINE
  5
7C28
  8
4
  6
CONTINUOUS
 10
2600.0
 20
2000.0
 30
0.0
 11
7400.0
 21
2000.0
 31
0.0
  0
LINE
  5
7C29
  8
4
  6
CONTINUOUS
 10
1000.0
 20
10677.635016800001
 30
0.0
 11
1000.0
 21
9877.635016799999
 31
0.0
  0
TEXT
  5
7C2A
  8
4
  6
CONTINUOUS
 10
1304.6075487999999
 20
9529.2779104000001
 30
0.0
 40
216.0
  1
左回転右横向
  0
TEXT
  5
7C2B
  8
4
  6
CONTINUOUS
 10
5875.8782375999999
 20
10824.244326399999
 30
0.0
 40
224.0
  1
No.
  0
TEXT
  5
7C2C
  8
4
  6
CONTINUOUS
 10
5245.1842504000006
 20
9533.7153655999991
 30
0.0
 40
216.0
  1
縮尺：1/40
  0
LINE
  5
7C2D
  8
4
  6
CONTINUOUS
 10
7400.0
 20
10677.635016800001
 30
0.0
 11
7400.0
 21
9877.635016799999
 31
0.0
  0
LINE
  5
7C2F
  8
4
  6
CONTINUOUS
 10
5762.4696895999996
 20
10725.0543328
 30
0.0
 11
5762.4696895999996
 21
11146.609046400001
 31
0.0
  0
LINE
  5
7C30
  8
4
  6
CONTINUOUS
 10
5762.4696895999996
 20
11146.609046400001
 30
0.0
 11
7400.0
 21
11146.609046400001
 31
0.0
  0
LINE
  5
7C31
  8
4
  6
CONTINUOUS
 10
7400.0
 20
11146.609046400001
 30
0.0
 11
7400.0
 21
10725.0543328
 31
0.0
  0
LINE
  5
7C32
  8
4
  6
CONTINUOUS
 10
7400.0
 20
10725.0543328
 30
0.0
 11
5762.4696895999996
 21
10725.0543328
 31
0.0
  0
DIMENSION
  5
7C74
  8
3
  6
CONTINUOUS
  2
*D18
 10
3859.7607717672131
 20
3479.3399822033698
 30
0.0
 11
3859.7607717672122
 21
4045.7866522033701
 31
0.0
 70
   128
 13
3198.0279779752432
 23
4553.3399822033698
 33
0.0
 14
3282.7332409752448
 24
3479.3399822033698
 34
0.0
 50
90.0
1001
ACAD
1000
DSTYLE
1002
{
1070
   287
1070
     3
1070
   287
1070
     3
1070
    40
1040
40.0
1070
   143
1040
0.039
1070
   172
1070
     1
1070
   271
1070
     0
1070
   279
1070
     0
1070
   288
1070
     1
1002
}
  0
DIMENSION
  5
7E84
  8
3
  2
*D19
 10
1107.7332409752451
 20
5700.4038396589776
 30
0.0
 11
2202.9506940425849
 21
5700.4038396589776
 31
0.0
 70
   128
 13
3282.7332409752448
 23
4562.3399822033689
 33
0.0
 14
1107.7332409752451
 24
3468.3399822033698
 34
0.0
1001
ACAD
1000
DSTYLE
1002
{
1070
   287
1070
     3
1070
   287
1070
     3
1070
    40
1040
40.0
1070
   143
1040
0.039
1070
   172
1070
     1
1070
   271
1070
     0
1070
   279
1070
     0
1070
   288
1070
     1
1002
}
  0
ENDSEC
  0
EOF
