  0
SECTION
  2
HEADER
  9
$ACADVER
  1
AC1009
  9
$INSBASE
 10
0.0
 20
0.0
 30
0.0
  9
$EXTMIN
 10
1000.0
 20
1200.0
 30
0.0
  9
$EXTMAX
 10
7400.0
 20
11146.609046400001
 30
0.0
  9
$LIMMIN
 10
0.0
 20
0.0
  9
$LIMMAX
 10
297.0
 20
210.0
  9
$ORTHOMODE
 70
     0
  9
$REGENMODE
 70
     1
  9
$FILLMODE
 70
     0
  9
$QTEXTMODE
 70
     0
  9
$MIRRTEXT
 70
     1
  9
$DRAGMODE
 70
     2
  9
$LTSCALE
 40
100.0
  9
$OSMODE
 70
    37
  9
$ATTMODE
 70
     1
  9
$TEXTSIZE
 40
180.0
  9
$TRACEWID
 40
0.05
  9
$TEXTSTYLE
  7
STANDARD
  9
$CLAYER
  8
3
  9
$CELTYPE
  6
BYLAYER
  9
$CECOLOR
 62
   256
  9
$DIMSCALE
 40
40.0
  9
$DIMASZ
 40
2.0
  9
$DIMEXO
 40
0.5
  9
$DIMDLI
 40
10.0
  9
$DIMRND
 40
0.0
  9
$DIMDLE
 40
0.0
  9
$DIMEXE
 40
1.0
  9
$DIMTP
 40
1.0
  9
$DIMTM
 40
1.0
  9
$DIMTXT
 40
3.0
  9
$DIMCEN
 40
0.0
  9
$DIMTSZ
 40
0.0
  9
$DIMTOL
 70
     0
  9
$DIMLIM
 70
     0
  9
$DIMTIH
 70
     0
  9
$DIMTOH
 70
     0
  9
$DIMSE1
 70
     0
  9
$DIMSE2
 70
     0
  9
$DIMTAD
 70
     1
  9
$DIMZIN
 70
     8
  9
$DIMBLK
  1

  9
$DIMASO
 70
     1
  9
$DIMSHO
 70
     1
  9
$DIMPOST
  1

  9
$DIMAPOST
  1

  9
$DIMALT
 70
     0
  9
$DIMALTD
 70
     2
  9
$DIMALTF
 40
0.039
  9
$DIMLFAC
 40
1.0
  9
$DIMTOFL
 70
     1
  9
$DIMTVP
 40
0.0
  9
$DIMTIX
 70
     0
  9
$DIMSOXD
 70
     0
  9
$DIMSAH
 70
     1
  9
$DIMBLK1
  1
OPEN
  9
$DIMBLK2
  1
OPEN
  9
$DIMSTYLE
  2
IGA
  9
$DIMCLRD
 70
     0
  9
$DIMCLRE
 70
     0
  9
$DIMCLRT
 70
     0
  9
$DIMTFAC
 40
10.0
  9
$DIMGAP
 40
1.0
  9
$LUNITS
 70
     2
  9
$LUPREC
 70
     3
  9
$SKETCHINC
 40
0.1
  9
$FILLETRAD
 40
50.0
  9
$AUNITS
 70
     0
  9
$AUPREC
 70
     0
  9
$MENU
  1
acad
  9
$ELEVATION
 40
0.0
  9
$PELEVATION
 40
0.0
  9
$THICKNESS
 40
0.0
  9
$LIMCHECK
 70
     0
  9
$BLIPMODE
 70
     0
  9
$CHAMFERA
 40
0.5
  9
$CHAMFERB
 40
0.5
  9
$SKPOLY
 70
     0
  9
$TDCREATE
 40
2450751.5731500001
  9
$TDUPDATE
 40
2454953.6867977772
  9
$TDINDWG
 40
0.0072335532
  9
$TDUSRTIMER
 40
0.0072335532
  9
$USRTIMER
 70
     1
  9
$ANGBASE
 50
0.0
  9
$ANGDIR
 70
     0
  9
$PDMODE
 70
     0
  9
$PDSIZE
 40
0.0
  9
$PLINEWID
 40
0.0
  9
$COORDS
 70
     1
  9
$SPLFRAME
 70
     0
  9
$SPLINETYPE
 70
     6
  9
$SPLINESEGS
 70
     8
  9
$ATTDIA
 70
     0
  9
$ATTREQ
 70
     1
  9
$HANDLING
 70
 10241
  9
$HANDSEED
  5
7F8F
  9
$SURFTAB1
 70
     6
  9
$SURFTAB2
 70
     6
  9
$SURFTYPE
 70
     6
  9
$SURFU
 70
     6
  9
$SURFV
 70
     6
  9
$UCSNAME
  2

  9
$UCSORG
 10
0.0
 20
0.0
 30
0.0
  9
$UCSXDIR
 10
1.0
 20
0.0
 30
0.0
  9
$UCSYDIR
 10
0.0
 20
1.0
 30
0.0
  9
$PUCSNAME
  2

  9
$PUCSORG
 10
0.0
 20
0.0
 30
0.0
  9
$PUCSXDIR
 10
1.0
 20
0.0
 30
0.0
  9
$PUCSYDIR
 10
0.0
 20
1.0
 30
0.0
  9
$USERI1
 70
     0
  9
$USERI2
 70
     0
  9
$USERI3
 70
     0
  9
$USERI4
 70
     0
  9
$USERI5
 70
     0
  9
$USERR1
 40
0.0
  9
$USERR2
 40
0.0
  9
$USERR3
 40
0.0
  9
$USERR4
 40
0.0
  9
$USERR5
 40
0.0
  9
$WORLDVIEW
 70
     1
  9
$SHADEDGE
 70
     3
  9
$SHADEDIF
 70
    70
  9
$TILEMODE
 70
     1
  9
$MAXACTVP
 70
    16
  9
$PLIMCHECK
 70
     0
  9
$PEXTMIN
 10
1.0000000000000000E+020
 20
1.0000000000000000E+020
 30
1.0000000000000000E+020
  9
$PEXTMAX
 10
-1.0000000000000000E+020
 20
-1.0000000000000000E+020
 30
-1.0000000000000000E+020
  9
$PLIMMIN
 10
0.0
 20
0.0
  9
$PLIMMAX
 10
12.0
 20
9.0
  9
$UNITMODE
 70
     0
  9
$VISRETAIN
 70
     0
  9
$PLINEGEN
 70
     0
  9
$PSLTSCALE
 70
     1
  0
ENDSEC
  0
SECTION
  2
TABLES
  0
TABLE
  2
VPORT
 70
     2
  0
VPORT
  2
*ACTIVE
 70
     0
 10
0.0
 20
0.0
 11
1.0
 21
1.0
 12
16129.5447852086
 22
5322.4331252519014
 13
0.0
 23
0.0
 14
10.0
 24
10.0
 15
10.0
 25
10.0
 16
0.0
 26
0.0
 36
1.0
 17
0.0
 27
0.0
 37
0.0
 40
12135.740319071279
 41
3.1666666666666661
 42
50.0
 43
0.0
 44
0.0
 50
0.0
 51
0.0
 71
     0
 72
   100
 73
     1
 74
     0
 75
     0
 76
     0
 77
     0
 78
     0
  0
ENDTAB
  0
TABLE
  2
LTYPE
 70
     2
  0
LTYPE
  2
CONTINUOUS
 70
     0
  3
Solid line
 72
    65
 73
     0
 40
0.0
  0
LTYPE
  2
CENTER
 70
     0
  3
____ _ ____ _ ____ _ ____ _ ____ _ ____ _ ____ 
 72
    65
 73
     4
 40
2.0
 49
1.25
 49
-0.25
 49
0.25
 49
-0.25
  0
ENDTAB
  0
TABLE
  2
LAYER
 70
     6
  0
LAYER
  2
0
 70
     0
 62
     7
  6
CONTINUOUS
  0
LAYER
  2
3
 70
     0
 62
     2
  6
CONTINUOUS
  0
LAYER
  2
2
 70
     0
 62
     3
  6
CENTER
  0
LAYER
  2
1
 70
     0
 62
     4
  6
CONTINUOUS
  0
LAYER
  2
4
 70
     0
 62
     7
  6
CONTINUOUS
  0
LAYER
  2
DEFPOINTS
 70
     0
 62
     7
  6
CONTINUOUS
  0
ENDTAB
  0
TABLE
  2
STYLE
 70
     1
  0
STYLE
  2
STANDARD
 70
     0
 40
0.0
 41
1.0
 50
0.0
 71
     0
 42
180.0
  3
simplex.shx
  4
extfont.shx
  0
ENDTAB
  0
TABLE
  2
VIEW
 70
     0
  0
ENDTAB
  0
TABLE
  2
UCS
 70
     0
  0
ENDTAB
  0
TABLE
  2
APPID
 70
     1
  0
APPID
  2
ACAD
 70
     0
  0
ENDTAB
  0
TABLE
  2
DIMSTYLE
 70
     1
  0
DIMSTYLE
  2
IGA
 70
     0
  3

  4

  5

  6
OPEN
  7
OPEN
 40
2.0
 41
2.0
 42
0.5
 43
10.0
 44
1.0
 45
0.0
 46
0.0
 47
1.0
 48
1.0
140
3.0
141
0.0
142
0.0
143
0.03937
144
1.0
145
0.0
146
10.0
147
1.0
 71
     0
 72
     0
 73
     0
 74
     0
 75
     0
 76
     0
 77
     1
 78
     8
170
     0
171
     2
172
     0
173
     1
174
     0
175
     0
176
     0
177
     0
178
     0
  0
ENDTAB
  0
ENDSEC
  0
SECTION
  2
BLOCKS
  0
BLOCK
  8
0
  2
$MODEL_SPACE
 70
     0
 10
0.0
 20
0.0
 30
0.0
  3
$MODEL_SPACE
  1

  0
ENDBLK
  5
1B
  8
0
  0
BLOCK
 67
     1
  8
0
  2
$PAPER_SPACE
 70
     0
 10
0.0
 20
0.0
 30
0.0
  3
$PAPER_SPACE
  1

  0
ENDBLK
  5
18
 67
     1
  8
0
  0
BLOCK
  8
0
  2
_OPEN
 70
     0
 10
0.0
 20
0.0
 30
0.0
  3
_OPEN
  1

  0
LINE
  5
7B61
  8
0
  6
BYBLOCK
 62
     0
 10
-1.0
 20
0.166667
 30
0.0
 11
0.0
 21
0.0
 31
0.0
  0
LINE
  5
7B62
  8
0
  6
BYBLOCK
 62
     0
 10
0.0
 20
0.0
 30
0.0
 11
-1.0
 21
-0.166667
 31
0.0
  0
LINE
  5
7B63
  8
0
  6
BYBLOCK
 62
     0
 10
0.0
 20
0.0
 30
0.0
 11
-1.0
 21
0.0
 31
0.0
  0
ENDBLK
  5
7B64
  8
0
  0
BLOCK
  8
0
  2
*D1
 70
     1
 10
0.0
 20
0.0
 30
0.0
  3
*D1
  1

  0
LINE
  5
7EEC
  8
3
  6
CONTINUOUS
 62
     0
 10
1831.1826362150159
 20
2994.2822372690621
 30
0.0
 11
1831.1826362150159
 21
2669.0139612690618
 31
0.0
  0
LINE
  5
7EED
  8
3
  6
CONTINUOUS
 62
     0
 10
2456.1826362150159
 20
2885.318024269061
 30
0.0
 11
2456.1826362150159
 21
2669.0139612690618
 31
0.0
  0
LINE
  5
7EEE
  8
3
  6
CONTINUOUS
 62
     0
 10
1911.1826362150159
 20
2709.0139612690618
 30
0.0
 11
2376.1826362150168
 21
2709.0139612690618
 31
0.0
  0
INSERT
  5
7EEF
  8
3
  6
CONTINUOUS
 62
     0
  2
_OPEN
 10
1831.1826362150159
 20
2709.0139612690618
 30
0.0
 41
80.0
 42
80.0
 43
80.0
 50
180.0
  0
INSERT
  5
7EF0
  8
3
  6
CONTINUOUS
 62
     0
  2
_OPEN
 10
2456.1826362150159
 20
2709.0139612690618
 30
0.0
 41
80.0
 42
80.0
 43
80.0
  0
TEXT
  8
3
  40
120
  5
7F7E
  62
0
  72
0
  71
0
 10
1941.90
 20
2596.61
 30
0.000000
  1
625
  0
POINT
  5
7EF2
  8
DEFPOINTS
  6
CONTINUOUS
 62
     0
 10
1831.1826362150159
 20
3014.2822372690621
 30
0.0
  0
POINT
  5
7EF3
  8
DEFPOINTS
  6
CONTINUOUS
 62
     0
 10
2456.1826362150159
 20
2905.318024269061
 30
0.0
  0
POINT
  5
7EF4
  8
DEFPOINTS
  6
CONTINUOUS
 62
     0
 10
2456.1826362150159
 20
2709.0139612690618
 30
0.0
  0
ENDBLK
  5
7DAA
  8
0
  0
BLOCK
  8
0
  2
*D2
 70
     1
 10
0.0
 20
0.0
 30
0.0
  3
*D2
  1

  0
LINE
  5
7EF5
  8
3
  6
CONTINUOUS
 62
     0
 10
2456.1826362150159
 20
2885.318024269061
 30
0.0
 11
2456.1826362150159
 21
2669.0139612690618
 31
0.0
  0
LINE
  5
7EF6
  8
3
  6
CONTINUOUS
 62
     0
 10
3951.1826362150159
 20
2994.2822372690621
 30
0.0
 11
3951.1826362150159
 21
2669.0139612690618
 31
0.0
  0
LINE
  5
7EF7
  8
3
  6
CONTINUOUS
 62
     0
 10
2536.1826362150159
 20
2709.0139612690618
 30
0.0
 11
3871.1826362150168
 21
2709.0139612690618
 31
0.0
  0
INSERT
  5
7EF8
  8
3
  6
CONTINUOUS
 62
     0
  2
_OPEN
 10
2456.1826362150159
 20
2709.0139612690618
 30
0.0
 41
80.0
 42
80.0
 43
80.0
 50
180.0
  0
INSERT
  5
7EF9
  8
3
  6
CONTINUOUS
 62
     0
  2
_OPEN
 10
3951.1826362150159
 20
2709.0139612690618
 30
0.0
 41
80.0
 42
80.0
 43
80.0
  0
TEXT
  8
3
  40
120
  5
7F7F
  62
0
  72
0
  71
0
 10
2963.68
 20
2596.61
 30
0.000000
  1
1495
  0
POINT
  5
7EFB
  8
DEFPOINTS
  6
CONTINUOUS
 62
     0
 10
2456.1826362150159
 20
2905.318024269061
 30
0.0
  0
POINT
  5
7EFC
  8
DEFPOINTS
  6
CONTINUOUS
 62
     0
 10
3951.1826362150159
 20
3014.2822372690621
 30
0.0
  0
POINT
  5
7EFD
  8
DEFPOINTS
  6
CONTINUOUS
 62
     0
 10
3951.1826362150159
 20
2709.0139612690618
 30
0.0
  0
ENDBLK
  5
7D9F
  8
0
  0
BLOCK
  8
0
  2
*D3
 70
     1
 10
0.0
 20
0.0
 30
0.0
  3
*D3
  1

  0
LINE
  5
7EFE
  8
3
  6
CONTINUOUS
 62
     0
 10
2500.1826362150168
 20
4693.2822372690616
 30
0.0
 11
2500.1826362150168
 21
4959.6096832690637
 31
0.0
  0
LINE
  5
7EFF
  8
3
  6
CONTINUOUS
 62
     0
 10
3530.1826362150159
 20
4693.2822372690616
 30
0.0
 11
3530.1826362150159
 21
4959.6096832690637
 31
0.0
  0
LINE
  5
7F00
  8
3
  6
CONTINUOUS
 62
     0
 10
2580.1826362150168
 20
4919.6096832690628
 30
0.0
 11
3450.1826362150159
 21
4919.6096832690628
 31
0.0
  0
INSERT
  5
7F01
  8
3
  6
CONTINUOUS
 62
     0
  2
_OPEN
 10
2500.1826362150168
 20
4919.6096832690628
 30
0.0
 41
80.0
 42
80.0
 43
80.0
 50
180.0
  0
INSERT
  5
7F02
  8
3
  6
CONTINUOUS
 62
     0
  2
_OPEN
 10
3530.1826362150159
 20
4919.6096832690628
 30
0.0
 41
80.0
 42
80.0
 43
80.0
  0
TEXT
  8
3
  40
120
  5
7F80
  62
0
  72
0
  71
0
 10
2744.26
 20
4807.21
 30
0.000000
  1
1030
  0
POINT
  5
7F04
  8
DEFPOINTS
  6
CONTINUOUS
 62
     0
 10
2500.1826362150168
 20
4673.2822372690616
 30
0.0
  0
POINT
  5
7F05
  8
DEFPOINTS
  6
CONTINUOUS
 62
     0
 10
3530.1826362150159
 20
4673.2822372690616
 30
0.0
  0
POINT
  5
7F06
  8
DEFPOINTS
  6
CONTINUOUS
 62
     0
 10
3530.1826362150159
 20
4919.6096832690628
 30
0.0
  0
ENDBLK
  5
7D94
  8
0
  0
BLOCK
  8
0
  2
*D4
 70
     1
 10
0.0
 20
0.0
 30
0.0
  3
*D4
  1

  0
LINE
  5
7F07
  8
3
  6
CONTINUOUS
 62
     0
 10
3530.1826362150159
 20
4693.2822372690616
 30
0.0
 11
3530.1826362150159
 21
5233.4416252690626
 31
0.0
  0
LINE
  5
7F08
  8
3
  6
CONTINUOUS
 62
     0
 10
2456.1826362150159
 20
4608.5769742690609
 30
0.0
 11
2456.1826362150159
 21
5233.4416252690626
 31
0.0
  0
LINE
  5
7F09
  8
3
  6
CONTINUOUS
 62
     0
 10
3450.1826362150159
 20
5193.4416252690626
 30
0.0
 11
2536.1826362150159
 21
5193.4416252690626
 31
0.0
  0
INSERT
  5
7F0A
  8
3
  6
CONTINUOUS
 62
     0
  2
_OPEN
 10
3530.1826362150159
 20
5193.4416252690626
 30
0.0
 41
80.0
 42
80.0
 43
80.0
  0
INSERT
  5
7F0B
  8
3
  6
CONTINUOUS
 62
     0
  2
_OPEN
 10
2456.1826362150159
 20
5193.4416252690626
 30
0.0
 41
80.0
 42
80.0
 43
80.0
 50
180.0
  0
TEXT
  8
3
  40
120
  5
7F81
  62
0
  72
0
  71
0
 10
2715.76
 20
5081.04
 30
0.000000
  1
1074
  0
POINT
  5
7F0D
  8
DEFPOINTS
  6
CONTINUOUS
 62
     0
 10
3530.1826362150159
 20
4673.2822372690616
 30
0.0
  0
POINT
  5
7F0E
  8
DEFPOINTS
  6
CONTINUOUS
 62
     0
 10
2456.1826362150159
 20
4588.5769742690609
 30
0.0
  0
POINT
  5
7F0F
  8
DEFPOINTS
  6
CONTINUOUS
 62
     0
 10
2456.1826362150159
 20
5193.4416252690626
 30
0.0
  0
ENDBLK
  5
7D89
  8
0
  0
BLOCK
  8
0
  2
*D5
 70
     1
 10
0.0
 20
0.0
 30
0.0
  3
*D5
  1

  0
LINE
  5
7F10
  8
3
  6
CONTINUOUS
 62
     0
 10
2456.1826362150159
 20
4608.5769742690609
 30
0.0
 11
2456.1826362150159
 21
5233.4416252690626
 31
0.0
  0
LINE
  5
7F11
  8
3
  6
CONTINUOUS
 62
     0
 10
1736.1826362150171
 20
4013.2822372690621
 30
0.0
 11
1736.1826362150171
 21
5233.4416252690626
 31
0.0
  0
LINE
  5
7F12
  8
3
  6
CONTINUOUS
 62
     0
 10
2376.1826362150168
 20
5193.4416252690626
 30
0.0
 11
1816.1826362150171
 21
5193.4416252690626
 31
0.0
  0
INSERT
  5
7F13
  8
3
  6
CONTINUOUS
 62
     0
  2
_OPEN
 10
2456.1826362150159
 20
5193.4416252690626
 30
0.0
 41
80.0
 42
80.0
 43
80.0
  0
INSERT
  5
7F14
  8
3
  6
CONTINUOUS
 62
     0
  2
_OPEN
 10
1736.1826362150171
 20
5193.4416252690626
 30
0.0
 41
80.0
 42
80.0
 43
80.0
 50
180.0
  0
TEXT
  8
3
  40
120
  5
7F82
  62
0
  72
0
  71
0
 10
1856.18
 20
5081.04
 30
0.000000
  1
720
  0
POINT
  5
7F16
  8
DEFPOINTS
  6
CONTINUOUS
 62
     0
 10
2456.1826362150159
 20
4588.5769742690609
 30
0.0
  0
POINT
  5
7F17
  8
DEFPOINTS
  6
CONTINUOUS
 62
     0
 10
1736.1826362150171
 20
3993.2822372690621
 30
0.0
  0
POINT
  5
7F18
  8
DEFPOINTS
  6
CONTINUOUS
 62
     0
 10
1736.1826362150171
 20
5193.4416252690626
 30
0.0
  0
ENDBLK
  5
7DED
  8
0
  0
BLOCK
  8
0
  2
*D6
 70
     1
 10
0.0
 20
0.0
 30
0.0
  3
*D6
  1

  0
LINE
  5
7F19
  8
3
  6
CONTINUOUS
 62
     0
 10
3603.1826362150159
 20
4673.2822372690616
 30
0.0
 11
4272.9513702150189
 21
4673.2822372690616
 31
0.0
  0
LINE
  5
7F1A
  8
3
  6
CONTINUOUS
 62
     0
 10
3492.1826362150182
 20
3993.2822372690621
 30
0.0
 11
4272.9513702150189
 21
3993.2822372690621
 31
0.0
  0
LINE
  5
7F1B
  8
3
  6
CONTINUOUS
 62
     0
 10
4232.951370215018
 20
4593.2822372690616
 30
0.0
 11
4232.951370215018
 21
4073.2822372690621
 31
0.0
  0
INSERT
  5
7F1C
  8
3
  6
CONTINUOUS
 62
     0
  2
_OPEN
 10
4232.951370215018
 20
4673.2822372690616
 30
0.0
 41
80.0
 42
80.0
 43
80.0
 50
90.0
  0
INSERT
  5
7F1D
  8
3
  6
CONTINUOUS
 62
     0
  2
_OPEN
 10
4232.951370215018
 20
3993.2822372690621
 30
0.0
 41
80.0
 42
80.0
 43
80.0
 50
270.0
  0
TEXT
  8
3
  40
120
  5
7F83
  62
0
  72
0
  71
0
 10
3892.95
 20
4186.60
 30
0.000000
  1
680
  0
POINT
  5
7F1F
  8
DEFPOINTS
  6
CONTINUOUS
 62
     0
 10
3583.1826362150159
 20
4673.2822372690616
 30
0.0
  0
POINT
  5
7F20
  8
DEFPOINTS
  6
CONTINUOUS
 62
     0
 10
3472.1826362150182
 20
3993.2822372690621
 30
0.0
  0
POINT
  5
7F21
  8
DEFPOINTS
  6
CONTINUOUS
 62
     0
 10
4232.951370215018
 20
3993.2822372690621
 30
0.0
  0
ENDBLK
  5
7D73
  8
0
  0
BLOCK
  8
0
  2
*D7
 70
     1
 10
0.0
 20
0.0
 30
0.0
  3
*D7
  1

  0
LINE
  5
7F22
  8
3
  6
CONTINUOUS
 62
     0
 10
3492.1826362150182
 20
3993.2822372690621
 30
0.0
 11
4272.9513702150171
 21
3993.2822372690621
 31
0.0
  0
LINE
  5
7F23
  8
3
  6
CONTINUOUS
 62
     0
 10
3971.1826362150168
 20
3098.2822372690621
 30
0.0
 11
4272.9513702150171
 21
3098.2822372690621
 31
0.0
  0
LINE
  5
7F24
  8
3
  6
CONTINUOUS
 62
     0
 10
4232.951370215018
 20
3913.2822372690621
 30
0.0
 11
4232.951370215018
 21
3178.2822372690621
 31
0.0
  0
INSERT
  5
7F25
  8
3
  6
CONTINUOUS
 62
     0
  2
_OPEN
 10
4232.951370215018
 20
3993.2822372690621
 30
0.0
 41
80.0
 42
80.0
 43
80.0
 50
90.0
  0
INSERT
  5
7F26
  8
3
  6
CONTINUOUS
 62
     0
  2
_OPEN
 10
4232.951370215018
 20
3098.2822372690621
 30
0.0
 41
80.0
 42
80.0
 43
80.0
 50
270.0
  0
TEXT
  8
3
  40
120
  5
7F84
  62
0
  72
0
  71
0
 10
3892.95
 20
3333.38
 30
0.000000
  1
895
  0
POINT
  5
7F28
  8
DEFPOINTS
  6
CONTINUOUS
 62
     0
 10
3472.1826362150182
 20
3993.2822372690621
 30
0.0
  0
POINT
  5
7F29
  8
DEFPOINTS
  6
CONTINUOUS
 62
     0
 10
3951.1826362150159
 20
3098.2822372690621
 30
0.0
  0
POINT
  5
7F2A
  8
DEFPOINTS
  6
CONTINUOUS
 62
     0
 10
4232.951370215018
 20
3098.2822372690621
 30
0.0
  0
ENDBLK
  5
7D68
  8
0
  0
BLOCK
  8
0
  2
*D8
 70
     1
 10
0.0
 20
0.0
 30
0.0
  3
*D8
  1

  0
LINE
  5
7F2B
  8
3
  6
CONTINUOUS
 62
     0
 10
3971.1826362150168
 20
3098.2822372690621
 30
0.0
 11
4272.9513702150189
 21
3098.2822372690621
 31
0.0
  0
LINE
  5
7F2C
  8
3
  6
CONTINUOUS
 62
     0
 10
3971.1826362150168
 20
3014.2822372690621
 30
0.0
 11
4272.9513702150189
 21
3014.2822372690621
 31
0.0
  0
LINE
  5
7F2D
  8
3
  6
CONTINUOUS
 62
     0
 10
4232.951370215018
 20
3178.2822372690621
 30
0.0
 11
4232.951370215018
 21
3258.2822372690621
 31
0.0
  0
LINE
  5
7F2E
  8
3
  6
CONTINUOUS
 62
     0
 10
4232.951370215018
 20
2934.2822372690621
 30
0.0
 11
4232.951370215018
 21
2574.2822372690621
 31
0.0
  0
LINE
  5
7F2F
  8
3
  6
CONTINUOUS
 62
     0
 10
4232.951370215018
 20
3098.2822372690621
 30
0.0
 11
4232.951370215018
 21
3014.2822372690621
 31
0.0
  0
INSERT
  5
7F30
  8
3
  6
CONTINUOUS
 62
     0
  2
_OPEN
 10
4232.951370215018
 20
3098.2822372690621
 30
0.0
 41
80.0
 42
80.0
 43
80.0
 50
270.0
  0
INSERT
  5
7F31
  8
3
  6
CONTINUOUS
 62
     0
  2
_OPEN
 10
4232.951370215018
 20
3014.2822372690621
 30
0.0
 41
80.0
 42
80.0
 43
80.0
 50
90.0
  0
TEXT
  8
3
  40
120
  5
7F85
  62
0
  72
0
  71
0
 10
3892.95
 20
2501.88
 30
0.000000
  1
84
  0
POINT
  5
7F33
  8
DEFPOINTS
  6
CONTINUOUS
 62
     0
 10
3951.1826362150159
 20
3098.2822372690621
 30
0.0
  0
POINT
  5
7F34
  8
DEFPOINTS
  6
CONTINUOUS
 62
     0
 10
3951.1826362150159
 20
3014.2822372690621
 30
0.0
  0
POINT
  5
7F35
  8
DEFPOINTS
  6
CONTINUOUS
 62
     0
 10
4232.951370215018
 20
3014.2822372690621
 30
0.0
  0
ENDBLK
  5
7D5D
  8
0
  0
BLOCK
  8
0
  2
*D9
 70
     1
 10
0.0
 20
0.0
 30
0.0
  3
*D9
  1

  0
LINE
  5
7F36
  8
3
  6
CONTINUOUS
 62
     0
 10
3603.1826362150159
 20
4673.2822372690616
 30
0.0
 11
4592.105796215018
 21
4673.2822372690616
 31
0.0
  0
LINE
  5
7F37
  8
3
  6
CONTINUOUS
 62
     0
 10
3971.1826362150168
 20
3014.2822372690621
 30
0.0
 11
4592.105796215018
 21
3014.2822372690621
 31
0.0
  0
LINE
  5
7F38
  8
3
  6
CONTINUOUS
 62
     0
 10
4552.105796215018
 20
4593.2822372690616
 30
0.0
 11
4552.105796215018
 21
3094.2822372690621
 31
0.0
  0
INSERT
  5
7F39
  8
3
  6
CONTINUOUS
 62
     0
  2
_OPEN
 10
4552.105796215018
 20
4673.2822372690616
 30
0.0
 41
80.0
 42
80.0
 43
80.0
 50
90.0
  0
INSERT
  5
7F3A
  8
3
  6
CONTINUOUS
 62
     0
  2
_OPEN
 10
4552.105796215018
 20
3014.2822372690621
 30
0.0
 41
80.0
 42
80.0
 43
80.0
 50
270.0
  0
TEXT
  8
3
  40
120
  5
7F86
  62
0
  72
0
  71
0
 10
4212.11
 20
3635.22
 30
0.000000
  1
1659
  0
POINT
  5
7F3C
  8
DEFPOINTS
  6
CONTINUOUS
 62
     0
 10
3583.1826362150159
 20
4673.2822372690616
 30
0.0
  0
POINT
  5
7F3D
  8
DEFPOINTS
  6
CONTINUOUS
 62
     0
 10
3951.1826362150159
 20
3014.2822372690621
 30
0.0
  0
POINT
  5
7F3E
  8
DEFPOINTS
  6
CONTINUOUS
 62
     0
 10
4552.105796215018
 20
3014.2822372690621
 30
0.0
  0
ENDBLK
  5
7D50
  8
0
  0
BLOCK
  8
0
  2
*D10
 70
     1
 10
0.0
 20
0.0
 30
0.0
  3
*D10
  1

  0
LINE
  5
7F3F
  8
3
  6
CONTINUOUS
 62
     0
 10
1831.1826362150159
 20
7129.1553487181873
 30
0.0
 11
1831.1826362150159
 21
6693.1050547181849
 31
0.0
  0
LINE
  5
7F40
  8
3
  6
CONTINUOUS
 62
     0
 10
3951.1826362150159
 20
7129.1553487181873
 30
0.0
 11
3951.1826362150159
 21
6693.1050547181849
 31
0.0
  0
LINE
  5
7F41
  8
3
  6
CONTINUOUS
 62
     0
 10
1911.1826362150159
 20
6733.1050547181858
 30
0.0
 11
3871.1826362150168
 21
6733.1050547181858
 31
0.0
  0
INSERT
  5
7F42
  8
3
  6
CONTINUOUS
 62
     0
  2
_OPEN
 10
1831.1826362150159
 20
6733.1050547181858
 30
0.0
 41
80.0
 42
80.0
 43
80.0
 50
180.0
  0
INSERT
  5
7F43
  8
3
  6
CONTINUOUS
 62
     0
  2
_OPEN
 10
3951.1826362150159
 20
6733.1050547181858
 30
0.0
 41
80.0
 42
80.0
 43
80.0
  0
TEXT
  8
3
  40
120
  5
7F87
  62
0
  72
0
  71
0
 10
2744.83
 20
6620.71
 30
0.000000
  1
2120
  0
POINT
  5
7F45
  8
DEFPOINTS
  6
CONTINUOUS
 62
     0
 10
1831.1826362150159
 20
7149.1553487181864
 30
0.0
  0
POINT
  5
7F46
  8
DEFPOINTS
  6
CONTINUOUS
 62
     0
 10
3951.1826362150159
 20
7149.1553487181864
 30
0.0
  0
POINT
  5
7F47
  8
DEFPOINTS
  6
CONTINUOUS
 62
     0
 10
3951.1826362150159
 20
6733.1050547181858
 30
0.0
  0
ENDBLK
  5
7D45
  8
0
  0
BLOCK
  8
0
  2
*D11
 70
     1
 10
0.0
 20
0.0
 30
0.0
  3
*D11
  1

  0
LINE
  5
7F48
  8
3
  6
CONTINUOUS
 62
     0
 10
3971.1826362150168
 20
8209.1553487181864
 30
0.0
 11
4421.1303532150177
 21
8209.1553487181845
 31
0.0
  0
LINE
  5
7F49
  8
3
  6
CONTINUOUS
 62
     0
 10
3971.1826362150168
 20
7149.1553487181864
 30
0.0
 11
4421.1303532150177
 21
7149.1553487181864
 31
0.0
  0
LINE
  5
7F4A
  8
3
  6
CONTINUOUS
 62
     0
 10
4381.1303532150177
 20
8129.1553487181855
 30
0.0
 11
4381.1303532150177
 21
7229.1553487181873
 31
0.0
  0
INSERT
  5
7F4B
  8
3
  6
CONTINUOUS
 62
     0
  2
_OPEN
 10
4381.1303532150177
 20
8209.1553487181845
 30
0.0
 41
80.0
 42
80.0
 43
80.0
 50
90.0
  0
INSERT
  5
7F4C
  8
3
  6
CONTINUOUS
 62
     0
  2
_OPEN
 10
4381.1303532150177
 20
7149.1553487181864
 30
0.0
 41
80.0
 42
80.0
 43
80.0
 50
270.0
  0
TEXT
  8
3
  40
120
  5
7F88
  62
0
  72
0
  71
0
 10
4041.13
 20
7438.98
 30
0.000000
  1
1060
  0
POINT
  5
7F4E
  8
DEFPOINTS
  6
CONTINUOUS
 62
     0
 10
3951.1826362150159
 20
8209.1553487181864
 30
0.0
  0
POINT
  5
7F4F
  8
DEFPOINTS
  6
CONTINUOUS
 62
     0
 10
3951.1826362150159
 20
7149.1553487181864
 30
0.0
  0
POINT
  5
7F50
  8
DEFPOINTS
  6
CONTINUOUS
 62
     0
 10
4381.1303532150177
 20
7149.1553487181864
 30
0.0
  0
ENDBLK
  5
7D3A
  8
0
  0
BLOCK
  8
0
  2
*D12
 70
     1
 10
0.0
 20
0.0
 30
0.0
  3
*D12
  1

  0
LINE
  5
7F51
  8
3
  6
CONTINUOUS
 62
     0
 10
6720.4464398027812
 20
4493.2822372690616
 30
0.0
 11
7109.917735802781
 21
4493.2822372690616
 31
0.0
  0
LINE
  5
7F52
  8
3
  6
CONTINUOUS
 62
     0
 10
6720.4464398027812
 20
3493.2822372690621
 30
0.0
 11
7109.917735802781
 21
3493.2822372690621
 31
0.0
  0
LINE
  5
7F53
  8
3
  6
CONTINUOUS
 62
     0
 10
7069.9177358027819
 20
4413.2822372690616
 30
0.0
 11
7069.9177358027819
 21
3573.2822372690621
 31
0.0
  0
INSERT
  5
7F54
  8
3
  6
CONTINUOUS
 62
     0
  2
_OPEN
 10
7069.9177358027819
 20
4493.2822372690616
 30
0.0
 41
80.0
 42
80.0
 43
80.0
 50
90.0
  0
INSERT
  5
7F55
  8
3
  6
CONTINUOUS
 62
     0
  2
_OPEN
 10
7069.9177358027819
 20
3493.2822372690621
 30
0.0
 41
80.0
 42
80.0
 43
80.0
 50
270.0
  0
TEXT
  8
3
  40
120
  5
7F89
  62
0
  72
0
  71
0
 10
6729.92
 20
3749.62
 30
0.000000
  1
φ1000
  0
POINT
  5
7F57
  8
DEFPOINTS
  6
CONTINUOUS
 62
     0
 10
6700.4464398027812
 20
4493.2822372690616
 30
0.0
  0
POINT
  5
7F58
  8
DEFPOINTS
  6
CONTINUOUS
 62
     0
 10
6700.4464398027812
 20
3493.2822372690621
 30
0.0
  0
POINT
  5
7F59
  8
DEFPOINTS
  6
CONTINUOUS
 62
     0
 10
7069.9177358027819
 20
3493.2822372690621
 30
0.0
  0
ENDBLK
  5
7DE1
  8
0
  0
BLOCK
  8
0
  2
*D13
 70
     1
 10
0.0
 20
0.0
 30
0.0
  3
*D13
  1

  0
LINE
  5
7F5A
  8
3
  6
CONTINUOUS
 62
     0
 10
5847.4464398027803
 20
4693.2822372690616
 30
0.0
 11
5847.4464398027803
 21
4936.2424492690616
 31
0.0
  0
LINE
  5
7F5B
  8
3
  6
CONTINUOUS
 62
     0
 10
6597.4464398027803
 20
4693.2822372690616
 30
0.0
 11
6597.4464398027803
 21
4936.2424492690616
 31
0.0
  0
LINE
  5
7F5C
  8
3
  6
CONTINUOUS
 62
     0
 10
5927.4464398027803
 20
4896.2424492690616
 30
0.0
 11
6517.4464398027812
 21
4896.2424492690616
 31
0.0
  0
INSERT
  5
7F5D
  8
3
  6
CONTINUOUS
 62
     0
  2
_OPEN
 10
5847.4464398027803
 20
4896.2424492690616
 30
0.0
 41
80.0
 42
80.0
 43
80.0
 50
180.0
  0
INSERT
  5
7F5E
  8
3
  6
CONTINUOUS
 62
     0
  2
_OPEN
 10
6597.4464398027803
 20
4896.2424492690616
 30
0.0
 41
80.0
 42
80.0
 43
80.0
  0
TEXT
  8
3
  40
120
  5
7F8A
  62
0
  72
0
  71
0
 10
5881.73
 20
4783.84
 30
0.000000
  1
750
  0
POINT
  5
7F60
  8
DEFPOINTS
  6
CONTINUOUS
 62
     0
 10
5847.4464398027803
 20
4673.2822372690616
 30
0.0
  0
POINT
  5
7F61
  8
DEFPOINTS
  6
CONTINUOUS
 62
     0
 10
6597.4464398027803
 20
4673.2822372690616
 30
0.0
  0
POINT
  5
7F62
  8
DEFPOINTS
  6
CONTINUOUS
 62
     0
 10
6597.4464398027803
 20
4896.2424492690616
 30
0.0
  0
ENDBLK
  5
7D24
  8
0
  0
BLOCK
  8
0
  2
*D14
 70
     1
 10
0.0
 20
0.0
 30
0.0
  3
*D14
  1

  0
LINE
  5
7F63
  8
3
  6
CONTINUOUS
 62
     0
 10
5542.4464398027803
 20
4279.9822372690614
 30
0.0
 11
5542.4464398027803
 21
5194.7091062690624
 31
0.0
  0
LINE
  5
7F64
  8
3
  6
CONTINUOUS
 62
     0
 10
6222.4464398027803
 20
5127.3958812690616
 30
0.0
 11
6222.4464398027803
 21
5194.7091062690624
 31
0.0
  0
LINE
  5
7F65
  8
3
  6
CONTINUOUS
 62
     0
 10
5622.4464398027803
 20
5154.7091062690633
 30
0.0
 11
6142.4464398027803
 21
5154.7091062690633
 31
0.0
  0
INSERT
  5
7F66
  8
3
  6
CONTINUOUS
 62
     0
  2
_OPEN
 10
5542.4464398027803
 20
5154.7091062690633
 30
0.0
 41
80.0
 42
80.0
 43
80.0
 50
180.0
  0
INSERT
  5
7F67
  8
3
  6
CONTINUOUS
 62
     0
  2
_OPEN
 10
6222.4464398027803
 20
5154.7091062690633
 30
0.0
 41
80.0
 42
80.0
 43
80.0
  0
TEXT
  8
3
  40
120
  5
7F8B
  62
0
  72
0
  71
0
 10
5593.88
 20
5142.31
 30
0.000000
  1
MAX
  0
TEXT
  8
3
  40
120
  5
7F8C
  62
0
  72
0
  71
0
 10
5593.88
 20
4986.31
 30
0.000000
  1
770
  0
POINT
  5
7F69
  8
DEFPOINTS
  6
CONTINUOUS
 62
     0
 10
5542.4464398027803
 20
4259.9822372690624
 30
0.0
  0
POINT
  5
7F6A
  8
DEFPOINTS
  6
CONTINUOUS
 62
     0
 10
6222.4464398027803
 20
5107.3958812690616
 30
0.0
  0
POINT
  5
7F6B
  8
DEFPOINTS
  6
CONTINUOUS
 62
     0
 10
6222.4464398027803
 20
5154.7091062690633
 30
0.0
  0
ENDBLK
  5
7D19
  8
0
  0
BLOCK
  8
0
  2
*D15
 70
     1
 10
0.0
 20
0.0
 30
0.0
  3
*D15
  1

  0
LINE
  5
7DC2
  8
0
  6
BYBLOCK
 62
     0
 10
6222.4464398027803
 20
5127.3958812690616
 30
0.0
 11
6222.4464398027803
 21
5194.7091062690624
 31
0.0
  0
LINE
  5
7DC3
  8
0
  6
BYBLOCK
 62
     0
 10
6700.4464398027812
 20
4563.2822372690634
 30
0.0
 11
6700.4464398027812
 21
5194.7091062690624
 31
0.0
  0
LINE
  5
7DC4
  8
0
  6
BYBLOCK
 62
     0
 10
6302.4464398027803
 20
5154.7091062690633
 30
0.0
 11
6620.4464398027812
 21
5154.7091062690633
 31
0.0
  0
TEXT
  5
7DC5
  8
3
 62
     0
 10
6307.1607255170647
 20
5202.362329147978
 30
0.0
 40
120.0
  1
478
  0
INSERT
  5
7DC6
  8
0
  6
BYBLOCK
 62
     0
  2
_OPEN
 10
6222.4464398027803
 20
5154.7091062690633
 30
0.0
 41
80.0
 42
80.0
 43
80.0
 50
180.0
  0
INSERT
  5
7DC7
  8
0
  6
BYBLOCK
 62
     0
  2
_OPEN
 10
6700.4464398027812
 20
5154.7091062690633
 30
0.0
 41
80.0
 42
80.0
 43
80.0
  0
POINT
  5
7DC8
  8
DEFPOINTS
  6
BYBLOCK
 62
     0
 10
6222.4464398027803
 20
5107.3958812690616
 30
0.0
  0
POINT
  5
7DC9
  8
DEFPOINTS
  6
BYBLOCK
 62
     0
 10
6700.4464398027812
 20
4543.2822372690616
 30
0.0
  0
POINT
  5
7DCA
  8
DEFPOINTS
  6
BYBLOCK
 62
     0
 10
6700.4464398027812
 20
5154.7091062690633
 30
0.0
  0
ENDBLK
  5
7DCB
  8
0
  0
BLOCK
  8
0
  2
*D16
 70
     1
 10
0.0
 20
0.0
 30
0.0
  3
*D16
  1

  0
LINE
  5
7F6C
  8
3
  6
CONTINUOUS
 62
     0
 10
5605.4464398027803
 20
2994.2822372690621
 30
0.0
 11
5605.4464398027803
 21
2651.3545572690641
 31
0.0
  0
LINE
  5
7F6D
  8
3
  6
CONTINUOUS
 62
     0
 10
6222.4464398027803
 20
2860.3425872690618
 30
0.0
 11
6222.4464398027803
 21
2651.3545572690641
 31
0.0
  0
LINE
  5
7F6E
  8
3
  6
CONTINUOUS
 62
     0
 10
5685.4464398027803
 20
2691.3545572690632
 30
0.0
 11
6142.4464398027803
 21
2691.3545572690632
 31
0.0
  0
INSERT
  5
7F6F
  8
3
  6
CONTINUOUS
 62
     0
  2
_OPEN
 10
5605.4464398027803
 20
2691.3545572690632
 30
0.0
 41
80.0
 42
80.0
 43
80.0
 50
180.0
  0
INSERT
  5
7F70
  8
3
  6
CONTINUOUS
 62
     0
  2
_OPEN
 10
6222.4464398027803
 20
2691.3545572690632
 30
0.0
 41
80.0
 42
80.0
 43
80.0
  0
TEXT
  8
3
  40
120
  5
7F8D
  62
0
  72
0
  71
0
 10
5719.59
 20
2578.95
 30
0.000000
  1
617
  0
POINT
  5
7F72
  8
DEFPOINTS
  6
CONTINUOUS
 62
     0
 10
5605.4464398027803
 20
3014.2822372690621
 30
0.0
  0
POINT
  5
7F73
  8
DEFPOINTS
  6
CONTINUOUS
 62
     0
 10
6222.4464398027803
 20
2880.3425872690618
 30
0.0
  0
POINT
  5
7F74
  8
DEFPOINTS
  6
CONTINUOUS
 62
     0
 10
6222.4464398027803
 20
2691.3545572690632
 30
0.0
  0
ENDBLK
  5
7D01
  8
0
  0
BLOCK
  8
0
  2
*D17
 70
     1
 10
0.0
 20
0.0
 30
0.0
  3
*D17
  1

  0
LINE
  5
7DCD
  8
0
  6
BYBLOCK
 62
     0
 10
6222.4464398027803
 20
2860.3425872690618
 30
0.0
 11
6222.4464398027803
 21
2651.3545572690641
 31
0.0
  0
LINE
  5
7DCE
  8
0
  6
BYBLOCK
 62
     0
 10
6665.4464398027803
 20
2994.2822372690621
 30
0.0
 11
6665.4464398027803
 21
2651.3545572690641
 31
0.0
  0
LINE
  5
7DCF
  8
0
  6
BYBLOCK
 62
     0
 10
6302.4464398027803
 20
2691.3545572690632
 30
0.0
 11
6585.4464398027803
 21
2691.3545572690632
 31
0.0
  0
TEXT
  5
7DD0
  8
3
 62
     0
 10
6289.6607255170657
 20
2725.5664549848289
 30
0.0
 40
120.0
  1
443
  0
INSERT
  5
7DD1
  8
0
  6
BYBLOCK
 62
     0
  2
_OPEN
 10
6222.4464398027803
 20
2691.3545572690632
 30
0.0
 41
80.0
 42
80.0
 43
80.0
 50
180.0
  0
INSERT
  5
7DD2
  8
0
  6
BYBLOCK
 62
     0
  2
_OPEN
 10
6665.4464398027803
 20
2691.3545572690632
 30
0.0
 41
80.0
 42
80.0
 43
80.0
  0
POINT
  5
7DD3
  8
DEFPOINTS
  6
BYBLOCK
 62
     0
 10
6222.4464398027803
 20
2880.3425872690618
 30
0.0
  0
POINT
  5
7DD4
  8
DEFPOINTS
  6
BYBLOCK
 62
     0
 10
6665.4464398027803
 20
3014.2822372690621
 30
0.0
  0
POINT
  5
7DD5
  8
DEFPOINTS
  6
BYBLOCK
 62
     0
 10
6665.4464398027803
 20
2691.3545572690632
 30
0.0
  0
ENDBLK
  5
7DD6
  8
0
  0
BLOCK
  8
0
  2
*D18
 70
     1
 10
0.0
 20
0.0
 30
0.0
  3
*D18
  1

  0
LINE
  5
7F75
  8
3
 62
     0
 10
1736.1826362150171
 20
4033.2822372690621
 30
0.0
 11
1736.1826362150171
 21
5503.1166887024046
 31
0.0
  0
LINE
  5
7F76
  8
3
 62
     0
 10
3951.1826362150159
 20
3243.2822372690621
 30
0.0
 11
3951.1826362150159
 21
5503.1166887024046
 31
0.0
  0
LINE
  5
7F77
  8
3
 62
     0
 10
1816.1826362150171
 20
5463.1166887024046
 30
0.0
 11
3871.1826362150168
 21
5463.1166887024046
 31
0.0
  0
INSERT
  5
7F78
  8
3
 62
     0
  2
_OPEN
 10
1736.1826362150171
 20
5463.1166887024046
 30
0.0
 41
80.0
 42
80.0
 43
80.0
 50
180.0
  0
INSERT
  5
7F79
  8
3
 62
     0
  2
_OPEN
 10
3951.1826362150159
 20
5463.1166887024046
 30
0.0
 41
80.0
 42
80.0
 43
80.0
  0
TEXT
  8
3
  40
120
  5
7F8E
  62
0
  72
0
  71
0
 10
2567.56
 20
5350.72
 30
0.000000
  1
2215
  0
POINT
  5
7F7B
  8
DEFPOINTS
 62
     0
 10
1736.1826362150171
 20
4013.2822372690621
 30
0.0
  0
POINT
  5
7F7C
  8
DEFPOINTS
 62
     0
 10
3951.1826362150159
 20
3223.2822372690621
 30
0.0
  0
POINT
  5
7F7D
  8
DEFPOINTS
 62
     0
 10
3951.1826362150159
 20
5463.1166887024046
 30
0.0
  0
ENDBLK
  5
7DF9
  8
0
  0
ENDSEC
  0
SECTION
  2
ENTITIES
  0
POLYLINE
  5
7AED
  8
1
  6
CONTINUOUS
 66
     1
 10
0.0
 20
0.0
 30
0.0
  0
VERTEX
  5
7EE5
  8
1
  6
CONTINUOUS
 10
3530.1826362150159
 20
4673.2822372690616
 30
0.0
  0
VERTEX
  5
7EE6
  8
1
  6
CONTINUOUS
 10
3472.1826362150182
 20
3993.2822372690621
 30
0.0
 42
-0.4
  0
VERTEX
  5
7EE7
  8
1
  6
CONTINUOUS
 10
2530.1826362150168
 20
3122.2822372690621
 30
0.0
 42
-0.4
  0
VERTEX
  5
7EE8
  8
1
  6
CONTINUOUS
 10
1737.282636215017
 20
3998.7822372690621
 30
0.0
 42
-0.4
  0
VERTEX
  5
7EE9
  8
1
  6
CONTINUOUS
 10
2395.6826362150159
 20
4594.4822372690614
 30
0.0
  0
VERTEX
  5
7EEA
  8
1
  6
CONTINUOUS
 10
2500.1826362150168
 20
4584.2822372690634
 30
0.0
 42
-0.4
  0
SEQEND
  5
7EEB
  8
1
  6
CONTINUOUS
  0
LINE
  5
7AF5
  8
1
  6
CONTINUOUS
 10
1831.1826362150159
 20
3079.2822372690621
 30
0.0
 11
3951.1826362150159
 21
3079.2822372690621
 31
0.0
  0
LINE
  5
7AF6
  8
1
  6
CONTINUOUS
 10
1831.1826362150159
 20
3014.2822372690621
 30
0.0
 11
3951.1826362150159
 21
3014.2822372690621
 31
0.0
  0
LINE
  5
7AF7
  8
1
  6
CONTINUOUS
 10
3886.1826362150159
 20
3278.2822372690621
 30
0.0
 11
3466.1826362150182
 21
3278.2822372690621
 31
0.0
  0
LINE
  5
7AF8
  8
1
  6
CONTINUOUS
 10
3858.6826362150159
 20
7871.055348718186
 30
0.0
 11
3530.1826362150159
 21
7871.055348718186
 31
0.0
  0
LINE
  5
7AF9
  8
1
  6
CONTINUOUS
 10
3858.6826362150159
 20
7309.555348718186
 30
0.0
 11
3493.6826362150168
 21
7309.555348718186
 31
0.0
  0
ARC
  5
7AFA
  8
1
  6
CONTINUOUS
 10
3676.1826362150159
 20
3458.282237269063
 30
0.0
 40
182.5
 50
326.60000000000002
 51
213.40000000000001
  0
LINE
  5
7AFB
  8
1
  6
CONTINUOUS
 10
1831.1826362150159
 20
3223.2822372690621
 30
0.0
 11
3951.1826362150159
 21
3223.2822372690621
 31
0.0
  0
LINE
  5
7AFC
  8
1
  6
CONTINUOUS
 10
1831.1826362150159
 20
3098.2822372690621
 30
0.0
 11
3951.1826362150159
 21
3098.2822372690621
 31
0.0
  0
LINE
  5
7AFD
  8
1
  6
CONTINUOUS
 10
2447.1826362150159
 20
4673.2822372690616
 30
0.0
 11
3583.1826362150159
 21
4673.2822372690616
 31
0.0
  0
LINE
  5
7AFE
  8
1
  6
CONTINUOUS
 10
2196.1826362150159
 20
7286.1553487181864
 30
0.0
 11
3876.1826362150159
 21
7286.1553487181864
 31
0.0
  0
LINE
  5
7AFF
  8
1
  6
CONTINUOUS
 10
2196.1826362150159
 20
7086.1553487181864
 30
0.0
 11
3876.1826362150159
 21
7086.1553487181864
 31
0.0
  0
LINE
  5
7B00
  8
1
  6
CONTINUOUS
 10
3720.3826362150171
 20
3547.8822372690629
 30
0.0
 11
2526.9826362150179
 21
4136.6822372690622
 31
0.0
  0
LINE
  5
7B01
  8
1
  6
CONTINUOUS
 10
3764.6826362150168
 20
3637.5822372690632
 30
0.0
 11
2571.1826362150159
 21
4226.3822372690629
 31
0.0
  0
LINE
  5
7B02
  8
1
  6
CONTINUOUS
 10
3640.1826362150159
 20
3364.982237269061
 30
0.0
 11
2398.5826362150178
 21
3843.982237269061
 31
0.0
  0
LINE
  5
7B03
  8
1
  6
CONTINUOUS
 10
3604.1826362150159
 20
3271.6822372690622
 30
0.0
 11
2362.5826362150178
 21
3750.6822372690622
 31
0.0
  0
LINE
  5
7B04
  8
1
  6
CONTINUOUS
 10
2616.1826362150159
 20
7149.1553487181864
 30
0.0
 11
3576.1826362150159
 21
7149.1553487181864
 31
0.0
  0
LINE
  5
7B05
  8
1
  6
CONTINUOUS
 10
2956.1826362150182
 20
8209.1553487181864
 30
0.0
 11
3951.1826362150159
 21
8209.1553487181864
 31
0.0
  0
ARC
  5
7B06
  8
1
  6
CONTINUOUS
 10
2456.1826362150159
 20
3993.2822372690621
 30
0.0
 40
260.0
 50
63.700000000000003
 51
248.89999999999989
  0
CIRCLE
  5
7B07
  8
1
  6
CONTINUOUS
 10
2456.1826362150159
 20
3993.2822372690621
 30
0.0
 40
550.0
  0
CIRCLE
  5
7B08
  8
1
  6
CONTINUOUS
 10
2456.1826362150159
 20
3993.2822372690621
 30
0.0
 40
500.0
  0
CIRCLE
  5
7B09
  8
1
  6
CONTINUOUS
 10
2456.1826362150159
 20
3993.2822372690621
 30
0.0
 40
160.0
  0
LINE
  5
7B0A
  8
2
  6
CENTER
 10
6820.3844108027824
 20
3993.2822372690621
 30
0.0
 11
5397.7795148027799
 21
3993.2822372690621
 31
0.0
  0
LINE
  5
7B0B
  8
1
  6
CONTINUOUS
 10
1831.1826362150159
 20
3079.2822372690621
 30
0.0
 11
1831.1826362150159
 21
3014.2822372690621
 31
0.0
  0
LINE
  5
7B0C
  8
1
  6
CONTINUOUS
 10
1831.1826362150159
 20
3223.2822372690621
 30
0.0
 11
1831.1826362150159
 21
3098.2822372690621
 31
0.0
  0
LINE
  5
7B0D
  8
2
  6
CENTER
 10
2456.1826362150159
 20
8327.6285327181868
 30
0.0
 11
2456.1826362150159
 21
6989.2914897181872
 31
0.0
  0
LINE
  5
7B0E
  8
1
  6
CONTINUOUS
 10
3451.1826362150191
 20
3223.2822372690621
 30
0.0
 11
3466.1826362150182
 21
3278.2822372690621
 31
0.0
  0
LINE
  5
7B0F
  8
1
  6
CONTINUOUS
 10
3514.1826362150168
 20
3278.2822372690621
 30
0.0
 11
3514.1826362150168
 21
3348.2822372690621
 31
0.0
  0
LINE
  5
7B10
  8
1
  6
CONTINUOUS
 10
3514.1826362150168
 20
3348.2822372690621
 30
0.0
 11
3523.782636215019
 21
3357.7822372690621
 31
0.0
  0
LINE
  5
7B11
  8
1
  6
CONTINUOUS
 10
2500.1826362150168
 20
4623.2822372690616
 30
0.0
 11
3530.1826362150159
 21
4623.2822372690616
 31
0.0
  0
LINE
  5
7B12
  8
1
  6
CONTINUOUS
 10
2500.1826362150168
 20
4584.2822372690634
 30
0.0
 11
2500.1826362150168
 21
4673.2822372690616
 31
0.0
  0
LINE
  5
7B13
  8
1
  6
CONTINUOUS
 10
1906.1826362150159
 20
8244.1553487181864
 30
0.0
 11
3006.1826362150182
 21
8244.1553487181864
 31
0.0
  0
LINE
  5
7B14
  8
1
  6
CONTINUOUS
 10
1733.282636215017
 20
7391.1553487181864
 30
0.0
 11
3530.1826362150159
 21
7391.1553487181864
 31
0.0
  0
LINE
  5
7B15
  8
1
  6
CONTINUOUS
 10
1733.282636215017
 20
8141.1553487181864
 30
0.0
 11
3530.1826362150159
 21
8141.1553487181864
 31
0.0
  0
LINE
  5
7B16
  8
1
  6
CONTINUOUS
 10
2296.1826362150168
 20
7236.1553487181864
 30
0.0
 11
2616.1826362150159
 21
7236.1553487181864
 31
0.0
  0
LINE
  5
7B17
  8
1
  6
CONTINUOUS
 10
2296.1826362150168
 20
7136.1553487181873
 30
0.0
 11
2616.1826362150159
 21
7136.1553487181873
 31
0.0
  0
LINE
  5
7B18
  8
1
  6
CONTINUOUS
 10
1733.282636215017
 20
7391.1553487181864
 30
0.0
 11
1733.282636215017
 21
8141.1553487181864
 31
0.0
  0
LINE
  5
7B19
  8
1
  6
CONTINUOUS
 10
1831.1826362150159
 20
7149.1553487181864
 30
0.0
 11
2296.1826362150168
 21
7149.1553487181864
 31
0.0
  0
LINE
  5
7B1A
  8
1
  6
CONTINUOUS
 10
1831.1826362150159
 20
7391.1553487181864
 30
0.0
 11
1831.1826362150159
 21
7149.1553487181864
 31
0.0
  0
LINE
  5
7B1B
  8
1
  6
CONTINUOUS
 10
2196.1826362150159
 20
7086.1553487181864
 30
0.0
 11
2196.1826362150159
 21
7286.1553487181864
 31
0.0
  0
LINE
  5
7B1C
  8
1
  6
CONTINUOUS
 10
2296.1826362150168
 20
7136.1553487181873
 30
0.0
 11
2296.1826362150168
 21
7236.1553487181864
 31
0.0
  0
LINE
  5
7B1D
  8
1
  6
CONTINUOUS
 10
1956.1826362150159
 20
8141.1553487181864
 30
0.0
 11
1956.1826362150159
 21
8244.1553487181864
 31
0.0
  0
LINE
  5
7B1E
  8
1
  6
CONTINUOUS
 10
1831.1826362150159
 20
8209.1553487181864
 30
0.0
 11
1956.1826362150159
 21
8209.1553487181864
 31
0.0
  0
LINE
  5
7B1F
  8
1
  6
CONTINUOUS
 10
1831.1826362150159
 20
8209.1553487181864
 30
0.0
 11
1831.1826362150159
 21
8141.1553487181864
 31
0.0
  0
LINE
  5
7B20
  8
1
  6
CONTINUOUS
 10
2500.1826362150168
 20
8141.1553487181864
 30
0.0
 11
3530.1826362150159
 21
7391.1553487181864
 31
0.0
  0
LINE
  5
7B21
  8
1
  6
CONTINUOUS
 10
3530.1826362150159
 20
8141.1553487181864
 30
0.0
 11
2500.1826362150168
 21
7391.1553487181864
 31
0.0
  0
LINE
  5
7B22
  8
1
  6
CONTINUOUS
 10
2500.1826362150168
 20
7391.1553487181864
 30
0.0
 11
2500.1826362150168
 21
8141.1553487181864
 31
0.0
  0
LINE
  5
7B23
  8
1
  6
CONTINUOUS
 10
2616.1826362150159
 20
7136.1553487181873
 30
0.0
 11
2616.1826362150159
 21
7236.1553487181864
 31
0.0
  0
LINE
  5
7B24
  8
1
  6
CONTINUOUS
 10
2432.1826362150168
 20
7236.1553487181864
 30
0.0
 11
2432.1826362150168
 21
7391.1553487181864
 31
0.0
  0
LINE
  5
7B25
  8
1
  6
CONTINUOUS
 10
2480.1826362150168
 20
7236.1553487181864
 30
0.0
 11
2480.1826362150168
 21
7391.1553487181864
 31
0.0
  0
LINE
  5
7B26
  8
1
  6
CONTINUOUS
 10
3530.1826362150159
 20
7391.1553487181864
 30
0.0
 11
3530.1826362150159
 21
8141.1553487181864
 31
0.0
  0
LINE
  5
7B27
  8
1
  6
CONTINUOUS
 10
3493.6826362150168
 20
7309.555348718186
 30
0.0
 11
3493.6826362150168
 21
7391.1553487181864
 31
0.0
  0
LINE
  5
7B28
  8
1
  6
CONTINUOUS
 10
2956.1826362150182
 20
8141.1553487181864
 30
0.0
 11
2956.1826362150182
 21
8244.1553487181864
 31
0.0
  0
ARC
  5
7B29
  8
1
  6
CONTINUOUS
 10
3676.1826362150159
 20
3458.282237269063
 30
0.0
 40
200.0
 50
248.89999999999989
 51
63.700000000000003
  0
LINE
  5
7B2A
  8
2
  6
CENTER
 10
3676.1826362150159
 20
3353.2822372690621
 30
0.0
 11
3676.1826362150159
 21
3563.2822372690621
 31
0.0
  0
CIRCLE
  5
7B2B
  8
1
  6
CONTINUOUS
 10
3676.1826362150159
 20
3458.282237269063
 30
0.0
 40
100.0
  0
LINE
  5
7B2C
  8
1
  6
CONTINUOUS
 10
3838.1826362150168
 20
3278.2822372690621
 30
0.0
 11
3838.1826362150168
 21
3348.2822372690621
 31
0.0
  0
LINE
  5
7B2D
  8
1
  6
CONTINUOUS
 10
3838.1826362150168
 20
3348.2822372690621
 30
0.0
 11
3828.5826362150178
 21
3357.7822372690621
 31
0.0
  0
LINE
  5
7B2E
  8
1
  6
CONTINUOUS
 10
3951.1826362150159
 20
3079.2822372690621
 30
0.0
 11
3951.1826362150159
 21
3014.2822372690621
 31
0.0
  0
LINE
  5
7B2F
  8
1
  6
CONTINUOUS
 10
3901.1826362150168
 20
3223.2822372690621
 30
0.0
 11
3886.1826362150159
 21
3278.2822372690621
 31
0.0
  0
LINE
  5
7B30
  8
1
  6
CONTINUOUS
 10
3951.1826362150159
 20
3223.2822372690621
 30
0.0
 11
3951.1826362150159
 21
3098.2822372690621
 31
0.0
  0
LINE
  5
7B31
  8
2
  6
CENTER
 10
3781.1826362150168
 20
3458.282237269063
 30
0.0
 11
3571.1826362150159
 21
3458.282237269063
 31
0.0
  0
LINE
  5
7B32
  8
1
  6
CONTINUOUS
 10
3951.1826362150159
 20
8209.1553487181864
 30
0.0
 11
3951.1826362150159
 21
7149.1553487181864
 31
0.0
  0
LINE
  5
7B33
  8
1
  6
CONTINUOUS
 10
3858.6826362150159
 20
7309.555348718186
 30
0.0
 11
3858.6826362150159
 21
7871.055348718186
 31
0.0
  0
LINE
  5
7B34
  8
1
  6
CONTINUOUS
 10
3776.1826362150168
 20
7149.1553487181864
 30
0.0
 11
3951.1826362150159
 21
7149.1553487181864
 31
0.0
  0
LINE
  5
7B35
  8
1
  6
CONTINUOUS
 10
3776.1826362150168
 20
7136.1553487181873
 30
0.0
 11
3776.1826362150168
 21
7236.1553487181864
 31
0.0
  0
LINE
  5
7B36
  8
1
  6
CONTINUOUS
 10
3576.1826362150159
 20
7136.1553487181873
 30
0.0
 11
3576.1826362150159
 21
7236.1553487181864
 31
0.0
  0
LINE
  5
7B37
  8
1
  6
CONTINUOUS
 10
3576.1826362150159
 20
7136.1553487181873
 30
0.0
 11
3776.1826362150168
 21
7136.1553487181873
 31
0.0
  0
LINE
  5
7B38
  8
1
  6
CONTINUOUS
 10
3576.1826362150159
 20
7236.1553487181864
 30
0.0
 11
3776.1826362150168
 21
7236.1553487181864
 31
0.0
  0
LINE
  5
7B39
  8
1
  6
CONTINUOUS
 10
3700.1826362150159
 20
7236.1553487181864
 30
0.0
 11
3700.1826362150159
 21
7309.555348718186
 31
0.0
  0
LINE
  5
7B3A
  8
1
  6
CONTINUOUS
 10
3652.1826362150168
 20
7236.1553487181864
 30
0.0
 11
3652.1826362150168
 21
7309.555348718186
 31
0.0
  0
LINE
  5
7B3B
  8
1
  6
CONTINUOUS
 10
3876.1826362150159
 20
7086.1553487181864
 30
0.0
 11
3876.1826362150159
 21
7286.1553487181864
 31
0.0
  0
LINE
  5
7B3C
  8
1
  6
CONTINUOUS
 10
6597.4464398027803
 20
4623.2822372690616
 30
0.0
 11
5847.4464398027803
 21
4623.2822372690616
 31
0.0
  0
LINE
  5
7B3D
  8
1
  6
CONTINUOUS
 10
6665.4464398027803
 20
3223.2822372690621
 30
0.0
 11
5605.4464398027803
 21
3223.2822372690621
 31
0.0
  0
LINE
  5
7B3E
  8
1
  6
CONTINUOUS
 10
6665.4464398027803
 20
3098.2822372690621
 30
0.0
 11
5605.4464398027803
 21
3098.2822372690621
 31
0.0
  0
LINE
  5
7B3F
  8
1
  6
CONTINUOUS
 10
6647.4464398027812
 20
4673.2822372690616
 30
0.0
 11
5797.4464398027803
 21
4673.2822372690616
 31
0.0
  0
LINE
  5
7B40
  8
1
  6
CONTINUOUS
 10
6665.4464398027803
 20
3014.2822372690621
 30
0.0
 11
5605.4464398027803
 21
3014.2822372690621
 31
0.0
  0
LINE
  5
7B41
  8
1
  6
CONTINUOUS
 10
6665.4464398027803
 20
3079.2822372690621
 30
0.0
 11
5605.4464398027803
 21
3079.2822372690621
 31
0.0
  0
LINE
  5
7B42
  8
1
  6
CONTINUOUS
 10
5847.4464398027803
 20
4673.2822372690616
 30
0.0
 11
5847.4464398027803
 21
3223.2822372690621
 31
0.0
  0
LINE
  5
7B46
  8
1
  6
CONTINUOUS
 10
5692.4464398027803
 20
3558.282237269063
 30
0.0
 11
5692.4464398027803
 21
3358.282237269063
 31
0.0
  0
LINE
  5
7B47
  8
1
  6
CONTINUOUS
 10
5592.4464398027803
 20
3558.282237269063
 30
0.0
 11
5592.4464398027803
 21
3358.282237269063
 31
0.0
  0
LINE
  5
7B48
  8
1
  6
CONTINUOUS
 10
5542.4464398027803
 20
4259.9822372690624
 30
0.0
 11
5542.4464398027803
 21
3258.2822372690621
 31
0.0
  0
LINE
  5
7B49
  8
1
  6
CONTINUOUS
 10
5742.4464398027803
 20
4259.9822372690624
 30
0.0
 11
5742.4464398027803
 21
3258.2822372690621
 31
0.0
  0
LINE
  5
7B4A
  8
1
  6
CONTINUOUS
 10
5592.4464398027803
 20
3358.282237269063
 30
0.0
 11
5692.4464398027803
 21
3358.282237269063
 31
0.0
  0
LINE
  5
7B4B
  8
1
  6
CONTINUOUS
 10
5542.4464398027803
 20
3258.2822372690621
 30
0.0
 11
5742.4464398027803
 21
3258.2822372690621
 31
0.0
  0
LINE
  5
7B4C
  8
1
  6
CONTINUOUS
 10
5605.4464398027803
 20
3223.2822372690621
 30
0.0
 11
5605.4464398027803
 21
3098.2822372690621
 31
0.0
  0
POINT
  5
7B4D
  8
1
  6
CONTINUOUS
 10
5605.4464398027803
 20
3079.2822372690621
 30
0.0
  0
LINE
  5
7B4E
  8
1
  6
CONTINUOUS
 10
5605.4464398027803
 20
3079.2822372690621
 30
0.0
 11
5605.4464398027803
 21
3014.2822372690621
 31
0.0
  0
LINE
  5
7B4F
  8
1
  6
CONTINUOUS
 10
5847.4464398027803
 20
3488.982237269061
 30
0.0
 11
5692.4464398027803
 21
3488.982237269061
 31
0.0
  0
LINE
  5
7B50
  8
1
  6
CONTINUOUS
 10
5847.4464398027803
 20
3440.982237269061
 30
0.0
 11
5692.4464398027803
 21
3440.982237269061
 31
0.0
  0
LINE
  5
7B51
  8
1
  6
CONTINUOUS
 10
5847.4464398027803
 20
3975.982237269061
 30
0.0
 11
5692.4464398027803
 21
3975.982237269061
 31
0.0
  0
LINE
  5
7B52
  8
1
  6
CONTINUOUS
 10
5847.4464398027803
 20
4023.9822372690619
 30
0.0
 11
5692.4464398027803
 21
4023.9822372690619
 31
0.0
  0
LINE
  5
7B53
  8
1
  6
CONTINUOUS
 10
5592.4464398027803
 20
3826.482237269061
 30
0.0
 11
5692.4464398027803
 21
3826.482237269061
 31
0.0
  0
LINE
  5
7B54
  8
1
  6
CONTINUOUS
 10
5592.4464398027803
 20
4159.9822372690614
 30
0.0
 11
5692.4464398027803
 21
4159.9822372690614
 31
0.0
  0
LINE
  5
7B55
  8
1
  6
CONTINUOUS
 10
5592.4464398027803
 20
3558.282237269063
 30
0.0
 11
5692.4464398027803
 21
3558.282237269063
 31
0.0
  0
LINE
  5
7B56
  8
1
  6
CONTINUOUS
 10
5692.4464398027803
 20
4159.9822372690614
 30
0.0
 11
5692.4464398027803
 21
3826.482237269061
 31
0.0
  0
LINE
  5
7B57
  8
1
  6
CONTINUOUS
 10
5592.4464398027803
 20
4159.9822372690614
 30
0.0
 11
5592.4464398027803
 21
3826.482237269061
 31
0.0
  0
LINE
  5
7B58
  8
1
  6
CONTINUOUS
 10
5542.4464398027803
 20
4259.9822372690624
 30
0.0
 11
5742.4464398027803
 21
4259.9822372690624
 31
0.0
  0
LINE
  5
7B59
  8
1
  6
CONTINUOUS
 10
6597.4464398027803
 20
4673.2822372690616
 30
0.0
 11
6597.4464398027803
 21
3223.2822372690621
 31
0.0
  0
LINE
  5
7B5A
  8
1
  6
CONTINUOUS
 10
6700.4464398027812
 20
4543.2822372690616
 30
0.0
 11
6700.4464398027812
 21
3443.2822372690621
 31
0.0
  0
LINE
  5
7B5B
  8
1
  6
CONTINUOUS
 10
6700.4464398027812
 20
3493.2822372690621
 30
0.0
 11
6597.4464398027803
 21
3493.2822372690621
 31
0.0
  0
LINE
  5
7B5C
  8
1
  6
CONTINUOUS
 10
6665.4464398027803
 20
3223.2822372690621
 30
0.0
 11
6665.4464398027803
 21
3098.2822372690621
 31
0.0
  0
LINE
  5
7B5D
  8
1
  6
CONTINUOUS
 10
6665.4464398027803
 20
3079.2822372690621
 30
0.0
 11
6665.4464398027803
 21
3014.2822372690621
 31
0.0
  0
LINE
  5
7B5E
  8
1
  6
CONTINUOUS
 10
6700.4464398027812
 20
4493.2822372690616
 30
0.0
 11
6597.4464398027803
 21
4493.2822372690616
 31
0.0
  0
DIMENSION
  5
7B72
  8
3
  6
CONTINUOUS
  2
*D1
 10
2456.1826362150159
 20
2709.0139612690618
 30
0.0
 11
2181.8969219293022
 21
2709.0139612690618
 31
0.0
 70
   128
 13
1831.1826362150159
 23
3014.2822372690621
 33
0.0
 14
2456.1826362150159
 24
2905.318024269061
 34
0.0
1001
ACAD
1000
DSTYLE
1002
{
1070
   287
1070
     3
1070
   287
1070
     3
1070
    40
1040
40.0
1070
   143
1040
0.039
1070
   172
1070
     1
1070
   271
1070
     0
1070
   279
1070
     0
1070
   288
1070
     1
1002
}
  0
DIMENSION
  5
7B7E
  8
3
  6
CONTINUOUS
  2
*D2
 10
3951.1826362150159
 20
2709.0139612690618
 30
0.0
 11
3203.6826362150159
 21
2809.0139612690618
 31
0.0
 70
     0
 13
2456.1826362150159
 23
2905.318024269061
 33
0.0
 14
3951.1826362150159
 24
3014.2822372690621
 34
0.0
1001
ACAD
1000
DSTYLE
1002
{
1070
   287
1070
     3
1070
   287
1070
     3
1070
    40
1040
40.0
1070
   143
1040
0.039
1070
   172
1070
     1
1070
   271
1070
     0
1070
   279
1070
     0
1070
   288
1070
     1
1002
}
  0
DIMENSION
  5
7B8B
  8
3
  6
CONTINUOUS
  2
*D3
 10
3530.1826362150159
 20
4919.6096832690628
 30
0.0
 11
2984.2604632150169
 21
4919.6096832690628
 31
0.0
 70
   128
 13
2500.1826362150168
 23
4673.2822372690616
 33
0.0
 14
3530.1826362150159
 24
4673.2822372690616
 34
0.0
1001
ACAD
1000
DSTYLE
1002
{
1070
   287
1070
     3
1070
   287
1070
     3
1070
    40
1040
40.0
1070
   143
1040
0.039
1070
   172
1070
     1
1070
   271
1070
     0
1070
   279
1070
     0
1070
   288
1070
     1
1002
}
  0
DIMENSION
  5
7B98
  8
3
  6
CONTINUOUS
  2
*D4
 10
2456.1826362150159
 20
5193.4416252690626
 30
0.0
 11
2955.764511215019
 21
5193.4416252690626
 31
0.0
 70
   128
 13
3530.1826362150159
 23
4673.2822372690616
 33
0.0
 14
2456.1826362150159
 24
4588.5769742690609
 34
0.0
1001
ACAD
1000
DSTYLE
1002
{
1070
   287
1070
     3
1070
   287
1070
     3
1070
    40
1040
40.0
1070
   143
1040
0.039
1070
   172
1070
     1
1070
   271
1070
     0
1070
   279
1070
     0
1070
   288
1070
     1
1002
}
  0
DIMENSION
  5
7BA4
  8
3
  6
CONTINUOUS
  2
*D5
 10
1736.1826362150171
 20
5193.4416252690626
 30
0.0
 11
2096.1826362150159
 21
5293.4416252690617
 31
0.0
 70
     0
 13
2456.1826362150159
 23
4588.5769742690609
 33
0.0
 14
1736.1826362150171
 24
3993.2822372690621
 34
0.0
1001
ACAD
1000
DSTYLE
1002
{
1070
   287
1070
     3
1070
   287
1070
     3
1070
    40
1040
40.0
1070
   143
1040
0.039
1070
   172
1070
     1
1070
   271
1070
     0
1070
   279
1070
     0
1070
   288
1070
     1
1002
}
  0
DIMENSION
  5
7BB1
  8
3
  6
CONTINUOUS
  2
*D6
 10
4232.951370215018
 20
3993.2822372690621
 30
0.0
 11
4232.951370215018
 21
4398.9965229833479
 31
0.0
 70
   128
 13
3583.1826362150159
 23
4673.2822372690616
 33
0.0
 14
3472.1826362150182
 24
3993.2822372690621
 34
0.0
 50
90.0
1001
ACAD
1000
DSTYLE
1002
{
1070
   287
1070
     3
1070
   287
1070
     3
1070
    40
1040
40.0
1070
   143
1040
0.039
1070
   172
1070
     1
1070
   271
1070
     0
1070
   279
1070
     0
1070
   288
1070
     1
1002
}
  0
DIMENSION
  5
7BBD
  8
3
  6
CONTINUOUS
  2
*D7
 10
4232.951370215018
 20
3098.2822372690621
 30
0.0
 11
4132.9513702150171
 21
3545.782237269063
 31
0.0
 70
     0
 13
3472.1826362150182
 23
3993.2822372690621
 33
0.0
 14
3951.1826362150159
 24
3098.2822372690621
 34
0.0
 50
90.0
1001
ACAD
1000
DSTYLE
1002
{
1070
   287
1070
     3
1070
   287
1070
     3
1070
    40
1040
40.0
1070
   143
1040
0.039
1070
   172
1070
     1
1070
   271
1070
     0
1070
   279
1070
     0
1070
   288
1070
     1
1002
}
  0
DIMENSION
  5
7BCD
  8
3
  6
CONTINUOUS
  2
*D8
 10
4232.951370215018
 20
3014.2822372690621
 30
0.0
 11
4232.951370215018
 21
2714.282237269063
 31
0.0
 70
   128
 13
3951.1826362150159
 23
3098.2822372690621
 33
0.0
 14
3951.1826362150159
 24
3014.2822372690621
 34
0.0
 50
90.0
1001
ACAD
1000
DSTYLE
1002
{
1070
   287
1070
     3
1070
   287
1070
     3
1070
    40
1040
40.0
1070
   143
1040
0.039
1070
   172
1070
     1
1070
   271
1070
     0
1070
   279
1070
     0
1070
   288
1070
     1
1002
}
  0
DIMENSION
  5
7BF4
  8
3
  6
CONTINUOUS
  2
*D9
 10
4552.105796215018
 20
3014.2822372690621
 30
0.0
 11
4552.1057962150171
 21
3847.6205182690619
 31
0.0
 70
   128
 13
3583.1826362150159
 23
4673.2822372690616
 33
0.0
 14
3951.1826362150159
 24
3014.2822372690621
 34
0.0
 50
90.0
1001
ACAD
1000
DSTYLE
1002
{
1070
   287
1070
     3
1070
   287
1070
     3
1070
    40
1040
40.0
1070
   143
1040
0.039
1070
   172
1070
     1
1070
   271
1070
     0
1070
   279
1070
     0
1070
   288
1070
     1
1002
}
  0
LINE
  5
7BF5
  8
2
  6
CENTER
 10
3614.0163842150182
 20
3993.2822372690621
 30
0.0
 11
1674.4022422150169
 21
3993.2822372690621
 31
0.0
  0
LINE
  5
7BF6
  8
2
  6
CENTER
 10
3678.3615112150178
 20
7766.1553487181864
 30
0.0
 11
1582.829772215018
 21
7766.1553487181864
 31
0.0
  0
LINE
  5
7BF7
  8
2
  6
CENTER
 10
2456.1826362150159
 20
4701.0090952690616
 30
0.0
 11
2456.1826362150159
 21
2905.318024269061
 31
0.0
  0
DIMENSION
  5
7C04
  8
3
  6
CONTINUOUS
  2
*D10
 10
3951.1826362150159
 20
6733.1050547181858
 30
0.0
 11
2984.8296202150182
 21
6733.1050547181858
 31
0.0
 70
   128
 13
1831.1826362150159
 23
7149.1553487181864
 33
0.0
 14
3951.1826362150159
 24
7149.1553487181864
 34
0.0
1001
ACAD
1000
DSTYLE
1002
{
1070
   287
1070
     3
1070
   287
1070
     3
1070
    40
1040
40.0
1070
   143
1040
0.039
1070
   172
1070
     1
1070
   271
1070
     0
1070
   279
1070
     0
1070
   288
1070
     1
1002
}
  0
DIMENSION
  5
7C11
  8
3
  6
CONTINUOUS
  2
*D11
 10
4381.1303532150177
 20
7149.1553487181864
 30
0.0
 11
4381.1303532150168
 21
7651.382439718187
 31
0.0
 70
   128
 13
3951.1826362150159
 23
8209.1553487181864
 33
0.0
 14
3951.1826362150159
 24
7149.1553487181864
 34
0.0
 50
90.0
1001
ACAD
1000
DSTYLE
1002
{
1070
   287
1070
     3
1070
   287
1070
     3
1070
    40
1040
40.0
1070
   143
1040
0.039
1070
   172
1070
     1
1070
   271
1070
     0
1070
   279
1070
     0
1070
   288
1070
     1
1002
}
  0
LINE
  5
7C12
  8
2
  6
CENTER
 10
6222.4464398027803
 20
4906.5831322690619
 30
0.0
 11
6222.4464398027803
 21
2880.3425872690618
 31
0.0
  0
DIMENSION
  5
7C1F
  8
3
  6
CONTINUOUS
  2
*D12
 10
7069.9177358027819
 20
3493.2822372690621
 30
0.0
 11
7069.917735802781
 21
3962.0187362690631
 31
0.0
 70
   128
 13
6700.4464398027812
 23
4493.2822372690616
 33
0.0
 14
6700.4464398027812
 24
3493.2822372690621
 34
0.0
 50
90.0
1001
ACAD
1000
DSTYLE
1002
{
1070
   287
1070
     3
1070
   287
1070
     3
1070
     3
1000
φ<>
1070
    40
1040
40.0
1070
   143
1040
0.039
1070
   172
1070
     1
1070
   271
1070
     0
1070
   279
1070
     0
1070
   288
1070
     1
1002
}
  0
DIMENSION
  5
7C2C
  8
3
  6
CONTINUOUS
  2
*D13
 10
6597.4464398027803
 20
4896.2424492690616
 30
0.0
 11
6121.732154088495
 21
4896.2424492690616
 31
0.0
 70
   128
 13
5847.4464398027803
 23
4673.2822372690616
 33
0.0
 14
6597.4464398027803
 24
4673.2822372690616
 34
0.0
1001
ACAD
1000
DSTYLE
1002
{
1070
   287
1070
     3
1070
   287
1070
     3
1070
    40
1040
40.0
1070
   143
1040
0.039
1070
   172
1070
     1
1070
   271
1070
     0
1070
   279
1070
     0
1070
   288
1070
     1
1002
}
  0
DIMENSION
  5
7C39
  8
3
  6
CONTINUOUS
  2
*D14
 10
6222.4464398027803
 20
5154.7091062690633
 30
0.0
 11
5833.8750112313519
 21
5154.7091062690633
 31
0.0
 70
   128
  1
MAX\P770
 13
5542.4464398027803
 23
4259.9822372690624
 33
0.0
 14
6222.4464398027803
 24
5107.3958812690616
 34
0.0
1001
ACAD
1000
DSTYLE
1002
{
1070
   287
1070
     3
1070
   287
1070
     3
1070
    40
1040
40.0
1070
   143
1040
0.039
1070
   172
1070
     1
1070
   271
1070
     0
1070
   279
1070
     0
1070
   288
1070
     1
1002
}
  0
DIMENSION
  5
7C47
  8
3
  6
CONTINUOUS
  2
*D15
 10
6700.4464398027812
 20
5154.7091062690633
 30
0.0
 11
6461.4464398027812
 21
5262.362329147978
 31
0.0
 70
   128
 13
6222.4464398027803
 23
5107.3958812690616
 33
0.0
 14
6700.4464398027812
 24
4543.2822372690616
 34
0.0
1001
ACAD
1000
DSTYLE
1002
{
1070
   288
1070
     1
1070
   172
1070
     1
1070
    40
1040
40.0
1070
   271
1070
     0
1070
   143
1040
0.039
1002
}
  0
DIMENSION
  5
7C6A
  8
3
  6
CONTINUOUS
  2
*D16
 10
6222.4464398027803
 20
2691.3545572690632
 30
0.0
 11
5959.5892969456372
 21
2691.3545572690632
 31
0.0
 70
   128
 13
5605.4464398027803
 23
3014.2822372690621
 33
0.0
 14
6222.4464398027803
 24
2880.3425872690618
 34
0.0
1001
ACAD
1000
DSTYLE
1002
{
1070
   287
1070
     3
1070
   287
1070
     3
1070
    40
1040
40.0
1070
   143
1040
0.039
1070
   172
1070
     1
1070
   271
1070
     0
1070
   279
1070
     0
1070
   288
1070
     1
1002
}
  0
DIMENSION
  5
7C78
  8
3
  6
CONTINUOUS
  2
*D17
 10
6665.4464398027803
 20
2691.3545572690632
 30
0.0
 11
6443.9464398027812
 21
2785.5664549848302
 31
0.0
 70
   128
 13
6222.4464398027803
 23
2880.3425872690618
 33
0.0
 14
6665.4464398027803
 24
3014.2822372690621
 34
0.0
1001
ACAD
1000
DSTYLE
1002
{
1070
   288
1070
     1
1070
   172
1070
     1
1070
    40
1040
40.0
1070
   271
1070
     0
1070
   143
1040
0.039
1002
}
  0
LINE
  5
7C8F
  8
4
  6
CONTINUOUS
 10
7400.0
 20
2000.0
 30
0.0
 11
7400.0
 21
1200.0
 31
0.0
  0
LINE
  5
7C90
  8
4
  6
CONTINUOUS
 10
4600.0
 20
2000.0
 30
0.0
 11
4600.0
 21
1200.0
 31
0.0
  0
LINE
  5
7C91
  8
4
  6
CONTINUOUS
 10
2600.0
 20
2000.0
 30
0.0
 11
2600.0
 21
1200.0
 31
0.0
  0
LINE
  5
7C94
  8
4
  6
CONTINUOUS
 10
2600.0
 20
1200.0
 30
0.0
 11
7400.0
 21
1200.0
 31
0.0
  0
LINE
  5
7C95
  8
4
  6
CONTINUOUS
 10
2600.0
 20
1600.0
 30
0.0
 11
7400.0
 21
1600.0
 31
0.0
  0
TEXT
  5
7C96
  8
4
  6
CONTINUOUS
 10
2754.0083232000002
 20
1726.1721031999989
 30
0.0
 40
200.0
  1
機器名称
  0
TEXT
  5
7C97
  8
4
  6
CONTINUOUS
 10
2745.032424
 20
1286.5806264
 30
0.0
 40
200.0
  1
機器型番
  0
TEXT
  5
7C98
  8
4
  6
CONTINUOUS
 10
4710.7149823999989
 20
1690.2870751999999
 30
0.0
 40
168.88888879999999
  1
ミツヤリミットロードファン
  0
TEXT
  5
7C99
  8
4
  6
CONTINUOUS
 10
4746.6179824000001
 20
1268.6383367999999
 30
0.0
 40
200.0
  1
LLE#6-4
  0
TEXT
  5
7C9B
  8
4
  6
CONTINUOUS
 10
2837.6375671999999
 20
9533.7153655999991
 30
0.0
 40
216.0
  1
床置防振ベット
  0
TEXT
  5
7C9C
  8
4
  6
CONTINUOUS
 10
1264.6703735999999
 20
10135.5239048
 30
0.0
 40
240.0
  1
ベルト駆動式片吸込両持排煙ファン
  0
LINE
  5
7C9D
  8
4
  6
CONTINUOUS
 10
1000.0
 20
9877.635016799999
 30
0.0
 11
7400.0
 21
9877.635016799999
 31
0.0
  0
LINE
  5
7C9E
  8
4
  6
CONTINUOUS
 10
1000.0
 20
10677.635016800001
 30
0.0
 11
7400.0
 21
10677.635016800001
 31
0.0
  0
LINE
  5
7C9F
  8
4
  6
CONTINUOUS
 10
2600.0
 20
2000.0
 30
0.0
 11
7400.0
 21
2000.0
 31
0.0
  0
LINE
  5
7CA0
  8
4
  6
CONTINUOUS
 10
1000.0
 20
10677.635016800001
 30
0.0
 11
1000.0
 21
9877.635016799999
 31
0.0
  0
TEXT
  5
7CA1
  8
4
  6
CONTINUOUS
 10
1094.2022376
 20
9529.2779104000001
 30
0.0
 40
216.0
  1
左回転上向
  0
TEXT
  5
7CA2
  8
4
  6
CONTINUOUS
 10
5875.8782375999999
 20
10824.244326399999
 30
0.0
 40
224.0
  1
No.
  0
TEXT
  5
7CA3
  8
4
  6
CONTINUOUS
 10
5245.1842504000006
 20
9533.7153655999991
 30
0.0
 40
216.0
  1
縮尺：1/40
  0
LINE
  5
7CA4
  8
4
  6
CONTINUOUS
 10
7400.0
 20
10677.635016800001
 30
0.0
 11
7400.0
 21
9877.635016799999
 31
0.0
  0
LINE
  5
7CA6
  8
4
  6
CONTINUOUS
 10
5762.4696895999996
 20
10725.0543328
 30
0.0
 11
5762.4696895999996
 21
11146.609046400001
 31
0.0
  0
LINE
  5
7CA7
  8
4
  6
CONTINUOUS
 10
5762.4696895999996
 20
11146.609046400001
 30
0.0
 11
7400.0
 21
11146.609046400001
 31
0.0
  0
LINE
  5
7CA8
  8
4
  6
CONTINUOUS
 10
7400.0
 20
11146.609046400001
 30
0.0
 11
7400.0
 21
10725.0543328
 31
0.0
  0
LINE
  5
7CA9
  8
4
  6
CONTINUOUS
 10
7400.0
 20
10725.0543328
 30
0.0
 11
5762.4696895999996
 21
10725.0543328
 31
0.0
  0
DIMENSION
  5
7DFA
  8
3
  2
*D18
 10
3951.1826362150159
 20
5463.1166887024046
 30
0.0
 11
2807.5565010786959
 21
5463.1166887024046
 31
0.0
 70
   128
 13
1736.1826362150171
 23
4013.2822372690621
 33
0.0
 14
3951.1826362150159
 24
3223.2822372690621
 34
0.0
1001
ACAD
1000
DSTYLE
1002
{
1070
   287
1070
     3
1070
   287
1070
     3
1070
    40
1040
40.0
1070
   143
1040
0.039
1070
   172
1070
     1
1070
   271
1070
     0
1070
   279
1070
     0
1070
   288
1070
     1
1002
}
  0
ENDSEC
  0
EOF
