  0
SECTION
  2
HEADER
  9
$ACADVER
  1
AC1009
  9
$INSBASE
 10
0.0
 20
0.0
 30
0.0
  9
$EXTMIN
 10
1000.0
 20
1200.0
 30
0.0
  9
$EXTMAX
 10
7400.0
 20
11146.609046400001
 30
0.0
  9
$LIMMIN
 10
0.0
 20
0.0
  9
$LIMMAX
 10
297.0
 20
210.0
  9
$ORTHOMODE
 70
     0
  9
$REGENMODE
 70
     1
  9
$FILLMODE
 70
     0
  9
$QTEXTMODE
 70
     0
  9
$MIRRTEXT
 70
     1
  9
$DRAGMODE
 70
     2
  9
$LTSCALE
 40
100.0
  9
$OSMODE
 70
    37
  9
$ATTMODE
 70
     1
  9
$TEXTSIZE
 40
180.0
  9
$TRACEWID
 40
0.05
  9
$TEXTSTYLE
  7
STANDARD
  9
$CLAYER
  8
3
  9
$CELTYPE
  6
BYLAYER
  9
$CECOLOR
 62
   256
  9
$DIMSCALE
 40
40.0
  9
$DIMASZ
 40
2.0
  9
$DIMEXO
 40
0.5
  9
$DIMDLI
 40
10.0
  9
$DIMRND
 40
0.0
  9
$DIMDLE
 40
0.0
  9
$DIMEXE
 40
1.0
  9
$DIMTP
 40
1.0
  9
$DIMTM
 40
1.0
  9
$DIMTXT
 40
3.0
  9
$DIMCEN
 40
0.0
  9
$DIMTSZ
 40
0.0
  9
$DIMTOL
 70
     0
  9
$DIMLIM
 70
     0
  9
$DIMTIH
 70
     0
  9
$DIMTOH
 70
     0
  9
$DIMSE1
 70
     0
  9
$DIMSE2
 70
     0
  9
$DIMTAD
 70
     1
  9
$DIMZIN
 70
     8
  9
$DIMBLK
  1

  9
$DIMASO
 70
     1
  9
$DIMSHO
 70
     1
  9
$DIMPOST
  1

  9
$DIMAPOST
  1

  9
$DIMALT
 70
     0
  9
$DIMALTD
 70
     2
  9
$DIMALTF
 40
0.039
  9
$DIMLFAC
 40
1.0
  9
$DIMTOFL
 70
     1
  9
$DIMTVP
 40
0.0
  9
$DIMTIX
 70
     0
  9
$DIMSOXD
 70
     0
  9
$DIMSAH
 70
     1
  9
$DIMBLK1
  1
OPEN
  9
$DIMBLK2
  1
OPEN
  9
$DIMSTYLE
  2
IGA
  9
$DIMCLRD
 70
     0
  9
$DIMCLRE
 70
     0
  9
$DIMCLRT
 70
     0
  9
$DIMTFAC
 40
10.0
  9
$DIMGAP
 40
1.0
  9
$LUNITS
 70
     2
  9
$LUPREC
 70
     3
  9
$SKETCHINC
 40
0.1
  9
$FILLETRAD
 40
50.0
  9
$AUNITS
 70
     0
  9
$AUPREC
 70
     0
  9
$MENU
  1
acad
  9
$ELEVATION
 40
0.0
  9
$PELEVATION
 40
0.0
  9
$THICKNESS
 40
0.0
  9
$LIMCHECK
 70
     0
  9
$BLIPMODE
 70
     0
  9
$CHAMFERA
 40
0.5
  9
$CHAMFERB
 40
0.5
  9
$SKPOLY
 70
     0
  9
$TDCREATE
 40
2450751.4480280089
  9
$TDUPDATE
 40
2454953.6866930672
  9
$TDINDWG
 40
0.0083198148
  9
$TDUSRTIMER
 40
0.0083198148
  9
$USRTIMER
 70
     1
  9
$ANGBASE
 50
0.0
  9
$ANGDIR
 70
     0
  9
$PDMODE
 70
     0
  9
$PDSIZE
 40
0.0
  9
$PLINEWID
 40
0.0
  9
$COORDS
 70
     1
  9
$SPLFRAME
 70
     0
  9
$SPLINETYPE
 70
     6
  9
$SPLINESEGS
 70
     8
  9
$ATTDIA
 70
     0
  9
$ATTREQ
 70
     1
  9
$HANDLING
 70
 10241
  9
$HANDSEED
  5
7F46
  9
$SURFTAB1
 70
     6
  9
$SURFTAB2
 70
     6
  9
$SURFTYPE
 70
     6
  9
$SURFU
 70
     6
  9
$SURFV
 70
     6
  9
$UCSNAME
  2

  9
$UCSORG
 10
0.0
 20
0.0
 30
0.0
  9
$UCSXDIR
 10
1.0
 20
0.0
 30
0.0
  9
$UCSYDIR
 10
0.0
 20
1.0
 30
0.0
  9
$PUCSNAME
  2

  9
$PUCSORG
 10
0.0
 20
0.0
 30
0.0
  9
$PUCSXDIR
 10
1.0
 20
0.0
 30
0.0
  9
$PUCSYDIR
 10
0.0
 20
1.0
 30
0.0
  9
$USERI1
 70
     0
  9
$USERI2
 70
     0
  9
$USERI3
 70
     0
  9
$USERI4
 70
     0
  9
$USERI5
 70
     0
  9
$USERR1
 40
0.0
  9
$USERR2
 40
0.0
  9
$USERR3
 40
0.0
  9
$USERR4
 40
0.0
  9
$USERR5
 40
0.0
  9
$WORLDVIEW
 70
     1
  9
$SHADEDGE
 70
     3
  9
$SHADEDIF
 70
    70
  9
$TILEMODE
 70
     1
  9
$MAXACTVP
 70
    16
  9
$PLIMCHECK
 70
     0
  9
$PEXTMIN
 10
1.0000000000000000E+020
 20
1.0000000000000000E+020
 30
1.0000000000000000E+020
  9
$PEXTMAX
 10
-1.0000000000000000E+020
 20
-1.0000000000000000E+020
 30
-1.0000000000000000E+020
  9
$PLIMMIN
 10
0.0
 20
0.0
  9
$PLIMMAX
 10
12.0
 20
9.0
  9
$UNITMODE
 70
     0
  9
$VISRETAIN
 70
     0
  9
$PLINEGEN
 70
     0
  9
$PSLTSCALE
 70
     1
  0
ENDSEC
  0
SECTION
  2
TABLES
  0
TABLE
  2
VPORT
 70
     2
  0
VPORT
  2
*ACTIVE
 70
     0
 10
0.0
 20
0.0
 11
1.0
 21
1.0
 12
18583.428560007658
 22
6229.5571882631029
 13
0.0
 23
0.0
 14
10.0
 24
10.0
 15
10.0
 25
10.0
 16
0.0
 26
0.0
 36
1.0
 17
0.0
 27
0.0
 37
0.0
 40
14758.32338329421
 41
3.1666666666666661
 42
50.0
 43
0.0
 44
0.0
 50
0.0
 51
0.0
 71
     0
 72
   100
 73
     1
 74
     0
 75
     0
 76
     0
 77
     0
 78
     0
  0
ENDTAB
  0
TABLE
  2
LTYPE
 70
     2
  0
LTYPE
  2
CONTINUOUS
 70
     0
  3
Solid line
 72
    65
 73
     0
 40
0.0
  0
LTYPE
  2
CENTER
 70
     0
  3
____ _ ____ _ ____ _ ____ _ ____ _ ____ _ ____ 
 72
    65
 73
     4
 40
2.0
 49
1.25
 49
-0.25
 49
0.25
 49
-0.25
  0
ENDTAB
  0
TABLE
  2
LAYER
 70
     6
  0
LAYER
  2
0
 70
     0
 62
     7
  6
CONTINUOUS
  0
LAYER
  2
3
 70
     0
 62
     2
  6
CONTINUOUS
  0
LAYER
  2
2
 70
     0
 62
     3
  6
CENTER
  0
LAYER
  2
1
 70
     0
 62
     4
  6
CONTINUOUS
  0
LAYER
  2
4
 70
     0
 62
     7
  6
CONTINUOUS
  0
LAYER
  2
DEFPOINTS
 70
     0
 62
     7
  6
CONTINUOUS
  0
ENDTAB
  0
TABLE
  2
STYLE
 70
     1
  0
STYLE
  2
STANDARD
 70
     0
 40
0.0
 41
1.0
 50
0.0
 71
     0
 42
180.0
  3
simplex.shx
  4
extfont.shx
  0
ENDTAB
  0
TABLE
  2
VIEW
 70
     0
  0
ENDTAB
  0
TABLE
  2
UCS
 70
     0
  0
ENDTAB
  0
TABLE
  2
APPID
 70
     1
  0
APPID
  2
ACAD
 70
     0
  0
ENDTAB
  0
TABLE
  2
DIMSTYLE
 70
     1
  0
DIMSTYLE
  2
IGA
 70
     0
  3

  4

  5

  6
OPEN
  7
OPEN
 40
2.0
 41
2.0
 42
0.5
 43
10.0
 44
1.0
 45
0.0
 46
0.0
 47
1.0
 48
1.0
140
3.0
141
0.0
142
0.0
143
0.03937
144
1.0
145
0.0
146
10.0
147
1.0
 71
     0
 72
     0
 73
     0
 74
     0
 75
     0
 76
     0
 77
     1
 78
     8
170
     0
171
     2
172
     0
173
     1
174
     0
175
     0
176
     0
177
     0
178
     0
  0
ENDTAB
  0
ENDSEC
  0
SECTION
  2
BLOCKS
  0
BLOCK
  8
0
  2
$MODEL_SPACE
 70
     0
 10
0.0
 20
0.0
 30
0.0
  3
$MODEL_SPACE
  1

  0
ENDBLK
  5
1B
  8
0
  0
BLOCK
 67
     1
  8
0
  2
$PAPER_SPACE
 70
     0
 10
0.0
 20
0.0
 30
0.0
  3
$PAPER_SPACE
  1

  0
ENDBLK
  5
18
 67
     1
  8
0
  0
BLOCK
  8
0
  2
_OPEN
 70
     0
 10
0.0
 20
0.0
 30
0.0
  3
_OPEN
  1

  0
LINE
  5
7AD4
  8
0
  6
BYBLOCK
 62
     0
 10
-1.0
 20
0.166667
 30
0.0
 11
0.0
 21
0.0
 31
0.0
  0
LINE
  5
7AD5
  8
0
  6
BYBLOCK
 62
     0
 10
0.0
 20
0.0
 30
0.0
 11
-1.0
 21
-0.166667
 31
0.0
  0
LINE
  5
7AD6
  8
0
  6
BYBLOCK
 62
     0
 10
0.0
 20
0.0
 30
0.0
 11
-1.0
 21
0.0
 31
0.0
  0
ENDBLK
  5
7AD7
  8
0
  0
BLOCK
  8
0
  2
*D1
 70
     1
 10
0.0
 20
0.0
 30
0.0
  3
*D1
  1

  0
LINE
  5
7EA1
  8
3
  6
CONTINUOUS
 62
     0
 10
2420.6773380086702
 20
3426.5075933416811
 30
0.0
 11
2420.6773380086702
 21
3051.4001203416801
 31
0.0
  0
LINE
  5
7EA2
  8
3
  6
CONTINUOUS
 62
     0
 10
3045.6773380086702
 20
3352.9600003416808
 30
0.0
 11
3045.6773380086702
 21
3051.4001203416801
 31
0.0
  0
LINE
  5
7EA3
  8
3
  6
CONTINUOUS
 62
     0
 10
2340.6773380086702
 20
3091.4001203416801
 30
0.0
 11
2260.6773380086702
 21
3091.4001203416801
 31
0.0
  0
LINE
  5
7EA4
  8
3
  6
CONTINUOUS
 62
     0
 10
3125.6773380086702
 20
3091.4001203416801
 30
0.0
 11
3205.6773380086711
 21
3091.4001203416801
 31
0.0
  0
LINE
  5
7EA5
  8
3
  6
CONTINUOUS
 62
     0
 10
2420.6773380086702
 20
3091.4001203416801
 30
0.0
 11
3045.6773380086702
 21
3091.4001203416801
 31
0.0
  0
INSERT
  5
7EA6
  8
3
  6
CONTINUOUS
 62
     0
  2
_OPEN
 10
2420.6773380086702
 20
3091.4001203416801
 30
0.0
 41
80.0
 42
80.0
 43
80.0
  0
INSERT
  5
7EA7
  8
3
  6
CONTINUOUS
 62
     0
  2
_OPEN
 10
3045.6773380086702
 20
3091.4001203416801
 30
0.0
 41
80.0
 42
80.0
 43
80.0
 50
180.0
  0
TEXT
  8
3
  40
120
  5
7F35
  62
0
  72
0
  71
0
 10
2531.39
 20
2979.00
 30
0.000000
  1
625
  0
POINT
  5
7EA9
  8
DEFPOINTS
  6
CONTINUOUS
 62
     0
 10
2420.6773380086702
 20
3446.5075933416811
 30
0.0
  0
POINT
  5
7EAA
  8
DEFPOINTS
  6
CONTINUOUS
 62
     0
 10
3045.6773380086702
 20
3372.9600003416799
 30
0.0
  0
POINT
  5
7EAB
  8
DEFPOINTS
  6
CONTINUOUS
 62
     0
 10
3045.6773380086702
 20
3091.4001203416801
 30
0.0
  0
ENDBLK
  5
7D11
  8
0
  0
BLOCK
  8
0
  2
*D2
 70
     1
 10
0.0
 20
0.0
 30
0.0
  3
*D2
  1

  0
LINE
  5
7EAC
  8
3
  6
CONTINUOUS
 62
     0
 10
3045.6773380086702
 20
3352.9600003416808
 30
0.0
 11
3045.6773380086702
 21
3051.4001203416801
 31
0.0
  0
LINE
  5
7EAD
  8
3
  6
CONTINUOUS
 62
     0
 10
4540.6773380086697
 20
3426.5075933416811
 30
0.0
 11
4540.6773380086697
 21
3051.4001203416801
 31
0.0
  0
LINE
  5
7EAE
  8
3
  6
CONTINUOUS
 62
     0
 10
3125.6773380086702
 20
3091.4001203416801
 30
0.0
 11
4460.6773380086706
 21
3091.4001203416801
 31
0.0
  0
INSERT
  5
7EAF
  8
3
  6
CONTINUOUS
 62
     0
  2
_OPEN
 10
3045.6773380086702
 20
3091.4001203416801
 30
0.0
 41
80.0
 42
80.0
 43
80.0
 50
180.0
  0
INSERT
  5
7EB0
  8
3
  6
CONTINUOUS
 62
     0
  2
_OPEN
 10
4540.6773380086697
 20
3091.4001203416801
 30
0.0
 41
80.0
 42
80.0
 43
80.0
  0
TEXT
  8
3
  40
120
  5
7F36
  62
0
  72
0
  71
0
 10
3553.18
 20
2979.00
 30
0.000000
  1
1495
  0
POINT
  5
7EB2
  8
DEFPOINTS
  6
CONTINUOUS
 62
     0
 10
3045.6773380086702
 20
3372.9600003416799
 30
0.0
  0
POINT
  5
7EB3
  8
DEFPOINTS
  6
CONTINUOUS
 62
     0
 10
4540.6773380086697
 20
3446.5075933416811
 30
0.0
  0
POINT
  5
7EB4
  8
DEFPOINTS
  6
CONTINUOUS
 62
     0
 10
4540.6773380086697
 20
3091.4001203416801
 30
0.0
  0
ENDBLK
  5
7D06
  8
0
  0
BLOCK
  8
0
  2
*D3
 70
     1
 10
0.0
 20
0.0
 30
0.0
  3
*D3
  1

  0
LINE
  5
7EB5
  8
3
  6
CONTINUOUS
 62
     0
 10
2345.6773380086702
 20
4612.5075933416811
 30
0.0
 11
2054.9779140086721
 21
4612.5075933416811
 31
0.0
  0
LINE
  5
7EB6
  8
3
  6
CONTINUOUS
 62
     0
 10
2345.6773380086702
 20
3582.5075933416811
 30
0.0
 11
2054.9779140086721
 21
3582.5075933416811
 31
0.0
  0
LINE
  5
7EB7
  8
3
  6
CONTINUOUS
 62
     0
 10
2094.9779140086721
 20
4532.5075933416811
 30
0.0
 11
2094.9779140086721
 21
3662.5075933416811
 31
0.0
  0
INSERT
  5
7EB8
  8
3
  6
CONTINUOUS
 62
     0
  2
_OPEN
 10
2094.9779140086721
 20
4612.5075933416811
 30
0.0
 41
80.0
 42
80.0
 43
80.0
 50
90.0
  0
INSERT
  5
7EB9
  8
3
  6
CONTINUOUS
 62
     0
  2
_OPEN
 10
2094.9779140086721
 20
3582.5075933416811
 30
0.0
 41
80.0
 42
80.0
 43
80.0
 50
270.0
  0
TEXT
  8
3
  40
120
  5
7F37
  62
0
  72
0
  71
0
 10
1754.98
 20
3865.37
 30
0.000000
  1
1030
  0
POINT
  5
7EBB
  8
DEFPOINTS
  6
CONTINUOUS
 62
     0
 10
2365.6773380086711
 20
4612.5075933416811
 30
0.0
  0
POINT
  5
7EBC
  8
DEFPOINTS
  6
CONTINUOUS
 62
     0
 10
2365.6773380086711
 20
3582.5075933416811
 30
0.0
  0
POINT
  5
7EBD
  8
DEFPOINTS
  6
CONTINUOUS
 62
     0
 10
2094.9779140086721
 20
3582.5075933416811
 30
0.0
  0
ENDBLK
  5
7CFB
  8
0
  0
BLOCK
  8
0
  2
*D4
 70
     1
 10
0.0
 20
0.0
 30
0.0
  3
*D4
  1

  0
LINE
  5
7EBE
  8
3
  6
CONTINUOUS
 62
     0
 10
3025.6773380086702
 20
5376.5075933416811
 30
0.0
 11
1463.349776008673
 21
5376.507593341682
 31
0.0
  0
LINE
  5
7EBF
  8
3
  6
CONTINUOUS
 62
     0
 10
2430.38260100867
 20
4656.5075933416811
 30
0.0
 11
1463.349776008673
 21
4656.5075933416811
 31
0.0
  0
LINE
  5
7EC0
  8
3
  6
CONTINUOUS
 62
     0
 10
1503.349776008673
 20
5456.507593341682
 30
0.0
 11
1503.349776008673
 21
5536.5075933416811
 31
0.0
  0
LINE
  5
7EC1
  8
3
  6
CONTINUOUS
 62
     0
 10
1503.3497760086721
 20
4576.5075933416811
 30
0.0
 11
1503.3497760086721
 21
4496.5075933416811
 31
0.0
  0
LINE
  5
7EC2
  8
3
  6
CONTINUOUS
 62
     0
 10
1503.349776008673
 20
5376.507593341682
 30
0.0
 11
1503.349776008673
 21
4656.5075933416811
 31
0.0
  0
INSERT
  5
7EC3
  8
3
  6
CONTINUOUS
 62
     0
  2
_OPEN
 10
1503.349776008673
 20
5376.507593341682
 30
0.0
 41
80.0
 42
80.0
 43
80.0
 50
270.0
  0
INSERT
  5
7EC4
  8
3
  6
CONTINUOUS
 62
     0
  2
_OPEN
 10
1503.349776008673
 20
4656.5075933416811
 30
0.0
 41
80.0
 42
80.0
 43
80.0
 50
90.0
  0
TEXT
  8
3
  40
120
  5
7F38
  62
0
  72
0
  71
0
 10
1163.35
 20
4718.39
 30
0.000000
  1
720
  0
POINT
  5
7EC6
  8
DEFPOINTS
  6
CONTINUOUS
 62
     0
 10
3045.6773380086702
 20
5376.5075933416811
 30
0.0
  0
POINT
  5
7EC7
  8
DEFPOINTS
  6
CONTINUOUS
 62
     0
 10
2450.38260100867
 20
4656.5075933416811
 30
0.0
  0
POINT
  5
7EC8
  8
DEFPOINTS
  6
CONTINUOUS
 62
     0
 10
1503.349776008673
 20
4656.5075933416811
 30
0.0
  0
ENDBLK
  5
7D6A
  8
0
  0
BLOCK
  8
0
  2
*D5
 70
     1
 10
0.0
 20
0.0
 30
0.0
  3
*D5
  1

  0
LINE
  5
7EC9
  8
3
  6
CONTINUOUS
 62
     0
 10
2430.38260100867
 20
4656.5075933416811
 30
0.0
 11
1463.3497760086721
 21
4656.5075933416811
 31
0.0
  0
LINE
  5
7ECA
  8
3
  6
CONTINUOUS
 62
     0
 10
2400.6773380086702
 20
3446.5075933416811
 30
0.0
 11
1463.3497760086721
 21
3446.5075933416811
 31
0.0
  0
LINE
  5
7ECB
  8
3
  6
CONTINUOUS
 62
     0
 10
1503.3497760086721
 20
4576.5075933416811
 30
0.0
 11
1503.3497760086721
 21
3526.5075933416811
 31
0.0
  0
INSERT
  5
7ECC
  8
3
  6
CONTINUOUS
 62
     0
  2
_OPEN
 10
1503.3497760086721
 20
4656.5075933416811
 30
0.0
 41
80.0
 42
80.0
 43
80.0
 50
90.0
  0
INSERT
  5
7ECD
  8
3
  6
CONTINUOUS
 62
     0
  2
_OPEN
 10
1503.3497760086721
 20
3446.5075933416811
 30
0.0
 41
80.0
 42
80.0
 43
80.0
 50
270.0
  0
TEXT
  8
3
  40
120
  5
7F39
  62
0
  72
0
  71
0
 10
1163.35
 20
3839.11
 30
0.000000
  1
1210
  0
POINT
  5
7ECF
  8
DEFPOINTS
  6
CONTINUOUS
 62
     0
 10
2450.38260100867
 20
4656.5075933416811
 30
0.0
  0
POINT
  5
7ED0
  8
DEFPOINTS
  6
CONTINUOUS
 62
     0
 10
2420.6773380086702
 20
3446.5075933416811
 30
0.0
  0
POINT
  5
7ED1
  8
DEFPOINTS
  6
CONTINUOUS
 62
     0
 10
1503.3497760086721
 20
3446.5075933416811
 30
0.0
  0
ENDBLK
  5
7CE5
  8
0
  0
BLOCK
  8
0
  2
*D6
 70
     1
 10
0.0
 20
0.0
 30
0.0
  3
*D6
  1

  0
LINE
  5
7ED2
  8
3
  6
CONTINUOUS
 62
     0
 10
2365.6773380086711
 20
4685.5075933416811
 30
0.0
 11
2365.6773380086711
 21
5660.6819823416809
 31
0.0
  0
LINE
  5
7ED3
  8
3
  6
CONTINUOUS
 62
     0
 10
3045.6773380086702
 20
5455.8125223416801
 30
0.0
 11
3045.6773380086702
 21
5660.6819823416809
 31
0.0
  0
LINE
  5
7ED4
  8
3
  6
CONTINUOUS
 62
     0
 10
2445.6773380086702
 20
5620.6819823416809
 30
0.0
 11
2965.6773380086711
 21
5620.6819823416809
 31
0.0
  0
INSERT
  5
7ED5
  8
3
  6
CONTINUOUS
 62
     0
  2
_OPEN
 10
2365.6773380086711
 20
5620.6819823416809
 30
0.0
 41
80.0
 42
80.0
 43
80.0
 50
180.0
  0
INSERT
  5
7ED6
  8
3
  6
CONTINUOUS
 62
     0
  2
_OPEN
 10
3045.6773380086702
 20
5620.6819823416809
 30
0.0
 41
80.0
 42
80.0
 43
80.0
  0
TEXT
  8
3
  40
120
  5
7F3A
  62
0
  72
0
  71
0
 10
2531.39
 20
5508.28
 30
0.000000
  1
680
  0
POINT
  5
7ED8
  8
DEFPOINTS
  6
CONTINUOUS
 62
     0
 10
2365.6773380086711
 20
4665.5075933416811
 30
0.0
  0
POINT
  5
7ED9
  8
DEFPOINTS
  6
CONTINUOUS
 62
     0
 10
3045.6773380086702
 20
5435.812522341681
 30
0.0
  0
POINT
  5
7EDA
  8
DEFPOINTS
  6
CONTINUOUS
 62
     0
 10
3045.6773380086702
 20
5620.6819823416809
 30
0.0
  0
ENDBLK
  5
7D99
  8
0
  0
BLOCK
  8
0
  2
*D7
 70
     1
 10
0.0
 20
0.0
 30
0.0
  3
*D7
  1

  0
LINE
  5
7EDB
  8
3
  6
CONTINUOUS
 62
     0
 10
3045.6773380086702
 20
5455.8125223416801
 30
0.0
 11
3045.6773380086702
 21
5660.6819823416809
 31
0.0
  0
LINE
  5
7EDC
  8
3
  6
CONTINUOUS
 62
     0
 10
3913.6773380086711
 20
4676.5075933416811
 30
0.0
 11
3913.6773380086711
 21
5660.6819823416809
 31
0.0
  0
LINE
  5
7EDD
  8
3
  6
CONTINUOUS
 62
     0
 10
3125.6773380086702
 20
5620.6819823416809
 30
0.0
 11
3833.6773380086702
 21
5620.6819823416809
 31
0.0
  0
INSERT
  5
7EDE
  8
3
  6
CONTINUOUS
 62
     0
  2
_OPEN
 10
3045.6773380086702
 20
5620.6819823416809
 30
0.0
 41
80.0
 42
80.0
 43
80.0
 50
180.0
  0
INSERT
  5
7EDF
  8
3
  6
CONTINUOUS
 62
     0
  2
_OPEN
 10
3913.6773380086711
 20
5620.6819823416809
 30
0.0
 41
80.0
 42
80.0
 43
80.0
  0
TEXT
  8
3
  40
120
  5
7F3B
  62
0
  72
0
  71
0
 10
3239.68
 20
5508.28
 30
0.000000
  1
868
  0
POINT
  5
7EE1
  8
DEFPOINTS
  6
CONTINUOUS
 62
     0
 10
3045.6773380086702
 20
5435.812522341681
 30
0.0
  0
POINT
  5
7EE2
  8
DEFPOINTS
  6
CONTINUOUS
 62
     0
 10
3913.6773380086711
 20
4656.5075933416811
 30
0.0
  0
POINT
  5
7EE3
  8
DEFPOINTS
  6
CONTINUOUS
 62
     0
 10
3913.6773380086711
 20
5620.6819823416809
 30
0.0
  0
ENDBLK
  5
7DB0
  8
0
  0
BLOCK
  8
0
  2
*D8
 70
     1
 10
0.0
 20
0.0
 30
0.0
  3
*D8
  1

  0
LINE
  5
7EE4
  8
3
  6
CONTINUOUS
 62
     0
 10
2420.6773380086702
 20
7217.4409357127806
 30
0.0
 11
2420.6773380086702
 21
6778.2274287127793
 31
0.0
  0
LINE
  5
7EE5
  8
3
  6
CONTINUOUS
 62
     0
 10
4540.6773380086697
 20
7217.4409357127806
 30
0.0
 11
4540.6773380086697
 21
6778.2274287127793
 31
0.0
  0
LINE
  5
7EE6
  8
3
  6
CONTINUOUS
 62
     0
 10
2500.6773380086702
 20
6818.2274287127784
 30
0.0
 11
4460.6773380086706
 21
6818.2274287127784
 31
0.0
  0
INSERT
  5
7EE7
  8
3
  6
CONTINUOUS
 62
     0
  2
_OPEN
 10
2420.6773380086702
 20
6818.2274287127784
 30
0.0
 41
80.0
 42
80.0
 43
80.0
 50
180.0
  0
INSERT
  5
7EE8
  8
3
  6
CONTINUOUS
 62
     0
  2
_OPEN
 10
4540.6773380086697
 20
6818.2274287127784
 30
0.0
 41
80.0
 42
80.0
 43
80.0
  0
TEXT
  8
3
  40
120
  5
7F3C
  62
0
  72
0
  71
0
 10
3136.03
 20
6705.83
 30
0.000000
  1
2120
  0
POINT
  5
7EEA
  8
DEFPOINTS
  6
CONTINUOUS
 62
     0
 10
2420.6773380086702
 20
7237.4409357127797
 30
0.0
  0
POINT
  5
7EEB
  8
DEFPOINTS
  6
CONTINUOUS
 62
     0
 10
4540.6773380086697
 20
7237.4409357127797
 30
0.0
  0
POINT
  5
7EEC
  8
DEFPOINTS
  6
CONTINUOUS
 62
     0
 10
4540.6773380086697
 20
6818.2274287127784
 30
0.0
  0
ENDBLK
  5
7CC4
  8
0
  0
BLOCK
  8
0
  2
*D9
 70
     1
 10
0.0
 20
0.0
 30
0.0
  3
*D9
  1

  0
LINE
  5
7EED
  8
3
  6
CONTINUOUS
 62
     0
 10
4560.6773380086697
 20
8297.4409357127788
 30
0.0
 11
5024.7020990086721
 21
8297.4409357127788
 31
0.0
  0
LINE
  5
7EEE
  8
3
  6
CONTINUOUS
 62
     0
 10
4560.6773380086697
 20
7237.4409357127797
 30
0.0
 11
5024.7020990086721
 21
7237.4409357127797
 31
0.0
  0
LINE
  5
7EEF
  8
3
  6
CONTINUOUS
 62
     0
 10
4984.7020990086712
 20
8217.4409357127788
 30
0.0
 11
4984.7020990086712
 21
7317.4409357127806
 31
0.0
  0
INSERT
  5
7EF0
  8
3
  6
CONTINUOUS
 62
     0
  2
_OPEN
 10
4984.7020990086712
 20
8297.4409357127788
 30
0.0
 41
80.0
 42
80.0
 43
80.0
 50
90.0
  0
INSERT
  5
7EF1
  8
3
  6
CONTINUOUS
 62
     0
  2
_OPEN
 10
4984.7020990086712
 20
7237.4409357127797
 30
0.0
 41
80.0
 42
80.0
 43
80.0
 50
270.0
  0
TEXT
  8
3
  40
120
  5
7F3D
  62
0
  72
0
  71
0
 10
4644.70
 20
7474.62
 30
0.000000
  1
1060
  0
POINT
  5
7EF3
  8
DEFPOINTS
  6
CONTINUOUS
 62
     0
 10
4540.6773380086697
 20
8297.4409357127788
 30
0.0
  0
POINT
  5
7EF4
  8
DEFPOINTS
  6
CONTINUOUS
 62
     0
 10
4540.6773380086697
 20
7237.4409357127797
 30
0.0
  0
POINT
  5
7EF5
  8
DEFPOINTS
  6
CONTINUOUS
 62
     0
 10
4984.7020990086712
 20
7237.4409357127797
 30
0.0
  0
ENDBLK
  5
7CB9
  8
0
  0
BLOCK
  8
0
  2
*D10
 70
     1
 10
0.0
 20
0.0
 30
0.0
  3
*D10
  1

  0
LINE
  5
7EF6
  8
3
  6
CONTINUOUS
 62
     0
 10
5955.0243504701848
 20
5399.4075933416807
 30
0.0
 11
5955.0243504701848
 21
5591.465712383244
 31
0.0
  0
LINE
  5
7EF7
  8
3
  6
CONTINUOUS
 62
     0
 10
6705.0243504701857
 20
5399.4075933416807
 30
0.0
 11
6705.0243504701857
 21
5591.465712383244
 31
0.0
  0
LINE
  5
7EF8
  8
3
  6
CONTINUOUS
 62
     0
 10
6035.0243504701848
 20
5551.465712383244
 30
0.0
 11
6625.0243504701839
 21
5551.465712383244
 31
0.0
  0
INSERT
  5
7EF9
  8
3
  6
CONTINUOUS
 62
     0
  2
_OPEN
 10
5955.0243504701848
 20
5551.465712383244
 30
0.0
 41
80.0
 42
80.0
 43
80.0
 50
180.0
  0
INSERT
  5
7EFA
  8
3
  6
CONTINUOUS
 62
     0
  2
_OPEN
 10
6705.0243504701857
 20
5551.465712383244
 30
0.0
 41
80.0
 42
80.0
 43
80.0
  0
TEXT
  8
3
  40
120
  5
7F3E
  62
0
  72
0
  71
0
 10
6085.58
 20
5439.07
 30
0.000000
  1
750
  0
POINT
  5
7EFC
  8
DEFPOINTS
  6
CONTINUOUS
 62
     0
 10
5955.0243504701848
 20
5379.4075933416807
 30
0.0
  0
POINT
  5
7EFD
  8
DEFPOINTS
  6
CONTINUOUS
 62
     0
 10
6705.0243504701857
 20
5379.4075933416807
 30
0.0
  0
POINT
  5
7EFE
  8
DEFPOINTS
  6
CONTINUOUS
 62
     0
 10
6705.0243504701857
 20
5551.465712383244
 30
0.0
  0
ENDBLK
  5
7D53
  8
0
  0
BLOCK
  8
0
  2
*D11
 70
     1
 10
0.0
 20
0.0
 30
0.0
  3
*D11
  1

  0
LINE
  5
7EFF
  8
3
  6
CONTINUOUS
 62
     0
 10
5650.0243504701848
 20
4943.2075933416809
 30
0.0
 11
5650.0243504701848
 21
5895.8599643416801
 31
0.0
  0
LINE
  5
7F00
  8
3
  6
CONTINUOUS
 62
     0
 10
6330.0243504701848
 20
5802.0524753416803
 30
0.0
 11
6330.0243504701848
 21
5895.8599643416801
 31
0.0
  0
LINE
  5
7F01
  8
3
  6
CONTINUOUS
 62
     0
 10
5730.0243504701839
 20
5855.8599643416801
 30
0.0
 11
6250.0243504701848
 21
5855.8599643416801
 31
0.0
  0
INSERT
  5
7F02
  8
3
  6
CONTINUOUS
 62
     0
  2
_OPEN
 10
5650.0243504701848
 20
5855.8599643416801
 30
0.0
 41
80.0
 42
80.0
 43
80.0
 50
180.0
  0
INSERT
  5
7F03
  8
3
  6
CONTINUOUS
 62
     0
  2
_OPEN
 10
6330.0243504701848
 20
5855.8599643416801
 30
0.0
 41
80.0
 42
80.0
 43
80.0
  0
TEXT
  8
3
  40
120
  5
7F3F
  62
0
  72
0
  71
0
 10
5798.60
 20
5843.46
 30
0.000000
  1
MAX
  0
TEXT
  8
3
  40
120
  5
7F40
  62
0
  72
0
  71
0
 10
5798.60
 20
5687.46
 30
0.000000
  1
770
  0
POINT
  5
7F05
  8
DEFPOINTS
  6
CONTINUOUS
 62
     0
 10
5650.0243504701848
 20
4923.2075933416809
 30
0.0
  0
POINT
  5
7F06
  8
DEFPOINTS
  6
CONTINUOUS
 62
     0
 10
6330.0243504701848
 20
5782.0524753416803
 30
0.0
  0
POINT
  5
7F07
  8
DEFPOINTS
  6
CONTINUOUS
 62
     0
 10
6330.0243504701848
 20
5855.8599643416801
 30
0.0
  0
ENDBLK
  5
7D8D
  8
0
  0
BLOCK
  8
0
  2
*D12
 70
     1
 10
0.0
 20
0.0
 30
0.0
  3
*D12
  1

  0
LINE
  5
7D3F
  8
0
  6
BYBLOCK
 62
     0
 10
6758.9360862939848
 20
5802.0524753416803
 30
0.0
 11
6758.9360862939848
 21
5895.8599643416801
 31
0.0
  0
LINE
  5
7D40
  8
0
  6
BYBLOCK
 62
     0
 10
7236.9360862939839
 20
5226.5075933416811
 30
0.0
 11
7236.9360862939839
 21
5895.8599643416801
 31
0.0
  0
LINE
  5
7D41
  8
0
  6
BYBLOCK
 62
     0
 10
6838.9360862939848
 20
5855.8599643416801
 30
0.0
 11
7156.9360862939848
 21
5855.8599643416801
 31
0.0
  0
TEXT
  5
7D42
  8
3
 62
     0
 10
6826.5717788604125
 20
5905.4320439170078
 30
0.0
 40
120.0
  1
478
  0
INSERT
  5
7D43
  8
0
  6
BYBLOCK
 62
     0
  2
_OPEN
 10
6758.9360862939848
 20
5855.8599643416801
 30
0.0
 41
80.0
 42
80.0
 43
80.0
 50
180.0
  0
INSERT
  5
7D44
  8
0
  6
BYBLOCK
 62
     0
  2
_OPEN
 10
7236.9360862939839
 20
5855.8599643416801
 30
0.0
 41
80.0
 42
80.0
 43
80.0
  0
POINT
  5
7D45
  8
DEFPOINTS
  6
BYBLOCK
 62
     0
 10
6758.9360862939848
 20
5782.0524753416803
 30
0.0
  0
POINT
  5
7D46
  8
DEFPOINTS
  6
BYBLOCK
 62
     0
 10
7236.9360862939839
 20
5206.5075933416811
 30
0.0
  0
POINT
  5
7D47
  8
DEFPOINTS
  6
BYBLOCK
 62
     0
 10
7236.9360862939839
 20
5855.8599643416801
 30
0.0
  0
ENDBLK
  5
7D48
  8
0
  0
BLOCK
  8
0
  2
*D13
 70
     1
 10
0.0
 20
0.0
 30
0.0
  3
*D13
  1

  0
LINE
  5
7F08
  8
3
  6
CONTINUOUS
 62
     0
 10
6828.0243504701839
 20
5156.5075933416811
 30
0.0
 11
7207.9571714701851
 21
5156.5075933416811
 31
0.0
  0
LINE
  5
7F09
  8
3
  6
CONTINUOUS
 62
     0
 10
6828.0243504701839
 20
4156.5075933416811
 30
0.0
 11
7207.9571714701851
 21
4156.5075933416811
 31
0.0
  0
LINE
  5
7F0A
  8
3
  6
CONTINUOUS
 62
     0
 10
7167.957171470186
 20
5076.5075933416811
 30
0.0
 11
7167.957171470186
 21
4236.5075933416811
 31
0.0
  0
INSERT
  5
7F0B
  8
3
  6
CONTINUOUS
 62
     0
  2
_OPEN
 10
7167.957171470186
 20
5156.5075933416811
 30
0.0
 41
80.0
 42
80.0
 43
80.0
 50
90.0
  0
INSERT
  5
7F0C
  8
3
  6
CONTINUOUS
 62
     0
  2
_OPEN
 10
7167.957171470186
 20
4156.5075933416811
 30
0.0
 41
80.0
 42
80.0
 43
80.0
 50
270.0
  0
TEXT
  8
3
  40
120
  5
7F41
  62
0
  72
0
  71
0
 10
6827.96
 20
4435.64
 30
0.000000
  1
φ1000
  0
POINT
  5
7F0E
  8
DEFPOINTS
  6
CONTINUOUS
 62
     0
 10
6808.0243504701848
 20
5156.5075933416811
 30
0.0
  0
POINT
  5
7F0F
  8
DEFPOINTS
  6
CONTINUOUS
 62
     0
 10
6808.0243504701848
 20
4156.5075933416811
 30
0.0
  0
POINT
  5
7F10
  8
DEFPOINTS
  6
CONTINUOUS
 62
     0
 10
7167.957171470186
 20
4156.5075933416811
 30
0.0
  0
ENDBLK
  5
7D5E
  8
0
  0
BLOCK
  8
0
  2
*D14
 70
     1
 10
0.0
 20
0.0
 30
0.0
  3
*D14
  1

  0
LINE
  5
7F11
  8
3
  6
CONTINUOUS
 62
     0
 10
5713.0243504701848
 20
3426.5075933416811
 30
0.0
 11
5713.0243504701848
 21
3089.96071934168
 31
0.0
  0
LINE
  5
7F12
  8
3
  6
CONTINUOUS
 62
     0
 10
6330.0243504701848
 20
3234.7233343416801
 30
0.0
 11
6330.0243504701848
 21
3089.96071934168
 31
0.0
  0
LINE
  5
7F13
  8
3
  6
CONTINUOUS
 62
     0
 10
5793.0243504701848
 20
3129.96071934168
 30
0.0
 11
6250.0243504701848
 21
3129.96071934168
 31
0.0
  0
INSERT
  5
7F14
  8
3
  6
CONTINUOUS
 62
     0
  2
_OPEN
 10
5713.0243504701848
 20
3129.96071934168
 30
0.0
 41
80.0
 42
80.0
 43
80.0
 50
180.0
  0
INSERT
  5
7F15
  8
3
  6
CONTINUOUS
 62
     0
  2
_OPEN
 10
6330.0243504701848
 20
3129.96071934168
 30
0.0
 41
80.0
 42
80.0
 43
80.0
  0
TEXT
  8
3
  40
120
  5
7F42
  62
0
  72
0
  71
0
 10
5827.17
 20
3017.56
 30
0.000000
  1
617
  0
POINT
  5
7F17
  8
DEFPOINTS
  6
CONTINUOUS
 62
     0
 10
5713.0243504701848
 20
3446.5075933416811
 30
0.0
  0
POINT
  5
7F18
  8
DEFPOINTS
  6
CONTINUOUS
 62
     0
 10
6330.0243504701848
 20
3254.7233343416792
 30
0.0
  0
POINT
  5
7F19
  8
DEFPOINTS
  6
CONTINUOUS
 62
     0
 10
6330.0243504701848
 20
3129.96071934168
 30
0.0
  0
ENDBLK
  5
7C80
  8
0
  0
BLOCK
  8
0
  2
*D15
 70
     1
 10
0.0
 20
0.0
 30
0.0
  3
*D15
  1

  0
LINE
  5
7D29
  8
0
  6
BYBLOCK
 62
     0
 10
6758.9360862939848
 20
3234.7233343416801
 30
0.0
 11
6758.9360862939848
 21
3089.96071934168
 31
0.0
  0
LINE
  5
7D2A
  8
0
  6
BYBLOCK
 62
     0
 10
7201.9360862939848
 20
3426.5075933416811
 30
0.0
 11
7201.9360862939848
 21
3089.96071934168
 31
0.0
  0
LINE
  5
7D2B
  8
0
  6
BYBLOCK
 62
     0
 10
6838.9360862939848
 20
3129.96071934168
 30
0.0
 11
7121.9360862939848
 21
3129.96071934168
 31
0.0
  0
TEXT
  5
7D2C
  8
3
 62
     0
 10
6843.1738905060583
 20
3168.3417242845312
 30
0.0
 40
120.0
  1
443
  0
INSERT
  5
7D2D
  8
0
  6
BYBLOCK
 62
     0
  2
_OPEN
 10
6758.9360862939848
 20
3129.96071934168
 30
0.0
 41
80.0
 42
80.0
 43
80.0
 50
180.0
  0
INSERT
  5
7D2E
  8
0
  6
BYBLOCK
 62
     0
  2
_OPEN
 10
7201.9360862939848
 20
3129.96071934168
 30
0.0
 41
80.0
 42
80.0
 43
80.0
  0
POINT
  5
7D2F
  8
DEFPOINTS
  6
BYBLOCK
 62
     0
 10
6758.9360862939848
 20
3254.7233343416792
 30
0.0
  0
POINT
  5
7D30
  8
DEFPOINTS
  6
BYBLOCK
 62
     0
 10
7201.9360862939848
 20
3446.5075933416811
 30
0.0
  0
POINT
  5
7D31
  8
DEFPOINTS
  6
BYBLOCK
 62
     0
 10
7201.9360862939848
 20
3129.96071934168
 30
0.0
  0
ENDBLK
  5
7D32
  8
0
  0
BLOCK
  8
0
  2
*D16
 70
     1
 10
0.0
 20
0.0
 30
0.0
  3
*D16
  1

  0
LINE
  5
7F1A
  8
3
  6
CONTINUOUS
 62
     0
 10
3025.6773380086702
 20
5376.5075933416811
 30
0.0
 11
1185.0498950086719
 21
5376.507593341682
 31
0.0
  0
LINE
  5
7F1B
  8
3
  6
CONTINUOUS
 62
     0
 10
2400.6773380086702
 20
3446.5075933416811
 30
0.0
 11
1185.049895008671
 21
3446.5075933416811
 31
0.0
  0
LINE
  5
7F1C
  8
3
  6
CONTINUOUS
 62
     0
 10
1225.0498950086719
 20
5296.507593341682
 30
0.0
 11
1225.049895008671
 21
3526.5075933416811
 31
0.0
  0
INSERT
  5
7F1D
  8
3
  6
CONTINUOUS
 62
     0
  2
_OPEN
 10
1225.0498950086719
 20
5376.507593341682
 30
0.0
 41
80.0
 42
80.0
 43
80.0
 50
90.0
  0
INSERT
  5
7F1E
  8
3
  6
CONTINUOUS
 62
     0
  2
_OPEN
 10
1225.049895008671
 20
3446.5075933416811
 30
0.0
 41
80.0
 42
80.0
 43
80.0
 50
270.0
  0
TEXT
  8
3
  40
120
  5
7F43
  62
0
  72
0
  71
0
 10
885.050
 20
4086.09
 30
0.000000
  1
1930
  0
POINT
  5
7F20
  8
DEFPOINTS
  6
CONTINUOUS
 62
     0
 10
3045.6773380086702
 20
5376.5075933416811
 30
0.0
  0
POINT
  5
7F21
  8
DEFPOINTS
  6
CONTINUOUS
 62
     0
 10
2420.6773380086702
 20
3446.5075933416811
 30
0.0
  0
POINT
  5
7F22
  8
DEFPOINTS
  6
CONTINUOUS
 62
     0
 10
1225.049895008671
 20
3446.5075933416811
 30
0.0
  0
ENDBLK
  5
7D75
  8
0
  0
BLOCK
  8
0
  2
*D17
 70
     1
 10
0.0
 20
0.0
 30
0.0
  3
*D17
  1

  0
LINE
  5
7F23
  8
3
  6
CONTINUOUS
 62
     0
 10
2345.6773380086702
 20
3582.5075933416811
 30
0.0
 11
1752.3885670086711
 21
3582.5075933416811
 31
0.0
  0
LINE
  5
7F24
  8
3
  6
CONTINUOUS
 62
     0
 10
2430.38260100867
 20
4656.5075933416811
 30
0.0
 11
1752.388567008672
 21
4656.5075933416811
 31
0.0
  0
LINE
  5
7F25
  8
3
  6
CONTINUOUS
 62
     0
 10
1792.3885670086711
 20
3662.5075933416811
 30
0.0
 11
1792.3885670086711
 21
4576.5075933416811
 31
0.0
  0
INSERT
  5
7F26
  8
3
  6
CONTINUOUS
 62
     0
  2
_OPEN
 10
1792.3885670086711
 20
3582.5075933416811
 30
0.0
 41
80.0
 42
80.0
 43
80.0
 50
270.0
  0
INSERT
  5
7F27
  8
3
  6
CONTINUOUS
 62
     0
  2
_OPEN
 10
1792.3885670086711
 20
4656.5075933416811
 30
0.0
 41
80.0
 42
80.0
 43
80.0
 50
90.0
  0
TEXT
  8
3
  40
120
  5
7F44
  62
0
  72
0
  71
0
 10
1452.39
 20
3948.26
 30
0.000000
  1
1074
  0
POINT
  5
7F29
  8
DEFPOINTS
  6
CONTINUOUS
 62
     0
 10
2365.6773380086711
 20
3582.5075933416811
 30
0.0
  0
POINT
  5
7F2A
  8
DEFPOINTS
  6
CONTINUOUS
 62
     0
 10
2450.38260100867
 20
4656.5075933416811
 30
0.0
  0
POINT
  5
7F2B
  8
DEFPOINTS
  6
CONTINUOUS
 62
     0
 10
1792.3885670086711
 20
4656.5075933416811
 30
0.0
  0
ENDBLK
  5
7C5D
  8
0
  0
BLOCK
  8
0
  2
*D18
 70
     1
 10
0.0
 20
0.0
 30
0.0
  3
*D18
  1

  0
LINE
  5
7F2C
  8
3
 62
     0
 10
2365.6773380086711
 20
4685.5075933416811
 30
0.0
 11
2365.6773380086711
 21
5889.3130399037218
 31
0.0
  0
LINE
  5
7F2D
  8
3
 62
     0
 10
4540.6773380086697
 20
3591.5075933416811
 30
0.0
 11
4540.6773380086697
 21
5889.3130399037218
 31
0.0
  0
LINE
  5
7F2E
  8
3
 62
     0
 10
2445.6773380086702
 20
5849.3130399037218
 30
0.0
 11
4460.6773380086706
 21
5849.3130399037218
 31
0.0
  0
INSERT
  5
7F2F
  8
3
 62
     0
  2
_OPEN
 10
2365.6773380086711
 20
5849.3130399037218
 30
0.0
 41
80.0
 42
80.0
 43
80.0
 50
180.0
  0
INSERT
  5
7F30
  8
3
 62
     0
  2
_OPEN
 10
4540.6773380086697
 20
5849.3130399037218
 30
0.0
 41
80.0
 42
80.0
 43
80.0
  0
TEXT
  8
3
  40
120
  5
7F45
  62
0
  72
0
  71
0
 10
3256.38
 20
5736.91
 30
0.000000
  1
2175
  0
POINT
  5
7F32
  8
DEFPOINTS
 62
     0
 10
2365.6773380086711
 20
4665.5075933416811
 30
0.0
  0
POINT
  5
7F33
  8
DEFPOINTS
 62
     0
 10
4540.6773380086697
 20
3571.5075933416811
 30
0.0
  0
POINT
  5
7F34
  8
DEFPOINTS
 62
     0
 10
4540.6773380086697
 20
5849.3130399037218
 30
0.0
  0
ENDBLK
  5
7D81
  8
0
  0
ENDSEC
  0
SECTION
  2
ENTITIES
  0
LINE
  5
7A6B
  8
1
  6
CONTINUOUS
 10
4465.6773380086697
 20
7174.4409357127797
 30
0.0
 11
4465.6773380086697
 21
7374.4409357127797
 31
0.0
  0
LINE
  5
7A6C
  8
1
  6
CONTINUOUS
 10
2785.6773380086711
 20
7174.4409357127797
 30
0.0
 11
2785.6773380086711
 21
7374.4409357127797
 31
0.0
  0
LINE
  5
7A6D
  8
1
  6
CONTINUOUS
 10
2454.6773380086702
 20
4612.5075933416811
 30
0.0
 11
2365.6773380086711
 21
4612.5075933416811
 31
0.0
  0
POLYLINE
  5
7A6E
  8
1
  6
CONTINUOUS
 66
     1
 10
0.0
 20
0.0
 30
0.0
  0
VERTEX
  5
7E9A
  8
1
  6
CONTINUOUS
 10
2365.6773380086711
 20
3582.5075933416811
 30
0.0
  0
VERTEX
  5
7E9B
  8
1
  6
CONTINUOUS
 10
3045.6773380086702
 20
3640.5075933416811
 30
0.0
 42
0.4
  0
VERTEX
  5
7E9C
  8
1
  6
CONTINUOUS
 10
3916.5773380086698
 20
4582.5075933416811
 30
0.0
 42
0.4
  0
VERTEX
  5
7E9D
  8
1
  6
CONTINUOUS
 10
3040.0773380086712
 20
5375.4075933416798
 30
0.0
 42
0.4
  0
VERTEX
  5
7E9E
  8
1
  6
CONTINUOUS
 10
2444.4773380086722
 20
4717.0075933416811
 30
0.0
  0
VERTEX
  5
7E9F
  8
1
  6
CONTINUOUS
 10
2454.6773380086702
 20
4612.5075933416811
 30
0.0
 42
0.4
  0
SEQEND
  5
7EA0
  8
1
  6
CONTINUOUS
  0
LINE
  5
7A76
  8
1
  6
CONTINUOUS
 10
2365.6773380086711
 20
4665.5075933416811
 30
0.0
 11
2365.6773380086711
 21
3529.5075933416811
 31
0.0
  0
LINE
  5
7A77
  8
1
  6
CONTINUOUS
 10
4211.8773380086714
 20
3722.2075933416809
 30
0.0
 11
2959.5773380086712
 21
4521.6075933416796
 31
0.0
  0
LINE
  5
7A78
  8
1
  6
CONTINUOUS
 10
4158.0773380086712
 20
3637.9075933416798
 30
0.0
 11
2905.777338008671
 21
4437.3075933416812
 31
0.0
  0
LINE
  5
7A79
  8
1
  6
CONTINUOUS
 10
4386.5773380086712
 20
3965.8075933416799
 30
0.0
 11
3202.777338008671
 21
4863.6075933416796
 31
0.0
  0
LINE
  5
7A7A
  8
1
  6
CONTINUOUS
 10
4326.0773380086712
 20
3886.1075933416801
 30
0.0
 11
3142.3773380086709
 21
4783.9075933416798
 31
0.0
  0
LINE
  5
7A7B
  8
1
  6
CONTINUOUS
 10
2420.6773380086702
 20
3446.5075933416811
 30
0.0
 11
4540.6773380086697
 21
3446.5075933416811
 31
0.0
  0
LINE
  5
7A7C
  8
1
  6
CONTINUOUS
 10
2420.6773380086702
 20
3571.5075933416811
 30
0.0
 11
4540.6773380086697
 21
3571.5075933416811
 31
0.0
  0
LINE
  5
7A7D
  8
1
  6
CONTINUOUS
 10
2785.6773380086711
 20
7174.4409357127797
 30
0.0
 11
4465.6773380086697
 21
7174.4409357127797
 31
0.0
  0
CIRCLE
  5
7A7E
  8
1
  6
CONTINUOUS
 10
3045.6773380086702
 20
4656.5075933416811
 30
0.0
 40
500.0
  0
CIRCLE
  5
7A7F
  8
1
  6
CONTINUOUS
 10
3045.6773380086702
 20
4656.5075933416811
 30
0.0
 40
550.0
  0
ARC
  5
7A80
  8
1
  6
CONTINUOUS
 10
3045.6773380086702
 20
4656.5075933416811
 30
0.0
 40
260.0
 50
52.799999999999997
 51
237.39999999999989
  0
LINE
  5
7A81
  8
2
  6
CENTER
 10
2316.7569290086708
 20
4656.5075933416811
 30
0.0
 11
4000.5304820086708
 21
4656.5075933416811
 31
0.0
  0
CIRCLE
  5
7A82
  8
1
  6
CONTINUOUS
 10
3045.6773380086702
 20
4656.5075933416811
 30
0.0
 40
160.0
  0
LINE
  5
7A83
  8
1
  6
CONTINUOUS
 10
2415.6773380086702
 20
4612.5075933416811
 30
0.0
 11
2415.6773380086702
 21
3582.5075933416811
 31
0.0
  0
LINE
  5
7A84
  8
1
  6
CONTINUOUS
 10
2420.6773380086702
 20
3571.5075933416811
 30
0.0
 11
2420.6773380086702
 21
3446.5075933416811
 31
0.0
  0
LINE
  5
7A85
  8
2
  6
CENTER
 10
3045.6773380086702
 20
3372.9600003416799
 30
0.0
 11
3045.6773380086702
 21
5435.812522341681
 31
0.0
  0
ARC
  5
7A86
  8
1
  6
CONTINUOUS
 10
4265.6773380086697
 20
3806.5075933416811
 30
0.0
 40
182.5
 50
326.60000000000002
 51
213.40000000000001
  0
LINE
  5
7A87
  8
1
  6
CONTINUOUS
 10
4475.6773380086697
 20
3626.5075933416811
 30
0.0
 11
4055.6773380086711
 21
3626.5075933416811
 31
0.0
  0
CIRCLE
  5
7A88
  8
1
  6
CONTINUOUS
 10
4265.6773380086697
 20
3806.5075933416811
 30
0.0
 40
100.0
  0
LINE
  5
7A89
  8
2
  6
CENTER
 10
4370.6773380086706
 20
3806.5075933416811
 30
0.0
 11
4160.6773380086697
 21
3806.5075933416811
 31
0.0
  0
ARC
  5
7A8A
  8
1
  6
CONTINUOUS
 10
4265.6773380086697
 20
3806.5075933416811
 30
0.0
 40
200.0
 50
237.39999999999989
 51
52.799999999999997
  0
LINE
  5
7A8B
  8
1
  6
CONTINUOUS
 10
4103.6773380086706
 20
3696.5075933416811
 30
0.0
 11
4113.2773380086701
 21
3706.0075933416811
 31
0.0
  0
LINE
  5
7A8C
  8
1
  6
CONTINUOUS
 10
4103.6773380086706
 20
3626.5075933416811
 30
0.0
 11
4103.6773380086706
 21
3696.5075933416811
 31
0.0
  0
LINE
  5
7A8D
  8
1
  6
CONTINUOUS
 10
4040.6773380086702
 20
3571.5075933416811
 30
0.0
 11
4055.6773380086711
 21
3626.5075933416811
 31
0.0
  0
LINE
  5
7A8E
  8
1
  6
CONTINUOUS
 10
4427.6773380086697
 20
3696.5075933416811
 30
0.0
 11
4418.0773380086712
 21
3706.0075933416811
 31
0.0
  0
LINE
  5
7A8F
  8
1
  6
CONTINUOUS
 10
4427.6773380086697
 20
3626.5075933416811
 30
0.0
 11
4427.6773380086697
 21
3696.5075933416811
 31
0.0
  0
LINE
  5
7A90
  8
1
  6
CONTINUOUS
 10
4490.6773380086697
 20
3571.5075933416811
 30
0.0
 11
4475.6773380086697
 21
3626.5075933416811
 31
0.0
  0
LINE
  5
7A91
  8
2
  6
CENTER
 10
4265.6773380086697
 20
3701.5075933416811
 30
0.0
 11
4265.6773380086697
 21
3911.5075933416811
 31
0.0
  0
LINE
  5
7A92
  8
1
  6
CONTINUOUS
 10
4540.6773380086697
 20
3571.5075933416811
 30
0.0
 11
4540.6773380086697
 21
3446.5075933416811
 31
0.0
  0
LINE
  5
7A93
  8
1
  6
CONTINUOUS
 10
2365.6773380086711
 20
8229.4409357127788
 30
0.0
 11
3916.5773380086698
 21
8229.4409357127788
 31
0.0
  0
LINE
  5
7A94
  8
1
  6
CONTINUOUS
 10
2365.6773380086711
 20
7479.4409357127797
 30
0.0
 11
3916.5773380086698
 21
7479.4409357127797
 31
0.0
  0
LINE
  5
7A95
  8
1
  6
CONTINUOUS
 10
2365.6773380086711
 20
7429.4409357127797
 30
0.0
 11
2365.6773380086711
 21
8279.4409357127788
 31
0.0
  0
LINE
  5
7A96
  8
1
  6
CONTINUOUS
 10
3205.6773380086711
 20
7237.4409357127797
 30
0.0
 11
4165.6773380086697
 21
7237.4409357127797
 31
0.0
  0
LINE
  5
7A97
  8
1
  6
CONTINUOUS
 10
3545.6773380086711
 20
8297.4409357127788
 30
0.0
 11
4540.6773380086697
 21
8297.4409357127788
 31
0.0
  0
LINE
  5
7A98
  8
1
  6
CONTINUOUS
 10
2785.6773380086711
 20
7374.4409357127797
 30
0.0
 11
4465.6773380086697
 21
7374.4409357127797
 31
0.0
  0
LINE
  5
7A99
  8
1
  6
CONTINUOUS
 10
2885.6773380086711
 20
7324.4409357127806
 30
0.0
 11
3205.6773380086711
 21
7324.4409357127806
 31
0.0
  0
LINE
  5
7A9A
  8
1
  6
CONTINUOUS
 10
2885.6773380086711
 20
7224.4409357127806
 30
0.0
 11
3205.6773380086711
 21
7224.4409357127806
 31
0.0
  0
LINE
  5
7A9B
  8
1
  6
CONTINUOUS
 10
2495.6773380086702
 20
8332.4409357127806
 30
0.0
 11
3595.6773380086711
 21
8332.4409357127806
 31
0.0
  0
LINE
  5
7A9C
  8
1
  6
CONTINUOUS
 10
2415.6773380086702
 20
7479.4409357127797
 30
0.0
 11
2415.6773380086702
 21
8229.4409357127788
 31
0.0
  0
LINE
  5
7A9D
  8
1
  6
CONTINUOUS
 10
2420.6773380086702
 20
7237.4409357127797
 30
0.0
 11
2885.6773380086711
 21
7237.4409357127797
 31
0.0
  0
LINE
  5
7A9E
  8
1
  6
CONTINUOUS
 10
2420.6773380086702
 20
7479.4409357127797
 30
0.0
 11
2420.6773380086702
 21
7237.4409357127797
 31
0.0
  0
LINE
  5
7A9F
  8
1
  6
CONTINUOUS
 10
2885.6773380086711
 20
7224.4409357127806
 30
0.0
 11
2885.6773380086711
 21
7324.4409357127806
 31
0.0
  0
LINE
  5
7AA0
  8
1
  6
CONTINUOUS
 10
2420.6773380086702
 20
8297.4409357127788
 30
0.0
 11
2420.6773380086702
 21
8229.4409357127788
 31
0.0
  0
LINE
  5
7AA1
  8
1
  6
CONTINUOUS
 10
2420.6773380086702
 20
8297.4409357127788
 30
0.0
 11
2545.6773380086702
 21
8297.4409357127788
 31
0.0
  0
LINE
  5
7AA2
  8
1
  6
CONTINUOUS
 10
2545.6773380086702
 20
8229.4409357127788
 30
0.0
 11
2545.6773380086702
 21
8332.4409357127806
 31
0.0
  0
LINE
  5
7AA3
  8
1
  6
CONTINUOUS
 10
3205.6773380086711
 20
7224.4409357127806
 30
0.0
 11
3205.6773380086711
 21
7324.4409357127806
 31
0.0
  0
LINE
  5
7AA4
  8
1
  6
CONTINUOUS
 10
3021.6773380086702
 20
7324.4409357127806
 30
0.0
 11
3021.6773380086702
 21
7479.4409357127797
 31
0.0
  0
LINE
  5
7AA5
  8
1
  6
CONTINUOUS
 10
3069.6773380086702
 20
7324.4409357127806
 30
0.0
 11
3069.6773380086702
 21
7479.4409357127797
 31
0.0
  0
LINE
  5
7AA6
  8
1
  6
CONTINUOUS
 10
3545.6773380086711
 20
8229.4409357127788
 30
0.0
 11
3545.6773380086711
 21
8332.4409357127806
 31
0.0
  0
LINE
  5
7AA7
  8
1
  6
CONTINUOUS
 10
4448.1773380086706
 20
7397.8409357127784
 30
0.0
 11
4083.1773380086702
 21
7397.8409357127784
 31
0.0
  0
LINE
  5
7AA8
  8
1
  6
CONTINUOUS
 10
4448.1773380086706
 20
7959.3409357127812
 30
0.0
 11
4083.1773380086702
 21
7959.3409357127812
 31
0.0
  0
LINE
  5
7AA9
  8
1
  6
CONTINUOUS
 10
4165.6773380086697
 20
7224.4409357127806
 30
0.0
 11
4365.6773380086697
 21
7224.4409357127806
 31
0.0
  0
LINE
  5
7AAA
  8
1
  6
CONTINUOUS
 10
4165.6773380086697
 20
7324.4409357127806
 30
0.0
 11
4365.6773380086697
 21
7324.4409357127806
 31
0.0
  0
LINE
  5
7AAB
  8
1
  6
CONTINUOUS
 10
3916.5773380086698
 20
7479.4409357127797
 30
0.0
 11
3916.5773380086698
 21
8229.4409357127788
 31
0.0
  0
LINE
  5
7AAC
  8
1
  6
CONTINUOUS
 10
4083.1773380086702
 20
7397.8409357127784
 30
0.0
 11
4083.1773380086702
 21
7959.3409357127812
 31
0.0
  0
LINE
  5
7AAD
  8
1
  6
CONTINUOUS
 10
4165.6773380086697
 20
7224.4409357127806
 30
0.0
 11
4165.6773380086697
 21
7324.4409357127806
 31
0.0
  0
LINE
  5
7AAE
  8
1
  6
CONTINUOUS
 10
4540.6773380086697
 20
8297.4409357127788
 30
0.0
 11
4540.6773380086697
 21
7237.4409357127797
 31
0.0
  0
LINE
  5
7AAF
  8
1
  6
CONTINUOUS
 10
4365.6773380086697
 20
7237.4409357127797
 30
0.0
 11
4540.6773380086697
 21
7237.4409357127797
 31
0.0
  0
LINE
  5
7AB0
  8
1
  6
CONTINUOUS
 10
4289.6773380086706
 20
7324.4409357127806
 30
0.0
 11
4289.6773380086706
 21
7397.8409357127784
 31
0.0
  0
LINE
  5
7AB1
  8
1
  6
CONTINUOUS
 10
4241.6773380086697
 20
7324.4409357127806
 30
0.0
 11
4241.6773380086697
 21
7397.8409357127784
 31
0.0
  0
LINE
  5
7AB2
  8
1
  6
CONTINUOUS
 10
4448.1773380086706
 20
7397.8409357127784
 30
0.0
 11
4448.1773380086706
 21
7959.3409357127812
 31
0.0
  0
LINE
  5
7AB3
  8
1
  6
CONTINUOUS
 10
4365.6773380086697
 20
7224.4409357127806
 30
0.0
 11
4365.6773380086697
 21
7324.4409357127806
 31
0.0
  0
LINE
  5
7AB4
  8
1
  6
CONTINUOUS
 10
5650.0243504701848
 20
3606.5075933416811
 30
0.0
 11
5850.0243504701848
 21
3606.5075933416811
 31
0.0
  0
LINE
  5
7AB5
  8
1
  6
CONTINUOUS
 10
5650.0243504701848
 20
4923.2075933416809
 30
0.0
 11
5850.0243504701848
 21
4923.2075933416809
 31
0.0
  0
LINE
  5
7AB6
  8
1
  6
CONTINUOUS
 10
5650.0243504701848
 20
4923.2075933416809
 30
0.0
 11
5650.0243504701848
 21
3606.5075933416811
 31
0.0
  0
LINE
  5
7AB7
  8
1
  6
CONTINUOUS
 10
6808.0243504701848
 20
5206.5075933416811
 30
0.0
 11
6808.0243504701848
 21
4106.5075933416811
 31
0.0
  0
LINE
  5
7AB8
  8
1
  6
CONTINUOUS
 10
5955.0243504701848
 20
5379.4075933416807
 30
0.0
 11
5955.0243504701848
 21
3571.5075933416811
 31
0.0
  0
LINE
  5
7AB9
  8
1
  6
CONTINUOUS
 10
6705.0243504701857
 20
5379.4075933416807
 30
0.0
 11
6705.0243504701857
 21
3571.5075933416811
 31
0.0
  0
LINE
  5
7ABA
  8
1
  6
CONTINUOUS
 10
5850.0243504701848
 20
4923.2075933416809
 30
0.0
 11
5850.0243504701848
 21
3606.5075933416811
 31
0.0
  0
LINE
  5
7ABB
  8
1
  6
CONTINUOUS
 10
5955.0243504701848
 20
3582.5075933416811
 30
0.0
 11
6705.0243504701857
 21
4612.5075933416811
 31
0.0
  0
LINE
  5
7ABC
  8
1
  6
CONTINUOUS
 10
5955.0243504701848
 20
4612.5075933416811
 30
0.0
 11
6705.0243504701857
 21
3582.5075933416811
 31
0.0
  0
LINE
  5
7ABD
  8
1
  6
CONTINUOUS
 10
6705.0243504701857
 20
3582.5075933416811
 30
0.0
 11
5955.0243504701848
 21
3582.5075933416811
 31
0.0
  0
LINE
  5
7ABE
  8
1
  6
CONTINUOUS
 10
6773.0243504701839
 20
3446.5075933416811
 30
0.0
 11
5713.0243504701848
 21
3446.5075933416811
 31
0.0
  0
LINE
  5
7ABF
  8
1
  6
CONTINUOUS
 10
6773.0243504701839
 20
3571.5075933416811
 30
0.0
 11
5713.0243504701848
 21
3571.5075933416811
 31
0.0
  0
LINE
  5
7AC0
  8
1
  6
CONTINUOUS
 10
6705.0243504701857
 20
4612.5075933416811
 30
0.0
 11
5955.0243504701848
 21
4612.5075933416811
 31
0.0
  0
LINE
  5
7AC1
  8
1
  6
CONTINUOUS
 10
5955.0243504701848
 20
3837.20759334168
 30
0.0
 11
5800.0243504701839
 21
3837.20759334168
 31
0.0
  0
LINE
  5
7AC2
  8
1
  6
CONTINUOUS
 10
5955.0243504701848
 20
3789.2075933416809
 30
0.0
 11
5800.0243504701839
 21
3789.2075933416809
 31
0.0
  0
LINE
  5
7AC3
  8
1
  6
CONTINUOUS
 10
5800.0243504701839
 20
3906.5075933416811
 30
0.0
 11
5800.0243504701839
 21
3706.5075933416811
 31
0.0
  0
LINE
  5
7AC4
  8
1
  6
CONTINUOUS
 10
5700.0243504701848
 20
3906.5075933416811
 30
0.0
 11
5700.0243504701848
 21
3706.5075933416811
 31
0.0
  0
LINE
  5
7AC5
  8
1
  6
CONTINUOUS
 10
5700.0243504701848
 20
3706.5075933416811
 30
0.0
 11
5800.0243504701839
 21
3706.5075933416811
 31
0.0
  0
LINE
  5
7AC6
  8
1
  6
CONTINUOUS
 10
5700.0243504701848
 20
3906.5075933416811
 30
0.0
 11
5800.0243504701839
 21
3906.5075933416811
 31
0.0
  0
LINE
  5
7AC7
  8
1
  6
CONTINUOUS
 10
5713.0243504701848
 20
3571.5075933416811
 30
0.0
 11
5713.0243504701848
 21
3446.5075933416811
 31
0.0
  0
LINE
  5
7AC8
  8
1
  6
CONTINUOUS
 10
5955.0243504701848
 20
4639.2075933416809
 30
0.0
 11
5800.0243504701839
 21
4639.2075933416809
 31
0.0
  0
LINE
  5
7AC9
  8
1
  6
CONTINUOUS
 10
5955.0243504701848
 20
4687.2075933416809
 30
0.0
 11
5800.0243504701839
 21
4687.2075933416809
 31
0.0
  0
LINE
  5
7ACA
  8
1
  6
CONTINUOUS
 10
5700.0243504701848
 20
4489.70759334168
 30
0.0
 11
5800.0243504701839
 21
4489.70759334168
 31
0.0
  0
LINE
  5
7ACB
  8
1
  6
CONTINUOUS
 10
5700.0243504701848
 20
4823.2075933416809
 30
0.0
 11
5800.0243504701839
 21
4823.2075933416809
 31
0.0
  0
LINE
  5
7ACC
  8
1
  6
CONTINUOUS
 10
5800.0243504701839
 20
4823.2075933416809
 30
0.0
 11
5800.0243504701839
 21
4489.70759334168
 31
0.0
  0
LINE
  5
7ACD
  8
1
  6
CONTINUOUS
 10
5700.0243504701848
 20
4823.2075933416809
 30
0.0
 11
5700.0243504701848
 21
4489.70759334168
 31
0.0
  0
LINE
  5
7ACE
  8
1
  6
CONTINUOUS
 10
6773.0243504701839
 20
3571.5075933416811
 30
0.0
 11
6773.0243504701839
 21
3446.5075933416811
 31
0.0
  0
LINE
  5
7ACF
  8
1
  6
CONTINUOUS
 10
6808.0243504701848
 20
4156.5075933416811
 30
0.0
 11
6705.0243504701857
 21
4156.5075933416811
 31
0.0
  0
LINE
  5
7AD0
  8
1
  6
CONTINUOUS
 10
6705.0243504701857
 20
5379.4075933416807
 30
0.0
 11
5955.0243504701848
 21
5379.4075933416807
 31
0.0
  0
LINE
  5
7AD1
  8
1
  6
CONTINUOUS
 10
6808.0243504701848
 20
5156.5075933416811
 30
0.0
 11
6705.0243504701857
 21
5156.5075933416811
 31
0.0
  0
DIMENSION
  5
7AE5
  8
3
  6
CONTINUOUS
  2
*D1
 10
3045.6773380086702
 20
3091.4001203416801
 30
0.0
 11
2771.3916237229569
 21
3091.4001203416801
 31
0.0
 70
   128
 13
2420.6773380086702
 23
3446.5075933416811
 33
0.0
 14
3045.6773380086702
 24
3372.9600003416799
 34
0.0
1001
ACAD
1000
DSTYLE
1002
{
1070
   287
1070
     3
1070
   287
1070
     3
1070
    40
1040
40.0
1070
   143
1040
0.039
1070
   172
1070
     1
1070
   271
1070
     0
1070
   279
1070
     0
1070
   288
1070
     1
1002
}
  0
DIMENSION
  5
7AF1
  8
3
  6
CONTINUOUS
  2
*D2
 10
4540.6773380086697
 20
3091.4001203416801
 30
0.0
 11
3793.1773380086711
 21
3191.4001203416801
 31
0.0
 70
     0
 13
3045.6773380086702
 23
3372.9600003416799
 33
0.0
 14
4540.6773380086697
 24
3446.5075933416811
 34
0.0
1001
ACAD
1000
DSTYLE
1002
{
1070
   287
1070
     3
1070
   287
1070
     3
1070
    40
1040
40.0
1070
   143
1040
0.039
1070
   172
1070
     1
1070
   271
1070
     0
1070
   279
1070
     0
1070
   288
1070
     1
1002
}
  0
DIMENSION
  5
7AFE
  8
3
  6
CONTINUOUS
  2
*D3
 10
2094.9779140086721
 20
3582.5075933416811
 30
0.0
 11
2094.9779140086721
 21
4077.7703913416799
 31
0.0
 70
   128
 13
2365.6773380086711
 23
4612.5075933416811
 33
0.0
 14
2365.6773380086711
 24
3582.5075933416811
 34
0.0
 50
90.0
1001
ACAD
1000
DSTYLE
1002
{
1070
   287
1070
     3
1070
   287
1070
     3
1070
    40
1040
40.0
1070
   143
1040
0.039
1070
   172
1070
     1
1070
   271
1070
     0
1070
   279
1070
     0
1070
   288
1070
     1
1002
}
  0
DIMENSION
  5
7B0B
  8
3
  6
CONTINUOUS
  2
*D4
 10
1503.349776008673
 20
4656.5075933416811
 30
0.0
 11
1503.3497760086721
 21
4930.7933076273957
 31
0.0
 70
   128
 13
3045.6773380086702
 23
5376.5075933416811
 33
0.0
 14
2450.38260100867
 24
4656.5075933416811
 34
0.0
 50
90.0
1001
ACAD
1000
DSTYLE
1002
{
1070
   287
1070
     3
1070
   287
1070
     3
1070
    40
1040
40.0
1070
   143
1040
0.039
1070
   172
1070
     1
1070
   271
1070
     0
1070
   279
1070
     0
1070
   288
1070
     1
1002
}
  0
DIMENSION
  5
7B17
  8
3
  6
CONTINUOUS
  2
*D5
 10
1503.3497760086721
 20
3446.5075933416811
 30
0.0
 11
1403.3497760086709
 21
4051.5075933416811
 31
0.0
 70
     0
 13
2450.38260100867
 23
4656.5075933416811
 33
0.0
 14
2420.6773380086702
 24
3446.5075933416811
 34
0.0
 50
90.0
1001
ACAD
1000
DSTYLE
1002
{
1070
   287
1070
     3
1070
   287
1070
     3
1070
    40
1040
40.0
1070
   143
1040
0.039
1070
   172
1070
     1
1070
   271
1070
     0
1070
   279
1070
     0
1070
   288
1070
     1
1002
}
  0
DIMENSION
  5
7B24
  8
3
  6
CONTINUOUS
  2
*D6
 10
3045.6773380086702
 20
5620.6819823416809
 30
0.0
 11
2771.391623722956
 21
5620.6819823416809
 31
0.0
 70
   128
 13
2365.6773380086711
 23
4665.5075933416811
 33
0.0
 14
3045.6773380086702
 24
5435.812522341681
 34
0.0
1001
ACAD
1000
DSTYLE
1002
{
1070
   287
1070
     3
1070
   287
1070
     3
1070
    40
1040
40.0
1070
   143
1040
0.039
1070
   172
1070
     1
1070
   271
1070
     0
1070
   279
1070
     0
1070
   288
1070
     1
1002
}
  0
DIMENSION
  5
7B30
  8
3
  6
CONTINUOUS
  2
*D7
 10
3913.6773380086711
 20
5620.6819823416809
 30
0.0
 11
3479.6773380086702
 21
5720.6819823416799
 31
0.0
 70
     0
 13
3045.6773380086702
 23
5435.812522341681
 33
0.0
 14
3913.6773380086711
 24
4656.5075933416811
 34
0.0
1001
ACAD
1000
DSTYLE
1002
{
1070
   287
1070
     3
1070
   287
1070
     3
1070
    40
1040
40.0
1070
   143
1040
0.039
1070
   172
1070
     1
1070
   271
1070
     0
1070
   279
1070
     0
1070
   288
1070
     1
1002
}
  0
DIMENSION
  5
7B3D
  8
3
  6
CONTINUOUS
  2
*D8
 10
4540.6773380086697
 20
6818.2274287127784
 30
0.0
 11
3376.0306770086718
 21
6818.2274287127784
 31
0.0
 70
   128
 13
2420.6773380086702
 23
7237.4409357127797
 33
0.0
 14
4540.6773380086697
 24
7237.4409357127797
 34
0.0
1001
ACAD
1000
DSTYLE
1002
{
1070
   287
1070
     3
1070
   287
1070
     3
1070
    40
1040
40.0
1070
   143
1040
0.039
1070
   172
1070
     1
1070
   271
1070
     0
1070
   279
1070
     0
1070
   288
1070
     1
1002
}
  0
DIMENSION
  5
7B4A
  8
3
  6
CONTINUOUS
  2
*D9
 10
4984.7020990086712
 20
7237.4409357127797
 30
0.0
 11
4984.7020990086712
 21
7687.0171157127779
 31
0.0
 70
   128
 13
4540.6773380086697
 23
8297.4409357127788
 33
0.0
 14
4540.6773380086697
 24
7237.4409357127797
 34
0.0
 50
90.0
1001
ACAD
1000
DSTYLE
1002
{
1070
   287
1070
     3
1070
   287
1070
     3
1070
    40
1040
40.0
1070
   143
1040
0.039
1070
   172
1070
     1
1070
   271
1070
     0
1070
   279
1070
     0
1070
   288
1070
     1
1002
}
  0
LINE
  5
7B4B
  8
2
  6
CENTER
 10
4027.7456880086702
 20
7854.4409357127788
 30
0.0
 11
2192.414676008671
 21
7854.4409357127788
 31
0.0
  0
LINE
  5
7B4C
  8
2
  6
CENTER
 10
3045.6773380086702
 20
7091.9321957127786
 30
0.0
 11
3045.6773380086702
 21
8494.9928247127791
 31
0.0
  0
LINE
  5
7B4D
  8
2
  6
CENTER
 10
6330.0243504701848
 20
5574.6812853416805
 30
0.0
 11
6330.0243504701848
 21
3254.7233343416792
 31
0.0
  0
DIMENSION
  5
7B5A
  8
3
  6
CONTINUOUS
  2
*D10
 10
6705.0243504701857
 20
5551.465712383244
 30
0.0
 11
6325.5821704923583
 21
5551.465712383244
 31
0.0
 70
   128
 13
5955.0243504701848
 23
5379.4075933416807
 33
0.0
 14
6705.0243504701857
 24
5379.4075933416807
 34
0.0
1001
ACAD
1000
DSTYLE
1002
{
1070
   287
1070
     3
1070
   287
1070
     3
1070
    40
1040
40.0
1070
   143
1040
0.039
1070
   172
1070
     1
1070
   271
1070
     0
1070
   279
1070
     0
1070
   288
1070
     1
1002
}
  0
DIMENSION
  5
7B67
  8
3
  6
CONTINUOUS
  2
*D11
 10
6330.0243504701848
 20
5855.8599643416801
 30
0.0
 11
6038.5957790416142
 21
5855.8599643416801
 31
0.0
 70
   128
  1
MAX\P770
 13
5650.0243504701848
 23
4923.2075933416809
 33
0.0
 14
6330.0243504701848
 24
5782.0524753416803
 34
0.0
1001
ACAD
1000
DSTYLE
1002
{
1070
   287
1070
     3
1070
   287
1070
     3
1070
    40
1040
40.0
1070
   143
1040
0.039
1070
   172
1070
     1
1070
   271
1070
     0
1070
   279
1070
     0
1070
   288
1070
     1
1002
}
  0
DIMENSION
  5
7B75
  8
3
  6
CONTINUOUS
  2
*D12
 10
6808.0243504701848
 20
5855.8599643416801
 30
0.0
 11
6551.9457573223262
 21
5965.4320439170078
 31
0.0
 12
-428.91173582379997
 22
0.0
 32
0.0
 70
   128
 13
6330.0243504701848
 23
5782.0524753416803
 33
0.0
 14
6808.0243504701848
 24
5206.5075933416811
 34
0.0
1001
ACAD
1000
DSTYLE
1002
{
1070
   288
1070
     1
1070
   172
1070
     1
1070
    40
1040
40.0
1070
   271
1070
     0
1070
   143
1040
0.039
1002
}
  0
DIMENSION
  5
7B98
  8
3
  6
CONTINUOUS
  2
*D13
 10
7167.957171470186
 20
4156.5075933416811
 30
0.0
 11
7167.9571714701851
 21
4648.0429873416806
 31
0.0
 70
   128
 13
6808.0243504701848
 23
5156.5075933416811
 33
0.0
 14
6808.0243504701848
 24
4156.5075933416811
 34
0.0
 50
90.0
1001
ACAD
1000
DSTYLE
1002
{
1070
   287
1070
     3
1070
   287
1070
     3
1070
     3
1000
φ<>
1070
    40
1040
40.0
1070
   143
1040
0.039
1070
   172
1070
     1
1070
   271
1070
     0
1070
   279
1070
     0
1070
   288
1070
     1
1002
}
  0
DIMENSION
  5
7BA5
  8
3
  6
CONTINUOUS
  2
*D14
 10
6330.0243504701848
 20
3129.96071934168
 30
0.0
 11
6067.1672076130417
 21
3129.96071934168
 31
0.0
 70
   128
 13
5713.0243504701848
 23
3446.5075933416811
 33
0.0
 14
6330.0243504701848
 24
3254.7233343416792
 34
0.0
1001
ACAD
1000
DSTYLE
1002
{
1070
   287
1070
     3
1070
   287
1070
     3
1070
    40
1040
40.0
1070
   143
1040
0.039
1070
   172
1070
     1
1070
   271
1070
     0
1070
   279
1070
     0
1070
   288
1070
     1
1002
}
  0
DIMENSION
  5
7BB3
  8
3
  6
CONTINUOUS
  2
*D15
 10
6773.0243504701839
 20
3129.96071934168
 30
0.0
 11
6568.5478689679721
 21
3228.3417242845312
 31
0.0
 12
-428.91173582379997
 22
0.0
 32
0.0
 70
   128
 13
6330.0243504701848
 23
3254.7233343416792
 33
0.0
 14
6773.0243504701839
 24
3446.5075933416811
 34
0.0
1001
ACAD
1000
DSTYLE
1002
{
1070
   288
1070
     1
1070
   172
1070
     1
1070
    40
1040
40.0
1070
   271
1070
     0
1070
   143
1040
0.039
1002
}
  0
LINE
  5
7BCA
  8
2
  6
CENTER
 10
5539.2160531585678
 20
4656.5075933416811
 30
0.0
 11
6908.8914731552568
 21
4656.5075933416811
 31
0.0
  0
DIMENSION
  5
7BD7
  8
3
  6
CONTINUOUS
  2
*D16
 10
1225.049895008671
 20
3446.5075933416811
 30
0.0
 11
1225.049895008671
 21
4298.4939463416813
 31
0.0
 70
   128
 13
3045.6773380086702
 23
5376.5075933416811
 33
0.0
 14
2420.6773380086702
 24
3446.5075933416811
 34
0.0
 50
90.0
1001
ACAD
1000
DSTYLE
1002
{
1070
   287
1070
     3
1070
   287
1070
     3
1070
    40
1040
40.0
1070
   143
1040
0.039
1070
   172
1070
     1
1070
   271
1070
     0
1070
   279
1070
     0
1070
   288
1070
     1
1002
}
  0
LINE
  5
7BD9
  8
4
  6
CONTINUOUS
 10
7400.0
 20
2000.0
 30
0.0
 11
7400.0
 21
1200.0
 31
0.0
  0
LINE
  5
7BDA
  8
4
  6
CONTINUOUS
 10
4600.0
 20
2000.0
 30
0.0
 11
4600.0
 21
1200.0
 31
0.0
  0
LINE
  5
7BDB
  8
4
  6
CONTINUOUS
 10
2600.0
 20
2000.0
 30
0.0
 11
2600.0
 21
1200.0
 31
0.0
  0
LINE
  5
7BDE
  8
4
  6
CONTINUOUS
 10
2600.0
 20
1200.0
 30
0.0
 11
7400.0
 21
1200.0
 31
0.0
  0
LINE
  5
7BDF
  8
4
  6
CONTINUOUS
 10
2600.0
 20
1600.0
 30
0.0
 11
7400.0
 21
1600.0
 31
0.0
  0
TEXT
  5
7BE0
  8
4
  6
CONTINUOUS
 10
2754.0083232000002
 20
1726.1721031999989
 30
0.0
 40
200.0
  1
機器名称
  0
TEXT
  5
7BE1
  8
4
  6
CONTINUOUS
 10
2745.032424
 20
1286.5806264
 30
0.0
 40
200.0
  1
機器型番
  0
TEXT
  5
7BE2
  8
4
  6
CONTINUOUS
 10
4710.7149823999989
 20
1690.2870751999999
 30
0.0
 40
168.88888879999999
  1
ミツヤリミットロードファン
  0
TEXT
  5
7BE3
  8
4
  6
CONTINUOUS
 10
4746.6179824000001
 20
1268.6383367999999
 30
0.0
 40
200.0
  1
LLE#6-4
  0
TEXT
  5
7BE5
  8
4
  6
CONTINUOUS
 10
3619.1430624
 20
9533.7153655999991
 30
0.0
 40
216.0
  1
床置ベット
  0
TEXT
  5
7BE6
  8
4
  6
CONTINUOUS
 10
1264.6703735999999
 20
10135.5239048
 30
0.0
 40
240.0
  1
ベルト駆動式片吸込両持排煙ファン
  0
LINE
  5
7BE7
  8
4
  6
CONTINUOUS
 10
1000.0
 20
9877.635016799999
 30
0.0
 11
7400.0
 21
9877.635016799999
 31
0.0
  0
LINE
  5
7BE8
  8
4
  6
CONTINUOUS
 10
1000.0
 20
10677.635016800001
 30
0.0
 11
7400.0
 21
10677.635016800001
 31
0.0
  0
LINE
  5
7BE9
  8
4
  6
CONTINUOUS
 10
2600.0
 20
2000.0
 30
0.0
 11
7400.0
 21
2000.0
 31
0.0
  0
LINE
  5
7BEA
  8
4
  6
CONTINUOUS
 10
1000.0
 20
10677.635016800001
 30
0.0
 11
1000.0
 21
9877.635016799999
 31
0.0
  0
TEXT
  5
7BEB
  8
4
  6
CONTINUOUS
 10
1875.7077336
 20
9529.2779104000001
 30
0.0
 40
216.0
  1
右回転左横向
  0
TEXT
  5
7BEC
  8
4
  6
CONTINUOUS
 10
5875.8782375999999
 20
10824.244326399999
 30
0.0
 40
224.0
  1
No.
  0
TEXT
  5
7BED
  8
4
  6
CONTINUOUS
 10
5245.1842504000006
 20
9533.7153655999991
 30
0.0
 40
216.0
  1
縮尺：1/40
  0
LINE
  5
7BEE
  8
4
  6
CONTINUOUS
 10
7400.0
 20
10677.635016800001
 30
0.0
 11
7400.0
 21
9877.635016799999
 31
0.0
  0
LINE
  5
7BF0
  8
4
  6
CONTINUOUS
 10
5762.4696895999996
 20
10725.0543328
 30
0.0
 11
5762.4696895999996
 21
11146.609046400001
 31
0.0
  0
LINE
  5
7BF1
  8
4
  6
CONTINUOUS
 10
5762.4696895999996
 20
11146.609046400001
 30
0.0
 11
7400.0
 21
11146.609046400001
 31
0.0
  0
LINE
  5
7BF2
  8
4
  6
CONTINUOUS
 10
7400.0
 20
11146.609046400001
 30
0.0
 11
7400.0
 21
10725.0543328
 31
0.0
  0
LINE
  5
7BF3
  8
4
  6
CONTINUOUS
 10
7400.0
 20
10725.0543328
 30
0.0
 11
5762.4696895999996
 21
10725.0543328
 31
0.0
  0
DIMENSION
  5
7C29
  8
3
  6
CONTINUOUS
  2
*D17
 10
1792.3885670086711
 20
4656.5075933416811
 30
0.0
 11
1792.3885670086711
 21
4160.6604193416797
 31
0.0
 70
   128
 13
2365.6773380086711
 23
3582.5075933416811
 33
0.0
 14
2450.38260100867
 24
4656.5075933416811
 34
0.0
 50
90.0
1001
ACAD
1000
DSTYLE
1002
{
1070
   287
1070
     3
1070
   287
1070
     3
1070
    40
1040
40.0
1070
   143
1040
0.039
1070
   172
1070
     1
1070
   271
1070
     0
1070
   279
1070
     0
1070
   288
1070
     1
1002
}
  0
DIMENSION
  5
7D82
  8
3
  2
*D18
 10
4540.6773380086697
 20
5849.3130399037218
 30
0.0
 11
3496.3806778778298
 21
5849.3130399037218
 31
0.0
 70
   128
 13
2365.6773380086711
 23
4665.5075933416811
 33
0.0
 14
4540.6773380086697
 24
3571.5075933416811
 34
0.0
1001
ACAD
1000
DSTYLE
1002
{
1070
   287
1070
     3
1070
   287
1070
     3
1070
    40
1040
40.0
1070
   143
1040
0.039
1070
   172
1070
     1
1070
   271
1070
     0
1070
   279
1070
     0
1070
   288
1070
     1
1002
}
  0
ENDSEC
  0
EOF
