  0
SECTION
  2
HEADER
  9
$ACADVER
  1
AC1009
  9
$INSBASE
 10
0.0
 20
0.0
 30
0.0
  9
$EXTMIN
 10
1000.0
 20
1200.0
 30
0.0
  9
$EXTMAX
 10
7400.0
 20
11146.609046400001
 30
0.0
  9
$LIMMIN
 10
0.0
 20
0.0
  9
$LIMMAX
 10
297.0
 20
210.0
  9
$ORTHOMODE
 70
     0
  9
$REGENMODE
 70
     1
  9
$FILLMODE
 70
     0
  9
$QTEXTMODE
 70
     0
  9
$MIRRTEXT
 70
     1
  9
$DRAGMODE
 70
     2
  9
$LTSCALE
 40
100.0
  9
$OSMODE
 70
    37
  9
$ATTMODE
 70
     1
  9
$TEXTSIZE
 40
180.0
  9
$TRACEWID
 40
0.05
  9
$TEXTSTYLE
  7
STANDARD
  9
$CLAYER
  8
3
  9
$CELTYPE
  6
BYLAYER
  9
$CECOLOR
 62
   256
  9
$DIMSCALE
 40
40.0
  9
$DIMASZ
 40
2.0
  9
$DIMEXO
 40
0.5
  9
$DIMDLI
 40
10.0
  9
$DIMRND
 40
0.0
  9
$DIMDLE
 40
0.0
  9
$DIMEXE
 40
1.0
  9
$DIMTP
 40
1.0
  9
$DIMTM
 40
1.0
  9
$DIMTXT
 40
3.0
  9
$DIMCEN
 40
0.0
  9
$DIMTSZ
 40
0.0
  9
$DIMTOL
 70
     0
  9
$DIMLIM
 70
     0
  9
$DIMTIH
 70
     0
  9
$DIMTOH
 70
     0
  9
$DIMSE1
 70
     0
  9
$DIMSE2
 70
     0
  9
$DIMTAD
 70
     1
  9
$DIMZIN
 70
     8
  9
$DIMBLK
  1

  9
$DIMASO
 70
     1
  9
$DIMSHO
 70
     1
  9
$DIMPOST
  1

  9
$DIMAPOST
  1

  9
$DIMALT
 70
     0
  9
$DIMALTD
 70
     2
  9
$DIMALTF
 40
0.039
  9
$DIMLFAC
 40
1.0
  9
$DIMTOFL
 70
     1
  9
$DIMTVP
 40
0.0
  9
$DIMTIX
 70
     0
  9
$DIMSOXD
 70
     0
  9
$DIMSAH
 70
     1
  9
$DIMBLK1
  1
OPEN
  9
$DIMBLK2
  1
OPEN
  9
$DIMSTYLE
  2
IGA
  9
$DIMCLRD
 70
     0
  9
$DIMCLRE
 70
     0
  9
$DIMCLRT
 70
     0
  9
$DIMTFAC
 40
10.0
  9
$DIMGAP
 40
1.0
  9
$LUNITS
 70
     2
  9
$LUPREC
 70
     3
  9
$SKETCHINC
 40
0.1
  9
$FILLETRAD
 40
50.0
  9
$AUNITS
 70
     0
  9
$AUPREC
 70
     0
  9
$MENU
  1
acad
  9
$ELEVATION
 40
0.0
  9
$PELEVATION
 40
0.0
  9
$THICKNESS
 40
0.0
  9
$LIMCHECK
 70
     0
  9
$BLIPMODE
 70
     0
  9
$CHAMFERA
 40
0.5
  9
$CHAMFERB
 40
0.5
  9
$SKPOLY
 70
     0
  9
$TDCREATE
 40
2450751.4638375002
  9
$TDUPDATE
 40
2454953.6865400691
  9
$TDINDWG
 40
0.0096689236
  9
$TDUSRTIMER
 40
0.0096689236
  9
$USRTIMER
 70
     1
  9
$ANGBASE
 50
0.0
  9
$ANGDIR
 70
     0
  9
$PDMODE
 70
     0
  9
$PDSIZE
 40
0.0
  9
$PLINEWID
 40
0.0
  9
$COORDS
 70
     1
  9
$SPLFRAME
 70
     0
  9
$SPLINETYPE
 70
     6
  9
$SPLINESEGS
 70
     8
  9
$ATTDIA
 70
     0
  9
$ATTREQ
 70
     1
  9
$HANDLING
 70
 10241
  9
$HANDSEED
  5
7FAE
  9
$SURFTAB1
 70
     6
  9
$SURFTAB2
 70
     6
  9
$SURFTYPE
 70
     6
  9
$SURFU
 70
     6
  9
$SURFV
 70
     6
  9
$UCSNAME
  2

  9
$UCSORG
 10
0.0
 20
0.0
 30
0.0
  9
$UCSXDIR
 10
1.0
 20
0.0
 30
0.0
  9
$UCSYDIR
 10
0.0
 20
1.0
 30
0.0
  9
$PUCSNAME
  2

  9
$PUCSORG
 10
0.0
 20
0.0
 30
0.0
  9
$PUCSXDIR
 10
1.0
 20
0.0
 30
0.0
  9
$PUCSYDIR
 10
0.0
 20
1.0
 30
0.0
  9
$USERI1
 70
     0
  9
$USERI2
 70
     0
  9
$USERI3
 70
     0
  9
$USERI4
 70
     0
  9
$USERI5
 70
     0
  9
$USERR1
 40
0.0
  9
$USERR2
 40
0.0
  9
$USERR3
 40
0.0
  9
$USERR4
 40
0.0
  9
$USERR5
 40
0.0
  9
$WORLDVIEW
 70
     1
  9
$SHADEDGE
 70
     3
  9
$SHADEDIF
 70
    70
  9
$TILEMODE
 70
     1
  9
$MAXACTVP
 70
    16
  9
$PLIMCHECK
 70
     0
  9
$PEXTMIN
 10
1.0000000000000000E+020
 20
1.0000000000000000E+020
 30
1.0000000000000000E+020
  9
$PEXTMAX
 10
-1.0000000000000000E+020
 20
-1.0000000000000000E+020
 30
-1.0000000000000000E+020
  9
$PLIMMIN
 10
0.0
 20
0.0
  9
$PLIMMAX
 10
12.0
 20
9.0
  9
$UNITMODE
 70
     0
  9
$VISRETAIN
 70
     0
  9
$PLINEGEN
 70
     0
  9
$PSLTSCALE
 70
     1
  0
ENDSEC
  0
SECTION
  2
TABLES
  0
TABLE
  2
VPORT
 70
     2
  0
VPORT
  2
*ACTIVE
 70
     0
 10
0.0
 20
0.0
 11
1.0
 21
1.0
 12
15220.79787892073
 22
5964.005575187879
 13
0.0
 23
0.0
 14
10.0
 24
10.0
 15
10.0
 25
10.0
 16
0.0
 26
0.0
 36
1.0
 17
0.0
 27
0.0
 37
0.0
 40
11032.253339348181
 41
3.1666666666666661
 42
50.0
 43
0.0
 44
0.0
 50
0.0
 51
0.0
 71
     0
 72
   100
 73
     1
 74
     0
 75
     0
 76
     1
 77
     0
 78
     0
  0
ENDTAB
  0
TABLE
  2
LTYPE
 70
     2
  0
LTYPE
  2
CONTINUOUS
 70
     0
  3
Solid line
 72
    65
 73
     0
 40
0.0
  0
LTYPE
  2
CENTER
 70
     0
  3
____ _ ____ _ ____ _ ____ _ ____ _ ____ _ ____ 
 72
    65
 73
     4
 40
2.0
 49
1.25
 49
-0.25
 49
0.25
 49
-0.25
  0
ENDTAB
  0
TABLE
  2
LAYER
 70
     6
  0
LAYER
  2
0
 70
     0
 62
     7
  6
CONTINUOUS
  0
LAYER
  2
3
 70
     0
 62
     2
  6
CONTINUOUS
  0
LAYER
  2
2
 70
     0
 62
     3
  6
CENTER
  0
LAYER
  2
1
 70
     0
 62
     4
  6
CONTINUOUS
  0
LAYER
  2
4
 70
     0
 62
     7
  6
CONTINUOUS
  0
LAYER
  2
DEFPOINTS
 70
     0
 62
     7
  6
CONTINUOUS
  0
ENDTAB
  0
TABLE
  2
STYLE
 70
     1
  0
STYLE
  2
STANDARD
 70
     0
 40
0.0
 41
1.0
 50
0.0
 71
     0
 42
180.0
  3
simplex.shx
  4
extfont.shx
  0
ENDTAB
  0
TABLE
  2
VIEW
 70
     0
  0
ENDTAB
  0
TABLE
  2
UCS
 70
     0
  0
ENDTAB
  0
TABLE
  2
APPID
 70
     1
  0
APPID
  2
ACAD
 70
     0
  0
ENDTAB
  0
TABLE
  2
DIMSTYLE
 70
     1
  0
DIMSTYLE
  2
IGA
 70
     0
  3

  4

  5

  6
OPEN
  7
OPEN
 40
2.0
 41
2.0
 42
0.5
 43
10.0
 44
1.0
 45
0.0
 46
0.0
 47
1.0
 48
1.0
140
3.0
141
0.0
142
0.0
143
0.03937
144
1.0
145
0.0
146
10.0
147
1.0
 71
     0
 72
     0
 73
     0
 74
     0
 75
     0
 76
     0
 77
     1
 78
     8
170
     0
171
     2
172
     0
173
     1
174
     0
175
     0
176
     0
177
     0
178
     0
  0
ENDTAB
  0
ENDSEC
  0
SECTION
  2
BLOCKS
  0
BLOCK
  8
0
  2
$MODEL_SPACE
 70
     0
 10
0.0
 20
0.0
 30
0.0
  3
$MODEL_SPACE
  1

  0
ENDBLK
  5
1B
  8
0
  0
BLOCK
 67
     1
  8
0
  2
$PAPER_SPACE
 70
     0
 10
0.0
 20
0.0
 30
0.0
  3
$PAPER_SPACE
  1

  0
ENDBLK
  5
18
 67
     1
  8
0
  0
BLOCK
  8
0
  2
_OPEN
 70
     0
 10
0.0
 20
0.0
 30
0.0
  3
_OPEN
  1

  0
LINE
  5
7AD4
  8
0
  6
BYBLOCK
 62
     0
 10
-1.0
 20
0.166667
 30
0.0
 11
0.0
 21
0.0
 31
0.0
  0
LINE
  5
7AD5
  8
0
  6
BYBLOCK
 62
     0
 10
0.0
 20
0.0
 30
0.0
 11
-1.0
 21
-0.166667
 31
0.0
  0
LINE
  5
7AD6
  8
0
  6
BYBLOCK
 62
     0
 10
0.0
 20
0.0
 30
0.0
 11
-1.0
 21
0.0
 31
0.0
  0
ENDBLK
  5
7AD7
  8
0
  0
BLOCK
  8
0
  2
*D1
 70
     1
 10
0.0
 20
0.0
 30
0.0
  3
*D1
  1

  0
LINE
  5
7F0D
  8
3
  6
CONTINUOUS
 62
     0
 10
1325.5879355877621
 20
3305.9043028550668
 30
0.0
 11
1325.5879355877621
 21
2905.2382888550678
 31
0.0
  0
LINE
  5
7F0E
  8
3
  6
CONTINUOUS
 62
     0
 10
2820.5879355877628
 20
3201.497012039044
 30
0.0
 11
2820.5879355877628
 21
2905.2382888550678
 31
0.0
  0
LINE
  5
7F0F
  8
3
  6
CONTINUOUS
 62
     0
 10
1405.5879355877621
 20
2945.2382888550678
 30
0.0
 11
2740.5879355877628
 21
2945.2382888550678
 31
0.0
  0
INSERT
  5
7F10
  8
3
  6
CONTINUOUS
 62
     0
  2
_OPEN
 10
1325.5879355877621
 20
2945.2382888550678
 30
0.0
 41
80.0
 42
80.0
 43
80.0
 50
180.0
  0
INSERT
  5
7F11
  8
3
  6
CONTINUOUS
 62
     0
  2
_OPEN
 10
2820.5879355877628
 20
2945.2382888550678
 30
0.0
 41
80.0
 42
80.0
 43
80.0
  0
TEXT
  8
3
  40
120
  5
7F9D
  62
0
  72
0
  71
0
 10
1872.11
 20
2832.84
 30
0.000000
  1
1495
  0
POINT
  5
7F13
  8
DEFPOINTS
  6
CONTINUOUS
 62
     0
 10
1325.5879355877621
 20
3325.9043028550682
 30
0.0
  0
POINT
  5
7F14
  8
DEFPOINTS
  6
CONTINUOUS
 62
     0
 10
2820.5879355877628
 20
3221.497012039044
 30
0.0
  0
POINT
  5
7F15
  8
DEFPOINTS
  6
CONTINUOUS
 62
     0
 10
2820.5879355877628
 20
2945.2382888550678
 30
0.0
  0
ENDBLK
  5
7DF8
  8
0
  0
BLOCK
  8
0
  2
*D2
 70
     1
 10
0.0
 20
0.0
 30
0.0
  3
*D2
  1

  0
LINE
  5
7F16
  8
3
  6
CONTINUOUS
 62
     0
 10
2820.5879355877628
 20
3201.497012039044
 30
0.0
 11
2820.5879355877628
 21
2905.2382888550678
 31
0.0
  0
LINE
  5
7F17
  8
3
  6
CONTINUOUS
 62
     0
 10
3445.5879355877628
 20
3305.9043028550668
 30
0.0
 11
3445.5879355877628
 21
2905.2382888550678
 31
0.0
  0
LINE
  5
7F18
  8
3
  6
CONTINUOUS
 62
     0
 10
2900.5879355877628
 20
2945.2382888550678
 30
0.0
 11
3365.5879355877628
 21
2945.2382888550678
 31
0.0
  0
INSERT
  5
7F19
  8
3
  6
CONTINUOUS
 62
     0
  2
_OPEN
 10
2820.5879355877628
 20
2945.2382888550678
 30
0.0
 41
80.0
 42
80.0
 43
80.0
 50
180.0
  0
INSERT
  5
7F1A
  8
3
  6
CONTINUOUS
 62
     0
  2
_OPEN
 10
3445.5879355877628
 20
2945.2382888550678
 30
0.0
 41
80.0
 42
80.0
 43
80.0
  0
TEXT
  8
3
  40
120
  5
7F9E
  62
0
  72
0
  71
0
 10
2893.09
 20
2832.84
 30
0.000000
  1
625
  0
POINT
  5
7F1C
  8
DEFPOINTS
  6
CONTINUOUS
 62
     0
 10
2820.5879355877628
 20
3221.497012039044
 30
0.0
  0
POINT
  5
7F1D
  8
DEFPOINTS
  6
CONTINUOUS
 62
     0
 10
3445.5879355877628
 20
3325.9043028550682
 30
0.0
  0
POINT
  5
7F1E
  8
DEFPOINTS
  6
CONTINUOUS
 62
     0
 10
3445.5879355877628
 20
2945.2382888550678
 30
0.0
  0
ENDBLK
  5
7E03
  8
0
  0
BLOCK
  8
0
  2
*D3
 70
     1
 10
0.0
 20
0.0
 30
0.0
  3
*D3
  1

  0
LINE
  5
7F1F
  8
3
  6
CONTINUOUS
 62
     0
 10
3520.5879355877628
 20
4491.9043028550677
 30
0.0
 11
3968.6752335877641
 21
4491.9043028550677
 31
0.0
  0
LINE
  5
7F20
  8
3
  6
CONTINUOUS
 62
     0
 10
3520.5879355877628
 20
3461.9043028550668
 30
0.0
 11
3968.6752335877641
 21
3461.9043028550668
 31
0.0
  0
LINE
  5
7F21
  8
3
  6
CONTINUOUS
 62
     0
 10
3928.6752335877641
 20
4411.9043028550668
 30
0.0
 11
3928.6752335877641
 21
3541.9043028550668
 31
0.0
  0
INSERT
  5
7F22
  8
3
  6
CONTINUOUS
 62
     0
  2
_OPEN
 10
3928.6752335877641
 20
4491.9043028550677
 30
0.0
 41
80.0
 42
80.0
 43
80.0
 50
90.0
  0
INSERT
  5
7F23
  8
3
  6
CONTINUOUS
 62
     0
  2
_OPEN
 10
3928.6752335877641
 20
3461.9043028550668
 30
0.0
 41
80.0
 42
80.0
 43
80.0
 50
270.0
  0
TEXT
  8
3
  40
120
  5
7F9F
  62
0
  72
0
  71
0
 10
3588.68
 20
3839.54
 30
0.000000
  1
1030
  0
POINT
  5
7F25
  8
DEFPOINTS
  6
CONTINUOUS
 62
     0
 10
3500.5879355877628
 20
4491.9043028550677
 30
0.0
  0
POINT
  5
7F26
  8
DEFPOINTS
  6
CONTINUOUS
 62
     0
 10
3500.5879355877628
 20
3461.9043028550668
 30
0.0
  0
POINT
  5
7F27
  8
DEFPOINTS
  6
CONTINUOUS
 62
     0
 10
3928.6752335877641
 20
3461.9043028550668
 30
0.0
  0
ENDBLK
  5
7D0D
  8
0
  0
BLOCK
  8
0
  2
*D4
 70
     1
 10
0.0
 20
0.0
 30
0.0
  3
*D4
  1

  0
LINE
  5
7F28
  8
3
  6
CONTINUOUS
 62
     0
 10
2840.5879355877628
 20
5255.9043028550677
 30
0.0
 11
4484.9554324316714
 21
5255.9043028550677
 31
0.0
  0
LINE
  5
7F29
  8
3
  6
CONTINUOUS
 62
     0
 10
3435.882672587763
 20
4535.9043028550677
 30
0.0
 11
4484.9554324316714
 21
4535.9043028550677
 31
0.0
  0
LINE
  5
7F2A
  8
3
  6
CONTINUOUS
 62
     0
 10
4444.9554324316723
 20
5175.9043028550677
 30
0.0
 11
4444.9554324316723
 21
4615.9043028550668
 31
0.0
  0
INSERT
  5
7F2B
  8
3
  6
CONTINUOUS
 62
     0
  2
_OPEN
 10
4444.9554324316723
 20
5255.9043028550677
 30
0.0
 41
80.0
 42
80.0
 43
80.0
 50
90.0
  0
INSERT
  5
7F2C
  8
3
  6
CONTINUOUS
 62
     0
  2
_OPEN
 10
4444.9554324316723
 20
4535.9043028550677
 30
0.0
 41
80.0
 42
80.0
 43
80.0
 50
270.0
  0
TEXT
  8
3
  40
120
  5
7FA0
  62
0
  72
0
  71
0
 10
4104.96
 20
4692.46
 30
0.000000
  1
720
  0
POINT
  5
7F2E
  8
DEFPOINTS
  6
CONTINUOUS
 62
     0
 10
2820.5879355877628
 20
5255.9043028550677
 30
0.0
  0
POINT
  5
7F2F
  8
DEFPOINTS
  6
CONTINUOUS
 62
     0
 10
3415.8826725877639
 20
4535.9043028550677
 30
0.0
  0
POINT
  5
7F30
  8
DEFPOINTS
  6
CONTINUOUS
 62
     0
 10
4444.9554324316723
 20
4535.9043028550677
 30
0.0
  0
ENDBLK
  5
7E1E
  8
0
  0
BLOCK
  8
0
  2
*D5
 70
     1
 10
0.0
 20
0.0
 30
0.0
  3
*D5
  1

  0
LINE
  5
7F31
  8
3
  6
CONTINUOUS
 62
     0
 10
3435.882672587763
 20
4535.9043028550677
 30
0.0
 11
4484.9554324316714
 21
4535.9043028550677
 31
0.0
  0
LINE
  5
7F32
  8
3
  6
CONTINUOUS
 62
     0
 10
3465.5879355877628
 20
3325.9043028550682
 30
0.0
 11
4484.9554324316714
 21
3325.9043028550682
 31
0.0
  0
LINE
  5
7F33
  8
3
  6
CONTINUOUS
 62
     0
 10
4444.9554324316714
 20
4455.9043028550668
 30
0.0
 11
4444.9554324316714
 21
3405.9043028550668
 31
0.0
  0
INSERT
  5
7F34
  8
3
  6
CONTINUOUS
 62
     0
  2
_OPEN
 10
4444.9554324316714
 20
4535.9043028550677
 30
0.0
 41
80.0
 42
80.0
 43
80.0
 50
90.0
  0
INSERT
  5
7F35
  8
3
  6
CONTINUOUS
 62
     0
  2
_OPEN
 10
4444.9554324316714
 20
3325.9043028550682
 30
0.0
 41
80.0
 42
80.0
 43
80.0
 50
270.0
  0
TEXT
  8
3
  40
120
  5
7FA1
  62
0
  72
0
  71
0
 10
4104.96
 20
3718.50
 30
0.000000
  1
1210
  0
POINT
  5
7F37
  8
DEFPOINTS
  6
CONTINUOUS
 62
     0
 10
3415.8826725877639
 20
4535.9043028550677
 30
0.0
  0
POINT
  5
7F38
  8
DEFPOINTS
  6
CONTINUOUS
 62
     0
 10
3445.5879355877628
 20
3325.9043028550682
 30
0.0
  0
POINT
  5
7F39
  8
DEFPOINTS
  6
CONTINUOUS
 62
     0
 10
4444.9554324316714
 20
3325.9043028550682
 30
0.0
  0
ENDBLK
  5
7D7B
  8
0
  0
BLOCK
  8
0
  2
*D6
 70
     1
 10
0.0
 20
0.0
 30
0.0
  3
*D6
  1

  0
LINE
  5
7F3A
  8
3
  6
CONTINUOUS
 62
     0
 10
2840.5879355877628
 20
5255.9043028550677
 30
0.0
 11
4739.986967465441
 21
5255.9043028550677
 31
0.0
  0
LINE
  5
7F3B
  8
3
  6
CONTINUOUS
 62
     0
 10
3465.5879355877628
 20
3325.9043028550682
 30
0.0
 11
4739.986967465441
 21
3325.9043028550682
 31
0.0
  0
LINE
  5
7F3C
  8
3
  6
CONTINUOUS
 62
     0
 10
4699.986967465441
 20
5175.9043028550677
 30
0.0
 11
4699.986967465441
 21
3405.9043028550668
 31
0.0
  0
INSERT
  5
7F3D
  8
3
  6
CONTINUOUS
 62
     0
  2
_OPEN
 10
4699.986967465441
 20
5255.9043028550677
 30
0.0
 41
80.0
 42
80.0
 43
80.0
 50
90.0
  0
INSERT
  5
7F3E
  8
3
  6
CONTINUOUS
 62
     0
  2
_OPEN
 10
4699.986967465441
 20
3325.9043028550682
 30
0.0
 41
80.0
 42
80.0
 43
80.0
 50
270.0
  0
TEXT
  8
3
  40
120
  5
7FA2
  62
0
  72
0
  71
0
 10
4359.99
 20
4043.70
 30
0.000000
  1
1930
  0
POINT
  5
7F40
  8
DEFPOINTS
  6
CONTINUOUS
 62
     0
 10
2820.5879355877628
 20
5255.9043028550677
 30
0.0
  0
POINT
  5
7F41
  8
DEFPOINTS
  6
CONTINUOUS
 62
     0
 10
3445.5879355877628
 20
3325.9043028550682
 30
0.0
  0
POINT
  5
7F42
  8
DEFPOINTS
  6
CONTINUOUS
 62
     0
 10
4699.986967465441
 20
3325.9043028550682
 30
0.0
  0
ENDBLK
  5
7E13
  8
0
  0
BLOCK
  8
0
  2
*D7
 70
     1
 10
0.0
 20
0.0
 30
0.0
  3
*D7
  1

  0
LINE
  5
7F43
  8
3
  6
CONTINUOUS
 62
     0
 10
1952.5879355877639
 20
4555.9043028550677
 30
0.0
 11
1952.5879355877639
 21
5505.2033478550684
 31
0.0
  0
LINE
  5
7F44
  8
3
  6
CONTINUOUS
 62
     0
 10
2820.5879355877628
 20
5350.3540668550677
 30
0.0
 11
2820.5879355877628
 21
5505.2033478550684
 31
0.0
  0
LINE
  5
7F45
  8
3
  6
CONTINUOUS
 62
     0
 10
2032.5879355877639
 20
5465.2033478550684
 30
0.0
 11
2740.5879355877628
 21
5465.2033478550684
 31
0.0
  0
INSERT
  5
7F46
  8
3
  6
CONTINUOUS
 62
     0
  2
_OPEN
 10
1952.5879355877639
 20
5465.2033478550684
 30
0.0
 41
80.0
 42
80.0
 43
80.0
 50
180.0
  0
INSERT
  5
7F47
  8
3
  6
CONTINUOUS
 62
     0
  2
_OPEN
 10
2820.5879355877628
 20
5465.2033478550684
 30
0.0
 41
80.0
 42
80.0
 43
80.0
  0
TEXT
  8
3
  40
120
  5
7FA3
  62
0
  72
0
  71
0
 10
2147.81
 20
5352.80
 30
0.000000
  1
868
  0
POINT
  5
7F49
  8
DEFPOINTS
  6
CONTINUOUS
 62
     0
 10
1952.5879355877639
 20
4535.9043028550677
 30
0.0
  0
POINT
  5
7F4A
  8
DEFPOINTS
  6
CONTINUOUS
 62
     0
 10
2820.5879355877628
 20
5330.3540668550677
 30
0.0
  0
POINT
  5
7F4B
  8
DEFPOINTS
  6
CONTINUOUS
 62
     0
 10
2820.5879355877628
 20
5465.2033478550684
 30
0.0
  0
ENDBLK
  5
7DBE
  8
0
  0
BLOCK
  8
0
  2
*D8
 70
     1
 10
0.0
 20
0.0
 30
0.0
  3
*D8
  1

  0
LINE
  5
7F4C
  8
3
  6
CONTINUOUS
 62
     0
 10
2820.5879355877628
 20
5350.3540668550677
 30
0.0
 11
2820.5879355877628
 21
5505.2033478550684
 31
0.0
  0
LINE
  5
7F4D
  8
3
  6
CONTINUOUS
 62
     0
 10
3500.5879355877628
 20
4564.9043028550677
 30
0.0
 11
3500.5879355877628
 21
5505.2033478550684
 31
0.0
  0
LINE
  5
7F4E
  8
3
  6
CONTINUOUS
 62
     0
 10
2900.5879355877628
 20
5465.2033478550684
 30
0.0
 11
3420.5879355877628
 21
5465.2033478550684
 31
0.0
  0
INSERT
  5
7F4F
  8
3
  6
CONTINUOUS
 62
     0
  2
_OPEN
 10
2820.5879355877628
 20
5465.2033478550684
 30
0.0
 41
80.0
 42
80.0
 43
80.0
 50
180.0
  0
INSERT
  5
7F50
  8
3
  6
CONTINUOUS
 62
     0
  2
_OPEN
 10
3500.5879355877628
 20
5465.2033478550684
 30
0.0
 41
80.0
 42
80.0
 43
80.0
  0
TEXT
  8
3
  40
120
  5
7FA4
  62
0
  72
0
  71
0
 10
2920.59
 20
5352.80
 30
0.000000
  1
680
  0
POINT
  5
7F52
  8
DEFPOINTS
  6
CONTINUOUS
 62
     0
 10
2820.5879355877628
 20
5330.3540668550677
 30
0.0
  0
POINT
  5
7F53
  8
DEFPOINTS
  6
CONTINUOUS
 62
     0
 10
3500.5879355877628
 20
4544.9043028550668
 30
0.0
  0
POINT
  5
7F54
  8
DEFPOINTS
  6
CONTINUOUS
 62
     0
 10
3500.5879355877628
 20
5465.2033478550684
 30
0.0
  0
ENDBLK
  5
7DA7
  8
0
  0
BLOCK
  8
0
  2
*D9
 70
     1
 10
0.0
 20
0.0
 30
0.0
  3
*D9
  1

  0
LINE
  5
7F55
  8
3
  6
CONTINUOUS
 62
     0
 10
1325.5879355877621
 20
7416.3746938550676
 30
0.0
 11
1325.5879355877621
 21
6982.8892008550683
 31
0.0
  0
LINE
  5
7F56
  8
3
  6
CONTINUOUS
 62
     0
 10
3445.5879355877628
 20
7416.3746938550676
 30
0.0
 11
3445.5879355877628
 21
6982.8892008550683
 31
0.0
  0
LINE
  5
7F57
  8
3
  6
CONTINUOUS
 62
     0
 10
1405.5879355877621
 20
7022.8892008550683
 30
0.0
 11
3365.5879355877628
 21
7022.8892008550683
 31
0.0
  0
INSERT
  5
7F58
  8
3
  6
CONTINUOUS
 62
     0
  2
_OPEN
 10
1325.5879355877621
 20
7022.8892008550683
 30
0.0
 41
80.0
 42
80.0
 43
80.0
 50
180.0
  0
INSERT
  5
7F59
  8
3
  6
CONTINUOUS
 62
     0
  2
_OPEN
 10
3445.5879355877628
 20
7022.8892008550683
 30
0.0
 41
80.0
 42
80.0
 43
80.0
  0
TEXT
  8
3
  40
120
  5
7FA5
  62
0
  72
0
  71
0
 10
2224.21
 20
6910.49
 30
0.000000
  1
2120
  0
POINT
  5
7F5B
  8
DEFPOINTS
  6
CONTINUOUS
 62
     0
 10
1325.5879355877621
 20
7436.3746938550694
 30
0.0
  0
POINT
  5
7F5C
  8
DEFPOINTS
  6
CONTINUOUS
 62
     0
 10
3445.5879355877628
 20
7436.3746938550694
 30
0.0
  0
POINT
  5
7F5D
  8
DEFPOINTS
  6
CONTINUOUS
 62
     0
 10
3445.5879355877628
 20
7022.8892008550683
 30
0.0
  0
ENDBLK
  5
7CCB
  8
0
  0
BLOCK
  8
0
  2
*D10
 70
     1
 10
0.0
 20
0.0
 30
0.0
  3
*D10
  1

  0
LINE
  5
7F5E
  8
3
  6
CONTINUOUS
 62
     0
 10
3465.5879355877628
 20
8496.3746938550685
 30
0.0
 11
3975.0424675877639
 21
8496.3746938550685
 31
0.0
  0
LINE
  5
7F5F
  8
3
  6
CONTINUOUS
 62
     0
 10
3465.5879355877628
 20
7436.3746938550694
 30
0.0
 11
3975.0424675877639
 21
7436.3746938550694
 31
0.0
  0
LINE
  5
7F60
  8
3
  6
CONTINUOUS
 62
     0
 10
3935.0424675877648
 20
8416.3746938550685
 30
0.0
 11
3935.0424675877648
 21
7516.3746938550694
 31
0.0
  0
INSERT
  5
7F61
  8
3
  6
CONTINUOUS
 62
     0
  2
_OPEN
 10
3935.0424675877648
 20
8496.3746938550685
 30
0.0
 41
80.0
 42
80.0
 43
80.0
 50
90.0
  0
INSERT
  5
7F62
  8
3
  6
CONTINUOUS
 62
     0
  2
_OPEN
 10
3935.0424675877648
 20
7436.3746938550694
 30
0.0
 41
80.0
 42
80.0
 43
80.0
 50
270.0
  0
TEXT
  8
3
  40
120
  5
7FA6
  62
0
  72
0
  71
0
 10
3595.04
 20
7675.50
 30
0.000000
  1
1060
  0
POINT
  5
7F64
  8
DEFPOINTS
  6
CONTINUOUS
 62
     0
 10
3445.5879355877628
 20
8496.3746938550685
 30
0.0
  0
POINT
  5
7F65
  8
DEFPOINTS
  6
CONTINUOUS
 62
     0
 10
3445.5879355877628
 20
7436.3746938550694
 30
0.0
  0
POINT
  5
7F66
  8
DEFPOINTS
  6
CONTINUOUS
 62
     0
 10
3935.0424675877648
 20
7436.3746938550694
 30
0.0
  0
ENDBLK
  5
7CC0
  8
0
  0
BLOCK
  8
0
  2
*D11
 70
     1
 10
0.0
 20
0.0
 30
0.0
  3
*D11
  1

  0
LINE
  5
7F67
  8
3
  6
CONTINUOUS
 62
     0
 10
5703.8187735058727
 20
5278.8043028550683
 30
0.0
 11
5703.8187735058727
 21
5473.4179338550666
 31
0.0
  0
LINE
  5
7F68
  8
3
  6
CONTINUOUS
 62
     0
 10
6453.8187735058737
 20
5278.8043028550683
 30
0.0
 11
6453.8187735058737
 21
5473.4179338550666
 31
0.0
  0
LINE
  5
7F69
  8
3
  6
CONTINUOUS
 62
     0
 10
5783.8187735058737
 20
5433.4179338550684
 30
0.0
 11
6373.8187735058737
 21
5433.4179338550684
 31
0.0
  0
INSERT
  5
7F6A
  8
3
  6
CONTINUOUS
 62
     0
  2
_OPEN
 10
5703.8187735058727
 20
5433.4179338550684
 30
0.0
 41
80.0
 42
80.0
 43
80.0
 50
180.0
  0
INSERT
  5
7F6B
  8
3
  6
CONTINUOUS
 62
     0
  2
_OPEN
 10
6453.8187735058737
 20
5433.4179338550684
 30
0.0
 41
80.0
 42
80.0
 43
80.0
  0
TEXT
  8
3
  40
120
  5
7FA7
  62
0
  72
0
  71
0
 10
5838.96
 20
5321.02
 30
0.000000
  1
750
  0
POINT
  5
7F6D
  8
DEFPOINTS
  6
CONTINUOUS
 62
     0
 10
5703.8187735058727
 20
5258.8043028550683
 30
0.0
  0
POINT
  5
7F6E
  8
DEFPOINTS
  6
CONTINUOUS
 62
     0
 10
6453.8187735058737
 20
5258.8043028550683
 30
0.0
  0
POINT
  5
7F6F
  8
DEFPOINTS
  6
CONTINUOUS
 62
     0
 10
6453.8187735058737
 20
5433.4179338550684
 30
0.0
  0
ENDBLK
  5
7DD7
  8
0
  0
BLOCK
  8
0
  2
*D12
 70
     1
 10
0.0
 20
0.0
 30
0.0
  3
*D12
  1

  0
LINE
  5
7F70
  8
3
  6
CONTINUOUS
 62
     0
 10
5398.8187735058727
 20
4822.6043028550694
 30
0.0
 11
5398.8187735058727
 21
5734.8251668550674
 31
0.0
  0
LINE
  5
7F71
  8
3
  6
CONTINUOUS
 62
     0
 10
6078.8187735058727
 20
5653.3578648550674
 30
0.0
 11
6078.8187735058727
 21
5734.8251668550674
 31
0.0
  0
LINE
  5
7F72
  8
3
  6
CONTINUOUS
 62
     0
 10
5478.8187735058727
 20
5694.8251668550683
 30
0.0
 11
5998.8187735058737
 21
5694.8251668550683
 31
0.0
  0
INSERT
  5
7F73
  8
3
  6
CONTINUOUS
 62
     0
  2
_OPEN
 10
5398.8187735058727
 20
5694.8251668550683
 30
0.0
 41
80.0
 42
80.0
 43
80.0
 50
180.0
  0
INSERT
  5
7F74
  8
3
  6
CONTINUOUS
 62
     0
  2
_OPEN
 10
6078.8187735058727
 20
5694.8251668550683
 30
0.0
 41
80.0
 42
80.0
 43
80.0
  0
TEXT
  8
3
  40
120
  5
7FA8
  62
0
  72
0
  71
0
 10
5450.25
 20
5682.43
 30
0.000000
  1
MAX
  0
TEXT
  8
3
  40
120
  5
7FA9
  62
0
  72
0
  71
0
 10
5450.25
 20
5526.43
 30
0.000000
  1
770
  0
POINT
  5
7F76
  8
DEFPOINTS
  6
CONTINUOUS
 62
     0
 10
5398.8187735058727
 20
4802.6043028550694
 30
0.0
  0
POINT
  5
7F77
  8
DEFPOINTS
  6
CONTINUOUS
 62
     0
 10
6078.8187735058727
 20
5633.3578648550674
 30
0.0
  0
POINT
  5
7F78
  8
DEFPOINTS
  6
CONTINUOUS
 62
     0
 10
6078.8187735058727
 20
5694.8251668550683
 30
0.0
  0
ENDBLK
  5
7D65
  8
0
  0
BLOCK
  8
0
  2
*D13
 70
     1
 10
0.0
 20
0.0
 30
0.0
  3
*D13
  1

  0
LINE
  5
7D3B
  8
0
  6
BYBLOCK
 62
     0
 10
6078.8187735058727
 20
6020.6930885484207
 30
0.0
 11
6078.8187735058727
 21
6102.7931755484224
 31
0.0
  0
LINE
  5
7D3C
  8
0
  6
BYBLOCK
 62
     0
 10
6556.8187735058737
 20
5473.239526548422
 30
0.0
 11
6556.8187735058737
 21
6102.7931755484224
 31
0.0
  0
LINE
  5
7D3D
  8
0
  6
BYBLOCK
 62
     0
 10
6158.8187735058737
 20
6062.7931755484205
 30
0.0
 11
6476.8187735058727
 21
6062.7931755484205
 31
0.0
  0
TEXT
  5
7D3E
  8
3
 62
     0
 10
6163.533059220159
 20
6103.1306265281783
 30
0.0
 40
120.0
  1
478
  0
INSERT
  5
7D3F
  8
0
  6
BYBLOCK
 62
     0
  2
_OPEN
 10
6078.8187735058727
 20
6062.7931755484205
 30
0.0
 41
80.0
 42
80.0
 43
80.0
 50
180.0
  0
INSERT
  5
7D40
  8
0
  6
BYBLOCK
 62
     0
  2
_OPEN
 10
6556.8187735058737
 20
6062.7931755484205
 30
0.0
 41
80.0
 42
80.0
 43
80.0
  0
POINT
  5
7D41
  8
DEFPOINTS
  6
BYBLOCK
 62
     0
 10
6078.8187735058727
 20
6000.6930885484207
 30
0.0
  0
POINT
  5
7D42
  8
DEFPOINTS
  6
BYBLOCK
 62
     0
 10
6556.8187735058737
 20
5453.2395265484211
 30
0.0
  0
POINT
  5
7D43
  8
DEFPOINTS
  6
BYBLOCK
 62
     0
 10
6556.8187735058737
 20
6062.7931755484205
 30
0.0
  0
ENDBLK
  5
7D44
  8
0
  0
BLOCK
  8
0
  2
*D14
 70
     1
 10
0.0
 20
0.0
 30
0.0
  3
*D14
  1

  0
LINE
  5
7F79
  8
3
  6
CONTINUOUS
 62
     0
 10
6576.8187735058727
 20
5035.9043028550677
 30
0.0
 11
6934.3840455058762
 21
5035.9043028550677
 31
0.0
  0
LINE
  5
7F7A
  8
3
  6
CONTINUOUS
 62
     0
 10
6576.8187735058727
 20
4035.9043028550682
 30
0.0
 11
6934.3840455058762
 21
4035.9043028550682
 31
0.0
  0
LINE
  5
7F7B
  8
3
  6
CONTINUOUS
 62
     0
 10
6894.3840455058753
 20
4955.9043028550668
 30
0.0
 11
6894.3840455058753
 21
4115.9043028550668
 31
0.0
  0
INSERT
  5
7F7C
  8
3
  6
CONTINUOUS
 62
     0
  2
_OPEN
 10
6894.3840455058753
 20
5035.9043028550677
 30
0.0
 41
80.0
 42
80.0
 43
80.0
 50
90.0
  0
INSERT
  5
7F7D
  8
3
  6
CONTINUOUS
 62
     0
  2
_OPEN
 10
6894.3840455058753
 20
4035.9043028550682
 30
0.0
 41
80.0
 42
80.0
 43
80.0
 50
270.0
  0
TEXT
  8
3
  40
120
  5
7FAA
  62
0
  72
0
  71
0
 10
6554.38
 20
4382.72
 30
0.000000
  1
φ1000
  0
POINT
  5
7F7F
  8
DEFPOINTS
  6
CONTINUOUS
 62
     0
 10
6556.8187735058737
 20
5035.9043028550677
 30
0.0
  0
POINT
  5
7F80
  8
DEFPOINTS
  6
CONTINUOUS
 62
     0
 10
6556.8187735058737
 20
4035.9043028550682
 30
0.0
  0
POINT
  5
7F81
  8
DEFPOINTS
  6
CONTINUOUS
 62
     0
 10
6894.3840455058753
 20
4035.9043028550682
 30
0.0
  0
ENDBLK
  5
7D5A
  8
0
  0
BLOCK
  8
0
  2
*D15
 70
     1
 10
0.0
 20
0.0
 30
0.0
  3
*D15
  1

  0
LINE
  5
7F82
  8
3
  6
CONTINUOUS
 62
     0
 10
5461.8187735058737
 20
3305.9043028550668
 30
0.0
 11
5461.8187735058737
 21
2975.3203758550681
 31
0.0
  0
LINE
  5
7F83
  8
3
  6
CONTINUOUS
 62
     0
 10
6078.8187735058727
 20
3195.9110570637908
 30
0.0
 11
6078.8187735058727
 21
2975.3203758550681
 31
0.0
  0
LINE
  5
7F84
  8
3
  6
CONTINUOUS
 62
     0
 10
5541.8187735058727
 20
3015.3203758550681
 30
0.0
 11
5998.8187735058737
 21
3015.3203758550681
 31
0.0
  0
INSERT
  5
7F85
  8
3
  6
CONTINUOUS
 62
     0
  2
_OPEN
 10
5461.8187735058737
 20
3015.3203758550681
 30
0.0
 41
80.0
 42
80.0
 43
80.0
 50
180.0
  0
INSERT
  5
7F86
  8
3
  6
CONTINUOUS
 62
     0
  2
_OPEN
 10
6078.8187735058727
 20
3015.3203758550681
 30
0.0
 41
80.0
 42
80.0
 43
80.0
  0
TEXT
  8
3
  40
120
  5
7FAB
  62
0
  72
0
  71
0
 10
5575.96
 20
2902.92
 30
0.000000
  1
617
  0
POINT
  5
7F88
  8
DEFPOINTS
  6
CONTINUOUS
 62
     0
 10
5461.8187735058737
 20
3325.9043028550682
 30
0.0
  0
POINT
  5
7F89
  8
DEFPOINTS
  6
CONTINUOUS
 62
     0
 10
6078.8187735058727
 20
3215.9110570637908
 30
0.0
  0
POINT
  5
7F8A
  8
DEFPOINTS
  6
CONTINUOUS
 62
     0
 10
6078.8187735058727
 20
3015.3203758550681
 30
0.0
  0
ENDBLK
  5
7DE2
  8
0
  0
BLOCK
  8
0
  2
*D16
 70
     1
 10
0.0
 20
0.0
 30
0.0
  3
*D16
  1

  0
LINE
  5
7DE4
  8
0
  6
BYBLOCK
 62
     0
 10
6078.8187735058727
 20
3195.9110570637908
 30
0.0
 11
6078.8187735058727
 21
2975.3203758550681
 31
0.0
  0
LINE
  5
7DE5
  8
0
  6
BYBLOCK
 62
     0
 10
6521.8187735058737
 20
3305.9043028550668
 30
0.0
 11
6521.8187735058737
 21
2975.3203758550681
 31
0.0
  0
LINE
  5
7DE6
  8
0
  6
BYBLOCK
 62
     0
 10
6158.8187735058737
 20
3015.3203758550681
 30
0.0
 11
6441.8187735058737
 21
3015.3203758550681
 31
0.0
  0
TEXT
  5
7DE7
  8
3
 62
     0
 10
6146.033059220159
 20
3068.891692544581
 30
0.0
 40
120.0
  1
443
  0
INSERT
  5
7DE8
  8
0
  6
BYBLOCK
 62
     0
  2
_OPEN
 10
6078.8187735058727
 20
3015.3203758550681
 30
0.0
 41
80.0
 42
80.0
 43
80.0
 50
180.0
  0
INSERT
  5
7DE9
  8
0
  6
BYBLOCK
 62
     0
  2
_OPEN
 10
6521.8187735058737
 20
3015.3203758550681
 30
0.0
 41
80.0
 42
80.0
 43
80.0
  0
POINT
  5
7DEA
  8
DEFPOINTS
  6
BYBLOCK
 62
     0
 10
6078.8187735058727
 20
3215.9110570637908
 30
0.0
  0
POINT
  5
7DEB
  8
DEFPOINTS
  6
BYBLOCK
 62
     0
 10
6521.8187735058737
 20
3325.9043028550682
 30
0.0
  0
POINT
  5
7DEC
  8
DEFPOINTS
  6
BYBLOCK
 62
     0
 10
6521.8187735058737
 20
3015.3203758550681
 30
0.0
  0
ENDBLK
  5
7DED
  8
0
  0
BLOCK
  8
0
  2
*D17
 70
     1
 10
0.0
 20
0.0
 30
0.0
  3
*D17
  1

  0
LINE
  5
7F8B
  8
3
  6
CONTINUOUS
 62
     0
 10
3520.5879355877628
 20
3461.9043028550668
 30
0.0
 11
4219.0376404316712
 21
3461.9043028550668
 31
0.0
  0
LINE
  5
7F8C
  8
3
  6
CONTINUOUS
 62
     0
 10
3435.882672587763
 20
4535.9043028550677
 30
0.0
 11
4219.0376404316712
 21
4535.9043028550677
 31
0.0
  0
LINE
  5
7F8D
  8
3
  6
CONTINUOUS
 62
     0
 10
4179.0376404316712
 20
3541.9043028550668
 30
0.0
 11
4179.0376404316712
 21
4455.9043028550668
 31
0.0
  0
INSERT
  5
7F8E
  8
3
  6
CONTINUOUS
 62
     0
  2
_OPEN
 10
4179.0376404316712
 20
3461.9043028550668
 30
0.0
 41
80.0
 42
80.0
 43
80.0
 50
270.0
  0
INSERT
  5
7F8F
  8
3
  6
CONTINUOUS
 62
     0
  2
_OPEN
 10
4179.0376404316712
 20
4535.9043028550677
 30
0.0
 41
80.0
 42
80.0
 43
80.0
 50
90.0
  0
TEXT
  8
3
  40
120
  5
7FAC
  62
0
  72
0
  71
0
 10
3839.04
 20
3849.67
 30
0.000000
  1
1074
  0
POINT
  5
7F91
  8
DEFPOINTS
  6
CONTINUOUS
 62
     0
 10
3500.5879355877628
 20
3461.9043028550668
 30
0.0
  0
POINT
  5
7F92
  8
DEFPOINTS
  6
CONTINUOUS
 62
     0
 10
3415.8826725877639
 20
4535.9043028550677
 30
0.0
  0
POINT
  5
7F93
  8
DEFPOINTS
  6
CONTINUOUS
 62
     0
 10
4179.0376404316712
 20
4535.9043028550677
 30
0.0
  0
ENDBLK
  5
7D91
  8
0
  0
BLOCK
  8
0
  2
*D18
 70
     1
 10
0.0
 20
0.0
 30
0.0
  3
*D18
  1

  0
LINE
  5
7F94
  8
3
 62
     0
 10
3500.5879355877628
 20
4564.9043028550677
 30
0.0
 11
3500.5879355877628
 21
5749.8181816476927
 31
0.0
  0
LINE
  5
7F95
  8
3
 62
     0
 10
1325.5879355877621
 20
3470.9043028550682
 30
0.0
 11
1325.5879355877621
 21
5749.8181816476927
 31
0.0
  0
LINE
  5
7F96
  8
3
 62
     0
 10
3420.5879355877628
 20
5709.8181816476936
 30
0.0
 11
1405.5879355877621
 21
5709.8181816476936
 31
0.0
  0
INSERT
  5
7F97
  8
3
 62
     0
  2
_OPEN
 10
3500.5879355877628
 20
5709.8181816476936
 30
0.0
 41
80.0
 42
80.0
 43
80.0
  0
INSERT
  5
7F98
  8
3
 62
     0
  2
_OPEN
 10
1325.5879355877621
 20
5709.8181816476936
 30
0.0
 41
80.0
 42
80.0
 43
80.0
 50
180.0
  0
TEXT
  8
3
  40
120
  5
7FAD
  62
0
  72
0
  71
0
 10
2131.15
 20
5597.42
 30
0.000000
  1
2175
  0
POINT
  5
7F9A
  8
DEFPOINTS
 62
     0
 10
3500.5879355877628
 20
4544.9043028550668
 30
0.0
  0
POINT
  5
7F9B
  8
DEFPOINTS
 62
     0
 10
1325.5879355877621
 20
3450.9043028550682
 30
0.0
  0
POINT
  5
7F9C
  8
DEFPOINTS
 62
     0
 10
1325.5879355877621
 20
5709.8181816476936
 30
0.0
  0
ENDBLK
  5
7DCA
  8
0
  0
ENDSEC
  0
SECTION
  2
ENTITIES
  0
LINE
  5
7A6B
  8
1
  6
CONTINUOUS
 10
3080.5879355877628
 20
7373.3746938550676
 30
0.0
 11
3080.5879355877628
 21
7573.3746938550676
 31
0.0
  0
LINE
  5
7A6C
  8
1
  6
CONTINUOUS
 10
1400.5879355877621
 20
7373.3746938550676
 30
0.0
 11
1400.5879355877621
 21
7573.3746938550676
 31
0.0
  0
LINE
  5
7A6D
  8
1
  6
CONTINUOUS
 10
3445.5879355877628
 20
3450.9043028550682
 30
0.0
 11
1325.5879355877621
 21
3450.9043028550682
 31
0.0
  0
LINE
  5
7A6E
  8
1
  6
CONTINUOUS
 10
3445.5879355877628
 20
3325.9043028550682
 30
0.0
 11
1325.5879355877621
 21
3325.9043028550682
 31
0.0
  0
POLYLINE
  5
7A6F
  8
1
  6
CONTINUOUS
 66
     1
 10
0.0
 20
0.0
 30
0.0
  0
VERTEX
  5
7F06
  8
1
  6
CONTINUOUS
 10
3500.5879355877628
 20
3461.9043028550668
 30
0.0
  0
VERTEX
  5
7F07
  8
1
  6
CONTINUOUS
 10
2820.5879355877628
 20
3519.9043028550668
 30
0.0
 42
-0.4
  0
VERTEX
  5
7F08
  8
1
  6
CONTINUOUS
 10
1949.687935587762
 20
4461.9043028550668
 30
0.0
 42
-0.4
  0
VERTEX
  5
7F09
  8
1
  6
CONTINUOUS
 10
2826.1879355877618
 20
5254.8043028550692
 30
0.0
 42
-0.4
  0
VERTEX
  5
7F0A
  8
1
  6
CONTINUOUS
 10
3421.7879355877631
 20
4596.4043028550668
 30
0.0
  0
VERTEX
  5
7F0B
  8
1
  6
CONTINUOUS
 10
3411.5879355877628
 20
4491.9043028550677
 30
0.0
 42
-0.4
  0
SEQEND
  5
7F0C
  8
1
  6
CONTINUOUS
  0
LINE
  5
7A77
  8
1
  6
CONTINUOUS
 10
3411.5879355877628
 20
4491.9043028550677
 30
0.0
 11
3500.5879355877628
 21
4491.9043028550677
 31
0.0
  0
LINE
  5
7A78
  8
1
  6
CONTINUOUS
 10
3080.5879355877628
 20
7373.3746938550676
 30
0.0
 11
1400.5879355877621
 21
7373.3746938550676
 31
0.0
  0
LINE
  5
7A79
  8
1
  6
CONTINUOUS
 10
1540.187935587762
 20
3765.5043028550681
 30
0.0
 11
2723.887935587763
 21
4663.3043028550683
 31
0.0
  0
LINE
  5
7A7A
  8
1
  6
CONTINUOUS
 10
1479.687935587762
 20
3845.2043028550679
 30
0.0
 11
2663.4879355877638
 21
4743.004302855069
 31
0.0
  0
LINE
  5
7A7B
  8
1
  6
CONTINUOUS
 10
1708.187935587762
 20
3517.3043028550678
 30
0.0
 11
2960.487935587762
 21
4316.704302855067
 31
0.0
  0
LINE
  5
7A7C
  8
1
  6
CONTINUOUS
 10
1654.387935587763
 20
3601.604302855068
 30
0.0
 11
2906.6879355877631
 21
4401.0043028550681
 31
0.0
  0
ARC
  5
7A7D
  8
1
  6
CONTINUOUS
 10
1600.5879355877621
 20
3685.9043028550668
 30
0.0
 40
200.0
 50
127.2
 51
302.60000000000002
  0
LINE
  5
7A7E
  8
2
  6
CENTER
 10
1495.5879355877621
 20
3685.9043028550668
 30
0.0
 11
1705.5879355877621
 21
3685.9043028550668
 31
0.0
  0
CIRCLE
  5
7A7F
  8
1
  6
CONTINUOUS
 10
1600.5879355877621
 20
3685.9043028550668
 30
0.0
 40
100.0
  0
LINE
  5
7A80
  8
1
  6
CONTINUOUS
 10
1390.5879355877621
 20
3505.9043028550668
 30
0.0
 11
1810.5879355877621
 21
3505.9043028550668
 31
0.0
  0
ARC
  5
7A81
  8
1
  6
CONTINUOUS
 10
1600.5879355877621
 20
3685.9043028550668
 30
0.0
 40
182.5
 50
326.60000000000002
 51
213.40000000000001
  0
LINE
  5
7A82
  8
2
  6
CENTER
 10
1600.5879355877621
 20
3580.9043028550668
 30
0.0
 11
1600.5879355877621
 21
3790.9043028550668
 31
0.0
  0
LINE
  5
7A83
  8
1
  6
CONTINUOUS
 10
1375.5879355877621
 20
3450.9043028550682
 30
0.0
 11
1390.5879355877621
 21
3505.9043028550668
 31
0.0
  0
LINE
  5
7A84
  8
1
  6
CONTINUOUS
 10
1438.5879355877621
 20
3505.9043028550668
 30
0.0
 11
1438.5879355877621
 21
3575.9043028550682
 31
0.0
  0
LINE
  5
7A85
  8
1
  6
CONTINUOUS
 10
1438.5879355877621
 20
3575.9043028550682
 30
0.0
 11
1448.187935587762
 21
3585.4043028550668
 31
0.0
  0
LINE
  5
7A86
  8
1
  6
CONTINUOUS
 10
1325.5879355877621
 20
3450.9043028550682
 30
0.0
 11
1325.5879355877621
 21
3325.9043028550682
 31
0.0
  0
LINE
  5
7A87
  8
1
  6
CONTINUOUS
 10
1825.5879355877621
 20
3450.9043028550682
 30
0.0
 11
1810.5879355877621
 21
3505.9043028550668
 31
0.0
  0
LINE
  5
7A88
  8
1
  6
CONTINUOUS
 10
1762.5879355877621
 20
3505.9043028550668
 30
0.0
 11
1762.5879355877621
 21
3575.9043028550682
 31
0.0
  0
LINE
  5
7A89
  8
1
  6
CONTINUOUS
 10
1762.5879355877621
 20
3575.9043028550682
 30
0.0
 11
1752.9879355877631
 21
3585.4043028550668
 31
0.0
  0
ARC
  5
7A8A
  8
1
  6
CONTINUOUS
 10
2820.5879355877628
 20
4535.9043028550677
 30
0.0
 40
260.0
 50
302.60000000000002
 51
127.2
  0
CIRCLE
  5
7A8B
  8
1
  6
CONTINUOUS
 10
2820.5879355877628
 20
4535.9043028550677
 30
0.0
 40
550.0
  0
CIRCLE
  5
7A8C
  8
1
  6
CONTINUOUS
 10
2820.5879355877628
 20
4535.9043028550677
 30
0.0
 40
500.0
  0
CIRCLE
  5
7A8D
  8
1
  6
CONTINUOUS
 10
2820.5879355877628
 20
4535.9043028550677
 30
0.0
 40
160.0
  0
LINE
  5
7A8E
  8
2
  6
CENTER
 10
6643.5125665058731
 20
4535.9043028550677
 30
0.0
 11
5280.2966535058749
 21
4535.9043028550677
 31
0.0
  0
LINE
  5
7A8F
  8
2
  6
CENTER
 10
2820.5879355877628
 20
3221.497012039044
 30
0.0
 11
2820.5879355877628
 21
5330.3540668550677
 31
0.0
  0
LINE
  5
7A90
  8
1
  6
CONTINUOUS
 10
5398.8187735058727
 20
3485.9043028550682
 30
0.0
 11
5598.8187735058737
 21
3485.9043028550682
 31
0.0
  0
LINE
  5
7A91
  8
1
  6
CONTINUOUS
 10
5398.8187735058727
 20
4802.6043028550694
 30
0.0
 11
5598.8187735058737
 21
4802.6043028550694
 31
0.0
  0
LINE
  5
7A92
  8
1
  6
CONTINUOUS
 10
5398.8187735058727
 20
4802.6043028550694
 30
0.0
 11
5398.8187735058727
 21
3485.9043028550682
 31
0.0
  0
LINE
  5
7A93
  8
1
  6
CONTINUOUS
 10
3450.5879355877628
 20
4491.9043028550677
 30
0.0
 11
3450.5879355877628
 21
3461.9043028550668
 31
0.0
  0
LINE
  5
7A94
  8
1
  6
CONTINUOUS
 10
3500.5879355877628
 20
4544.9043028550668
 30
0.0
 11
3500.5879355877628
 21
3408.9043028550668
 31
0.0
  0
LINE
  5
7A95
  8
1
  6
CONTINUOUS
 10
3445.5879355877628
 20
3450.9043028550682
 30
0.0
 11
3445.5879355877628
 21
3325.9043028550682
 31
0.0
  0
LINE
  5
7A96
  8
1
  6
CONTINUOUS
 10
6556.8187735058737
 20
5085.9043028550677
 30
0.0
 11
6556.8187735058737
 21
3985.9043028550682
 31
0.0
  0
LINE
  5
7A97
  8
1
  6
CONTINUOUS
 10
5703.8187735058727
 20
5258.8043028550683
 30
0.0
 11
5703.8187735058727
 21
3450.9043028550682
 31
0.0
  0
LINE
  5
7A98
  8
1
  6
CONTINUOUS
 10
6453.8187735058737
 20
5258.8043028550683
 30
0.0
 11
6453.8187735058737
 21
3450.9043028550682
 31
0.0
  0
LINE
  5
7A99
  8
1
  6
CONTINUOUS
 10
5598.8187735058737
 20
4802.6043028550694
 30
0.0
 11
5598.8187735058737
 21
3485.9043028550682
 31
0.0
  0
LINE
  5
7A9A
  8
1
  6
CONTINUOUS
 10
5703.8187735058727
 20
3461.9043028550668
 30
0.0
 11
6453.8187735058737
 21
4491.9043028550677
 31
0.0
  0
LINE
  5
7A9B
  8
1
  6
CONTINUOUS
 10
5703.8187735058727
 20
4491.9043028550677
 30
0.0
 11
6453.8187735058737
 21
3461.9043028550668
 31
0.0
  0
LINE
  5
7A9C
  8
1
  6
CONTINUOUS
 10
6453.8187735058737
 20
3461.9043028550668
 30
0.0
 11
5703.8187735058727
 21
3461.9043028550668
 31
0.0
  0
LINE
  5
7A9D
  8
1
  6
CONTINUOUS
 10
6521.8187735058737
 20
3325.9043028550682
 30
0.0
 11
5461.8187735058737
 21
3325.9043028550682
 31
0.0
  0
LINE
  5
7A9E
  8
1
  6
CONTINUOUS
 10
6521.8187735058737
 20
3450.9043028550682
 30
0.0
 11
5461.8187735058737
 21
3450.9043028550682
 31
0.0
  0
LINE
  5
7A9F
  8
1
  6
CONTINUOUS
 10
6453.8187735058737
 20
4491.9043028550677
 30
0.0
 11
5703.8187735058727
 21
4491.9043028550677
 31
0.0
  0
LINE
  5
7AA0
  8
1
  6
CONTINUOUS
 10
5703.8187735058727
 20
3716.604302855068
 30
0.0
 11
5548.8187735058737
 21
3716.604302855068
 31
0.0
  0
LINE
  5
7AA1
  8
1
  6
CONTINUOUS
 10
5703.8187735058727
 20
3668.604302855068
 30
0.0
 11
5548.8187735058737
 21
3668.604302855068
 31
0.0
  0
LINE
  5
7AA2
  8
1
  6
CONTINUOUS
 10
5548.8187735058737
 20
3785.9043028550682
 30
0.0
 11
5548.8187735058737
 21
3585.9043028550682
 31
0.0
  0
LINE
  5
7AA3
  8
1
  6
CONTINUOUS
 10
5448.8187735058727
 20
3785.9043028550682
 30
0.0
 11
5448.8187735058727
 21
3585.9043028550682
 31
0.0
  0
LINE
  5
7AA4
  8
1
  6
CONTINUOUS
 10
5448.8187735058727
 20
3585.9043028550682
 30
0.0
 11
5548.8187735058737
 21
3585.9043028550682
 31
0.0
  0
LINE
  5
7AA5
  8
1
  6
CONTINUOUS
 10
5448.8187735058727
 20
3785.9043028550682
 30
0.0
 11
5548.8187735058737
 21
3785.9043028550682
 31
0.0
  0
LINE
  5
7AA6
  8
1
  6
CONTINUOUS
 10
5461.8187735058737
 20
3450.9043028550682
 30
0.0
 11
5461.8187735058737
 21
3325.9043028550682
 31
0.0
  0
LINE
  5
7AA7
  8
1
  6
CONTINUOUS
 10
5703.8187735058727
 20
4518.6043028550685
 30
0.0
 11
5548.8187735058737
 21
4518.6043028550685
 31
0.0
  0
LINE
  5
7AA8
  8
1
  6
CONTINUOUS
 10
5703.8187735058727
 20
4566.6043028550685
 30
0.0
 11
5548.8187735058737
 21
4566.6043028550685
 31
0.0
  0
LINE
  5
7AA9
  8
1
  6
CONTINUOUS
 10
5448.8187735058727
 20
4369.1043028550694
 30
0.0
 11
5548.8187735058737
 21
4369.1043028550694
 31
0.0
  0
LINE
  5
7AAA
  8
1
  6
CONTINUOUS
 10
5448.8187735058727
 20
4702.6043028550694
 30
0.0
 11
5548.8187735058737
 21
4702.6043028550694
 31
0.0
  0
LINE
  5
7AAB
  8
1
  6
CONTINUOUS
 10
5548.8187735058737
 20
4702.6043028550694
 30
0.0
 11
5548.8187735058737
 21
4369.1043028550694
 31
0.0
  0
LINE
  5
7AAC
  8
1
  6
CONTINUOUS
 10
5448.8187735058727
 20
4702.6043028550694
 30
0.0
 11
5448.8187735058727
 21
4369.1043028550694
 31
0.0
  0
LINE
  5
7AAD
  8
1
  6
CONTINUOUS
 10
6521.8187735058737
 20
3450.9043028550682
 30
0.0
 11
6521.8187735058737
 21
3325.9043028550682
 31
0.0
  0
LINE
  5
7AAE
  8
1
  6
CONTINUOUS
 10
6556.8187735058737
 20
4035.9043028550682
 30
0.0
 11
6453.8187735058737
 21
4035.9043028550682
 31
0.0
  0
LINE
  5
7AAF
  8
1
  6
CONTINUOUS
 10
6453.8187735058737
 20
5258.8043028550683
 30
0.0
 11
5703.8187735058727
 21
5258.8043028550683
 31
0.0
  0
LINE
  5
7AB0
  8
1
  6
CONTINUOUS
 10
6556.8187735058737
 20
5035.9043028550677
 30
0.0
 11
6453.8187735058737
 21
5035.9043028550677
 31
0.0
  0
LINE
  5
7AB1
  8
1
  6
CONTINUOUS
 10
3500.5879355877628
 20
7678.3746938550694
 30
0.0
 11
1949.687935587762
 21
7678.3746938550694
 31
0.0
  0
LINE
  5
7AB2
  8
1
  6
CONTINUOUS
 10
3500.5879355877628
 20
8428.3746938550685
 30
0.0
 11
1949.687935587762
 21
8428.3746938550685
 31
0.0
  0
LINE
  5
7AB3
  8
1
  6
CONTINUOUS
 10
3445.5879355877628
 20
8496.3746938550685
 30
0.0
 11
3320.5879355877628
 21
8496.3746938550685
 31
0.0
  0
LINE
  5
7AB4
  8
1
  6
CONTINUOUS
 10
3445.5879355877628
 20
7436.3746938550694
 30
0.0
 11
2980.5879355877628
 21
7436.3746938550694
 31
0.0
  0
LINE
  5
7AB5
  8
1
  6
CONTINUOUS
 10
3080.5879355877628
 20
7573.3746938550676
 30
0.0
 11
1400.5879355877621
 21
7573.3746938550676
 31
0.0
  0
LINE
  5
7AB6
  8
1
  6
CONTINUOUS
 10
2320.5879355877619
 20
8496.3746938550685
 30
0.0
 11
1325.5879355877621
 21
8496.3746938550685
 31
0.0
  0
LINE
  5
7AB7
  8
1
  6
CONTINUOUS
 10
2660.5879355877619
 20
7436.3746938550694
 30
0.0
 11
1700.5879355877621
 21
7436.3746938550694
 31
0.0
  0
LINE
  5
7AB8
  8
1
  6
CONTINUOUS
 10
1700.5879355877621
 20
7523.3746938550676
 30
0.0
 11
1500.5879355877621
 21
7523.3746938550676
 31
0.0
  0
LINE
  5
7AB9
  8
1
  6
CONTINUOUS
 10
1700.5879355877621
 20
7423.3746938550676
 30
0.0
 11
1500.5879355877621
 21
7423.3746938550676
 31
0.0
  0
LINE
  5
7ABA
  8
1
  6
CONTINUOUS
 10
1418.0879355877621
 20
8158.2746938550681
 30
0.0
 11
1783.0879355877621
 21
8158.2746938550681
 31
0.0
  0
LINE
  5
7ABB
  8
1
  6
CONTINUOUS
 10
1418.0879355877621
 20
7596.774693855069
 30
0.0
 11
1783.0879355877621
 21
7596.774693855069
 31
0.0
  0
LINE
  5
7ABC
  8
1
  6
CONTINUOUS
 10
1325.5879355877621
 20
8496.3746938550685
 30
0.0
 11
1325.5879355877621
 21
7436.3746938550694
 31
0.0
  0
LINE
  5
7ABD
  8
1
  6
CONTINUOUS
 10
1500.5879355877621
 20
7423.3746938550676
 30
0.0
 11
1500.5879355877621
 21
7523.3746938550676
 31
0.0
  0
LINE
  5
7ABE
  8
1
  6
CONTINUOUS
 10
1418.0879355877621
 20
7596.774693855069
 30
0.0
 11
1418.0879355877621
 21
8158.2746938550681
 31
0.0
  0
LINE
  5
7ABF
  8
1
  6
CONTINUOUS
 10
1576.5879355877621
 20
7523.3746938550676
 30
0.0
 11
1576.5879355877621
 21
7596.774693855069
 31
0.0
  0
LINE
  5
7AC0
  8
1
  6
CONTINUOUS
 10
1500.5879355877621
 20
7436.3746938550694
 30
0.0
 11
1325.5879355877621
 21
7436.3746938550694
 31
0.0
  0
LINE
  5
7AC1
  8
1
  6
CONTINUOUS
 10
1949.687935587762
 20
7678.3746938550694
 30
0.0
 11
1949.687935587762
 21
8428.3746938550685
 31
0.0
  0
LINE
  5
7AC2
  8
1
  6
CONTINUOUS
 10
1700.5879355877621
 20
7423.3746938550676
 30
0.0
 11
1700.5879355877621
 21
7523.3746938550676
 31
0.0
  0
LINE
  5
7AC3
  8
1
  6
CONTINUOUS
 10
1783.0879355877621
 20
7596.774693855069
 30
0.0
 11
1783.0879355877621
 21
8158.2746938550681
 31
0.0
  0
LINE
  5
7AC4
  8
1
  6
CONTINUOUS
 10
1624.5879355877621
 20
7523.3746938550676
 30
0.0
 11
1624.5879355877621
 21
7596.774693855069
 31
0.0
  0
LINE
  5
7AC5
  8
1
  6
CONTINUOUS
 10
3370.5879355877628
 20
8531.3746938550685
 30
0.0
 11
2270.5879355877619
 21
8531.3746938550685
 31
0.0
  0
LINE
  5
7AC6
  8
1
  6
CONTINUOUS
 10
2980.5879355877628
 20
7423.3746938550676
 30
0.0
 11
2660.5879355877619
 21
7423.3746938550676
 31
0.0
  0
LINE
  5
7AC7
  8
1
  6
CONTINUOUS
 10
2980.5879355877628
 20
7523.3746938550676
 30
0.0
 11
2660.5879355877619
 21
7523.3746938550676
 31
0.0
  0
LINE
  5
7AC8
  8
1
  6
CONTINUOUS
 10
2796.5879355877628
 20
7523.3746938550676
 30
0.0
 11
2796.5879355877628
 21
7678.3746938550694
 31
0.0
  0
LINE
  5
7AC9
  8
1
  6
CONTINUOUS
 10
2660.5879355877619
 20
7423.3746938550676
 30
0.0
 11
2660.5879355877619
 21
7523.3746938550676
 31
0.0
  0
LINE
  5
7ACA
  8
1
  6
CONTINUOUS
 10
2320.5879355877619
 20
8428.3746938550685
 30
0.0
 11
2320.5879355877619
 21
8531.3746938550685
 31
0.0
  0
LINE
  5
7ACB
  8
1
  6
CONTINUOUS
 10
2844.5879355877628
 20
7523.3746938550676
 30
0.0
 11
2844.5879355877628
 21
7678.3746938550694
 31
0.0
  0
LINE
  5
7ACC
  8
1
  6
CONTINUOUS
 10
2980.5879355877628
 20
7423.3746938550676
 30
0.0
 11
2980.5879355877628
 21
7523.3746938550676
 31
0.0
  0
LINE
  5
7ACD
  8
1
  6
CONTINUOUS
 10
3320.5879355877628
 20
8428.3746938550685
 30
0.0
 11
3320.5879355877628
 21
8531.3746938550685
 31
0.0
  0
LINE
  5
7ACE
  8
1
  6
CONTINUOUS
 10
3500.5879355877628
 20
7628.3746938550694
 30
0.0
 11
3500.5879355877628
 21
8478.3746938550685
 31
0.0
  0
LINE
  5
7ACF
  8
1
  6
CONTINUOUS
 10
3450.5879355877628
 20
7678.3746938550694
 30
0.0
 11
3450.5879355877628
 21
8428.3746938550685
 31
0.0
  0
LINE
  5
7AD0
  8
1
  6
CONTINUOUS
 10
3445.5879355877628
 20
7678.3746938550694
 30
0.0
 11
3445.5879355877628
 21
7436.3746938550694
 31
0.0
  0
LINE
  5
7AD1
  8
1
  6
CONTINUOUS
 10
3445.5879355877628
 20
8496.3746938550685
 30
0.0
 11
3445.5879355877628
 21
8428.3746938550685
 31
0.0
  0
DIMENSION
  5
7AE5
  8
3
  6
CONTINUOUS
  2
*D1
 10
2820.5879355877628
 20
2945.2382888550678
 30
0.0
 11
2112.1080125877629
 21
2945.2382888550678
 31
0.0
 70
   128
 13
1325.5879355877621
 23
3325.9043028550682
 33
0.0
 14
2820.5879355877628
 24
3221.497012039044
 34
0.0
1001
ACAD
1000
DSTYLE
1002
{
1070
   287
1070
     3
1070
   287
1070
     3
1070
    40
1040
40.0
1070
   143
1040
0.039
1070
   172
1070
     1
1070
   271
1070
     0
1070
   279
1070
     0
1070
   288
1070
     1
1002
}
  0
DIMENSION
  5
7AF1
  8
3
  6
CONTINUOUS
  2
*D2
 10
3445.5879355877628
 20
2945.2382888550678
 30
0.0
 11
3133.0879355877628
 21
3045.2382888550678
 31
0.0
 70
     0
 13
2820.5879355877628
 23
3221.497012039044
 33
0.0
 14
3445.5879355877628
 24
3325.9043028550682
 34
0.0
1001
ACAD
1000
DSTYLE
1002
{
1070
   287
1070
     3
1070
   287
1070
     3
1070
    40
1040
40.0
1070
   143
1040
0.039
1070
   172
1070
     1
1070
   271
1070
     0
1070
   279
1070
     0
1070
   288
1070
     1
1002
}
  0
DIMENSION
  5
7AFE
  8
3
  6
CONTINUOUS
  2
*D3
 10
3928.6752335877641
 20
3461.9043028550668
 30
0.0
 11
3928.6752335877641
 21
4051.9395778550679
 31
0.0
 70
   128
 13
3500.5879355877628
 23
4491.9043028550677
 33
0.0
 14
3500.5879355877628
 24
3461.9043028550668
 34
0.0
 50
90.0
1001
ACAD
1000
DSTYLE
1002
{
1070
   287
1070
     3
1070
   287
1070
     3
1070
    40
1040
40.0
1070
   143
1040
0.039
1070
   172
1070
     1
1070
   271
1070
     0
1070
   279
1070
     0
1070
   288
1070
     1
1002
}
  0
DIMENSION
  5
7B0B
  8
3
  6
CONTINUOUS
  2
*D4
 10
4444.9554324316723
 20
4535.9043028550677
 30
0.0
 11
4444.9554324316714
 21
4904.8595688550677
 31
0.0
 70
   128
 13
2820.5879355877628
 23
5255.9043028550677
 33
0.0
 14
3415.8826725877639
 24
4535.9043028550677
 34
0.0
 50
90.0
1001
ACAD
1000
DSTYLE
1002
{
1070
   287
1070
     3
1070
   287
1070
     3
1070
    40
1040
40.0
1070
   143
1040
0.039
1070
   172
1070
     1
1070
   271
1070
     0
1070
   279
1070
     0
1070
   288
1070
     1
1002
}
  0
DIMENSION
  5
7B17
  8
3
  6
CONTINUOUS
  2
*D5
 10
4444.9554324316714
 20
3325.9043028550682
 30
0.0
 11
4344.9554324316687
 21
3930.9043028550682
 31
0.0
 70
     0
 13
3415.8826725877639
 23
4535.9043028550677
 33
0.0
 14
3445.5879355877628
 24
3325.9043028550682
 34
0.0
 50
90.0
1001
ACAD
1000
DSTYLE
1002
{
1070
   287
1070
     3
1070
   287
1070
     3
1070
    40
1040
40.0
1070
   143
1040
0.039
1070
   172
1070
     1
1070
   271
1070
     0
1070
   279
1070
     0
1070
   288
1070
     1
1002
}
  0
DIMENSION
  5
7B24
  8
3
  6
CONTINUOUS
  2
*D6
 10
4699.986967465441
 20
3325.9043028550682
 30
0.0
 11
4699.9869674654401
 21
4256.1036478550668
 31
0.0
 70
   128
 13
2820.5879355877628
 23
5255.9043028550677
 33
0.0
 14
3445.5879355877628
 24
3325.9043028550682
 34
0.0
 50
90.0
1001
ACAD
1000
DSTYLE
1002
{
1070
   287
1070
     3
1070
   287
1070
     3
1070
    40
1040
40.0
1070
   143
1040
0.039
1070
   172
1070
     1
1070
   271
1070
     0
1070
   279
1070
     0
1070
   288
1070
     1
1002
}
  0
DIMENSION
  5
7B31
  8
3
  6
CONTINUOUS
  2
*D7
 10
2820.5879355877628
 20
5465.2033478550684
 30
0.0
 11
2387.8061215877619
 21
5465.2033478550684
 31
0.0
 70
   128
 13
1952.5879355877639
 23
4535.9043028550677
 33
0.0
 14
2820.5879355877628
 24
5330.3540668550677
 34
0.0
1001
ACAD
1000
DSTYLE
1002
{
1070
   287
1070
     3
1070
   287
1070
     3
1070
    40
1040
40.0
1070
   143
1040
0.039
1070
   172
1070
     1
1070
   271
1070
     0
1070
   279
1070
     0
1070
   288
1070
     1
1002
}
  0
DIMENSION
  5
7B3D
  8
3
  6
CONTINUOUS
  2
*D8
 10
3500.5879355877628
 20
5465.2033478550684
 30
0.0
 11
3160.5879355877628
 21
5565.2033478550666
 31
0.0
 70
     0
 13
2820.5879355877628
 23
5330.3540668550677
 33
0.0
 14
3500.5879355877628
 24
4544.9043028550668
 34
0.0
1001
ACAD
1000
DSTYLE
1002
{
1070
   287
1070
     3
1070
   287
1070
     3
1070
    40
1040
40.0
1070
   143
1040
0.039
1070
   172
1070
     1
1070
   271
1070
     0
1070
   279
1070
     0
1070
   288
1070
     1
1002
}
  0
DIMENSION
  5
7B4A
  8
3
  6
CONTINUOUS
  2
*D9
 10
3445.5879355877628
 20
7022.8892008550683
 30
0.0
 11
2464.212824587763
 21
7022.8892008550683
 31
0.0
 70
   128
 13
1325.5879355877621
 23
7436.3746938550694
 33
0.0
 14
3445.5879355877628
 24
7436.3746938550694
 34
0.0
1001
ACAD
1000
DSTYLE
1002
{
1070
   287
1070
     3
1070
   287
1070
     3
1070
    40
1040
40.0
1070
   143
1040
0.039
1070
   172
1070
     1
1070
   271
1070
     0
1070
   279
1070
     0
1070
   288
1070
     1
1002
}
  0
DIMENSION
  5
7B57
  8
3
  6
CONTINUOUS
  2
*D10
 10
3935.0424675877648
 20
7436.3746938550694
 30
0.0
 11
3935.042467587763
 21
7887.8971058550669
 31
0.0
 70
   128
 13
3445.5879355877628
 23
8496.3746938550685
 33
0.0
 14
3445.5879355877628
 24
7436.3746938550694
 34
0.0
 50
90.0
1001
ACAD
1000
DSTYLE
1002
{
1070
   287
1070
     3
1070
   287
1070
     3
1070
    40
1040
40.0
1070
   143
1040
0.039
1070
   172
1070
     1
1070
   271
1070
     0
1070
   279
1070
     0
1070
   288
1070
     1
1002
}
  0
LINE
  5
7B58
  8
2
  6
CENTER
 10
1898.750115587763
 20
8053.3746938550694
 30
0.0
 11
3578.477729587763
 21
8053.3746938550694
 31
0.0
  0
LINE
  5
7B59
  8
2
  6
CENTER
 10
2820.5879355877628
 20
7290.0240138550671
 30
0.0
 11
2820.5879355877628
 21
8595.4652978550694
 31
0.0
  0
LINE
  5
7B5A
  8
2
  6
CENTER
 10
6078.8187735058727
 20
5462.9335068550681
 30
0.0
 11
6078.8187735058727
 21
3215.9110570637908
 31
0.0
  0
DIMENSION
  5
7B74
  8
3
  6
CONTINUOUS
  2
*D11
 10
6453.8187735058737
 20
5433.4179338550684
 30
0.0
 11
6078.9601252972197
 21
5433.4179338550684
 31
0.0
 70
   128
 13
5703.8187735058727
 23
5258.8043028550683
 33
0.0
 14
6453.8187735058737
 24
5258.8043028550683
 34
0.0
1001
ACAD
1000
DSTYLE
1002
{
1070
   287
1070
     3
1070
   287
1070
     3
1070
    40
1040
40.0
1070
   143
1040
0.039
1070
   172
1070
     1
1070
   271
1070
     0
1070
   279
1070
     0
1070
   288
1070
     1
1002
}
  0
DIMENSION
  5
7B81
  8
3
  6
CONTINUOUS
  2
*D12
 10
6078.8187735058727
 20
5694.8251668550683
 30
0.0
 11
5690.2473449344452
 21
5694.8251668550683
 31
0.0
 70
   128
  1
MAX\P770
 13
5398.8187735058727
 23
4802.6043028550694
 33
0.0
 14
6078.8187735058727
 24
5633.3578648550674
 34
0.0
1001
ACAD
1000
DSTYLE
1002
{
1070
   287
1070
     3
1070
   287
1070
     3
1070
    40
1040
40.0
1070
   143
1040
0.039
1070
   172
1070
     1
1070
   271
1070
     0
1070
   279
1070
     0
1070
   288
1070
     1
1002
}
  0
DIMENSION
  5
7B8F
  8
3
  6
CONTINUOUS
  2
*D13
 10
6556.8187735058737
 20
5695.4579518550681
 30
0.0
 11
6317.8187735058727
 21
5795.7954028348249
 31
0.0
 12
0.0
 22
-367.33522369335333
 32
0.0
 70
   128
 13
6078.8187735058727
 23
5633.3578648550674
 33
0.0
 14
6556.8187735058737
 24
5085.9043028550677
 34
0.0
1001
ACAD
1000
DSTYLE
1002
{
1070
   288
1070
     1
1070
   172
1070
     1
1070
    40
1040
40.0
1070
   271
1070
     0
1070
   143
1040
0.039
1002
}
  0
DIMENSION
  5
7BB2
  8
3
  6
CONTINUOUS
  2
*D14
 10
6894.3840455058753
 20
4035.9043028550682
 30
0.0
 11
6894.3840455058753
 21
4595.116997855067
 31
0.0
 70
   128
 13
6556.8187735058737
 23
5035.9043028550677
 33
0.0
 14
6556.8187735058737
 24
4035.9043028550682
 34
0.0
 50
90.0
1001
ACAD
1000
DSTYLE
1002
{
1070
   287
1070
     3
1070
   287
1070
     3
1070
     3
1000
φ<>
1070
    40
1040
40.0
1070
   143
1040
0.039
1070
   172
1070
     1
1070
   271
1070
     0
1070
   279
1070
     0
1070
   288
1070
     1
1002
}
  0
LINE
  5
7BB3
  8
2
  6
CENTER
 10
3467.0467025877629
 20
4535.9043028550677
 30
0.0
 11
1883.7861725877631
 21
4535.9043028550677
 31
0.0
  0
LINE
  5
7BB4
  8
4
  6
CONTINUOUS
 10
7400.0
 20
2000.0
 30
0.0
 11
7400.0
 21
1200.0
 31
0.0
  0
LINE
  5
7BB5
  8
4
  6
CONTINUOUS
 10
4600.0
 20
2000.0
 30
0.0
 11
4600.0
 21
1200.0
 31
0.0
  0
LINE
  5
7BB6
  8
4
  6
CONTINUOUS
 10
2600.0
 20
2000.0
 30
0.0
 11
2600.0
 21
1200.0
 31
0.0
  0
LINE
  5
7BB9
  8
4
  6
CONTINUOUS
 10
2600.0
 20
1200.0
 30
0.0
 11
7400.0
 21
1200.0
 31
0.0
  0
LINE
  5
7BBA
  8
4
  6
CONTINUOUS
 10
2600.0
 20
1600.0
 30
0.0
 11
7400.0
 21
1600.0
 31
0.0
  0
TEXT
  5
7BBB
  8
4
  6
CONTINUOUS
 10
2754.0083232000002
 20
1726.1721031999989
 30
0.0
 40
200.0
  1
機器名称
  0
TEXT
  5
7BBC
  8
4
  6
CONTINUOUS
 10
2745.032424
 20
1286.5806264
 30
0.0
 40
200.0
  1
機器型番
  0
TEXT
  5
7BBD
  8
4
  6
CONTINUOUS
 10
4710.7149823999989
 20
1690.2870751999999
 30
0.0
 40
168.88888879999999
  1
ミツヤリミットロードファン
  0
TEXT
  5
7BBE
  8
4
  6
CONTINUOUS
 10
4746.6179824000001
 20
1268.6383367999999
 30
0.0
 40
200.0
  1
LLE#6-4
  0
TEXT
  5
7BC0
  8
4
  6
CONTINUOUS
 10
3619.1430624
 20
9533.7153655999991
 30
0.0
 40
216.0
  1
床置ベット
  0
TEXT
  5
7BC1
  8
4
  6
CONTINUOUS
 10
1264.6703735999999
 20
10135.5239048
 30
0.0
 40
240.0
  1
ベルト駆動式片吸込両持排煙ファン
  0
LINE
  5
7BC2
  8
4
  6
CONTINUOUS
 10
1000.0
 20
9877.635016799999
 30
0.0
 11
7400.0
 21
9877.635016799999
 31
0.0
  0
LINE
  5
7BC3
  8
4
  6
CONTINUOUS
 10
1000.0
 20
10677.635016800001
 30
0.0
 11
7400.0
 21
10677.635016800001
 31
0.0
  0
LINE
  5
7BC4
  8
4
  6
CONTINUOUS
 10
2600.0
 20
2000.0
 30
0.0
 11
7400.0
 21
2000.0
 31
0.0
  0
LINE
  5
7BC5
  8
4
  6
CONTINUOUS
 10
1000.0
 20
10677.635016800001
 30
0.0
 11
1000.0
 21
9877.635016799999
 31
0.0
  0
TEXT
  5
7BC6
  8
4
  6
CONTINUOUS
 10
1875.7077336
 20
9529.2779104000001
 30
0.0
 40
216.0
  1
左回転右横向
  0
TEXT
  5
7BC7
  8
4
  6
CONTINUOUS
 10
5875.8782375999999
 20
10824.244326399999
 30
0.0
 40
224.0
  1
No.
  0
TEXT
  5
7BC8
  8
4
  6
CONTINUOUS
 10
5245.1842504000006
 20
9533.7153655999991
 30
0.0
 40
216.0
  1
縮尺：1/40
  0
LINE
  5
7BC9
  8
4
  6
CONTINUOUS
 10
7400.0
 20
10677.635016800001
 30
0.0
 11
7400.0
 21
9877.635016799999
 31
0.0
  0
LINE
  5
7BCB
  8
4
  6
CONTINUOUS
 10
5762.4696895999996
 20
10725.0543328
 30
0.0
 11
5762.4696895999996
 21
11146.609046400001
 31
0.0
  0
LINE
  5
7BCC
  8
4
  6
CONTINUOUS
 10
5762.4696895999996
 20
11146.609046400001
 30
0.0
 11
7400.0
 21
11146.609046400001
 31
0.0
  0
LINE
  5
7BCD
  8
4
  6
CONTINUOUS
 10
7400.0
 20
11146.609046400001
 30
0.0
 11
7400.0
 21
10725.0543328
 31
0.0
  0
LINE
  5
7BCE
  8
4
  6
CONTINUOUS
 10
7400.0
 20
10725.0543328
 30
0.0
 11
5762.4696895999996
 21
10725.0543328
 31
0.0
  0
DIMENSION
  5
7BDF
  8
3
  6
CONTINUOUS
  2
*D15
 10
6078.8187735058727
 20
3015.3203758550681
 30
0.0
 11
5815.9616306487314
 21
3015.3203758550681
 31
0.0
 70
   128
 13
5461.8187735058737
 23
3325.9043028550682
 33
0.0
 14
6078.8187735058727
 24
3215.9110570637908
 34
0.0
1001
ACAD
1000
DSTYLE
1002
{
1070
   287
1070
     3
1070
   287
1070
     3
1070
    40
1040
40.0
1070
   143
1040
0.039
1070
   172
1070
     1
1070
   271
1070
     0
1070
   279
1070
     0
1070
   288
1070
     1
1002
}
  0
DIMENSION
  5
7BED
  8
3
  6
CONTINUOUS
  2
*D16
 10
6521.8187735058737
 20
3015.3203758550681
 30
0.0
 11
6300.3187735058737
 21
3128.891692544581
 31
0.0
 70
   128
 13
6078.8187735058727
 23
3215.9110570637908
 33
0.0
 14
6521.8187735058737
 24
3325.9043028550682
 34
0.0
1001
ACAD
1000
DSTYLE
1002
{
1070
   288
1070
     1
1070
   172
1070
     1
1070
    40
1040
40.0
1070
   271
1070
     0
1070
   143
1040
0.039
1002
}
  0
DIMENSION
  5
7C36
  8
3
  6
CONTINUOUS
  2
*D17
 10
4179.0376404316712
 20
4535.9043028550677
 30
0.0
 11
4179.0376404316703
 21
4062.0699168550682
 31
0.0
 70
   128
 13
3500.5879355877628
 23
3461.9043028550668
 33
0.0
 14
3415.8826725877639
 24
4535.9043028550677
 34
0.0
 50
90.0
1001
ACAD
1000
DSTYLE
1002
{
1070
   287
1070
     3
1070
   287
1070
     3
1070
    40
1040
40.0
1070
   143
1040
0.039
1070
   172
1070
     1
1070
   271
1070
     0
1070
   279
1070
     0
1070
   288
1070
     1
1002
}
  0
DIMENSION
  5
7DCB
  8
3
  2
*D18
 10
1325.5879355877621
 20
5709.8181816476936
 30
0.0
 11
2371.151843811625
 21
5709.8181816476936
 31
0.0
 70
   128
 13
3500.5879355877628
 23
4544.9043028550668
 33
0.0
 14
1325.5879355877621
 24
3450.9043028550682
 34
0.0
1001
ACAD
1000
DSTYLE
1002
{
1070
   287
1070
     3
1070
   287
1070
     3
1070
    40
1040
40.0
1070
   143
1040
0.039
1070
   172
1070
     1
1070
   271
1070
     0
1070
   279
1070
     0
1070
   288
1070
     1
1002
}
  0
ENDSEC
  0
EOF
