  0
SECTION
  2
HEADER
  9
$ACADVER
  1
AC1009
  9
$INSBASE
 10
0.0
 20
0.0
 30
0.0
  9
$EXTMIN
 10
1000.0
 20
1200.0
 30
0.0
  9
$EXTMAX
 10
7400.0
 20
11146.609046400001
 30
0.0
  9
$LIMMIN
 10
0.0
 20
0.0
  9
$LIMMAX
 10
297.0
 20
210.0
  9
$ORTHOMODE
 70
     0
  9
$REGENMODE
 70
     1
  9
$FILLMODE
 70
     0
  9
$QTEXTMODE
 70
     0
  9
$MIRRTEXT
 70
     1
  9
$DRAGMODE
 70
     2
  9
$LTSCALE
 40
100.0
  9
$OSMODE
 70
    37
  9
$ATTMODE
 70
     1
  9
$TEXTSIZE
 40
180.0
  9
$TRACEWID
 40
0.05
  9
$TEXTSTYLE
  7
STANDARD
  9
$CLAYER
  8
3
  9
$CELTYPE
  6
BYLAYER
  9
$CECOLOR
 62
   256
  9
$DIMSCALE
 40
40.0
  9
$DIMASZ
 40
2.0
  9
$DIMEXO
 40
0.5
  9
$DIMDLI
 40
10.0
  9
$DIMRND
 40
0.0
  9
$DIMDLE
 40
0.0
  9
$DIMEXE
 40
1.0
  9
$DIMTP
 40
1.0
  9
$DIMTM
 40
1.0
  9
$DIMTXT
 40
3.0
  9
$DIMCEN
 40
0.0
  9
$DIMTSZ
 40
0.0
  9
$DIMTOL
 70
     0
  9
$DIMLIM
 70
     0
  9
$DIMTIH
 70
     0
  9
$DIMTOH
 70
     0
  9
$DIMSE1
 70
     0
  9
$DIMSE2
 70
     0
  9
$DIMTAD
 70
     1
  9
$DIMZIN
 70
     8
  9
$DIMBLK
  1

  9
$DIMASO
 70
     1
  9
$DIMSHO
 70
     1
  9
$DIMPOST
  1

  9
$DIMAPOST
  1

  9
$DIMALT
 70
     0
  9
$DIMALTD
 70
     2
  9
$DIMALTF
 40
0.039
  9
$DIMLFAC
 40
1.0
  9
$DIMTOFL
 70
     1
  9
$DIMTVP
 40
0.0
  9
$DIMTIX
 70
     0
  9
$DIMSOXD
 70
     0
  9
$DIMSAH
 70
     1
  9
$DIMBLK1
  1
OPEN
  9
$DIMBLK2
  1
OPEN
  9
$DIMSTYLE
  2
IGA
  9
$DIMCLRD
 70
     0
  9
$DIMCLRE
 70
     0
  9
$DIMCLRT
 70
     0
  9
$DIMTFAC
 40
10.0
  9
$DIMGAP
 40
1.0
  9
$LUNITS
 70
     2
  9
$LUPREC
 70
     3
  9
$SKETCHINC
 40
0.1
  9
$FILLETRAD
 40
50.0
  9
$AUNITS
 70
     0
  9
$AUPREC
 70
     0
  9
$MENU
  1
acad
  9
$ELEVATION
 40
0.0
  9
$PELEVATION
 40
0.0
  9
$THICKNESS
 40
0.0
  9
$LIMCHECK
 70
     0
  9
$BLIPMODE
 70
     0
  9
$CHAMFERA
 40
0.5
  9
$CHAMFERB
 40
0.5
  9
$SKPOLY
 70
     0
  9
$TDCREATE
 40
2450751.3949307869
  9
$TDUPDATE
 40
2454953.6864373488
  9
$TDINDWG
 40
0.0048141667
  9
$TDUSRTIMER
 40
0.0048141667
  9
$USRTIMER
 70
     1
  9
$ANGBASE
 50
0.0
  9
$ANGDIR
 70
     0
  9
$PDMODE
 70
     0
  9
$PDSIZE
 40
0.0
  9
$PLINEWID
 40
0.0
  9
$COORDS
 70
     1
  9
$SPLFRAME
 70
     0
  9
$SPLINETYPE
 70
     6
  9
$SPLINESEGS
 70
     8
  9
$ATTDIA
 70
     0
  9
$ATTREQ
 70
     1
  9
$HANDLING
 70
 10241
  9
$HANDSEED
  5
7ECE
  9
$SURFTAB1
 70
     6
  9
$SURFTAB2
 70
     6
  9
$SURFTYPE
 70
     6
  9
$SURFU
 70
     6
  9
$SURFV
 70
     6
  9
$UCSNAME
  2

  9
$UCSORG
 10
0.0
 20
0.0
 30
0.0
  9
$UCSXDIR
 10
1.0
 20
0.0
 30
0.0
  9
$UCSYDIR
 10
0.0
 20
1.0
 30
0.0
  9
$PUCSNAME
  2

  9
$PUCSORG
 10
0.0
 20
0.0
 30
0.0
  9
$PUCSXDIR
 10
1.0
 20
0.0
 30
0.0
  9
$PUCSYDIR
 10
0.0
 20
1.0
 30
0.0
  9
$USERI1
 70
     0
  9
$USERI2
 70
     0
  9
$USERI3
 70
     0
  9
$USERI4
 70
     0
  9
$USERI5
 70
     0
  9
$USERR1
 40
0.0
  9
$USERR2
 40
0.0
  9
$USERR3
 40
0.0
  9
$USERR4
 40
0.0
  9
$USERR5
 40
0.0
  9
$WORLDVIEW
 70
     1
  9
$SHADEDGE
 70
     3
  9
$SHADEDIF
 70
    70
  9
$TILEMODE
 70
     1
  9
$MAXACTVP
 70
    16
  9
$PLIMCHECK
 70
     0
  9
$PEXTMIN
 10
1.0000000000000000E+020
 20
1.0000000000000000E+020
 30
1.0000000000000000E+020
  9
$PEXTMAX
 10
-1.0000000000000000E+020
 20
-1.0000000000000000E+020
 30
-1.0000000000000000E+020
  9
$PLIMMIN
 10
0.0
 20
0.0
  9
$PLIMMAX
 10
12.0
 20
9.0
  9
$UNITMODE
 70
     0
  9
$VISRETAIN
 70
     0
  9
$PLINEGEN
 70
     0
  9
$PSLTSCALE
 70
     1
  0
ENDSEC
  0
SECTION
  2
TABLES
  0
TABLE
  2
VPORT
 70
     2
  0
VPORT
  2
*ACTIVE
 70
     0
 10
0.0
 20
0.0
 11
1.0
 21
1.0
 12
20014.80597926581
 22
6221.3272230553466
 13
0.0
 23
0.0
 14
10.0
 24
10.0
 15
10.0
 25
10.0
 16
0.0
 26
0.0
 36
1.0
 17
0.0
 27
0.0
 37
0.0
 40
15353.098389206991
 41
3.1666666666666661
 42
50.0
 43
0.0
 44
0.0
 50
0.0
 51
0.0
 71
     0
 72
   100
 73
     1
 74
     0
 75
     0
 76
     0
 77
     0
 78
     0
  0
ENDTAB
  0
TABLE
  2
LTYPE
 70
     2
  0
LTYPE
  2
CONTINUOUS
 70
     0
  3
Solid line
 72
    65
 73
     0
 40
0.0
  0
LTYPE
  2
CENTER
 70
     0
  3
____ _ ____ _ ____ _ ____ _ ____ _ ____ _ ____ 
 72
    65
 73
     4
 40
2.0
 49
1.25
 49
-0.25
 49
0.25
 49
-0.25
  0
ENDTAB
  0
TABLE
  2
LAYER
 70
     6
  0
LAYER
  2
0
 70
     0
 62
     7
  6
CONTINUOUS
  0
LAYER
  2
3
 70
     0
 62
     2
  6
CONTINUOUS
  0
LAYER
  2
2
 70
     0
 62
     3
  6
CENTER
  0
LAYER
  2
1
 70
     0
 62
     4
  6
CONTINUOUS
  0
LAYER
  2
4
 70
     0
 62
     7
  6
CONTINUOUS
  0
LAYER
  2
DEFPOINTS
 70
     0
 62
     7
  6
CONTINUOUS
  0
ENDTAB
  0
TABLE
  2
STYLE
 70
     1
  0
STYLE
  2
STANDARD
 70
     0
 40
0.0
 41
1.0
 50
0.0
 71
     0
 42
180.0
  3
simplex.shx
  4
extfont.shx
  0
ENDTAB
  0
TABLE
  2
VIEW
 70
     0
  0
ENDTAB
  0
TABLE
  2
UCS
 70
     0
  0
ENDTAB
  0
TABLE
  2
APPID
 70
     1
  0
APPID
  2
ACAD
 70
     0
  0
ENDTAB
  0
TABLE
  2
DIMSTYLE
 70
     1
  0
DIMSTYLE
  2
IGA
 70
     0
  3

  4

  5

  6
OPEN
  7
OPEN
 40
2.0
 41
2.0
 42
0.5
 43
10.0
 44
1.0
 45
0.0
 46
0.0
 47
1.0
 48
1.0
140
3.0
141
0.0
142
0.0
143
0.03937
144
1.0
145
0.0
146
10.0
147
1.0
 71
     0
 72
     0
 73
     0
 74
     0
 75
     0
 76
     0
 77
     1
 78
     8
170
     0
171
     2
172
     0
173
     1
174
     0
175
     0
176
     0
177
     0
178
     0
  0
ENDTAB
  0
ENDSEC
  0
SECTION
  2
BLOCKS
  0
BLOCK
  8
0
  2
$MODEL_SPACE
 70
     0
 10
0.0
 20
0.0
 30
0.0
  3
$MODEL_SPACE
  1

  0
ENDBLK
  5
1B
  8
0
  0
BLOCK
 67
     1
  8
0
  2
$PAPER_SPACE
 70
     0
 10
0.0
 20
0.0
 30
0.0
  3
$PAPER_SPACE
  1

  0
ENDBLK
  5
18
 67
     1
  8
0
  0
BLOCK
  8
0
  2
_OPEN
 70
     0
 10
0.0
 20
0.0
 30
0.0
  3
_OPEN
  1

  0
LINE
  5
7AD2
  8
0
  6
BYBLOCK
 62
     0
 10
-1.0
 20
0.166667
 30
0.0
 11
0.0
 21
0.0
 31
0.0
  0
LINE
  5
7AD3
  8
0
  6
BYBLOCK
 62
     0
 10
0.0
 20
0.0
 30
0.0
 11
-1.0
 21
-0.166667
 31
0.0
  0
LINE
  5
7AD4
  8
0
  6
BYBLOCK
 62
     0
 10
0.0
 20
0.0
 30
0.0
 11
-1.0
 21
0.0
 31
0.0
  0
ENDBLK
  5
7AD5
  8
0
  0
BLOCK
  8
0
  2
*D1
 70
     1
 10
0.0
 20
0.0
 30
0.0
  3
*D1
  1

  0
LINE
  5
7E37
  8
3
  6
CONTINUOUS
 62
     0
 10
2251.471485720796
 20
3088.8692466483299
 30
0.0
 11
2251.471485720796
 21
2770.5746036483301
 31
0.0
  0
LINE
  5
7E38
  8
3
  6
CONTINUOUS
 62
     0
 10
2876.471485720796
 20
3005.10170264833
 30
0.0
 11
2876.471485720796
 21
2770.5746036483301
 31
0.0
  0
LINE
  5
7E39
  8
3
  6
CONTINUOUS
 62
     0
 10
2331.471485720796
 20
2810.5746036483301
 30
0.0
 11
2796.471485720796
 21
2810.5746036483301
 31
0.0
  0
INSERT
  5
7E3A
  8
3
  6
CONTINUOUS
 62
     0
  2
_OPEN
 10
2251.471485720796
 20
2810.5746036483301
 30
0.0
 41
80.0
 42
80.0
 43
80.0
 50
180.0
  0
INSERT
  5
7E3B
  8
3
  6
CONTINUOUS
 62
     0
  2
_OPEN
 10
2876.471485720796
 20
2810.5746036483301
 30
0.0
 41
80.0
 42
80.0
 43
80.0
  0
TEXT
  8
3
  40
120
  5
7EBE
  62
0
  72
0
  71
0
 10
2362.19
 20
2698.17
 30
0.000000
  1
625
  0
POINT
  5
7E3D
  8
DEFPOINTS
  6
CONTINUOUS
 62
     0
 10
2251.471485720796
 20
3108.8692466483299
 30
0.0
  0
POINT
  5
7E3E
  8
DEFPOINTS
  6
CONTINUOUS
 62
     0
 10
2876.471485720796
 20
3025.10170264833
 30
0.0
  0
POINT
  5
7E3F
  8
DEFPOINTS
  6
CONTINUOUS
 62
     0
 10
2876.471485720796
 20
2810.5746036483301
 30
0.0
  0
ENDBLK
  5
7CEB
  8
0
  0
BLOCK
  8
0
  2
*D2
 70
     1
 10
0.0
 20
0.0
 30
0.0
  3
*D2
  1

  0
LINE
  5
7E40
  8
3
  6
CONTINUOUS
 62
     0
 10
2876.471485720796
 20
3005.10170264833
 30
0.0
 11
2876.471485720796
 21
2770.5746036483301
 31
0.0
  0
LINE
  5
7E41
  8
3
  6
CONTINUOUS
 62
     0
 10
4371.4714857207946
 20
3088.8692466483299
 30
0.0
 11
4371.4714857207946
 21
2770.5746036483301
 31
0.0
  0
LINE
  5
7E42
  8
3
  6
CONTINUOUS
 62
     0
 10
2956.471485720796
 20
2810.5746036483301
 30
0.0
 11
4291.4714857207946
 21
2810.5746036483301
 31
0.0
  0
INSERT
  5
7E43
  8
3
  6
CONTINUOUS
 62
     0
  2
_OPEN
 10
2876.471485720796
 20
2810.5746036483301
 30
0.0
 41
80.0
 42
80.0
 43
80.0
 50
180.0
  0
INSERT
  5
7E44
  8
3
  6
CONTINUOUS
 62
     0
  2
_OPEN
 10
4371.4714857207946
 20
2810.5746036483301
 30
0.0
 41
80.0
 42
80.0
 43
80.0
  0
TEXT
  8
3
  40
120
  5
7EBF
  62
0
  72
0
  71
0
 10
3383.97
 20
2698.17
 30
0.000000
  1
1495
  0
POINT
  5
7E46
  8
DEFPOINTS
  6
CONTINUOUS
 62
     0
 10
2876.471485720796
 20
3025.10170264833
 30
0.0
  0
POINT
  5
7E47
  8
DEFPOINTS
  6
CONTINUOUS
 62
     0
 10
4371.4714857207946
 20
3108.8692466483299
 30
0.0
  0
POINT
  5
7E48
  8
DEFPOINTS
  6
CONTINUOUS
 62
     0
 10
4371.4714857207946
 20
2810.5746036483301
 30
0.0
  0
ENDBLK
  5
7CE0
  8
0
  0
BLOCK
  8
0
  2
*D3
 70
     1
 10
0.0
 20
0.0
 30
0.0
  3
*D3
  1

  0
LINE
  5
7E49
  8
3
  6
CONTINUOUS
 62
     0
 10
2176.471485720796
 20
4932.8692466483308
 30
0.0
 11
1886.4152437207961
 21
4932.8692466483317
 31
0.0
  0
LINE
  5
7E4A
  8
3
  6
CONTINUOUS
 62
     0
 10
2176.471485720796
 20
3902.8692466483312
 30
0.0
 11
1886.4152437207961
 21
3902.8692466483312
 31
0.0
  0
LINE
  5
7E4B
  8
3
  6
CONTINUOUS
 62
     0
 10
1926.4152437207961
 20
4852.8692466483317
 30
0.0
 11
1926.4152437207961
 21
3982.8692466483312
 31
0.0
  0
INSERT
  5
7E4C
  8
3
  6
CONTINUOUS
 62
     0
  2
_OPEN
 10
1926.4152437207961
 20
4932.8692466483317
 30
0.0
 41
80.0
 42
80.0
 43
80.0
 50
90.0
  0
INSERT
  5
7E4D
  8
3
  6
CONTINUOUS
 62
     0
  2
_OPEN
 10
1926.4152437207961
 20
3902.8692466483312
 30
0.0
 41
80.0
 42
80.0
 43
80.0
 50
270.0
  0
TEXT
  8
3
  40
120
  5
7EC0
  62
0
  72
0
  71
0
 10
1586.42
 20
4200.81
 30
0.000000
  1
1030
  0
POINT
  5
7E4F
  8
DEFPOINTS
  6
CONTINUOUS
 62
     0
 10
2196.471485720796
 20
4932.8692466483308
 30
0.0
  0
POINT
  5
7E50
  8
DEFPOINTS
  6
CONTINUOUS
 62
     0
 10
2196.471485720796
 20
3902.8692466483312
 30
0.0
  0
POINT
  5
7E51
  8
DEFPOINTS
  6
CONTINUOUS
 62
     0
 10
1926.4152437207961
 20
3902.8692466483312
 30
0.0
  0
ENDBLK
  5
7CD5
  8
0
  0
BLOCK
  8
0
  2
*D4
 70
     1
 10
0.0
 20
0.0
 30
0.0
  3
*D4
  1

  0
LINE
  5
7E52
  8
3
  6
CONTINUOUS
 62
     0
 10
2176.471485720796
 20
4932.8692466483308
 30
0.0
 11
1580.874368720798
 21
4932.8692466483317
 31
0.0
  0
LINE
  5
7E53
  8
3
  6
CONTINUOUS
 62
     0
 10
2261.1767487207958
 20
3858.8692466483299
 30
0.0
 11
1580.8743687207971
 21
3858.8692466483299
 31
0.0
  0
LINE
  5
7E54
  8
3
  6
CONTINUOUS
 62
     0
 10
1620.874368720798
 20
4852.8692466483317
 30
0.0
 11
1620.8743687207971
 21
3938.8692466483299
 31
0.0
  0
INSERT
  5
7E55
  8
3
  6
CONTINUOUS
 62
     0
  2
_OPEN
 10
1620.874368720798
 20
4932.8692466483317
 30
0.0
 41
80.0
 42
80.0
 43
80.0
 50
90.0
  0
INSERT
  5
7E56
  8
3
  6
CONTINUOUS
 62
     0
  2
_OPEN
 10
1620.8743687207971
 20
3858.8692466483299
 30
0.0
 41
80.0
 42
80.0
 43
80.0
 50
270.0
  0
TEXT
  8
3
  40
120
  5
7EC1
  62
0
  72
0
  71
0
 10
1280.87
 20
4137.47
 30
0.000000
  1
1074
  0
POINT
  5
7E58
  8
DEFPOINTS
  6
CONTINUOUS
 62
     0
 10
2196.471485720796
 20
4932.8692466483308
 30
0.0
  0
POINT
  5
7E59
  8
DEFPOINTS
  6
CONTINUOUS
 62
     0
 10
2281.1767487207958
 20
3858.8692466483299
 30
0.0
  0
POINT
  5
7E5A
  8
DEFPOINTS
  6
CONTINUOUS
 62
     0
 10
1620.8743687207971
 20
3858.8692466483299
 30
0.0
  0
ENDBLK
  5
7CCA
  8
0
  0
BLOCK
  8
0
  2
*D5
 70
     1
 10
0.0
 20
0.0
 30
0.0
  3
*D5
  1

  0
LINE
  5
7E5B
  8
3
  6
CONTINUOUS
 62
     0
 10
2261.1767487207958
 20
3858.8692466483299
 30
0.0
 11
1580.8743687207971
 21
3858.8692466483299
 31
0.0
  0
LINE
  5
7E5C
  8
3
  6
CONTINUOUS
 62
     0
 10
2231.471485720796
 20
3108.8692466483299
 30
0.0
 11
1580.8743687207971
 21
3108.8692466483299
 31
0.0
  0
LINE
  5
7E5D
  8
3
  6
CONTINUOUS
 62
     0
 10
1620.8743687207971
 20
3778.8692466483312
 30
0.0
 11
1620.8743687207971
 21
3188.8692466483312
 31
0.0
  0
INSERT
  5
7E5E
  8
3
  6
CONTINUOUS
 62
     0
  2
_OPEN
 10
1620.8743687207971
 20
3858.8692466483299
 30
0.0
 41
80.0
 42
80.0
 43
80.0
 50
90.0
  0
INSERT
  5
7E5F
  8
3
  6
CONTINUOUS
 62
     0
  2
_OPEN
 10
1620.8743687207971
 20
3108.8692466483299
 30
0.0
 41
80.0
 42
80.0
 43
80.0
 50
270.0
  0
TEXT
  8
3
  40
120
  5
7EC2
  62
0
  72
0
  71
0
 10
1280.87
 20
3271.47
 30
0.000000
  1
750
  0
POINT
  5
7E61
  8
DEFPOINTS
  6
CONTINUOUS
 62
     0
 10
2281.1767487207958
 20
3858.8692466483299
 30
0.0
  0
POINT
  5
7E62
  8
DEFPOINTS
  6
CONTINUOUS
 62
     0
 10
2251.471485720796
 20
3108.8692466483299
 30
0.0
  0
POINT
  5
7E63
  8
DEFPOINTS
  6
CONTINUOUS
 62
     0
 10
1620.8743687207971
 20
3108.8692466483299
 30
0.0
  0
ENDBLK
  5
7CBF
  8
0
  0
BLOCK
  8
0
  2
*D6
 70
     1
 10
0.0
 20
0.0
 30
0.0
  3
*D6
  1

  0
LINE
  5
7E64
  8
3
  6
CONTINUOUS
 62
     0
 10
2196.471485720796
 20
5005.8692466483299
 30
0.0
 11
2196.471485720796
 21
5162.6769406483299
 31
0.0
  0
LINE
  5
7E65
  8
3
  6
CONTINUOUS
 62
     0
 10
2876.471485720796
 20
4894.8692466483308
 30
0.0
 11
2876.471485720796
 21
5162.6769406483299
 31
0.0
  0
LINE
  5
7E66
  8
3
  6
CONTINUOUS
 62
     0
 10
2276.471485720796
 20
5122.6769406483299
 30
0.0
 11
2796.471485720796
 21
5122.6769406483299
 31
0.0
  0
INSERT
  5
7E67
  8
3
  6
CONTINUOUS
 62
     0
  2
_OPEN
 10
2196.471485720796
 20
5122.6769406483299
 30
0.0
 41
80.0
 42
80.0
 43
80.0
 50
180.0
  0
INSERT
  5
7E68
  8
3
  6
CONTINUOUS
 62
     0
  2
_OPEN
 10
2876.471485720796
 20
5122.6769406483299
 30
0.0
 41
80.0
 42
80.0
 43
80.0
  0
TEXT
  8
3
  40
120
  5
7EC3
  62
0
  72
0
  71
0
 10
2362.19
 20
5010.28
 30
0.000000
  1
680
  0
POINT
  5
7E6A
  8
DEFPOINTS
  6
CONTINUOUS
 62
     0
 10
2196.471485720796
 20
4985.8692466483308
 30
0.0
  0
POINT
  5
7E6B
  8
DEFPOINTS
  6
CONTINUOUS
 62
     0
 10
2876.471485720796
 20
4874.8692466483299
 30
0.0
  0
POINT
  5
7E6C
  8
DEFPOINTS
  6
CONTINUOUS
 62
     0
 10
2876.471485720796
 20
5122.6769406483299
 30
0.0
  0
ENDBLK
  5
7CB4
  8
0
  0
BLOCK
  8
0
  2
*D7
 70
     1
 10
0.0
 20
0.0
 30
0.0
  3
*D7
  1

  0
LINE
  5
7E6D
  8
3
  6
CONTINUOUS
 62
     0
 10
2876.471485720796
 20
4894.8692466483308
 30
0.0
 11
2876.471485720796
 21
5162.6769406483299
 31
0.0
  0
LINE
  5
7E6E
  8
3
  6
CONTINUOUS
 62
     0
 10
3744.471485720796
 20
3878.8692466483312
 30
0.0
 11
3744.471485720796
 21
5162.6769406483299
 31
0.0
  0
LINE
  5
7E6F
  8
3
  6
CONTINUOUS
 62
     0
 10
2956.471485720796
 20
5122.6769406483299
 30
0.0
 11
3664.471485720796
 21
5122.6769406483299
 31
0.0
  0
INSERT
  5
7E70
  8
3
  6
CONTINUOUS
 62
     0
  2
_OPEN
 10
2876.471485720796
 20
5122.6769406483299
 30
0.0
 41
80.0
 42
80.0
 43
80.0
 50
180.0
  0
INSERT
  5
7E71
  8
3
  6
CONTINUOUS
 62
     0
  2
_OPEN
 10
3744.471485720796
 20
5122.6769406483299
 30
0.0
 41
80.0
 42
80.0
 43
80.0
  0
TEXT
  8
3
  40
120
  5
7EC4
  62
0
  72
0
  71
0
 10
3070.47
 20
5010.28
 30
0.000000
  1
868
  0
POINT
  5
7E73
  8
DEFPOINTS
  6
CONTINUOUS
 62
     0
 10
2876.471485720796
 20
4874.8692466483299
 30
0.0
  0
POINT
  5
7E74
  8
DEFPOINTS
  6
CONTINUOUS
 62
     0
 10
3744.471485720796
 20
3858.8692466483299
 30
0.0
  0
POINT
  5
7E75
  8
DEFPOINTS
  6
CONTINUOUS
 62
     0
 10
3744.471485720796
 20
5122.6769406483299
 30
0.0
  0
ENDBLK
  5
7D39
  8
0
  0
BLOCK
  8
0
  2
*D8
 70
     1
 10
0.0
 20
0.0
 30
0.0
  3
*D8
  1

  0
LINE
  5
7E76
  8
3
  6
CONTINUOUS
 62
     0
 10
2251.471485720796
 20
7323.8195926483313
 30
0.0
 11
2251.471485720796
 21
6884.3064706483292
 31
0.0
  0
LINE
  5
7E77
  8
3
  6
CONTINUOUS
 62
     0
 10
4371.4714857207946
 20
7323.8195926483313
 30
0.0
 11
4371.4714857207946
 21
6884.3064706483292
 31
0.0
  0
LINE
  5
7E78
  8
3
  6
CONTINUOUS
 62
     0
 10
2331.471485720796
 20
6924.3064706483292
 30
0.0
 11
4291.4714857207946
 21
6924.3064706483292
 31
0.0
  0
INSERT
  5
7E79
  8
3
  6
CONTINUOUS
 62
     0
  2
_OPEN
 10
2251.471485720796
 20
6924.3064706483292
 30
0.0
 41
80.0
 42
80.0
 43
80.0
 50
180.0
  0
INSERT
  5
7E7A
  8
3
  6
CONTINUOUS
 62
     0
  2
_OPEN
 10
4371.4714857207946
 20
6924.3064706483292
 30
0.0
 41
80.0
 42
80.0
 43
80.0
  0
TEXT
  8
3
  40
120
  5
7EC5
  62
0
  72
0
  71
0
 10
3058.47
 20
6811.91
 30
0.000000
  1
2120
  0
POINT
  5
7E7C
  8
DEFPOINTS
  6
CONTINUOUS
 62
     0
 10
2251.471485720796
 20
7343.8195926483322
 30
0.0
  0
POINT
  5
7E7D
  8
DEFPOINTS
  6
CONTINUOUS
 62
     0
 10
4371.4714857207946
 20
7343.8195926483322
 30
0.0
  0
POINT
  5
7E7E
  8
DEFPOINTS
  6
CONTINUOUS
 62
     0
 10
4371.4714857207946
 20
6924.3064706483292
 30
0.0
  0
ENDBLK
  5
7C9E
  8
0
  0
BLOCK
  8
0
  2
*D9
 70
     1
 10
0.0
 20
0.0
 30
0.0
  3
*D9
  1

  0
LINE
  5
7E7F
  8
3
  6
CONTINUOUS
 62
     0
 10
4391.4714857207946
 20
8403.8195926483295
 30
0.0
 11
4769.3188497207966
 21
8403.8195926483295
 31
0.0
  0
LINE
  5
7E80
  8
3
  6
CONTINUOUS
 62
     0
 10
4391.4714857207946
 20
7343.8195926483322
 30
0.0
 11
4769.3188497207966
 21
7343.8195926483322
 31
0.0
  0
LINE
  5
7E81
  8
3
  6
CONTINUOUS
 62
     0
 10
4729.3188497207957
 20
8323.8195926483313
 30
0.0
 11
4729.3188497207957
 21
7423.8195926483322
 31
0.0
  0
INSERT
  5
7E82
  8
3
  6
CONTINUOUS
 62
     0
  2
_OPEN
 10
4729.3188497207957
 20
8403.8195926483295
 30
0.0
 41
80.0
 42
80.0
 43
80.0
 50
90.0
  0
INSERT
  5
7E83
  8
3
  6
CONTINUOUS
 62
     0
  2
_OPEN
 10
4729.3188497207957
 20
7343.8195926483322
 30
0.0
 41
80.0
 42
80.0
 43
80.0
 50
270.0
  0
TEXT
  8
3
  40
120
  5
7EC6
  62
0
  72
0
  71
0
 10
4389.32
 20
7640.78
 30
0.000000
  1
1060
  0
POINT
  5
7E85
  8
DEFPOINTS
  6
CONTINUOUS
 62
     0
 10
4371.4714857207946
 20
8403.8195926483295
 30
0.0
  0
POINT
  5
7E86
  8
DEFPOINTS
  6
CONTINUOUS
 62
     0
 10
4371.4714857207946
 20
7343.8195926483322
 30
0.0
  0
POINT
  5
7E87
  8
DEFPOINTS
  6
CONTINUOUS
 62
     0
 10
4729.3188497207957
 20
7343.8195926483322
 30
0.0
  0
ENDBLK
  5
7C93
  8
0
  0
BLOCK
  8
0
  2
*D10
 70
     1
 10
0.0
 20
0.0
 30
0.0
  3
*D10
  1

  0
LINE
  5
7E88
  8
3
  6
CONTINUOUS
 62
     0
 10
5483.8984050015169
 20
3088.8692466483299
 30
0.0
 11
5483.8984050015169
 21
2742.9570856483301
 31
0.0
  0
LINE
  5
7E89
  8
3
  6
CONTINUOUS
 62
     0
 10
6100.8984050015169
 20
2976.60180464833
 30
0.0
 11
6100.8984050015169
 21
2742.9570856483301
 31
0.0
  0
LINE
  5
7E8A
  8
3
  6
CONTINUOUS
 62
     0
 10
5563.898405001516
 20
2782.9570856483301
 30
0.0
 11
6020.8984050015169
 21
2782.9570856483301
 31
0.0
  0
INSERT
  5
7E8B
  8
3
  6
CONTINUOUS
 62
     0
  2
_OPEN
 10
5483.8984050015169
 20
2782.9570856483301
 30
0.0
 41
80.0
 42
80.0
 43
80.0
 50
180.0
  0
INSERT
  5
7E8C
  8
3
  6
CONTINUOUS
 62
     0
  2
_OPEN
 10
6100.8984050015169
 20
2782.9570856483301
 30
0.0
 41
80.0
 42
80.0
 43
80.0
  0
TEXT
  8
3
  40
120
  5
7EC7
  62
0
  72
0
  71
0
 10
5598.04
 20
2670.56
 30
0.000000
  1
617
  0
POINT
  5
7E8E
  8
DEFPOINTS
  6
CONTINUOUS
 62
     0
 10
5483.8984050015169
 20
3108.8692466483299
 30
0.0
  0
POINT
  5
7E8F
  8
DEFPOINTS
  6
CONTINUOUS
 62
     0
 10
6100.8984050015169
 20
2996.60180464833
 30
0.0
  0
POINT
  5
7E90
  8
DEFPOINTS
  6
CONTINUOUS
 62
     0
 10
6100.8984050015169
 20
2782.9570856483301
 30
0.0
  0
ENDBLK
  5
7C88
  8
0
  0
BLOCK
  8
0
  2
*D11
 70
     1
 10
0.0
 20
0.0
 30
0.0
  3
*D11
  1

  0
LINE
  5
7D03
  8
0
  6
BYBLOCK
 62
     0
 10
6100.8984050015169
 20
2976.60180464833
 30
0.0
 11
6100.8984050015169
 21
2742.3841836483311
 31
0.0
  0
LINE
  5
7D04
  8
0
  6
BYBLOCK
 62
     0
 10
6543.8984050015169
 20
3088.8692466483299
 30
0.0
 11
6543.8984050015169
 21
2742.3841836483311
 31
0.0
  0
LINE
  5
7D05
  8
0
  6
BYBLOCK
 62
     0
 10
6180.8984050015169
 20
2782.3841836483298
 30
0.0
 11
6463.8984050015169
 21
2782.3841836483298
 31
0.0
  0
TEXT
  5
7D06
  8
3
 62
     0
 10
6168.1126907158023
 20
2813.0377909588819
 30
0.0
 40
120.0
  1
443
  0
INSERT
  5
7D07
  8
0
  6
BYBLOCK
 62
     0
  2
_OPEN
 10
6100.8984050015169
 20
2782.3841836483298
 30
0.0
 41
80.0
 42
80.0
 43
80.0
 50
180.0
  0
INSERT
  5
7D08
  8
0
  6
BYBLOCK
 62
     0
  2
_OPEN
 10
6543.8984050015169
 20
2782.3841836483298
 30
0.0
 41
80.0
 42
80.0
 43
80.0
  0
POINT
  5
7D09
  8
DEFPOINTS
  6
BYBLOCK
 62
     0
 10
6100.8984050015169
 20
2996.60180464833
 30
0.0
  0
POINT
  5
7D0A
  8
DEFPOINTS
  6
BYBLOCK
 62
     0
 10
6543.8984050015169
 20
3108.8692466483299
 30
0.0
  0
POINT
  5
7D0B
  8
DEFPOINTS
  6
BYBLOCK
 62
     0
 10
6543.8984050015169
 20
2782.3841836483298
 30
0.0
  0
ENDBLK
  5
7D0C
  8
0
  0
BLOCK
  8
0
  2
*D12
 70
     1
 10
0.0
 20
0.0
 30
0.0
  3
*D12
  1

  0
LINE
  5
7E91
  8
3
  6
CONTINUOUS
 62
     0
 10
5725.8984050015169
 20
4952.8692466483299
 30
0.0
 11
5725.8984050015169
 21
5174.2244356483297
 31
0.0
  0
LINE
  5
7E92
  8
3
  6
CONTINUOUS
 62
     0
 10
6475.8984050015169
 20
4952.8692466483299
 30
0.0
 11
6475.8984050015169
 21
5174.2244356483297
 31
0.0
  0
LINE
  5
7E93
  8
3
  6
CONTINUOUS
 62
     0
 10
5805.8984050015169
 20
5134.2244356483307
 30
0.0
 11
6395.8984050015169
 21
5134.2244356483307
 31
0.0
  0
INSERT
  5
7E94
  8
3
  6
CONTINUOUS
 62
     0
  2
_OPEN
 10
5725.8984050015169
 20
5134.2244356483307
 30
0.0
 41
80.0
 42
80.0
 43
80.0
 50
180.0
  0
INSERT
  5
7E95
  8
3
  6
CONTINUOUS
 62
     0
  2
_OPEN
 10
6475.8984050015169
 20
5134.2244356483307
 30
0.0
 41
80.0
 42
80.0
 43
80.0
  0
TEXT
  8
3
  40
120
  5
7EC8
  62
0
  72
0
  71
0
 10
5853.53
 20
5021.82
 30
0.000000
  1
750
  0
POINT
  5
7E97
  8
DEFPOINTS
  6
CONTINUOUS
 62
     0
 10
5725.8984050015169
 20
4932.8692466483308
 30
0.0
  0
POINT
  5
7E98
  8
DEFPOINTS
  6
CONTINUOUS
 62
     0
 10
6475.8984050015169
 20
4932.8692466483308
 30
0.0
  0
POINT
  5
7E99
  8
DEFPOINTS
  6
CONTINUOUS
 62
     0
 10
6475.8984050015169
 20
5134.2244356483307
 30
0.0
  0
ENDBLK
  5
7D51
  8
0
  0
BLOCK
  8
0
  2
*D13
 70
     1
 10
0.0
 20
0.0
 30
0.0
  3
*D13
  1

  0
LINE
  5
7E9A
  8
3
  6
CONTINUOUS
 62
     0
 10
5420.8984050015179
 20
4145.5692466483306
 30
0.0
 11
5420.8984050015179
 21
5433.9387586483308
 31
0.0
  0
LINE
  5
7E9B
  8
3
  6
CONTINUOUS
 62
     0
 10
6100.8984050015169
 20
5367.1880056483296
 30
0.0
 11
6100.8984050015169
 21
5433.9387586483308
 31
0.0
  0
LINE
  5
7E9C
  8
3
  6
CONTINUOUS
 62
     0
 10
5500.8984050015169
 20
5393.9387586483308
 30
0.0
 11
6020.8984050015169
 21
5393.9387586483308
 31
0.0
  0
INSERT
  5
7E9D
  8
3
  6
CONTINUOUS
 62
     0
  2
_OPEN
 10
5420.8984050015179
 20
5393.9387586483308
 30
0.0
 41
80.0
 42
80.0
 43
80.0
 50
180.0
  0
INSERT
  5
7E9E
  8
3
  6
CONTINUOUS
 62
     0
  2
_OPEN
 10
6100.8984050015169
 20
5393.9387586483308
 30
0.0
 41
80.0
 42
80.0
 43
80.0
  0
TEXT
  8
3
  40
120
  5
7EC9
  62
0
  72
0
  71
0
 10
5472.33
 20
5381.54
 30
0.000000
  1
MAX
  0
TEXT
  8
3
  40
120
  5
7ECA
  62
0
  72
0
  71
0
 10
5472.33
 20
5225.54
 30
0.000000
  1
770
  0
POINT
  5
7EA0
  8
DEFPOINTS
  6
CONTINUOUS
 62
     0
 10
5420.8984050015179
 20
4125.5692466483297
 30
0.0
  0
POINT
  5
7EA1
  8
DEFPOINTS
  6
CONTINUOUS
 62
     0
 10
6100.8984050015169
 20
5347.1880056483296
 30
0.0
  0
POINT
  5
7EA2
  8
DEFPOINTS
  6
CONTINUOUS
 62
     0
 10
6100.8984050015169
 20
5393.9387586483308
 30
0.0
  0
ENDBLK
  5
7D22
  8
0
  0
BLOCK
  8
0
  2
*D14
 70
     1
 10
0.0
 20
0.0
 30
0.0
  3
*D14
  1

  0
LINE
  5
7D0E
  8
0
  6
BYBLOCK
 62
     0
 10
6100.8984050015169
 20
5367.1880056483296
 30
0.0
 11
6100.8984050015169
 21
5434.5116916483321
 31
0.0
  0
LINE
  5
7D0F
  8
0
  6
BYBLOCK
 62
     0
 10
6578.8984050015169
 20
4428.8692466483308
 30
0.0
 11
6578.8984050015169
 21
5434.5116916483321
 31
0.0
  0
LINE
  5
7D10
  8
0
  6
BYBLOCK
 62
     0
 10
6180.8984050015169
 20
5394.5116916483312
 30
0.0
 11
6498.8984050015179
 21
5394.5116916483312
 31
0.0
  0
TEXT
  5
7D11
  8
3
 62
     0
 10
6185.6126907158023
 20
5447.7390802711188
 30
0.0
 40
120.0
  1
478
  0
INSERT
  5
7D12
  8
0
  6
BYBLOCK
 62
     0
  2
_OPEN
 10
6100.8984050015169
 20
5394.5116916483312
 30
0.0
 41
80.0
 42
80.0
 43
80.0
 50
180.0
  0
INSERT
  5
7D13
  8
0
  6
BYBLOCK
 62
     0
  2
_OPEN
 10
6578.8984050015169
 20
5394.5116916483312
 30
0.0
 41
80.0
 42
80.0
 43
80.0
  0
POINT
  5
7D14
  8
DEFPOINTS
  6
BYBLOCK
 62
     0
 10
6100.8984050015169
 20
5347.1880056483296
 30
0.0
  0
POINT
  5
7D15
  8
DEFPOINTS
  6
BYBLOCK
 62
     0
 10
6578.8984050015169
 20
4408.8692466483308
 30
0.0
  0
POINT
  5
7D16
  8
DEFPOINTS
  6
BYBLOCK
 62
     0
 10
6578.8984050015169
 20
5394.5116916483312
 30
0.0
  0
ENDBLK
  5
7D17
  8
0
  0
BLOCK
  8
0
  2
*D15
 70
     1
 10
0.0
 20
0.0
 30
0.0
  3
*D15
  1

  0
LINE
  5
7EA3
  8
3
  6
CONTINUOUS
 62
     0
 10
6598.8984050015169
 20
4358.8692466483308
 30
0.0
 11
6958.1700810015182
 21
4358.8692466483308
 31
0.0
  0
LINE
  5
7EA4
  8
3
  6
CONTINUOUS
 62
     0
 10
6598.8984050015169
 20
3358.8692466483299
 30
0.0
 11
6958.1700810015182
 21
3358.8692466483299
 31
0.0
  0
LINE
  5
7EA5
  8
3
  6
CONTINUOUS
 62
     0
 10
6918.1700810015191
 20
4278.8692466483308
 30
0.0
 11
6918.1700810015191
 21
3438.8692466483299
 31
0.0
  0
INSERT
  5
7EA6
  8
3
  6
CONTINUOUS
 62
     0
  2
_OPEN
 10
6918.1700810015191
 20
4358.8692466483308
 30
0.0
 41
80.0
 42
80.0
 43
80.0
 50
90.0
  0
INSERT
  5
7EA7
  8
3
  6
CONTINUOUS
 62
     0
  2
_OPEN
 10
6918.1700810015191
 20
3358.8692466483299
 30
0.0
 41
80.0
 42
80.0
 43
80.0
 50
270.0
  0
TEXT
  8
3
  40
120
  5
7ECB
  62
0
  72
0
  71
0
 10
6578.17
 20
3683.13
 30
0.000000
  1
φ1000
  0
POINT
  5
7EA9
  8
DEFPOINTS
  6
CONTINUOUS
 62
     0
 10
6578.8984050015169
 20
4358.8692466483308
 30
0.0
  0
POINT
  5
7EAA
  8
DEFPOINTS
  6
CONTINUOUS
 62
     0
 10
6578.8984050015169
 20
3358.8692466483299
 30
0.0
  0
POINT
  5
7EAB
  8
DEFPOINTS
  6
CONTINUOUS
 62
     0
 10
6918.1700810015191
 20
3358.8692466483299
 30
0.0
  0
ENDBLK
  5
7D2D
  8
0
  0
BLOCK
  8
0
  2
*D16
 70
     1
 10
0.0
 20
0.0
 30
0.0
  3
*D16
  1

  0
LINE
  5
7EAC
  8
3
  6
CONTINUOUS
 62
     0
 10
2176.471485720796
 20
5008.3692466483308
 30
0.0
 11
1253.1185377207969
 21
5008.3692466483317
 31
0.0
  0
LINE
  5
7EAD
  8
3
  6
CONTINUOUS
 62
     0
 10
2231.471485720796
 20
3108.8692466483299
 30
0.0
 11
1253.1185377207969
 21
3108.8692466483299
 31
0.0
  0
LINE
  5
7EAE
  8
3
  6
CONTINUOUS
 62
     0
 10
1293.1185377207969
 20
4928.3692466483308
 30
0.0
 11
1293.1185377207969
 21
3188.8692466483312
 31
0.0
  0
INSERT
  5
7EAF
  8
3
  6
CONTINUOUS
 62
     0
  2
_OPEN
 10
1293.1185377207969
 20
5008.3692466483317
 30
0.0
 41
80.0
 42
80.0
 43
80.0
 50
90.0
  0
INSERT
  5
7EB0
  8
3
  6
CONTINUOUS
 62
     0
  2
_OPEN
 10
1293.1185377207969
 20
3108.8692466483299
 30
0.0
 41
80.0
 42
80.0
 43
80.0
 50
270.0
  0
TEXT
  8
3
  40
120
  5
7ECC
  62
0
  72
0
  71
0
 10
953.119
 20
3808.97
 30
0.000000
  1
1900
  0
POINT
  5
7EB2
  8
DEFPOINTS
  6
CONTINUOUS
 62
     0
 10
2196.471485720796
 20
5008.3692466483308
 30
0.0
  0
POINT
  5
7EB3
  8
DEFPOINTS
  6
CONTINUOUS
 62
     0
 10
2251.471485720796
 20
3108.8692466483299
 30
0.0
  0
POINT
  5
7EB4
  8
DEFPOINTS
  6
CONTINUOUS
 62
     0
 10
1293.1185377207969
 20
3108.8692466483299
 30
0.0
  0
ENDBLK
  5
7C42
  8
0
  0
BLOCK
  8
0
  2
*D17
 70
     1
 10
0.0
 20
0.0
 30
0.0
  3
*D17
  1

  0
LINE
  5
7EB5
  8
3
 62
     0
 10
2196.471485720796
 20
5005.8692466483299
 30
0.0
 11
2196.471485720796
 21
5418.2884455169633
 31
0.0
  0
LINE
  5
7EB6
  8
3
 62
     0
 10
4371.4714857207946
 20
3253.8692466483312
 30
0.0
 11
4371.4714857207946
 21
5418.2884455169633
 31
0.0
  0
LINE
  5
7EB7
  8
3
 62
     0
 10
2276.471485720796
 20
5378.2884455169624
 30
0.0
 11
4291.4714857207946
 21
5378.2884455169624
 31
0.0
  0
INSERT
  5
7EB8
  8
3
 62
     0
  2
_OPEN
 10
2196.471485720796
 20
5378.2884455169624
 30
0.0
 41
80.0
 42
80.0
 43
80.0
 50
180.0
  0
INSERT
  5
7EB9
  8
3
 62
     0
  2
_OPEN
 10
4371.4714857207946
 20
5378.2884455169624
 30
0.0
 41
80.0
 42
80.0
 43
80.0
  0
TEXT
  8
3
  40
120
  5
7ECD
  62
0
  72
0
  71
0
 10
3000.58
 20
5265.89
 30
0.000000
  1
2175
  0
POINT
  5
7EBB
  8
DEFPOINTS
 62
     0
 10
2196.471485720796
 20
4985.8692466483308
 30
0.0
  0
POINT
  5
7EBC
  8
DEFPOINTS
 62
     0
 10
4371.4714857207946
 20
3233.8692466483299
 30
0.0
  0
POINT
  5
7EBD
  8
DEFPOINTS
 62
     0
 10
4371.4714857207946
 20
5378.2884455169624
 30
0.0
  0
ENDBLK
  5
7D45
  8
0
  0
ENDSEC
  0
SECTION
  2
ENTITIES
  0
LINE
  5
7A6A
  8
1
  6
CONTINUOUS
 10
3036.471485720796
 20
7343.8195926483322
 30
0.0
 11
3996.471485720796
 21
7343.8195926483322
 31
0.0
  0
LINE
  5
7A6B
  8
1
  6
CONTINUOUS
 10
4044.5714857207959
 20
3275.66924664833
 30
0.0
 11
2808.971485720796
 21
3607.76924664833
 31
0.0
  0
LINE
  5
7A6C
  8
1
  6
CONTINUOUS
 10
4070.471485720795
 20
3372.26924664833
 30
0.0
 11
2834.971485720796
 21
3704.26924664833
 31
0.0
  0
LINE
  5
7A6D
  8
1
  6
CONTINUOUS
 10
4166.2714857207957
 20
3656.26924664833
 30
0.0
 11
2967.1714857207949
 21
4102.4692466483302
 31
0.0
  0
LINE
  5
7A6E
  8
1
  6
CONTINUOUS
 10
4131.371485720796
 20
3562.5692466483301
 30
0.0
 11
2932.2714857207952
 21
4008.76924664833
 31
0.0
  0
LINE
  5
7A6F
  8
1
  6
CONTINUOUS
 10
2616.471485720796
 20
7280.8195926483322
 30
0.0
 11
4296.4714857207964
 21
7280.8195926483322
 31
0.0
  0
LINE
  5
7A70
  8
1
  6
CONTINUOUS
 10
2616.471485720796
 20
7480.8195926483322
 30
0.0
 11
4296.4714857207964
 21
7480.8195926483322
 31
0.0
  0
LINE
  5
7A71
  8
1
  6
CONTINUOUS
 10
2326.471485720796
 20
8438.8195926483313
 30
0.0
 11
3426.471485720796
 21
8438.8195926483313
 31
0.0
  0
CIRCLE
  5
7A72
  8
1
  6
CONTINUOUS
 10
2876.471485720796
 20
3858.8692466483299
 30
0.0
 40
550.0
  0
CIRCLE
  5
7A73
  8
1
  6
CONTINUOUS
 10
2876.471485720796
 20
3858.8692466483299
 30
0.0
 40
500.0
  0
LINE
  5
7A74
  8
1
  6
CONTINUOUS
 10
2196.471485720796
 20
7585.8195926483322
 30
0.0
 11
3747.371485720796
 21
7585.8195926483322
 31
0.0
  0
LINE
  5
7A75
  8
1
  6
CONTINUOUS
 10
2196.471485720796
 20
8335.8195926483313
 30
0.0
 11
3747.371485720796
 21
8335.8195926483313
 31
0.0
  0
LINE
  5
7A76
  8
1
  6
CONTINUOUS
 10
2251.471485720796
 20
3233.8692466483299
 30
0.0
 11
4371.4714857207946
 21
3233.8692466483299
 31
0.0
  0
LINE
  5
7A77
  8
1
  6
CONTINUOUS
 10
2251.471485720796
 20
3108.8692466483299
 30
0.0
 11
4371.4714857207946
 21
3108.8692466483299
 31
0.0
  0
POLYLINE
  5
7A78
  8
1
  6
CONTINUOUS
 66
     1
 10
0.0
 20
0.0
 30
0.0
  0
VERTEX
  5
7E30
  8
1
  6
CONTINUOUS
 10
2196.471485720796
 20
4932.8692466483308
 30
0.0
  0
VERTEX
  5
7E31
  8
1
  6
CONTINUOUS
 10
2876.471485720796
 20
4874.8692466483299
 30
0.0
 42
-0.4
  0
VERTEX
  5
7E32
  8
1
  6
CONTINUOUS
 10
3747.371485720796
 20
3932.8692466483312
 30
0.0
 42
-0.4
  0
VERTEX
  5
7E33
  8
1
  6
CONTINUOUS
 10
2870.871485720796
 20
3139.8692466483312
 30
0.0
 42
-0.4
  0
VERTEX
  5
7E34
  8
1
  6
CONTINUOUS
 10
2275.2714857207961
 20
3798.3692466483312
 30
0.0
  0
VERTEX
  5
7E35
  8
1
  6
CONTINUOUS
 10
2285.471485720796
 20
3902.8692466483312
 30
0.0
 42
-0.4
  0
SEQEND
  5
7E36
  8
1
  6
CONTINUOUS
  0
LINE
  5
7A80
  8
1
  6
CONTINUOUS
 10
2616.471485720796
 20
7280.8195926483322
 30
0.0
 11
2616.471485720796
 21
7480.8195926483322
 31
0.0
  0
LINE
  5
7A81
  8
1
  6
CONTINUOUS
 10
2246.471485720796
 20
3902.8692466483312
 30
0.0
 11
2246.471485720796
 21
4932.8692466483308
 31
0.0
  0
LINE
  5
7A82
  8
1
  6
CONTINUOUS
 10
2196.471485720796
 20
3849.8692466483299
 30
0.0
 11
2196.471485720796
 21
4985.8692466483308
 31
0.0
  0
ARC
  5
7A83
  8
1
  6
CONTINUOUS
 10
2876.471485720796
 20
3858.8692466483299
 30
0.0
 40
260.0
 50
69.599999999999994
 51
255.0
  0
LINE
  5
7A84
  8
1
  6
CONTINUOUS
 10
2251.471485720796
 20
3233.8692466483299
 30
0.0
 11
2251.471485720796
 21
3108.8692466483299
 31
0.0
  0
LINE
  5
7A85
  8
1
  6
CONTINUOUS
 10
2285.471485720796
 20
3902.8692466483312
 30
0.0
 11
2196.471485720796
 21
3902.8692466483312
 31
0.0
  0
CIRCLE
  5
7A86
  8
1
  6
CONTINUOUS
 10
2876.471485720796
 20
3858.8692466483299
 30
0.0
 40
160.0
  0
LINE
  5
7A87
  8
2
  6
CENTER
 10
2151.5090897207951
 20
3858.8692466483299
 30
0.0
 11
3919.9185827207948
 21
3858.8692466483299
 31
0.0
  0
LINE
  5
7A88
  8
2
  6
CENTER
 10
2876.471485720796
 20
8601.9494656483312
 30
0.0
 11
2876.471485720796
 21
7241.6078126483299
 31
0.0
  0
LINE
  5
7A89
  8
1
  6
CONTINUOUS
 10
2251.471485720796
 20
7343.8195926483322
 30
0.0
 11
2716.471485720796
 21
7343.8195926483322
 31
0.0
  0
LINE
  5
7A8A
  8
1
  6
CONTINUOUS
 10
2196.471485720796
 20
7535.8195926483322
 30
0.0
 11
2196.471485720796
 21
8385.8195926483313
 31
0.0
  0
LINE
  5
7A8B
  8
1
  6
CONTINUOUS
 10
2246.471485720796
 20
7585.8195926483322
 30
0.0
 11
2246.471485720796
 21
8335.8195926483313
 31
0.0
  0
LINE
  5
7A8C
  8
1
  6
CONTINUOUS
 10
2251.471485720796
 20
7585.8195926483322
 30
0.0
 11
2251.471485720796
 21
7343.8195926483322
 31
0.0
  0
LINE
  5
7A8D
  8
1
  6
CONTINUOUS
 10
2251.471485720796
 20
8403.8195926483295
 30
0.0
 11
2376.471485720796
 21
8403.8195926483295
 31
0.0
  0
LINE
  5
7A8E
  8
1
  6
CONTINUOUS
 10
2251.471485720796
 20
8403.8195926483295
 30
0.0
 11
2251.471485720796
 21
8335.8195926483313
 31
0.0
  0
LINE
  5
7A8F
  8
1
  6
CONTINUOUS
 10
2376.471485720796
 20
8335.8195926483313
 30
0.0
 11
2376.471485720796
 21
8438.8195926483313
 31
0.0
  0
LINE
  5
7A90
  8
1
  6
CONTINUOUS
 10
2716.471485720796
 20
7330.8195926483322
 30
0.0
 11
3036.471485720796
 21
7330.8195926483322
 31
0.0
  0
LINE
  5
7A91
  8
1
  6
CONTINUOUS
 10
2716.471485720796
 20
7430.8195926483322
 30
0.0
 11
3036.471485720796
 21
7430.8195926483322
 31
0.0
  0
LINE
  5
7A92
  8
1
  6
CONTINUOUS
 10
2900.471485720796
 20
7430.8195926483322
 30
0.0
 11
2900.471485720796
 21
7585.8195926483322
 31
0.0
  0
LINE
  5
7A93
  8
1
  6
CONTINUOUS
 10
2852.471485720796
 20
7430.8195926483322
 30
0.0
 11
2852.471485720796
 21
7585.8195926483322
 31
0.0
  0
LINE
  5
7A94
  8
1
  6
CONTINUOUS
 10
2716.471485720796
 20
7330.8195926483322
 30
0.0
 11
2716.471485720796
 21
7430.8195926483322
 31
0.0
  0
LINE
  5
7A95
  8
1
  6
CONTINUOUS
 10
3036.471485720796
 20
7330.8195926483322
 30
0.0
 11
3036.471485720796
 21
7430.8195926483322
 31
0.0
  0
LINE
  5
7A96
  8
1
  6
CONTINUOUS
 10
4296.4714857207964
 20
7280.8195926483322
 30
0.0
 11
4296.4714857207964
 21
7480.8195926483322
 31
0.0
  0
LINE
  5
7A97
  8
1
  6
CONTINUOUS
 10
3871.471485720796
 20
3233.8692466483299
 30
0.0
 11
3886.471485720795
 21
3288.8692466483299
 31
0.0
  0
ARC
  5
7A98
  8
1
  6
CONTINUOUS
 10
4096.4714857207964
 20
3468.8692466483312
 30
0.0
 40
200.0
 50
255.0
 51
69.599999999999994
  0
ARC
  5
7A99
  8
1
  6
CONTINUOUS
 10
4096.4714857207964
 20
3468.8692466483312
 30
0.0
 40
182.5
 50
326.60000000000002
 51
213.40000000000001
  0
LINE
  5
7A9A
  8
2
  6
CENTER
 10
4201.4714857207946
 20
3468.8692466483312
 30
0.0
 11
3991.471485720795
 21
3468.8692466483312
 31
0.0
  0
CIRCLE
  5
7A9B
  8
1
  6
CONTINUOUS
 10
4096.4714857207964
 20
3468.8692466483312
 30
0.0
 40
100.0
  0
LINE
  5
7A9C
  8
1
  6
CONTINUOUS
 10
4306.4714857207946
 20
3288.8692466483299
 30
0.0
 11
3886.471485720795
 21
3288.8692466483299
 31
0.0
  0
LINE
  5
7A9D
  8
2
  6
CENTER
 10
4096.4714857207964
 20
3363.8692466483299
 30
0.0
 11
4096.4714857207964
 21
3573.8692466483299
 31
0.0
  0
LINE
  5
7A9E
  8
1
  6
CONTINUOUS
 10
3934.471485720795
 20
3288.8692466483299
 30
0.0
 11
3934.471485720795
 21
3358.8692466483299
 31
0.0
  0
LINE
  5
7A9F
  8
1
  6
CONTINUOUS
 10
3934.471485720795
 20
3358.8692466483299
 30
0.0
 11
3944.0714857207959
 21
3368.3692466483312
 31
0.0
  0
LINE
  5
7AA0
  8
1
  6
CONTINUOUS
 10
4321.4714857207946
 20
3233.8692466483299
 30
0.0
 11
4306.4714857207946
 21
3288.8692466483299
 31
0.0
  0
LINE
  5
7AA1
  8
1
  6
CONTINUOUS
 10
4258.4714857207964
 20
3288.8692466483299
 30
0.0
 11
4258.4714857207964
 21
3358.8692466483299
 31
0.0
  0
LINE
  5
7AA2
  8
1
  6
CONTINUOUS
 10
4258.4714857207964
 20
3358.8692466483299
 30
0.0
 11
4248.871485720796
 21
3368.3692466483312
 31
0.0
  0
LINE
  5
7AA3
  8
1
  6
CONTINUOUS
 10
4371.4714857207946
 20
3233.8692466483299
 30
0.0
 11
4371.4714857207946
 21
3108.8692466483299
 31
0.0
  0
LINE
  5
7AA4
  8
1
  6
CONTINUOUS
 10
3376.471485720796
 20
8403.8195926483295
 30
0.0
 11
4371.4714857207946
 21
8403.8195926483295
 31
0.0
  0
LINE
  5
7AA5
  8
1
  6
CONTINUOUS
 10
3747.371485720796
 20
7585.8195926483322
 30
0.0
 11
3747.371485720796
 21
8335.8195926483313
 31
0.0
  0
LINE
  5
7AA6
  8
1
  6
CONTINUOUS
 10
3376.471485720796
 20
8335.8195926483313
 30
0.0
 11
3376.471485720796
 21
8438.8195926483313
 31
0.0
  0
LINE
  5
7AA7
  8
1
  6
CONTINUOUS
 10
4371.4714857207946
 20
8403.8195926483295
 30
0.0
 11
4371.4714857207946
 21
7343.8195926483322
 31
0.0
  0
LINE
  5
7AA8
  8
1
  6
CONTINUOUS
 10
3996.471485720796
 20
7430.8195926483322
 30
0.0
 11
4196.4714857207946
 21
7430.8195926483322
 31
0.0
  0
LINE
  5
7AA9
  8
1
  6
CONTINUOUS
 10
3996.471485720796
 20
7330.8195926483322
 30
0.0
 11
4196.4714857207946
 21
7330.8195926483322
 31
0.0
  0
LINE
  5
7AAA
  8
1
  6
CONTINUOUS
 10
4278.9714857207946
 20
8065.7195926483309
 30
0.0
 11
3913.971485720795
 21
8065.7195926483309
 31
0.0
  0
LINE
  5
7AAB
  8
1
  6
CONTINUOUS
 10
4278.9714857207946
 20
7504.2195926483319
 30
0.0
 11
3913.971485720795
 21
7504.2195926483319
 31
0.0
  0
LINE
  5
7AAC
  8
1
  6
CONTINUOUS
 10
4072.471485720796
 20
7430.8195926483322
 30
0.0
 11
4072.471485720796
 21
7504.2195926483319
 31
0.0
  0
LINE
  5
7AAD
  8
1
  6
CONTINUOUS
 10
4120.4714857207946
 20
7430.8195926483322
 30
0.0
 11
4120.4714857207946
 21
7504.2195926483319
 31
0.0
  0
LINE
  5
7AAE
  8
1
  6
CONTINUOUS
 10
3996.471485720796
 20
7330.8195926483322
 30
0.0
 11
3996.471485720796
 21
7430.8195926483322
 31
0.0
  0
LINE
  5
7AAF
  8
1
  6
CONTINUOUS
 10
3913.971485720795
 20
7504.2195926483319
 30
0.0
 11
3913.971485720795
 21
8065.7195926483309
 31
0.0
  0
LINE
  5
7AB0
  8
1
  6
CONTINUOUS
 10
4196.4714857207946
 20
7343.8195926483322
 30
0.0
 11
4371.4714857207946
 21
7343.8195926483322
 31
0.0
  0
LINE
  5
7AB1
  8
1
  6
CONTINUOUS
 10
4196.4714857207946
 20
7330.8195926483322
 30
0.0
 11
4196.4714857207946
 21
7430.8195926483322
 31
0.0
  0
LINE
  5
7AB2
  8
1
  6
CONTINUOUS
 10
4278.9714857207946
 20
7504.2195926483319
 30
0.0
 11
4278.9714857207946
 21
8065.7195926483309
 31
0.0
  0
LINE
  5
7AB3
  8
1
  6
CONTINUOUS
 10
6543.8984050015169
 20
3233.8692466483299
 30
0.0
 11
5483.8984050015169
 21
3233.8692466483299
 31
0.0
  0
LINE
  5
7AB4
  8
1
  6
CONTINUOUS
 10
6543.8984050015169
 20
3108.8692466483299
 30
0.0
 11
5483.8984050015169
 21
3108.8692466483299
 31
0.0
  0
LINE
  5
7AB5
  8
1
  6
CONTINUOUS
 10
6578.8984050015169
 20
4358.8692466483308
 30
0.0
 11
6475.8984050015169
 21
4358.8692466483308
 31
0.0
  0
LINE
  5
7AB6
  8
1
  6
CONTINUOUS
 10
6578.8984050015169
 20
3358.8692466483299
 30
0.0
 11
6475.8984050015169
 21
3358.8692466483299
 31
0.0
  0
LINE
  5
7AB7
  8
1
  6
CONTINUOUS
 10
6475.8984050015169
 20
4932.8692466483308
 30
0.0
 11
6475.8984050015169
 21
3233.8692466483299
 31
0.0
  0
LINE
  5
7AB8
  8
1
  6
CONTINUOUS
 10
5725.8984050015169
 20
4932.8692466483308
 30
0.0
 11
5725.8984050015169
 21
3233.8692466483299
 31
0.0
  0
LINE
  5
7AB9
  8
1
  6
CONTINUOUS
 10
5725.8984050015169
 20
4932.8692466483308
 30
0.0
 11
6475.8984050015169
 21
3902.8692466483312
 31
0.0
  0
LINE
  5
7ABA
  8
1
  6
CONTINUOUS
 10
5725.8984050015169
 20
3902.8692466483312
 30
0.0
 11
6475.8984050015169
 21
4932.8692466483308
 31
0.0
  0
LINE
  5
7ABB
  8
1
  6
CONTINUOUS
 10
6475.8984050015169
 20
3902.8692466483312
 30
0.0
 11
5725.8984050015169
 21
3902.8692466483312
 31
0.0
  0
LINE
  5
7ABC
  8
1
  6
CONTINUOUS
 10
5620.8984050015169
 20
4125.5692466483297
 30
0.0
 11
5620.8984050015169
 21
3268.8692466483312
 31
0.0
  0
LINE
  5
7ABD
  8
1
  6
CONTINUOUS
 10
5420.8984050015179
 20
4125.5692466483297
 30
0.0
 11
5420.8984050015179
 21
3268.8692466483312
 31
0.0
  0
LINE
  5
7ABE
  8
1
  6
CONTINUOUS
 10
5420.8984050015179
 20
3268.8692466483312
 30
0.0
 11
5620.8984050015169
 21
3268.8692466483312
 31
0.0
  0
LINE
  5
7ABF
  8
1
  6
CONTINUOUS
 10
5725.8984050015169
 20
3451.569246648331
 30
0.0
 11
5570.8984050015169
 21
3451.569246648331
 31
0.0
  0
LINE
  5
7AC0
  8
1
  6
CONTINUOUS
 10
5725.8984050015169
 20
3499.5692466483301
 30
0.0
 11
5570.8984050015169
 21
3499.5692466483301
 31
0.0
  0
LINE
  5
7AC1
  8
1
  6
CONTINUOUS
 10
5483.8984050015169
 20
3233.8692466483299
 30
0.0
 11
5483.8984050015169
 21
3108.8692466483299
 31
0.0
  0
LINE
  5
7AC2
  8
1
  6
CONTINUOUS
 10
5470.898405001516
 20
3568.8692466483312
 30
0.0
 11
5570.8984050015169
 21
3568.8692466483312
 31
0.0
  0
LINE
  5
7AC3
  8
1
  6
CONTINUOUS
 10
5470.898405001516
 20
3368.8692466483312
 30
0.0
 11
5570.8984050015169
 21
3368.8692466483312
 31
0.0
  0
LINE
  5
7AC4
  8
1
  6
CONTINUOUS
 10
5470.898405001516
 20
3568.8692466483312
 30
0.0
 11
5470.898405001516
 21
3368.8692466483312
 31
0.0
  0
LINE
  5
7AC5
  8
1
  6
CONTINUOUS
 10
5570.8984050015169
 20
3568.8692466483312
 30
0.0
 11
5570.8984050015169
 21
3368.8692466483312
 31
0.0
  0
LINE
  5
7AC6
  8
1
  6
CONTINUOUS
 10
5420.8984050015179
 20
4125.5692466483297
 30
0.0
 11
5620.8984050015169
 21
4125.5692466483297
 31
0.0
  0
LINE
  5
7AC7
  8
1
  6
CONTINUOUS
 10
5725.8984050015169
 20
3889.5692466483301
 30
0.0
 11
5570.8984050015169
 21
3889.5692466483301
 31
0.0
  0
LINE
  5
7AC8
  8
1
  6
CONTINUOUS
 10
5725.8984050015169
 20
3841.5692466483301
 30
0.0
 11
5570.8984050015169
 21
3841.5692466483301
 31
0.0
  0
LINE
  5
7AC9
  8
1
  6
CONTINUOUS
 10
5470.898405001516
 20
4025.5692466483301
 30
0.0
 11
5470.898405001516
 21
3692.069246648331
 31
0.0
  0
LINE
  5
7ACA
  8
1
  6
CONTINUOUS
 10
5570.8984050015169
 20
4025.5692466483301
 30
0.0
 11
5570.8984050015169
 21
3692.069246648331
 31
0.0
  0
LINE
  5
7ACB
  8
1
  6
CONTINUOUS
 10
5470.898405001516
 20
4025.5692466483301
 30
0.0
 11
5570.8984050015169
 21
4025.5692466483301
 31
0.0
  0
LINE
  5
7ACC
  8
1
  6
CONTINUOUS
 10
5470.898405001516
 20
3692.069246648331
 30
0.0
 11
5570.8984050015169
 21
3692.069246648331
 31
0.0
  0
LINE
  5
7ACD
  8
1
  6
CONTINUOUS
 10
6475.8984050015169
 20
4932.8692466483308
 30
0.0
 11
5725.8984050015169
 21
4932.8692466483308
 31
0.0
  0
LINE
  5
7ACE
  8
1
  6
CONTINUOUS
 10
6578.8984050015169
 20
4408.8692466483308
 30
0.0
 11
6578.8984050015169
 21
3308.8692466483312
 31
0.0
  0
LINE
  5
7ACF
  8
1
  6
CONTINUOUS
 10
6543.8984050015169
 20
3233.8692466483299
 30
0.0
 11
6543.8984050015169
 21
3108.8692466483299
 31
0.0
  0
DIMENSION
  5
7AE3
  8
3
  6
CONTINUOUS
  2
*D1
 10
2876.471485720796
 20
2810.5746036483301
 30
0.0
 11
2602.1857714350822
 21
2810.5746036483301
 31
0.0
 70
   128
 13
2251.471485720796
 23
3108.8692466483299
 33
0.0
 14
2876.471485720796
 24
3025.10170264833
 34
0.0
1001
ACAD
1000
DSTYLE
1002
{
1070
   287
1070
     3
1070
   287
1070
     3
1070
    40
1040
40.0
1070
   143
1040
0.039
1070
   172
1070
     1
1070
   271
1070
     0
1070
   279
1070
     0
1070
   288
1070
     1
1002
}
  0
DIMENSION
  5
7AEF
  8
3
  6
CONTINUOUS
  2
*D2
 10
4371.4714857207946
 20
2810.5746036483301
 30
0.0
 11
3623.971485720796
 21
2910.5746036483301
 31
0.0
 70
     0
 13
2876.471485720796
 23
3025.10170264833
 33
0.0
 14
4371.4714857207946
 24
3108.8692466483299
 34
0.0
1001
ACAD
1000
DSTYLE
1002
{
1070
   287
1070
     3
1070
   287
1070
     3
1070
    40
1040
40.0
1070
   143
1040
0.039
1070
   172
1070
     1
1070
   271
1070
     0
1070
   279
1070
     0
1070
   288
1070
     1
1002
}
  0
DIMENSION
  5
7AFC
  8
3
  6
CONTINUOUS
  2
*D3
 10
1926.4152437207961
 20
3902.8692466483312
 30
0.0
 11
1926.4152437207949
 21
4413.211280648331
 31
0.0
 70
   128
 13
2196.471485720796
 23
4932.8692466483308
 33
0.0
 14
2196.471485720796
 24
3902.8692466483312
 34
0.0
 50
90.0
1001
ACAD
1000
DSTYLE
1002
{
1070
   287
1070
     3
1070
   287
1070
     3
1070
    40
1040
40.0
1070
   143
1040
0.039
1070
   172
1070
     1
1070
   271
1070
     0
1070
   279
1070
     0
1070
   288
1070
     1
1002
}
  0
DIMENSION
  5
7B09
  8
3
  6
CONTINUOUS
  2
*D4
 10
1620.8743687207971
 20
3858.8692466483299
 30
0.0
 11
1620.8743687207971
 21
4349.8656306483308
 31
0.0
 70
   128
 13
2196.471485720796
 23
4932.8692466483308
 33
0.0
 14
2281.1767487207958
 24
3858.8692466483299
 34
0.0
 50
90.0
1001
ACAD
1000
DSTYLE
1002
{
1070
   287
1070
     3
1070
   287
1070
     3
1070
    40
1040
40.0
1070
   143
1040
0.039
1070
   172
1070
     1
1070
   271
1070
     0
1070
   279
1070
     0
1070
   288
1070
     1
1002
}
  0
DIMENSION
  5
7B15
  8
3
  6
CONTINUOUS
  2
*D5
 10
1620.8743687207971
 20
3108.8692466483299
 30
0.0
 11
1520.8743687207959
 21
3483.8692466483312
 31
0.0
 70
     0
 13
2281.1767487207958
 23
3858.8692466483299
 33
0.0
 14
2251.471485720796
 24
3108.8692466483299
 34
0.0
 50
90.0
1001
ACAD
1000
DSTYLE
1002
{
1070
   287
1070
     3
1070
   287
1070
     3
1070
    40
1040
40.0
1070
   143
1040
0.039
1070
   172
1070
     1
1070
   271
1070
     0
1070
   279
1070
     0
1070
   288
1070
     1
1002
}
  0
DIMENSION
  5
7B2F
  8
3
  6
CONTINUOUS
  2
*D6
 10
2876.471485720796
 20
5122.6769406483299
 30
0.0
 11
2602.1857714350822
 21
5122.6769406483299
 31
0.0
 70
   128
 13
2196.471485720796
 23
4985.8692466483308
 33
0.0
 14
2876.471485720796
 24
4874.8692466483299
 34
0.0
1001
ACAD
1000
DSTYLE
1002
{
1070
   287
1070
     3
1070
   287
1070
     3
1070
    40
1040
40.0
1070
   143
1040
0.039
1070
   172
1070
     1
1070
   271
1070
     0
1070
   279
1070
     0
1070
   288
1070
     1
1002
}
  0
DIMENSION
  5
7B3B
  8
3
  6
CONTINUOUS
  2
*D7
 10
3744.471485720796
 20
5122.6769406483299
 30
0.0
 11
3310.471485720796
 21
5222.6769406483299
 31
0.0
 70
     0
 13
2876.471485720796
 23
4874.8692466483299
 33
0.0
 14
3744.471485720796
 24
3858.8692466483299
 34
0.0
1001
ACAD
1000
DSTYLE
1002
{
1070
   287
1070
     3
1070
   287
1070
     3
1070
    40
1040
40.0
1070
   143
1040
0.039
1070
   172
1070
     1
1070
   271
1070
     0
1070
   279
1070
     0
1070
   288
1070
     1
1002
}
  0
DIMENSION
  5
7B48
  8
3
  6
CONTINUOUS
  2
*D8
 10
4371.4714857207946
 20
6924.3064706483292
 30
0.0
 11
3298.4667927207961
 21
6924.3064706483292
 31
0.0
 70
   128
 13
2251.471485720796
 23
7343.8195926483322
 33
0.0
 14
4371.4714857207946
 24
7343.8195926483322
 34
0.0
1001
ACAD
1000
DSTYLE
1002
{
1070
   287
1070
     3
1070
   287
1070
     3
1070
    40
1040
40.0
1070
   143
1040
0.039
1070
   172
1070
     1
1070
   271
1070
     0
1070
   279
1070
     0
1070
   288
1070
     1
1002
}
  0
LINE
  5
7B49
  8
2
  6
CENTER
 10
3908.7893057207948
 20
7960.8195926483322
 30
0.0
 11
1926.4152437207949
 21
7960.8195926483322
 31
0.0
  0
DIMENSION
  5
7B56
  8
3
  6
CONTINUOUS
  2
*D9
 10
4729.3188497207957
 20
7343.8195926483322
 30
0.0
 11
4729.3188497207957
 21
7853.1755406483289
 31
0.0
 70
   128
 13
4371.4714857207946
 23
8403.8195926483295
 33
0.0
 14
4371.4714857207946
 24
7343.8195926483322
 34
0.0
 50
90.0
1001
ACAD
1000
DSTYLE
1002
{
1070
   287
1070
     3
1070
   287
1070
     3
1070
    40
1040
40.0
1070
   143
1040
0.039
1070
   172
1070
     1
1070
   271
1070
     0
1070
   279
1070
     0
1070
   288
1070
     1
1002
}
  0
LINE
  5
7B57
  8
2
  6
CENTER
 10
2876.471485720796
 20
4942.4092756483296
 30
0.0
 11
2876.471485720796
 21
3025.10170264833
 31
0.0
  0
LINE
  5
7B59
  8
2
  6
CENTER
 10
6100.8984050015169
 20
5158.920361648331
 30
0.0
 11
6100.8984050015169
 21
2996.60180464833
 31
0.0
  0
DIMENSION
  5
7B66
  8
3
  6
CONTINUOUS
  2
*D10
 10
6100.8984050015169
 20
2782.9570856483301
 30
0.0
 11
5838.0412621443738
 21
2782.9570856483301
 31
0.0
 70
   128
 13
5483.8984050015169
 23
3108.8692466483299
 33
0.0
 14
6100.8984050015169
 24
2996.60180464833
 34
0.0
1001
ACAD
1000
DSTYLE
1002
{
1070
   287
1070
     3
1070
   287
1070
     3
1070
    40
1040
40.0
1070
   143
1040
0.039
1070
   172
1070
     1
1070
   271
1070
     0
1070
   279
1070
     0
1070
   288
1070
     1
1002
}
  0
DIMENSION
  5
7B74
  8
3
  6
CONTINUOUS
  2
*D11
 10
6543.8984050015169
 20
2782.3841836483298
 30
0.0
 11
6322.3984050015169
 21
2873.0377909588819
 31
0.0
 70
   128
 13
6100.8984050015169
 23
2996.60180464833
 33
0.0
 14
6543.8984050015169
 24
3108.8692466483299
 34
0.0
1001
ACAD
1000
DSTYLE
1002
{
1070
   288
1070
     1
1070
   172
1070
     1
1070
    40
1040
40.0
1070
   271
1070
     0
1070
   143
1040
0.039
1002
}
  0
DIMENSION
  5
7B97
  8
3
  6
CONTINUOUS
  2
*D12
 10
6475.8984050015169
 20
5134.2244356483307
 30
0.0
 11
6093.534777045752
 21
5134.2244356483307
 31
0.0
 70
   128
 13
5725.8984050015169
 23
4932.8692466483308
 33
0.0
 14
6475.8984050015169
 24
4932.8692466483308
 34
0.0
1001
ACAD
1000
DSTYLE
1002
{
1070
   287
1070
     3
1070
   287
1070
     3
1070
    40
1040
40.0
1070
   143
1040
0.039
1070
   172
1070
     1
1070
   271
1070
     0
1070
   279
1070
     0
1070
   288
1070
     1
1002
}
  0
DIMENSION
  5
7BA4
  8
3
  6
CONTINUOUS
  2
*D13
 10
6100.8984050015169
 20
5393.9387586483308
 30
0.0
 11
5712.3269764300894
 21
5393.9387586483308
 31
0.0
 70
   128
  1
MAX\P770
 13
5420.8984050015179
 23
4125.5692466483297
 33
0.0
 14
6100.8984050015169
 24
5347.1880056483296
 34
0.0
1001
ACAD
1000
DSTYLE
1002
{
1070
   287
1070
     3
1070
   287
1070
     3
1070
    40
1040
40.0
1070
   143
1040
0.039
1070
   172
1070
     1
1070
   271
1070
     0
1070
   279
1070
     0
1070
   288
1070
     1
1002
}
  0
DIMENSION
  5
7BB2
  8
3
  6
CONTINUOUS
  2
*D14
 10
6578.8984050015169
 20
5394.5116916483312
 30
0.0
 11
6339.8984050015169
 21
5507.7390802711197
 31
0.0
 70
   128
 13
6100.8984050015169
 23
5347.1880056483296
 33
0.0
 14
6578.8984050015169
 24
4408.8692466483308
 34
0.0
1001
ACAD
1000
DSTYLE
1002
{
1070
   288
1070
     1
1070
   172
1070
     1
1070
    40
1040
40.0
1070
   271
1070
     0
1070
   143
1040
0.039
1002
}
  0
DIMENSION
  5
7BD5
  8
3
  6
CONTINUOUS
  2
*D15
 10
6918.1700810015191
 20
3358.8692466483299
 30
0.0
 11
6918.1700810015172
 21
3895.5316706483309
 31
0.0
 70
   128
 13
6578.8984050015169
 23
4358.8692466483308
 33
0.0
 14
6578.8984050015169
 24
3358.8692466483299
 34
0.0
 50
90.0
1001
ACAD
1000
DSTYLE
1002
{
1070
   287
1070
     3
1070
   287
1070
     3
1070
     3
1000
φ<>
1070
    40
1040
40.0
1070
   143
1040
0.039
1070
   172
1070
     1
1070
   271
1070
     0
1070
   279
1070
     0
1070
   288
1070
     1
1002
}
  0
LINE
  5
7BD6
  8
2
  6
CENTER
 10
5338.5813040015173
 20
3858.8692466483299
 30
0.0
 11
6672.3182090015171
 21
3858.8692466483299
 31
0.0
  0
LINE
  5
7BD7
  8
4
  6
CONTINUOUS
 10
7400.0
 20
2000.0
 30
0.0
 11
7400.0
 21
1200.0
 31
0.0
  0
LINE
  5
7BD8
  8
4
  6
CONTINUOUS
 10
4600.0
 20
2000.0
 30
0.0
 11
4600.0
 21
1200.0
 31
0.0
  0
LINE
  5
7BD9
  8
4
  6
CONTINUOUS
 10
2600.0
 20
2000.0
 30
0.0
 11
2600.0
 21
1200.0
 31
0.0
  0
LINE
  5
7BDC
  8
4
  6
CONTINUOUS
 10
2600.0
 20
1200.0
 30
0.0
 11
7400.0
 21
1200.0
 31
0.0
  0
LINE
  5
7BDD
  8
4
  6
CONTINUOUS
 10
2600.0
 20
1600.0
 30
0.0
 11
7400.0
 21
1600.0
 31
0.0
  0
TEXT
  5
7BDE
  8
4
  6
CONTINUOUS
 10
2754.0083232000002
 20
1726.1721031999989
 30
0.0
 40
200.0
  1
機器名称
  0
TEXT
  5
7BDF
  8
4
  6
CONTINUOUS
 10
2745.032424
 20
1286.5806264
 30
0.0
 40
200.0
  1
機器型番
  0
TEXT
  5
7BE0
  8
4
  6
CONTINUOUS
 10
4710.7149823999989
 20
1690.2870751999999
 30
0.0
 40
168.88888879999999
  1
ミツヤリミットロードファン
  0
TEXT
  5
7BE1
  8
4
  6
CONTINUOUS
 10
4746.6179824000001
 20
1268.6383367999999
 30
0.0
 40
200.0
  1
LLE#6-4
  0
TEXT
  5
7BE3
  8
4
  6
CONTINUOUS
 10
3619.1430624
 20
9533.7153655999991
 30
0.0
 40
216.0
  1
床置ベット
  0
TEXT
  5
7BE4
  8
4
  6
CONTINUOUS
 10
1264.6703735999999
 20
10135.5239048
 30
0.0
 40
240.0
  1
ベルト駆動式片吸込両持排煙ファン
  0
LINE
  5
7BE5
  8
4
  6
CONTINUOUS
 10
1000.0
 20
9877.635016799999
 30
0.0
 11
7400.0
 21
9877.635016799999
 31
0.0
  0
LINE
  5
7BE6
  8
4
  6
CONTINUOUS
 10
1000.0
 20
10677.635016800001
 30
0.0
 11
7400.0
 21
10677.635016800001
 31
0.0
  0
LINE
  5
7BE7
  8
4
  6
CONTINUOUS
 10
2600.0
 20
2000.0
 30
0.0
 11
7400.0
 21
2000.0
 31
0.0
  0
LINE
  5
7BE8
  8
4
  6
CONTINUOUS
 10
1000.0
 20
10677.635016800001
 30
0.0
 11
1000.0
 21
9877.635016799999
 31
0.0
  0
TEXT
  5
7BE9
  8
4
  6
CONTINUOUS
 10
1875.7077336
 20
9529.2779104000001
 30
0.0
 40
216.0
  1
左回転左横向
  0
TEXT
  5
7BEA
  8
4
  6
CONTINUOUS
 10
5875.8782375999999
 20
10824.244326399999
 30
0.0
 40
224.0
  1
No.
  0
TEXT
  5
7BEB
  8
4
  6
CONTINUOUS
 10
5245.1842504000006
 20
9533.7153655999991
 30
0.0
 40
216.0
  1
縮尺：1/40
  0
LINE
  5
7BEC
  8
4
  6
CONTINUOUS
 10
7400.0
 20
10677.635016800001
 30
0.0
 11
7400.0
 21
9877.635016799999
 31
0.0
  0
LINE
  5
7BEE
  8
4
  6
CONTINUOUS
 10
5762.4696895999996
 20
10725.0543328
 30
0.0
 11
5762.4696895999996
 21
11146.609046400001
 31
0.0
  0
LINE
  5
7BEF
  8
4
  6
CONTINUOUS
 10
5762.4696895999996
 20
11146.609046400001
 30
0.0
 11
7400.0
 21
11146.609046400001
 31
0.0
  0
LINE
  5
7BF0
  8
4
  6
CONTINUOUS
 10
7400.0
 20
11146.609046400001
 30
0.0
 11
7400.0
 21
10725.0543328
 31
0.0
  0
LINE
  5
7BF1
  8
4
  6
CONTINUOUS
 10
7400.0
 20
10725.0543328
 30
0.0
 11
5762.4696895999996
 21
10725.0543328
 31
0.0
  0
DIMENSION
  5
7C0D
  8
3
  6
CONTINUOUS
  2
*D16
 10
1293.1185377207969
 20
3108.8692466483299
 30
0.0
 11
1293.118537720796
 21
4021.365883648331
 31
0.0
 70
   128
 13
2196.471485720796
 23
5008.3692466483308
 33
0.0
 14
2251.471485720796
 24
3108.8692466483299
 34
0.0
 50
90.0
1001
ACAD
1000
DSTYLE
1002
{
1070
   287
1070
     3
1070
   287
1070
     3
1070
    40
1040
40.0
1070
   143
1040
0.039
1070
   172
1070
     1
1070
   271
1070
     0
1070
   279
1070
     0
1070
   288
1070
     1
1002
}
  0
DIMENSION
  5
7D46
  8
3
  2
*D17
 10
4371.4714857207946
 20
5378.2884455169624
 30
0.0
 11
3240.5836182500711
 21
5378.2884455169624
 31
0.0
 70
   128
 13
2196.471485720796
 23
4985.8692466483308
 33
0.0
 14
4371.4714857207946
 24
3233.8692466483299
 34
0.0
1001
ACAD
1000
DSTYLE
1002
{
1070
   287
1070
     3
1070
   287
1070
     3
1070
    40
1040
40.0
1070
   143
1040
0.039
1070
   172
1070
     1
1070
   271
1070
     0
1070
   279
1070
     0
1070
   288
1070
     1
1002
}
  0
ENDSEC
  0
EOF
