  0
SECTION
  2
HEADER
  9
$ACADVER
  1
AC1009
  9
$INSBASE
 10
0.0
 20
0.0
 30
0.0
  9
$EXTMIN
 10
1000.0
 20
1200.0
 30
0.0
  9
$EXTMAX
 10
7400.0
 20
11146.609046400001
 30
0.0
  9
$LIMMIN
 10
0.0
 20
0.0
  9
$LIMMAX
 10
297.0
 20
210.0
  9
$ORTHOMODE
 70
     0
  9
$REGENMODE
 70
     1
  9
$FILLMODE
 70
     0
  9
$QTEXTMODE
 70
     0
  9
$MIRRTEXT
 70
     1
  9
$DRAGMODE
 70
     2
  9
$LTSCALE
 40
100.0
  9
$OSMODE
 70
    37
  9
$ATTMODE
 70
     1
  9
$TEXTSIZE
 40
180.0
  9
$TRACEWID
 40
0.05
  9
$TEXTSTYLE
  7
STANDARD
  9
$CLAYER
  8
3
  9
$CELTYPE
  6
BYLAYER
  9
$CECOLOR
 62
   256
  9
$DIMSCALE
 40
40.0
  9
$DIMASZ
 40
2.0
  9
$DIMEXO
 40
0.5
  9
$DIMDLI
 40
10.0
  9
$DIMRND
 40
0.0
  9
$DIMDLE
 40
0.0
  9
$DIMEXE
 40
1.0
  9
$DIMTP
 40
1.0
  9
$DIMTM
 40
1.0
  9
$DIMTXT
 40
3.0
  9
$DIMCEN
 40
0.0
  9
$DIMTSZ
 40
0.0
  9
$DIMTOL
 70
     0
  9
$DIMLIM
 70
     0
  9
$DIMTIH
 70
     0
  9
$DIMTOH
 70
     0
  9
$DIMSE1
 70
     0
  9
$DIMSE2
 70
     0
  9
$DIMTAD
 70
     1
  9
$DIMZIN
 70
     8
  9
$DIMBLK
  1

  9
$DIMASO
 70
     1
  9
$DIMSHO
 70
     1
  9
$DIMPOST
  1

  9
$DIMAPOST
  1

  9
$DIMALT
 70
     0
  9
$DIMALTD
 70
     2
  9
$DIMALTF
 40
0.039
  9
$DIMLFAC
 40
1.0
  9
$DIMTOFL
 70
     1
  9
$DIMTVP
 40
0.0
  9
$DIMTIX
 70
     0
  9
$DIMSOXD
 70
     0
  9
$DIMSAH
 70
     1
  9
$DIMBLK1
  1
OPEN
  9
$DIMBLK2
  1
OPEN
  9
$DIMSTYLE
  2
IGA
  9
$DIMCLRD
 70
     0
  9
$DIMCLRE
 70
     0
  9
$DIMCLRT
 70
     0
  9
$DIMTFAC
 40
10.0
  9
$DIMGAP
 40
1.0
  9
$LUNITS
 70
     2
  9
$LUPREC
 70
     3
  9
$SKETCHINC
 40
0.1
  9
$FILLETRAD
 40
50.0
  9
$AUNITS
 70
     0
  9
$AUPREC
 70
     0
  9
$MENU
  1
acad
  9
$ELEVATION
 40
0.0
  9
$PELEVATION
 40
0.0
  9
$THICKNESS
 40
0.0
  9
$LIMCHECK
 70
     0
  9
$BLIPMODE
 70
     0
  9
$CHAMFERA
 40
0.5
  9
$CHAMFERB
 40
0.5
  9
$SKPOLY
 70
     0
  9
$TDCREATE
 40
2450752.472848726
  9
$TDUPDATE
 40
2454953.6863870709
  9
$TDINDWG
 40
0.0111813773
  9
$TDUSRTIMER
 40
0.0111813773
  9
$USRTIMER
 70
     1
  9
$ANGBASE
 50
0.0
  9
$ANGDIR
 70
     0
  9
$PDMODE
 70
     0
  9
$PDSIZE
 40
0.0
  9
$PLINEWID
 40
0.0
  9
$COORDS
 70
     1
  9
$SPLFRAME
 70
     0
  9
$SPLINETYPE
 70
     6
  9
$SPLINESEGS
 70
     8
  9
$ATTDIA
 70
     0
  9
$ATTREQ
 70
     1
  9
$HANDLING
 70
 10241
  9
$HANDSEED
  5
8312
  9
$SURFTAB1
 70
     6
  9
$SURFTAB2
 70
     6
  9
$SURFTYPE
 70
     6
  9
$SURFU
 70
     6
  9
$SURFV
 70
     6
  9
$UCSNAME
  2

  9
$UCSORG
 10
0.0
 20
0.0
 30
0.0
  9
$UCSXDIR
 10
1.0
 20
0.0
 30
0.0
  9
$UCSYDIR
 10
0.0
 20
1.0
 30
0.0
  9
$PUCSNAME
  2

  9
$PUCSORG
 10
0.0
 20
0.0
 30
0.0
  9
$PUCSXDIR
 10
1.0
 20
0.0
 30
0.0
  9
$PUCSYDIR
 10
0.0
 20
1.0
 30
0.0
  9
$USERI1
 70
     0
  9
$USERI2
 70
     0
  9
$USERI3
 70
     0
  9
$USERI4
 70
     0
  9
$USERI5
 70
     0
  9
$USERR1
 40
0.0
  9
$USERR2
 40
0.0
  9
$USERR3
 40
0.0
  9
$USERR4
 40
0.0
  9
$USERR5
 40
0.0
  9
$WORLDVIEW
 70
     1
  9
$SHADEDGE
 70
     3
  9
$SHADEDIF
 70
    70
  9
$TILEMODE
 70
     1
  9
$MAXACTVP
 70
    16
  9
$PLIMCHECK
 70
     0
  9
$PEXTMIN
 10
1.0000000000000000E+020
 20
1.0000000000000000E+020
 30
1.0000000000000000E+020
  9
$PEXTMAX
 10
-1.0000000000000000E+020
 20
-1.0000000000000000E+020
 30
-1.0000000000000000E+020
  9
$PLIMMIN
 10
0.0
 20
0.0
  9
$PLIMMAX
 10
12.0
 20
9.0
  9
$UNITMODE
 70
     0
  9
$VISRETAIN
 70
     0
  9
$PLINEGEN
 70
     0
  9
$PSLTSCALE
 70
     1
  0
ENDSEC
  0
SECTION
  2
TABLES
  0
TABLE
  2
VPORT
 70
     2
  0
VPORT
  2
*ACTIVE
 70
     0
 10
0.0
 20
0.0
 11
1.0
 21
1.0
 12
18590.11745730089
 22
6051.4161687140631
 13
0.0
 23
0.0
 14
10.0
 24
10.0
 15
10.0
 25
10.0
 16
0.0
 26
0.0
 36
1.0
 17
0.0
 27
0.0
 37
0.0
 40
14925.083839839859
 41
3.1666666666666661
 42
50.0
 43
0.0
 44
0.0
 50
0.0
 51
0.0
 71
     0
 72
   100
 73
     1
 74
     0
 75
     0
 76
     0
 77
     0
 78
     0
  0
ENDTAB
  0
TABLE
  2
LTYPE
 70
     2
  0
LTYPE
  2
CONTINUOUS
 70
     0
  3
Solid line
 72
    65
 73
     0
 40
0.0
  0
LTYPE
  2
CENTER
 70
     0
  3
____ _ ____ _ ____ _ ____ _ ____ _ ____ _ ____ 
 72
    65
 73
     4
 40
2.0
 49
1.25
 49
-0.25
 49
0.25
 49
-0.25
  0
ENDTAB
  0
TABLE
  2
LAYER
 70
     6
  0
LAYER
  2
0
 70
     0
 62
     7
  6
CONTINUOUS
  0
LAYER
  2
3
 70
     0
 62
     2
  6
CONTINUOUS
  0
LAYER
  2
2
 70
     0
 62
     3
  6
CENTER
  0
LAYER
  2
1
 70
     0
 62
     4
  6
CONTINUOUS
  0
LAYER
  2
4
 70
     0
 62
     7
  6
CONTINUOUS
  0
LAYER
  2
DEFPOINTS
 70
     0
 62
     7
  6
CONTINUOUS
  0
ENDTAB
  0
TABLE
  2
STYLE
 70
     1
  0
STYLE
  2
STANDARD
 70
     0
 40
0.0
 41
1.0
 50
0.0
 71
     0
 42
180.0
  3
simplex.shx
  4
extfont.shx
  0
ENDTAB
  0
TABLE
  2
VIEW
 70
     0
  0
ENDTAB
  0
TABLE
  2
UCS
 70
     0
  0
ENDTAB
  0
TABLE
  2
APPID
 70
     1
  0
APPID
  2
ACAD
 70
     0
  0
ENDTAB
  0
TABLE
  2
DIMSTYLE
 70
     1
  0
DIMSTYLE
  2
IGA
 70
     0
  3

  4

  5

  6
OPEN
  7
OPEN
 40
2.0
 41
2.0
 42
0.5
 43
10.0
 44
1.0
 45
0.0
 46
0.0
 47
1.0
 48
1.0
140
3.0
141
0.0
142
0.0
143
0.03937
144
1.0
145
0.0
146
10.0
147
1.0
 71
     0
 72
     0
 73
     0
 74
     0
 75
     0
 76
     0
 77
     1
 78
     8
170
     0
171
     2
172
     0
173
     1
174
     0
175
     0
176
     0
177
     0
178
     0
  0
ENDTAB
  0
ENDSEC
  0
SECTION
  2
BLOCKS
  0
BLOCK
  8
0
  2
$MODEL_SPACE
 70
     0
 10
0.0
 20
0.0
 30
0.0
  3
$MODEL_SPACE
  1

  0
ENDBLK
  5
1B
  8
0
  0
BLOCK
 67
     1
  8
0
  2
$PAPER_SPACE
 70
     0
 10
0.0
 20
0.0
 30
0.0
  3
$PAPER_SPACE
  1

  0
ENDBLK
  5
18
 67
     1
  8
0
  0
BLOCK
  8
0
  2
_OPEN
 70
     0
 10
0.0
 20
0.0
 30
0.0
  3
_OPEN
  1

  0
LINE
  5
7B0B
  8
0
  6
BYBLOCK
 62
     0
 10
-1.0
 20
0.166667
 30
0.0
 11
0.0
 21
0.0
 31
0.0
  0
LINE
  5
7B0C
  8
0
  6
BYBLOCK
 62
     0
 10
0.0
 20
0.0
 30
0.0
 11
-1.0
 21
-0.166667
 31
0.0
  0
LINE
  5
7B0D
  8
0
  6
BYBLOCK
 62
     0
 10
0.0
 20
0.0
 30
0.0
 11
-1.0
 21
0.0
 31
0.0
  0
ENDBLK
  5
7B0E
  8
0
  0
BLOCK
  8
0
  2
*D1
 70
     1
 10
0.0
 20
0.0
 30
0.0
  3
*D1
  1

  0
LINE
  5
8260
  8
3
  6
CONTINUOUS
 62
     0
 10
2738.9144563532618
 20
3537.645088770782
 30
0.0
 11
2738.9144563532618
 21
3200.267967770782
 31
0.0
  0
LINE
  5
8261
  8
3
  6
CONTINUOUS
 62
     0
 10
3298.9144563532618
 20
3382.0515487707812
 30
0.0
 11
3298.9144563532618
 21
3200.267967770782
 31
0.0
  0
LINE
  5
8262
  8
3
  6
CONTINUOUS
 62
     0
 10
2818.9144563532618
 20
3240.267967770782
 30
0.0
 11
3218.9144563532618
 21
3240.267967770782
 31
0.0
  0
INSERT
  5
8263
  8
3
  6
CONTINUOUS
 62
     0
  2
_OPEN
 10
2738.9144563532618
 20
3240.267967770782
 30
0.0
 41
80.0
 42
80.0
 43
80.0
 50
180.0
  0
INSERT
  5
8264
  8
3
  6
CONTINUOUS
 62
     0
  2
_OPEN
 10
3298.9144563532618
 20
3240.267967770782
 30
0.0
 41
80.0
 42
80.0
 43
80.0
  0
TEXT
  8
3
  40
120
  5
8300
  62
0
  72
0
  71
0
 10
2773.20
 20
3127.87
 30
0.000000
  1
560
  0
POINT
  5
8266
  8
DEFPOINTS
  6
CONTINUOUS
 62
     0
 10
2738.9144563532618
 20
3557.6450887707829
 30
0.0
  0
POINT
  5
8267
  8
DEFPOINTS
  6
CONTINUOUS
 62
     0
 10
3298.9144563532618
 20
3402.0515487707812
 30
0.0
  0
POINT
  5
8268
  8
DEFPOINTS
  6
CONTINUOUS
 62
     0
 10
3298.9144563532618
 20
3240.267967770782
 30
0.0
  0
ENDBLK
  5
7DA5
  8
0
  0
BLOCK
  8
0
  2
*D2
 70
     1
 10
0.0
 20
0.0
 30
0.0
  3
*D2
  1

  0
LINE
  5
8269
  8
3
  6
CONTINUOUS
 62
     0
 10
3298.9144563532618
 20
3382.0515487707812
 30
0.0
 11
3298.9144563532618
 21
3200.267967770782
 31
0.0
  0
LINE
  5
826A
  8
3
  6
CONTINUOUS
 62
     0
 10
4638.9144563532609
 20
3537.645088770782
 30
0.0
 11
4638.9144563532609
 21
3200.267967770782
 31
0.0
  0
LINE
  5
826B
  8
3
  6
CONTINUOUS
 62
     0
 10
3378.9144563532609
 20
3240.267967770782
 30
0.0
 11
4558.9144563532618
 21
3240.267967770782
 31
0.0
  0
INSERT
  5
826C
  8
3
  6
CONTINUOUS
 62
     0
  2
_OPEN
 10
3298.9144563532618
 20
3240.267967770782
 30
0.0
 41
80.0
 42
80.0
 43
80.0
 50
180.0
  0
INSERT
  5
826D
  8
3
  6
CONTINUOUS
 62
     0
  2
_OPEN
 10
4638.9144563532609
 20
3240.267967770782
 30
0.0
 41
80.0
 42
80.0
 43
80.0
  0
TEXT
  8
3
  40
120
  5
8301
  62
0
  72
0
  71
0
 10
3728.91
 20
3127.87
 30
0.000000
  1
1340
  0
POINT
  5
826F
  8
DEFPOINTS
  6
CONTINUOUS
 62
     0
 10
3298.9144563532618
 20
3402.0515487707812
 30
0.0
  0
POINT
  5
8270
  8
DEFPOINTS
  6
CONTINUOUS
 62
     0
 10
4638.9144563532609
 20
3557.6450887707829
 30
0.0
  0
POINT
  5
8271
  8
DEFPOINTS
  6
CONTINUOUS
 62
     0
 10
4638.9144563532609
 20
3240.267967770782
 30
0.0
  0
ENDBLK
  5
7D9A
  8
0
  0
BLOCK
  8
0
  2
*D3
 70
     1
 10
0.0
 20
0.0
 30
0.0
  3
*D3
  1

  0
LINE
  5
8272
  8
3
  6
CONTINUOUS
 62
     0
 10
2658.9144563532618
 20
4801.6450887707833
 30
0.0
 11
2362.817057353262
 21
4801.6450887707833
 31
0.0
  0
LINE
  5
8273
  8
3
  6
CONTINUOUS
 62
     0
 10
2658.9144563532618
 20
3876.645088770782
 30
0.0
 11
2362.817057353262
 21
3876.645088770782
 31
0.0
  0
LINE
  5
8274
  8
3
  6
CONTINUOUS
 62
     0
 10
2402.817057353262
 20
4721.6450887707824
 30
0.0
 11
2402.817057353262
 21
3956.645088770782
 31
0.0
  0
INSERT
  5
8275
  8
3
  6
CONTINUOUS
 62
     0
  2
_OPEN
 10
2402.817057353262
 20
4801.6450887707833
 30
0.0
 41
80.0
 42
80.0
 43
80.0
 50
90.0
  0
INSERT
  5
8276
  8
3
  6
CONTINUOUS
 62
     0
  2
_OPEN
 10
2402.817057353262
 20
3876.645088770782
 30
0.0
 41
80.0
 42
80.0
 43
80.0
 50
270.0
  0
TEXT
  8
3
  40
120
  5
8302
  62
0
  72
0
  71
0
 10
2062.82
 20
4141.81
 30
0.000000
  1
925
  0
POINT
  5
8278
  8
DEFPOINTS
  6
CONTINUOUS
 62
     0
 10
2678.9144563532618
 20
4801.6450887707833
 30
0.0
  0
POINT
  5
8279
  8
DEFPOINTS
  6
CONTINUOUS
 62
     0
 10
2678.9144563532618
 20
3876.645088770782
 30
0.0
  0
POINT
  5
827A
  8
DEFPOINTS
  6
CONTINUOUS
 62
     0
 10
2402.817057353262
 20
3876.645088770782
 30
0.0
  0
ENDBLK
  5
7D8F
  8
0
  0
BLOCK
  8
0
  2
*D4
 70
     1
 10
0.0
 20
0.0
 30
0.0
  3
*D4
  1

  0
LINE
  5
827B
  8
3
  6
CONTINUOUS
 62
     0
 10
2678.9144563532618
 20
4861.6450887707824
 30
0.0
 11
2678.9144563532618
 21
5643.8402327707818
 31
0.0
  0
LINE
  5
827C
  8
3
  6
CONTINUOUS
 62
     0
 10
3298.9144563532618
 20
5498.2123757707832
 30
0.0
 11
3298.9144563532618
 21
5643.8402327707818
 31
0.0
  0
LINE
  5
827D
  8
3
  6
CONTINUOUS
 62
     0
 10
2758.9144563532609
 20
5603.8402327707818
 30
0.0
 11
3218.9144563532618
 21
5603.8402327707818
 31
0.0
  0
INSERT
  5
827E
  8
3
  6
CONTINUOUS
 62
     0
  2
_OPEN
 10
2678.9144563532618
 20
5603.8402327707818
 30
0.0
 41
80.0
 42
80.0
 43
80.0
 50
180.0
  0
INSERT
  5
827F
  8
3
  6
CONTINUOUS
 62
     0
  2
_OPEN
 10
3298.9144563532618
 20
5603.8402327707818
 30
0.0
 41
80.0
 42
80.0
 43
80.0
  0
TEXT
  8
3
  40
120
  5
8303
  62
0
  72
0
  71
0
 10
2784.63
 20
5491.44
 30
0.000000
  1
620
  0
POINT
  5
8281
  8
DEFPOINTS
  6
CONTINUOUS
 62
     0
 10
2678.9144563532618
 20
4841.6450887707824
 30
0.0
  0
POINT
  5
8282
  8
DEFPOINTS
  6
CONTINUOUS
 62
     0
 10
3298.9144563532618
 20
5478.2123757707823
 30
0.0
  0
POINT
  5
8283
  8
DEFPOINTS
  6
CONTINUOUS
 62
     0
 10
3298.9144563532618
 20
5603.8402327707818
 30
0.0
  0
ENDBLK
  5
7D84
  8
0
  0
BLOCK
  8
0
  2
*D5
 70
     1
 10
0.0
 20
0.0
 30
0.0
  3
*D5
  1

  0
LINE
  5
8284
  8
3
  6
CONTINUOUS
 62
     0
 10
3298.9144563532618
 20
5498.2123757707832
 30
0.0
 11
3298.9144563532618
 21
5643.8402327707818
 31
0.0
  0
LINE
  5
8285
  8
3
  6
CONTINUOUS
 62
     0
 10
4075.9144563532618
 20
4857.6450887707806
 30
0.0
 11
4075.9144563532618
 21
5643.8402327707818
 31
0.0
  0
LINE
  5
8286
  8
3
  6
CONTINUOUS
 62
     0
 10
3378.9144563532609
 20
5603.8402327707818
 30
0.0
 11
3995.9144563532609
 21
5603.8402327707818
 31
0.0
  0
INSERT
  5
8287
  8
3
  6
CONTINUOUS
 62
     0
  2
_OPEN
 10
3298.9144563532618
 20
5603.8402327707818
 30
0.0
 41
80.0
 42
80.0
 43
80.0
 50
180.0
  0
INSERT
  5
8288
  8
3
  6
CONTINUOUS
 62
     0
  2
_OPEN
 10
4075.9144563532618
 20
5603.8402327707818
 30
0.0
 41
80.0
 42
80.0
 43
80.0
  0
TEXT
  8
3
  40
120
  5
8304
  62
0
  72
0
  71
0
 10
3447.41
 20
5491.44
 30
0.000000
  1
777
  0
POINT
  5
828A
  8
DEFPOINTS
  6
CONTINUOUS
 62
     0
 10
3298.9144563532618
 20
5478.2123757707823
 30
0.0
  0
POINT
  5
828B
  8
DEFPOINTS
  6
CONTINUOUS
 62
     0
 10
4075.9144563532618
 20
4837.6450887707824
 30
0.0
  0
POINT
  5
828C
  8
DEFPOINTS
  6
CONTINUOUS
 62
     0
 10
4075.9144563532618
 20
5603.8402327707818
 30
0.0
  0
ENDBLK
  5
7DFE
  8
0
  0
BLOCK
  8
0
  2
*D6
 70
     1
 10
0.0
 20
0.0
 30
0.0
  3
*D6
  1

  0
LINE
  5
828D
  8
3
  6
CONTINUOUS
 62
     0
 10
2738.9144563532618
 20
7125.4092860557448
 30
0.0
 11
2738.9144563532618
 21
6602.8187170557439
 31
0.0
  0
LINE
  5
828E
  8
3
  6
CONTINUOUS
 62
     0
 10
4638.9144563532609
 20
7125.4092860557448
 30
0.0
 11
4638.9144563532609
 21
6602.8187170557439
 31
0.0
  0
LINE
  5
828F
  8
3
  6
CONTINUOUS
 62
     0
 10
2818.9144563532618
 20
6642.8187170557449
 30
0.0
 11
4558.9144563532618
 21
6642.8187170557449
 31
0.0
  0
INSERT
  5
8290
  8
3
  6
CONTINUOUS
 62
     0
  2
_OPEN
 10
2738.9144563532618
 20
6642.8187170557449
 30
0.0
 41
80.0
 42
80.0
 43
80.0
 50
180.0
  0
INSERT
  5
8291
  8
3
  6
CONTINUOUS
 62
     0
  2
_OPEN
 10
4638.9144563532609
 20
6642.8187170557449
 30
0.0
 41
80.0
 42
80.0
 43
80.0
  0
TEXT
  8
3
  40
120
  5
8305
  62
0
  72
0
  71
0
 10
3432.22
 20
6530.42
 30
0.000000
  1
1900
  0
POINT
  5
8293
  8
DEFPOINTS
  6
CONTINUOUS
 62
     0
 10
2738.9144563532618
 20
7145.4092860557448
 30
0.0
  0
POINT
  5
8294
  8
DEFPOINTS
  6
CONTINUOUS
 62
     0
 10
4638.9144563532609
 20
7145.4092860557448
 30
0.0
  0
POINT
  5
8295
  8
DEFPOINTS
  6
CONTINUOUS
 62
     0
 10
4638.9144563532609
 20
6642.8187170557449
 30
0.0
  0
ENDBLK
  5
7D6E
  8
0
  0
BLOCK
  8
0
  2
*D7
 70
     1
 10
0.0
 20
0.0
 30
0.0
  3
*D7
  1

  0
LINE
  5
8296
  8
3
  6
CONTINUOUS
 62
     0
 10
4658.9144563532618
 20
8095.4092860557457
 30
0.0
 11
5027.6693873532622
 21
8095.4092860557457
 31
0.0
  0
LINE
  5
8297
  8
3
  6
CONTINUOUS
 62
     0
 10
4658.9144563532618
 20
7145.4092860557448
 30
0.0
 11
5027.6693873532622
 21
7145.4092860557448
 31
0.0
  0
LINE
  5
8298
  8
3
  6
CONTINUOUS
 62
     0
 10
4987.6693873532622
 20
8015.4092860557457
 30
0.0
 11
4987.6693873532622
 21
7225.4092860557448
 31
0.0
  0
INSERT
  5
8299
  8
3
  6
CONTINUOUS
 62
     0
  2
_OPEN
 10
4987.6693873532622
 20
8095.4092860557457
 30
0.0
 41
80.0
 42
80.0
 43
80.0
 50
90.0
  0
INSERT
  5
829A
  8
3
  6
CONTINUOUS
 62
     0
  2
_OPEN
 10
4987.6693873532622
 20
7145.4092860557448
 30
0.0
 41
80.0
 42
80.0
 43
80.0
 50
270.0
  0
TEXT
  8
3
  40
120
  5
8306
  62
0
  72
0
  71
0
 10
4647.67
 20
7462.58
 30
0.000000
  1
950
  0
POINT
  5
829C
  8
DEFPOINTS
  6
CONTINUOUS
 62
     0
 10
4638.9144563532609
 20
8095.4092860557457
 30
0.0
  0
POINT
  5
829D
  8
DEFPOINTS
  6
CONTINUOUS
 62
     0
 10
4638.9144563532609
 20
7145.4092860557448
 30
0.0
  0
POINT
  5
829E
  8
DEFPOINTS
  6
CONTINUOUS
 62
     0
 10
4987.6693873532622
 20
7145.4092860557448
 30
0.0
  0
ENDBLK
  5
7D63
  8
0
  0
BLOCK
  8
0
  2
*D8
 70
     1
 10
0.0
 20
0.0
 30
0.0
  3
*D8
  1

  0
LINE
  5
829F
  8
3
  6
CONTINUOUS
 62
     0
 10
6677.9270193392322
 20
5287.6450887707833
 30
0.0
 11
7028.6165236481284
 21
5287.6450887707833
 31
0.0
  0
LINE
  5
82A0
  8
3
  6
CONTINUOUS
 62
     0
 10
6677.9270193392322
 20
4387.6450887707824
 30
0.0
 11
7028.6165236481284
 21
4387.6450887707824
 31
0.0
  0
LINE
  5
82A1
  8
3
  6
CONTINUOUS
 62
     0
 10
6988.6165236481293
 20
5207.6450887707833
 30
0.0
 11
6988.6165236481293
 21
4467.6450887707824
 31
0.0
  0
INSERT
  5
82A2
  8
3
  6
CONTINUOUS
 62
     0
  2
_OPEN
 10
6988.6165236481293
 20
5287.6450887707833
 30
0.0
 41
80.0
 42
80.0
 43
80.0
 50
90.0
  0
INSERT
  5
82A3
  8
3
  6
CONTINUOUS
 62
     0
  2
_OPEN
 10
6988.6165236481293
 20
4387.6450887707824
 30
0.0
 41
80.0
 42
80.0
 43
80.0
 50
270.0
  0
TEXT
  8
3
  40
120
  5
8307
  62
0
  72
0
  71
0
 10
6648.62
 20
4643.10
 30
0.000000
  1
φ900
  0
POINT
  5
82A5
  8
DEFPOINTS
  6
CONTINUOUS
 62
     0
 10
6657.9270193392322
 20
5287.6450887707833
 30
0.0
  0
POINT
  5
82A6
  8
DEFPOINTS
  6
CONTINUOUS
 62
     0
 10
6657.9270193392322
 20
4387.6450887707824
 30
0.0
  0
POINT
  5
82A7
  8
DEFPOINTS
  6
CONTINUOUS
 62
     0
 10
6988.6165236481293
 20
4387.6450887707824
 30
0.0
  0
ENDBLK
  5
7EB6
  8
0
  0
BLOCK
  8
0
  2
*D9
 70
     1
 10
0.0
 20
0.0
 30
0.0
  3
*D9
  1

  0
LINE
  5
82A8
  8
3
  6
CONTINUOUS
 62
     0
 10
5904.9270193392331
 20
5500.6450887707833
 30
0.0
 11
5904.9270193392331
 21
5697.0549357707832
 31
0.0
  0
LINE
  5
82A9
  8
3
  6
CONTINUOUS
 62
     0
 10
6574.9270193392322
 20
5500.6450887707833
 30
0.0
 11
6574.9270193392322
 21
5697.0549357707832
 31
0.0
  0
LINE
  5
82AA
  8
3
  6
CONTINUOUS
 62
     0
 10
5984.9270193392322
 20
5657.0549357707832
 30
0.0
 11
6494.9270193392322
 21
5657.0549357707832
 31
0.0
  0
INSERT
  5
82AB
  8
3
  6
CONTINUOUS
 62
     0
  2
_OPEN
 10
5904.9270193392331
 20
5657.0549357707832
 30
0.0
 41
80.0
 42
80.0
 43
80.0
 50
180.0
  0
INSERT
  5
82AC
  8
3
  6
CONTINUOUS
 62
     0
  2
_OPEN
 10
6574.9270193392322
 20
5657.0549357707832
 30
0.0
 41
80.0
 42
80.0
 43
80.0
  0
TEXT
  8
3
  40
120
  5
8308
  62
0
  72
0
  71
0
 10
5939.21
 20
5544.65
 30
0.000000
  1
670
  0
POINT
  5
82AE
  8
DEFPOINTS
  6
CONTINUOUS
 62
     0
 10
5904.9270193392331
 20
5480.6450887707824
 30
0.0
  0
POINT
  5
82AF
  8
DEFPOINTS
  6
CONTINUOUS
 62
     0
 10
6574.9270193392322
 20
5480.6450887707824
 30
0.0
  0
POINT
  5
82B0
  8
DEFPOINTS
  6
CONTINUOUS
 62
     0
 10
6574.9270193392322
 20
5657.0549357707832
 30
0.0
  0
ENDBLK
  5
7D4D
  8
0
  0
BLOCK
  8
0
  2
*D10
 70
     1
 10
0.0
 20
0.0
 30
0.0
  3
*D10
  1

  0
LINE
  5
7FB9
  8
3
  6
CONTINUOUS
 62
     0
 10
5692.9270193392322
 20
3537.645088770782
 30
0.0
 11
5692.9270193392322
 21
3213.4082157707821
 31
0.0
  0
LINE
  5
7FBA
  8
3
  6
CONTINUOUS
 62
     0
 10
6239.9270193392331
 20
3444.3060227707811
 30
0.0
 11
6239.9270193392331
 21
3213.4082157707821
 31
0.0
  0
LINE
  5
7FBB
  8
3
  6
CONTINUOUS
 62
     0
 10
5612.9270193392322
 20
3253.4082157707821
 30
0.0
 11
5532.9270193392331
 21
3253.4082157707821
 31
0.0
  0
LINE
  5
7FBC
  8
3
  6
CONTINUOUS
 62
     0
 10
6319.9270193392322
 20
3253.4082157707821
 30
0.0
 11
6399.9270193392322
 21
3253.4082157707821
 31
0.0
  0
TEXT
  5
7FBD
  8
3
 62
     0
 10
5812.1413050535184
 20
3288.032578673402
 30
0.0
 40
120.0
  1
547
  0
LINE
  5
7FBE
  8
3
  6
CONTINUOUS
 62
     0
 10
5692.9270193392322
 20
3253.4082157707821
 30
0.0
 11
6239.9270193392331
 21
3253.4082157707821
 31
0.0
  0
INSERT
  5
7FBF
  8
3
  6
CONTINUOUS
 62
     0
  2
_OPEN
 10
5692.9270193392322
 20
3253.4082157707821
 30
0.0
 41
80.0
 42
80.0
 43
80.0
  0
INSERT
  5
7FC0
  8
3
  6
CONTINUOUS
 62
     0
  2
_OPEN
 10
6239.9270193392331
 20
3253.4082157707821
 30
0.0
 41
80.0
 42
80.0
 43
80.0
 50
180.0
  0
POINT
  5
7FC1
  8
DEFPOINTS
  6
CONTINUOUS
 62
     0
 10
5692.9270193392322
 20
3557.6450887707829
 30
0.0
  0
POINT
  5
7FC2
  8
DEFPOINTS
  6
CONTINUOUS
 62
     0
 10
6239.9270193392331
 20
3464.306022770782
 30
0.0
  0
POINT
  5
7FC3
  8
DEFPOINTS
  6
CONTINUOUS
 62
     0
 10
6239.9270193392331
 20
3253.4082157707821
 30
0.0
  0
ENDBLK
  5
7DD1
  8
0
  0
BLOCK
  8
0
  2
*D11
 70
     1
 10
0.0
 20
0.0
 30
0.0
  3
*D11
  1

  0
LINE
  5
7FC4
  8
3
  6
CONTINUOUS
 62
     0
 10
6239.9270193392331
 20
3444.3060227707811
 30
0.0
 11
6239.9270193392331
 21
3213.4082157707821
 31
0.0
  0
LINE
  5
7FC5
  8
3
  6
CONTINUOUS
 62
     0
 10
6642.9270193392322
 20
3537.645088770782
 30
0.0
 11
6642.9270193392322
 21
3213.4082157707821
 31
0.0
  0
LINE
  5
7FC6
  8
3
  6
CONTINUOUS
 62
     0
 10
6319.9270193392322
 20
3253.4082157707821
 30
0.0
 11
6562.9270193392331
 21
3253.4082157707821
 31
0.0
  0
TEXT
  5
7FC7
  8
3
 62
     0
 10
6287.1413050535166
 20
3304.0586736744181
 30
0.0
 40
120.0
  1
403
  0
INSERT
  5
7FC8
  8
3
  6
CONTINUOUS
 62
     0
  2
_OPEN
 10
6239.9270193392331
 20
3253.4082157707821
 30
0.0
 41
80.0
 42
80.0
 43
80.0
 50
180.0
  0
INSERT
  5
7FC9
  8
3
  6
CONTINUOUS
 62
     0
  2
_OPEN
 10
6642.9270193392322
 20
3253.4082157707821
 30
0.0
 41
80.0
 42
80.0
 43
80.0
  0
POINT
  5
7FCA
  8
DEFPOINTS
  6
CONTINUOUS
 62
     0
 10
6239.9270193392331
 20
3464.306022770782
 30
0.0
  0
POINT
  5
7FCB
  8
DEFPOINTS
  6
CONTINUOUS
 62
     0
 10
6642.9270193392322
 20
3557.6450887707829
 30
0.0
  0
POINT
  5
7FCC
  8
DEFPOINTS
  6
CONTINUOUS
 62
     0
 10
6642.9270193392322
 20
3253.4082157707821
 30
0.0
  0
ENDBLK
  5
7DDC
  8
0
  0
BLOCK
  8
0
  2
*D12
 70
     1
 10
0.0
 20
0.0
 30
0.0
  3
*D12
  1

  0
LINE
  5
82B1
  8
3
  6
CONTINUOUS
 62
     0
 10
2658.9144563532618
 20
3876.645088770782
 30
0.0
 11
2095.8980473532611
 21
3876.645088770782
 31
0.0
  0
LINE
  5
82B2
  8
3
  6
CONTINUOUS
 62
     0
 10
2667.685425353262
 20
4837.6450887707824
 30
0.0
 11
2095.8980473532611
 21
4837.6450887707824
 31
0.0
  0
LINE
  5
82B3
  8
3
  6
CONTINUOUS
 62
     0
 10
2135.8980473532611
 20
3956.645088770782
 30
0.0
 11
2135.8980473532611
 21
4757.6450887707824
 31
0.0
  0
INSERT
  5
82B4
  8
3
  6
CONTINUOUS
 62
     0
  2
_OPEN
 10
2135.8980473532611
 20
3876.645088770782
 30
0.0
 41
80.0
 42
80.0
 43
80.0
 50
270.0
  0
INSERT
  5
82B5
  8
3
  6
CONTINUOUS
 62
     0
  2
_OPEN
 10
2135.8980473532611
 20
4837.6450887707824
 30
0.0
 41
80.0
 42
80.0
 43
80.0
 50
90.0
  0
TEXT
  8
3
  40
120
  5
8309
  62
0
  72
0
  71
0
 10
1795.90
 20
4154.61
 30
0.000000
  1
961
  0
POINT
  5
82B7
  8
DEFPOINTS
  6
CONTINUOUS
 62
     0
 10
2678.9144563532618
 20
3876.645088770782
 30
0.0
  0
POINT
  5
82B8
  8
DEFPOINTS
  6
CONTINUOUS
 62
     0
 10
2687.685425353262
 20
4837.6450887707824
 30
0.0
  0
POINT
  5
82B9
  8
DEFPOINTS
  6
CONTINUOUS
 62
     0
 10
2135.8980473532611
 20
4837.6450887707824
 30
0.0
  0
ENDBLK
  5
7E20
  8
0
  0
BLOCK
  8
0
  2
*D13
 70
     1
 10
0.0
 20
0.0
 30
0.0
  3
*D13
  1

  0
LINE
  5
82BA
  8
3
  6
CONTINUOUS
 62
     0
 10
3278.9144563532609
 20
5480.6450887707824
 30
0.0
 11
1889.01952783041
 21
5480.6450887707833
 31
0.0
  0
LINE
  5
82BB
  8
3
  6
CONTINUOUS
 62
     0
 10
2667.685425353262
 20
4837.6450887707824
 30
0.0
 11
1889.01952783041
 21
4837.6450887707833
 31
0.0
  0
LINE
  5
82BC
  8
3
  6
CONTINUOUS
 62
     0
 10
1929.01952783041
 20
5560.6450887707833
 30
0.0
 11
1929.01952783041
 21
5640.6450887707833
 31
0.0
  0
LINE
  5
82BD
  8
3
  6
CONTINUOUS
 62
     0
 10
1929.01952783041
 20
4757.6450887707833
 30
0.0
 11
1929.01952783041
 21
4677.6450887707833
 31
0.0
  0
LINE
  5
82BE
  8
3
  6
CONTINUOUS
 62
     0
 10
1929.01952783041
 20
5480.6450887707833
 30
0.0
 11
1929.01952783041
 21
4837.6450887707833
 31
0.0
  0
INSERT
  5
82BF
  8
3
  6
CONTINUOUS
 62
     0
  2
_OPEN
 10
1929.01952783041
 20
5480.6450887707833
 30
0.0
 41
80.0
 42
80.0
 43
80.0
 50
270.0
  0
INSERT
  5
82C0
  8
3
  6
CONTINUOUS
 62
     0
  2
_OPEN
 10
1929.01952783041
 20
4837.6450887707833
 30
0.0
 41
80.0
 42
80.0
 43
80.0
 50
90.0
  0
TEXT
  8
3
  40
120
  5
830A
  62
0
  72
0
  71
0
 10
1589.02
 20
4899.53
 30
0.000000
  1
643
  0
POINT
  5
82C2
  8
DEFPOINTS
  6
CONTINUOUS
 62
     0
 10
3298.9144563532618
 20
5480.6450887707824
 30
0.0
  0
POINT
  5
82C3
  8
DEFPOINTS
  6
CONTINUOUS
 62
     0
 10
2687.685425353262
 20
4837.6450887707824
 30
0.0
  0
POINT
  5
82C4
  8
DEFPOINTS
  6
CONTINUOUS
 62
     0
 10
1929.01952783041
 20
4837.6450887707833
 30
0.0
  0
ENDBLK
  5
7EA0
  8
0
  0
BLOCK
  8
0
  2
*D14
 70
     1
 10
0.0
 20
0.0
 30
0.0
  3
*D14
  1

  0
LINE
  5
82C5
  8
3
  6
CONTINUOUS
 62
     0
 10
2667.685425353262
 20
4837.6450887707824
 30
0.0
 11
1889.0195278304091
 21
4837.6450887707833
 31
0.0
  0
LINE
  5
82C6
  8
3
  6
CONTINUOUS
 62
     0
 10
2718.9144563532618
 20
3737.645088770782
 30
0.0
 11
1889.0195278304091
 21
3737.645088770782
 31
0.0
  0
LINE
  5
82C7
  8
3
  6
CONTINUOUS
 62
     0
 10
1929.0195278304091
 20
4757.6450887707833
 30
0.0
 11
1929.0195278304079
 21
3817.645088770782
 31
0.0
  0
INSERT
  5
82C8
  8
3
  6
CONTINUOUS
 62
     0
  2
_OPEN
 10
1929.0195278304091
 20
4837.6450887707833
 30
0.0
 41
80.0
 42
80.0
 43
80.0
 50
90.0
  0
INSERT
  5
82C9
  8
3
  6
CONTINUOUS
 62
     0
  2
_OPEN
 10
1929.0195278304079
 20
3737.645088770782
 30
0.0
 41
80.0
 42
80.0
 43
80.0
 50
270.0
  0
TEXT
  8
3
  40
120
  5
830B
  62
0
  72
0
  71
0
 10
1589.02
 20
4075.25
 30
0.000000
  1
1100
  0
POINT
  5
82CB
  8
DEFPOINTS
  6
CONTINUOUS
 62
     0
 10
2687.685425353262
 20
4837.6450887707824
 30
0.0
  0
POINT
  5
82CC
  8
DEFPOINTS
  6
CONTINUOUS
 62
     0
 10
2738.9144563532618
 20
3737.645088770782
 30
0.0
  0
POINT
  5
82CD
  8
DEFPOINTS
  6
CONTINUOUS
 62
     0
 10
1929.0195278304079
 20
3737.645088770782
 30
0.0
  0
ENDBLK
  5
7E95
  8
0
  0
BLOCK
  8
0
  2
*D15
 70
     1
 10
0.0
 20
0.0
 30
0.0
  3
*D15
  1

  0
LINE
  5
82CE
  8
3
  6
CONTINUOUS
 62
     0
 10
3278.9144563532609
 20
5480.6450887707824
 30
0.0
 11
1263.770764507492
 21
5480.6450887707833
 31
0.0
  0
LINE
  5
82CF
  8
3
  6
CONTINUOUS
 62
     0
 10
2718.9144563532618
 20
3557.6450887707829
 30
0.0
 11
1263.770764507492
 21
3557.6450887707829
 31
0.0
  0
LINE
  5
82D0
  8
3
  6
CONTINUOUS
 62
     0
 10
1303.770764507492
 20
5400.6450887707833
 30
0.0
 11
1303.770764507492
 21
3637.645088770782
 31
0.0
  0
INSERT
  5
82D1
  8
3
  6
CONTINUOUS
 62
     0
  2
_OPEN
 10
1303.770764507492
 20
5480.6450887707833
 30
0.0
 41
80.0
 42
80.0
 43
80.0
 50
90.0
  0
INSERT
  5
82D2
  8
3
  6
CONTINUOUS
 62
     0
  2
_OPEN
 10
1303.770764507492
 20
3557.6450887707829
 30
0.0
 41
80.0
 42
80.0
 43
80.0
 50
270.0
  0
TEXT
  8
3
  40
120
  5
830C
  62
0
  72
0
  71
0
 10
963.771
 20
4325.38
 30
0.000000
  1
1923
  0
POINT
  5
82D4
  8
DEFPOINTS
  6
CONTINUOUS
 62
     0
 10
3298.9144563532618
 20
5480.6450887707824
 30
0.0
  0
POINT
  5
82D5
  8
DEFPOINTS
  6
CONTINUOUS
 62
     0
 10
2738.9144563532618
 20
3557.6450887707829
 30
0.0
  0
POINT
  5
82D6
  8
DEFPOINTS
  6
CONTINUOUS
 62
     0
 10
1303.770764507492
 20
3557.6450887707829
 30
0.0
  0
ENDBLK
  5
7EAB
  8
0
  0
BLOCK
  8
0
  2
*D16
 70
     1
 10
0.0
 20
0.0
 30
0.0
  3
*D16
  1

  0
LINE
  5
7DDE
  8
0
  6
BYBLOCK
 62
     0
 10
6657.9270193392322
 20
5735.3878130000003
 30
0.0
 11
6657.9270193392322
 21
6330.7835580000001
 31
0.0
  0
LINE
  5
7DDF
  8
0
  6
BYBLOCK
 62
     0
 10
6239.9270193392331
 20
6244.7943139999988
 30
0.0
 11
6239.9270193392331
 21
6330.7835580000001
 31
0.0
  0
LINE
  5
7DE0
  8
0
  6
BYBLOCK
 62
     0
 10
6577.9270193392322
 20
6290.783558000001
 30
0.0
 11
6319.9270193392322
 21
6290.783558000001
 31
0.0
  0
TEXT
  5
7DE1
  8
3
 62
     0
 10
6306.0698764820891
 20
6344.9784939178571
 30
0.0
 40
120.0
  1
418
  0
INSERT
  5
7DE2
  8
0
  6
BYBLOCK
 62
     0
  2
_OPEN
 10
6657.9270193392322
 20
6290.783558000001
 30
0.0
 41
80.0
 42
80.0
 43
80.0
  0
INSERT
  5
7DE3
  8
0
  6
BYBLOCK
 62
     0
  2
_OPEN
 10
6239.9270193392331
 20
6290.783558000001
 30
0.0
 41
80.0
 42
80.0
 43
80.0
 50
180.0
  0
POINT
  5
7DE4
  8
DEFPOINTS
  6
BYBLOCK
 62
     0
 10
6657.9270193392322
 20
5715.3878130000003
 30
0.0
  0
POINT
  5
7DE5
  8
DEFPOINTS
  6
BYBLOCK
 62
     0
 10
6239.9270193392331
 20
6224.7943139999998
 30
0.0
  0
POINT
  5
7DE6
  8
DEFPOINTS
  6
BYBLOCK
 62
     0
 10
6239.9270193392331
 20
6290.783558000001
 30
0.0
  0
ENDBLK
  5
7DE7
  8
0
  0
BLOCK
  8
0
  2
*D17
 70
     1
 10
0.0
 20
0.0
 30
0.0
  3
*D17
  1

  0
LINE
  5
82D7
  8
3
  6
CONTINUOUS
 62
     0
 10
6239.9270193392331
 20
5857.0515897707819
 30
0.0
 11
6239.9270193392331
 21
5943.0408337707822
 31
0.0
  0
LINE
  5
82D8
  8
3
  6
CONTINUOUS
 62
     0
 10
5579.9270193392322
 20
5060.0450887707821
 30
0.0
 11
5579.9270193392322
 21
5943.0408337707822
 31
0.0
  0
LINE
  5
82D9
  8
3
  6
CONTINUOUS
 62
     0
 10
6159.9270193392322
 20
5903.0408337707822
 30
0.0
 11
5659.9270193392322
 21
5903.0408337707822
 31
0.0
  0
INSERT
  5
82DA
  8
3
  6
CONTINUOUS
 62
     0
  2
_OPEN
 10
6239.9270193392331
 20
5903.0408337707822
 30
0.0
 41
80.0
 42
80.0
 43
80.0
  0
INSERT
  5
82DB
  8
3
  6
CONTINUOUS
 62
     0
  2
_OPEN
 10
5579.9270193392322
 20
5903.0408337707822
 30
0.0
 41
80.0
 42
80.0
 43
80.0
 50
180.0
  0
TEXT
  8
3
  40
120
  5
830D
  62
0
  72
0
  71
0
 10
5669.93
 20
5890.64
 30
0.000000
  1
MAX
  0
TEXT
  8
3
  40
120
  5
830E
  62
0
  72
0
  71
0
 10
5669.93
 20
5734.64
 30
0.000000
  1
720
  0
POINT
  5
82DD
  8
DEFPOINTS
  6
CONTINUOUS
 62
     0
 10
6239.9270193392331
 20
5837.0515897707819
 30
0.0
  0
POINT
  5
82DE
  8
DEFPOINTS
  6
CONTINUOUS
 62
     0
 10
5579.9270193392322
 20
5040.0450887707811
 30
0.0
  0
POINT
  5
82DF
  8
DEFPOINTS
  6
CONTINUOUS
 62
     0
 10
5579.9270193392322
 20
5903.0408337707822
 30
0.0
  0
ENDBLK
  5
7EC1
  8
0
  0
BLOCK
  8
0
  2
*D18
 70
     1
 10
0.0
 20
0.0
 30
0.0
  3
*D18
  1

  0
LINE
  5
82E0
  8
3
 62
     0
 10
2678.9144563532618
 20
4861.6450887707824
 30
0.0
 11
2678.9144563532618
 21
5906.7387017214314
 31
0.0
  0
LINE
  5
82E1
  8
3
 62
     0
 10
4638.9144563532609
 20
3882.645088770782
 30
0.0
 11
4638.9144563532609
 21
5906.7387017214314
 31
0.0
  0
LINE
  5
82E2
  8
3
 62
     0
 10
2758.9144563532609
 20
5866.7387017214314
 30
0.0
 11
4558.9144563532618
 21
5866.7387017214314
 31
0.0
  0
INSERT
  5
82E3
  8
3
 62
     0
  2
_OPEN
 10
2678.9144563532618
 20
5866.7387017214314
 30
0.0
 41
80.0
 42
80.0
 43
80.0
 50
180.0
  0
INSERT
  5
82E4
  8
3
 62
     0
  2
_OPEN
 10
4638.9144563532609
 20
5866.7387017214314
 30
0.0
 41
80.0
 42
80.0
 43
80.0
  0
TEXT
  8
3
  40
120
  5
830F
  62
0
  72
0
  71
0
 10
3508.59
 20
5754.34
 30
0.000000
  1
1960
  0
POINT
  5
82E6
  8
DEFPOINTS
 62
     0
 10
2678.9144563532618
 20
4841.6450887707824
 30
0.0
  0
POINT
  5
82E7
  8
DEFPOINTS
 62
     0
 10
4638.9144563532609
 20
3862.645088770782
 30
0.0
  0
POINT
  5
82E8
  8
DEFPOINTS
 62
     0
 10
4638.9144563532609
 20
5866.7387017214314
 30
0.0
  0
ENDBLK
  5
7E66
  8
0
  0
BLOCK
  8
0
  2
*D19
 70
     1
 10
0.0
 20
0.0
 30
0.0
  3
*D19
  1

  0
LINE
  5
82E9
  8
3
 62
     0
 10
2718.9144563532618
 20
3737.645088770782
 30
0.0
 11
1889.0195278304091
 21
3737.645088770782
 31
0.0
  0
LINE
  5
82EA
  8
3
 62
     0
 10
2718.9144563532618
 20
3622.6450887707829
 30
0.0
 11
1889.0195278304091
 21
3622.6450887707829
 31
0.0
  0
LINE
  5
82EB
  8
3
 62
     0
 10
1929.0195278304079
 20
3737.645088770782
 30
0.0
 11
1929.0195278304079
 21
3622.6450887707829
 31
0.0
  0
LINE
  5
82EC
  8
3
 62
     0
 10
1929.0195278304079
 20
3680.145088770782
 30
0.0
 11
1737.590956401837
 21
3737.573660199354
 31
0.0
  0
LINE
  5
82ED
  8
3
 62
     0
 10
1737.590956401837
 20
3737.573660199354
 30
0.0
 11
1737.590956401837
 21
4234.7165173422118
 31
0.0
  0
TEXT
  8
3
  40
120
  5
8310
  62
0
  72
0
  71
0
 10
1366.16
 20
3773.75
 30
0.000000
  1
(115)
  0
POINT
  5
82EF
  8
DEFPOINTS
 62
     0
 10
2738.9144563532618
 20
3737.645088770782
 30
0.0
  0
POINT
  5
82F0
  8
DEFPOINTS
 62
     0
 10
2738.9144563532618
 20
3622.6450887707829
 30
0.0
  0
POINT
  5
82F1
  8
DEFPOINTS
 62
     0
 10
1929.0195278304079
 20
3622.6450887707829
 30
0.0
  0
ENDBLK
  5
8055
  8
0
  0
BLOCK
  8
0
  2
*D20
 70
     1
 10
0.0
 20
0.0
 30
0.0
  3
*D20
  1

  0
LINE
  5
82F2
  8
3
 62
     0
 10
2718.9144563532618
 20
3622.6450887707829
 30
0.0
 11
1889.0195278304091
 21
3622.6450887707829
 31
0.0
  0
LINE
  5
82F3
  8
3
 62
     0
 10
2718.9144563532618
 20
3557.6450887707829
 30
0.0
 11
1889.0195278304079
 21
3557.6450887707829
 31
0.0
  0
LINE
  5
82F4
  8
3
 62
     0
 10
1929.0195278304079
 20
3622.6450887707829
 30
0.0
 11
1929.0195278304079
 21
3702.645088770782
 31
0.0
  0
LINE
  5
82F5
  8
3
 62
     0
 10
1929.0195278304079
 20
3477.645088770782
 30
0.0
 11
1929.0195278304079
 21
3397.645088770782
 31
0.0
  0
TEXT
  8
3
  40
120
  5
8311
  62
0
  72
0
  71
0
 10
1610.84
 20
3097.80
 30
0.000000
  1
65
  0
LINE
  5
82F7
  8
3
 62
     0
 10
1929.0195278304079
 20
3622.6450887707829
 30
0.0
 11
1929.0195278304079
 21
3557.6450887707829
 31
0.0
  0
INSERT
  5
82F8
  8
3
 62
     0
  2
_DOTSMALL
 10
1929.0195278304079
 20
3622.6450887707829
 30
0.0
 41
80.0
 42
80.0
 43
80.0
 50
270.0
  0
INSERT
  5
82F9
  8
3
 62
     0
  2
_OPEN
 10
1929.0195278304079
 20
3557.6450887707829
 30
0.0
 41
80.0
 42
80.0
 43
80.0
 50
90.0
  0
POINT
  5
82FA
  8
DEFPOINTS
 62
     0
 10
2738.9144563532618
 20
3622.6450887707829
 30
0.0
  0
POINT
  5
82FB
  8
DEFPOINTS
 62
     0
 10
2738.9144563532618
 20
3557.6450887707829
 30
0.0
  0
POINT
  5
82FC
  8
DEFPOINTS
 62
     0
 10
1929.0195278304079
 20
3557.6450887707829
 30
0.0
  0
ENDBLK
  5
8067
  8
0
  0
BLOCK
  8
0
  2
_DOTSMALL
 70
     0
 10
0.0
 20
0.0
 30
0.0
  3
_DOTSMALL
  1

  0
POLYLINE
  5
8082
  8
3
 62
     0
 66
     1
 10
0.0
 20
0.0
 30
0.0
 70
     1
 40
0.5
 41
0.5
  0
VERTEX
  5
82FD
  8
3
 62
     0
 10
-0.0625
 20
0.0
 30
0.0
 42
1.0
  0
VERTEX
  5
82FE
  8
3
 62
     0
 10
0.0625
 20
0.0
 30
0.0
 42
1.0
  0
SEQEND
  5
82FF
  8
3
 62
     0
  0
ENDBLK
  5
8084
  8
0
  0
BLOCK
  8
0
  2
_NONE
 70
     0
 10
0.0
 20
0.0
 30
0.0
  3
_NONE
  1

  0
ENDBLK
  5
8092
  8
0
  0
ENDSEC
  0
SECTION
  2
ENTITIES
  0
ARC
  5
7A79
  8
1
  6
CONTINUOUS
 10
3352.4144563532609
 20
4891.1450887707824
 30
0.0
 40
589.5
 50
95.207036000000002
 51
185.2070359999999
  0
LINE
  5
7A7A
  8
1
  6
CONTINUOUS
 10
4332.9573573532616
 20
3946.7994007707821
 30
0.0
 11
3212.9573573532612
 21
4711.7994007707812
 31
0.0
  0
LINE
  5
7A7B
  8
1
  6
CONTINUOUS
 10
4304.7562093532624
 20
3905.5114457707818
 30
0.0
 11
3184.7562093532611
 21
4670.5114457707823
 31
0.0
  0
ARC
  5
7A7C
  8
1
  6
CONTINUOUS
 10
4418.9144563532618
 20
4072.6450887707829
 30
0.0
 40
202.40000000000001
 50
235.66552899999991
 51
55.665529000000006
  0
ARC
  5
7A7D
  8
1
  6
CONTINUOUS
 10
3231.9144563532618
 20
4770.6450887707824
 30
0.0
 40
844.0
 50
274.55315200000001
 51
4.553151999999999
  0
LINE
  5
7A7E
  8
1
  6
CONTINUOUS
 10
2678.9144563532618
 20
3836.6450887707829
 30
0.0
 11
2678.9144563532618
 21
4841.6450887707824
 31
0.0
  0
LINE
  5
7A7F
  8
1
  6
CONTINUOUS
 10
2718.9144563532618
 20
3880.042737770782
 30
0.0
 11
2718.9144563532618
 21
4801.6450887707833
 31
0.0
  0
ARC
  5
7A80
  8
1
  6
CONTINUOUS
 10
4418.9144563532618
 20
4072.6450887707829
 30
0.0
 40
162.0
 50
324.972283
 51
215.02771699999991
  0
CIRCLE
  5
7A81
  8
1
  6
CONTINUOUS
 10
4418.9144563532618
 20
4072.6450887707829
 30
0.0
 40
152.40000000000001
  0
LINE
  5
7A82
  8
2
  6
CENTER
 10
4418.9144563532618
 20
3915.2450887707828
 30
0.0
 11
4418.9144563532618
 21
4230.0450887707821
 31
0.0
  0
LINE
  5
7A83
  8
1
  6
CONTINUOUS
 10
4638.9144563532609
 20
3557.6450887707829
 30
0.0
 11
2738.9144563532618
 21
3557.6450887707829
 31
0.0
  0
LINE
  5
7A84
  8
1
  6
CONTINUOUS
 10
4638.9144563532609
 20
3622.6450887707829
 30
0.0
 11
2738.9144563532618
 21
3622.6450887707829
 31
0.0
  0
LINE
  5
7A85
  8
1
  6
CONTINUOUS
 10
4638.9144563532609
 20
3737.645088770782
 30
0.0
 11
2738.9144563532618
 21
3737.645088770782
 31
0.0
  0
LINE
  5
7A86
  8
1
  6
CONTINUOUS
 10
4638.9144563532609
 20
3862.645088770782
 30
0.0
 11
2738.9144563532618
 21
3862.645088770782
 31
0.0
  0
LINE
  5
7A87
  8
1
  6
CONTINUOUS
 10
3298.9144563532618
 20
3929.3086517707811
 30
0.0
 11
2678.9144563532618
 21
3876.645088770782
 31
0.0
  0
LINE
  5
7A88
  8
1
  6
CONTINUOUS
 10
2738.9144563532618
 20
3622.6450887707829
 30
0.0
 11
2738.9144563532618
 21
3557.6450887707829
 31
0.0
  0
LINE
  5
7A89
  8
1
  6
CONTINUOUS
 10
2738.9144563532618
 20
3862.645088770782
 30
0.0
 11
2738.9144563532618
 21
3737.645088770782
 31
0.0
  0
LINE
  5
7A8A
  8
1
  6
CONTINUOUS
 10
4616.4144563532609
 20
3862.645088770782
 30
0.0
 11
4221.4144563532618
 21
3862.645088770782
 31
0.0
  0
LINE
  5
7A8B
  8
1
  6
CONTINUOUS
 10
4264.9144563532609
 20
3930.645088770782
 30
0.0
 11
4286.2567903532617
 21
3979.6615217707822
 31
0.0
  0
LINE
  5
7A8C
  8
1
  6
CONTINUOUS
 10
4264.9144563532609
 20
3912.645088770782
 30
0.0
 11
4264.9144563532609
 21
3930.645088770782
 31
0.0
  0
LINE
  5
7A8D
  8
1
  6
CONTINUOUS
 10
4231.4144563532618
 20
3912.645088770782
 30
0.0
 11
4264.9144563532609
 21
3912.645088770782
 31
0.0
  0
LINE
  5
7A8E
  8
1
  6
CONTINUOUS
 10
4221.4144563532618
 20
3862.645088770782
 30
0.0
 11
4231.4144563532618
 21
3912.645088770782
 31
0.0
  0
LINE
  5
7A8F
  8
1
  6
CONTINUOUS
 10
4638.9144563532609
 20
3622.6450887707829
 30
0.0
 11
4638.9144563532609
 21
3557.6450887707829
 31
0.0
  0
LINE
  5
7A90
  8
1
  6
CONTINUOUS
 10
4638.9144563532609
 20
3862.645088770782
 30
0.0
 11
4638.9144563532609
 21
3737.645088770782
 31
0.0
  0
LINE
  5
7A91
  8
1
  6
CONTINUOUS
 10
4572.9144563532618
 20
3912.645088770782
 30
0.0
 11
4572.9144563532618
 21
3930.645088770782
 31
0.0
  0
LINE
  5
7A92
  8
1
  6
CONTINUOUS
 10
4572.9144563532618
 20
3930.645088770782
 30
0.0
 11
4551.5721223532619
 21
3979.6615217707822
 31
0.0
  0
LINE
  5
7A93
  8
1
  6
CONTINUOUS
 10
4606.4144563532618
 20
3912.645088770782
 30
0.0
 11
4616.4144563532609
 21
3862.645088770782
 31
0.0
  0
LINE
  5
7A94
  8
1
  6
CONTINUOUS
 10
4572.9144563532618
 20
3912.645088770782
 30
0.0
 11
4606.4144563532618
 21
3912.645088770782
 31
0.0
  0
LINE
  5
7A95
  8
1
  6
CONTINUOUS
 10
4504.8715553532602
 20
4198.4907767707809
 30
0.0
 11
3384.871555353262
 21
4963.4907767707818
 31
0.0
  0
LINE
  5
7A96
  8
1
  6
CONTINUOUS
 10
4533.0727033532621
 20
4239.7787317707816
 30
0.0
 11
3413.0727033532621
 21
5004.7787317707835
 31
0.0
  0
ARC
  5
7A97
  8
1
  6
CONTINUOUS
 10
3365.9144563532618
 20
4770.6450887707824
 30
0.0
 40
710.0
 50
5.4148420000000002
 51
95.414842000000007
  0
ARC
  5
7A98
  8
1
  6
CONTINUOUS
 10
3298.9144563532618
 20
4837.6450887707824
 30
0.0
 40
202.40000000000001
 50
55.665529000000006
 51
235.66552899999991
  0
CIRCLE
  5
7A99
  8
1
  6
CONTINUOUS
 10
3298.9144563532618
 20
4837.6450887707824
 30
0.0
 40
450.0
  0
CIRCLE
  5
7A9A
  8
1
  6
CONTINUOUS
 10
3298.9144563532618
 20
4837.6450887707824
 30
0.0
 40
490.0
  0
CIRCLE
  5
7A9B
  8
1
  6
CONTINUOUS
 10
3298.9144563532618
 20
4837.6450887707824
 30
0.0
 40
152.40000000000001
  0
LINE
  5
7A9C
  8
2
  6
CENTER
 10
3298.9144563532618
 20
8223.8546090557447
 30
0.0
 11
3298.9144563532618
 21
6943.0837320557439
 31
0.0
  0
LINE
  5
7A9D
  8
2
  6
CENTER
 10
6738.0145003392317
 20
4837.6450887707824
 30
0.0
 11
5494.4340513392326
 21
4837.6450887707824
 31
0.0
  0
ARC
  5
7A9E
  8
1
  6
CONTINUOUS
 10
3245.4144563532609
 20
4891.1450887707824
 30
0.0
 40
482.5
 50
186.366094
 51
190.68983199999991
  0
LINE
  5
7A9F
  8
1
  6
CONTINUOUS
 10
2771.2878913532618
 20
4801.6450887707833
 30
0.0
 11
2678.9144563532618
 21
4801.6450887707833
 31
0.0
  0
LINE
  5
7AA0
  8
2
  6
CENTER
 10
4576.3144563532614
 20
4072.6450887707829
 30
0.0
 11
4261.5144563532613
 21
4072.6450887707829
 31
0.0
  0
LINE
  5
7AA1
  8
1
  6
CONTINUOUS
 10
4638.9144563532609
 20
8095.4092860557457
 30
0.0
 11
3748.9144563532609
 21
8095.4092860557457
 31
0.0
  0
LINE
  5
7AA2
  8
1
  6
CONTINUOUS
 10
4075.9144563532618
 20
7357.4092860557448
 30
0.0
 11
2678.9144563532618
 21
7357.4092860557448
 31
0.0
  0
LINE
  5
7AA3
  8
1
  6
CONTINUOUS
 10
4075.9144563532618
 20
8027.4092860557439
 30
0.0
 11
2678.9144563532618
 21
8027.4092860557439
 31
0.0
  0
LINE
  5
7AA4
  8
1
  6
CONTINUOUS
 10
4266.5144563532613
 20
7145.4092860557448
 30
0.0
 11
3451.3144563532619
 21
7145.4092860557448
 31
0.0
  0
LINE
  5
7AA5
  8
1
  6
CONTINUOUS
 10
4621.3144563532614
 20
7032.4092860557448
 30
0.0
 11
3096.5144563532608
 21
7032.4092860557448
 31
0.0
  0
LINE
  5
7AA6
  8
1
  6
CONTINUOUS
 10
4621.3144563532614
 20
7172.4092860557448
 30
0.0
 11
3096.5144563532608
 21
7172.4092860557448
 31
0.0
  0
LINE
  5
7AA7
  8
1
  6
CONTINUOUS
 10
2678.9144563532618
 20
7317.4092860557448
 30
0.0
 11
2678.9144563532618
 21
8067.4092860557448
 31
0.0
  0
LINE
  5
7AA8
  8
1
  6
CONTINUOUS
 10
2718.9144563532618
 20
7357.4092860557448
 30
0.0
 11
2718.9144563532618
 21
8027.4092860557439
 31
0.0
  0
LINE
  5
7AA9
  8
1
  6
CONTINUOUS
 10
3451.3144563532619
 20
7074.9092860557457
 30
0.0
 11
3146.5144563532608
 21
7074.9092860557457
 31
0.0
  0
LINE
  5
7AAA
  8
1
  6
CONTINUOUS
 10
3451.3144563532619
 20
7149.9092860557448
 30
0.0
 11
3146.5144563532608
 21
7149.9092860557448
 31
0.0
  0
LINE
  5
7AAB
  8
1
  6
CONTINUOUS
 10
2738.9144563532618
 20
7357.4092860557448
 30
0.0
 11
2738.9144563532618
 21
7145.4092860557448
 31
0.0
  0
LINE
  5
7AAC
  8
1
  6
CONTINUOUS
 10
3146.5144563532608
 20
7145.4092860557448
 30
0.0
 11
2738.9144563532618
 21
7145.4092860557448
 31
0.0
  0
LINE
  5
7AAD
  8
1
  6
CONTINUOUS
 10
3146.5144563532608
 20
7149.9092860557448
 30
0.0
 11
3146.5144563532608
 21
7074.9092860557457
 31
0.0
  0
LINE
  5
7AAE
  8
1
  6
CONTINUOUS
 10
3096.5144563532608
 20
7032.4092860557448
 30
0.0
 11
3096.5144563532608
 21
7172.4092860557448
 31
0.0
  0
LINE
  5
7AAF
  8
1
  6
CONTINUOUS
 10
3268.9144563532618
 20
7357.4092860557448
 30
0.0
 11
3268.9144563532618
 21
7149.9092860557448
 31
0.0
  0
LINE
  5
7AB0
  8
1
  6
CONTINUOUS
 10
3328.9144563532609
 20
7357.4092860557448
 30
0.0
 11
3328.9144563532609
 21
7149.9092860557448
 31
0.0
  0
LINE
  5
7AB1
  8
1
  6
CONTINUOUS
 10
3451.3144563532619
 20
7149.9092860557448
 30
0.0
 11
3451.3144563532619
 21
7074.9092860557457
 31
0.0
  0
LINE
  5
7AB2
  8
1
  6
CONTINUOUS
 10
3788.9144563532609
 20
8110.4092860557448
 30
0.0
 11
2808.9144563532618
 21
8110.4092860557448
 31
0.0
  0
LINE
  5
7AB3
  8
1
  6
CONTINUOUS
 10
2738.9144563532618
 20
8095.4092860557457
 30
0.0
 11
2738.9144563532618
 21
8027.4092860557439
 31
0.0
  0
LINE
  5
7AB4
  8
1
  6
CONTINUOUS
 10
2848.9144563532609
 20
8110.4092860557448
 30
0.0
 11
2848.9144563532609
 21
8027.4092860557439
 31
0.0
  0
LINE
  5
7AB5
  8
1
  6
CONTINUOUS
 10
2848.9144563532609
 20
8095.4092860557457
 30
0.0
 11
2738.9144563532618
 21
8095.4092860557457
 31
0.0
  0
LINE
  5
7AB6
  8
1
  6
CONTINUOUS
 10
3748.9144563532609
 20
8110.4092860557448
 30
0.0
 11
3748.9144563532609
 21
8027.4092860557439
 31
0.0
  0
LINE
  5
7AB7
  8
1
  6
CONTINUOUS
 10
4638.9144563532609
 20
8095.4092860557457
 30
0.0
 11
4638.9144563532609
 21
7145.4092860557448
 31
0.0
  0
LINE
  5
7AB8
  8
1
  6
CONTINUOUS
 10
4075.9144563532618
 20
8027.4092860557439
 30
0.0
 11
4075.9144563532618
 21
7357.4092860557448
 31
0.0
  0
LINE
  5
7AB9
  8
1
  6
CONTINUOUS
 10
4256.9144563532609
 20
7184.9092860557448
 30
0.0
 11
4256.9144563532609
 21
7677.9092860557448
 31
0.0
  0
LINE
  5
7ABA
  8
1
  6
CONTINUOUS
 10
4580.9144563532609
 20
7184.9092860557448
 30
0.0
 11
4580.9144563532609
 21
7677.9092860557448
 31
0.0
  0
LINE
  5
7ABB
  8
1
  6
CONTINUOUS
 10
4266.5144563532613
 20
7074.9092860557457
 30
0.0
 11
4571.3144563532614
 21
7074.9092860557457
 31
0.0
  0
LINE
  5
7ABC
  8
1
  6
CONTINUOUS
 10
4580.9144563532609
 20
7184.9092860557448
 30
0.0
 11
4256.9144563532609
 21
7184.9092860557448
 31
0.0
  0
LINE
  5
7ABD
  8
1
  6
CONTINUOUS
 10
4266.5144563532613
 20
7149.9092860557448
 30
0.0
 11
4571.3144563532614
 21
7149.9092860557448
 31
0.0
  0
LINE
  5
7ABE
  8
1
  6
CONTINUOUS
 10
4397.9144563532609
 20
7149.9092860557448
 30
0.0
 11
4397.9144563532609
 21
7184.9092860557448
 31
0.0
  0
LINE
  5
7ABF
  8
1
  6
CONTINUOUS
 10
4439.9144563532609
 20
7149.9092860557448
 30
0.0
 11
4439.9144563532609
 21
7184.9092860557448
 31
0.0
  0
LINE
  5
7AC0
  8
1
  6
CONTINUOUS
 10
4266.5144563532613
 20
7149.9092860557448
 30
0.0
 11
4266.5144563532613
 21
7074.9092860557457
 31
0.0
  0
LINE
  5
7AC1
  8
1
  6
CONTINUOUS
 10
4638.9144563532609
 20
7145.4092860557448
 30
0.0
 11
4571.3144563532614
 21
7145.4092860557448
 31
0.0
  0
LINE
  5
7AC2
  8
1
  6
CONTINUOUS
 10
4571.3144563532614
 20
7149.9092860557448
 30
0.0
 11
4571.3144563532614
 21
7074.9092860557457
 31
0.0
  0
LINE
  5
7AC3
  8
1
  6
CONTINUOUS
 10
4621.3144563532614
 20
7032.4092860557448
 30
0.0
 11
4621.3144563532614
 21
7172.4092860557448
 31
0.0
  0
LINE
  5
7AC4
  8
1
  6
CONTINUOUS
 10
4580.9144563532609
 20
7677.9092860557448
 30
0.0
 11
4256.9144563532609
 21
7677.9092860557448
 31
0.0
  0
LINE
  5
7AC5
  8
1
  6
CONTINUOUS
 10
5697.4270193392322
 20
4225.0450887707821
 30
0.0
 11
5697.4270193392322
 21
3920.2450887707819
 31
0.0
  0
LINE
  5
7AC6
  8
1
  6
CONTINUOUS
 10
5719.9270193392322
 20
5040.0450887707811
 30
0.0
 11
5719.9270193392322
 21
3870.2450887707819
 31
0.0
  0
LINE
  5
7AC7
  8
1
  6
CONTINUOUS
 10
5579.9270193392322
 20
5040.0450887707811
 30
0.0
 11
5579.9270193392322
 21
3870.2450887707819
 31
0.0
  0
LINE
  5
7AC8
  8
1
  6
CONTINUOUS
 10
5622.4270193392322
 20
4225.0450887707821
 30
0.0
 11
5622.4270193392322
 21
3920.2450887707819
 31
0.0
  0
LINE
  5
7AC9
  8
1
  6
CONTINUOUS
 10
5732.4270193392322
 20
4234.6450887707824
 30
0.0
 11
5732.4270193392322
 21
3862.645088770782
 31
0.0
  0
LINE
  5
7ACA
  8
1
  6
CONTINUOUS
 10
5904.9270193392331
 20
5480.6450887707824
 30
0.0
 11
5904.9270193392331
 21
3862.645088770782
 31
0.0
  0
LINE
  5
7ACB
  8
1
  6
CONTINUOUS
 10
6574.9270193392322
 20
5480.6450887707824
 30
0.0
 11
6574.9270193392322
 21
3862.645088770782
 31
0.0
  0
LINE
  5
7ACC
  8
1
  6
CONTINUOUS
 10
5904.9270193392331
 20
4801.6450887707833
 30
0.0
 11
6574.9270193392322
 21
3876.645088770782
 31
0.0
  0
LINE
  5
7ACD
  8
1
  6
CONTINUOUS
 10
6574.9270193392322
 20
4801.6450887707833
 30
0.0
 11
5904.9270193392331
 21
3876.645088770782
 31
0.0
  0
LINE
  5
7ACE
  8
1
  6
CONTINUOUS
 10
5692.9270193392322
 20
3557.6450887707829
 30
0.0
 11
6642.9270193392322
 21
3557.6450887707829
 31
0.0
  0
LINE
  5
7ACF
  8
1
  6
CONTINUOUS
 10
5692.9270193392322
 20
3622.6450887707829
 30
0.0
 11
6642.9270193392322
 21
3622.6450887707829
 31
0.0
  0
LINE
  5
7AD0
  8
1
  6
CONTINUOUS
 10
5692.9270193392322
 20
3862.645088770782
 30
0.0
 11
6642.9270193392322
 21
3862.645088770782
 31
0.0
  0
LINE
  5
7AD1
  8
1
  6
CONTINUOUS
 10
5692.9270193392322
 20
3737.645088770782
 30
0.0
 11
6642.9270193392322
 21
3737.645088770782
 31
0.0
  0
LINE
  5
7AD2
  8
1
  6
CONTINUOUS
 10
5904.9270193392331
 20
3876.645088770782
 30
0.0
 11
6574.9270193392322
 21
3876.645088770782
 31
0.0
  0
LINE
  5
7AD3
  8
1
  6
CONTINUOUS
 10
5692.9270193392322
 20
3622.6450887707829
 30
0.0
 11
5692.9270193392322
 21
3557.6450887707829
 31
0.0
  0
LINE
  5
7AD4
  8
1
  6
CONTINUOUS
 10
5579.9270193392322
 20
3870.2450887707819
 30
0.0
 11
5719.9270193392322
 21
3870.2450887707819
 31
0.0
  0
LINE
  5
7AD5
  8
1
  6
CONTINUOUS
 10
5622.4270193392322
 20
3920.2450887707819
 30
0.0
 11
5697.4270193392322
 21
3920.2450887707819
 31
0.0
  0
LINE
  5
7AD6
  8
1
  6
CONTINUOUS
 10
5732.4270193392322
 20
3912.645088770782
 30
0.0
 11
5904.9270193392331
 21
3912.645088770782
 31
0.0
  0
LINE
  5
7AD7
  8
1
  6
CONTINUOUS
 10
5692.9270193392322
 20
3862.645088770782
 30
0.0
 11
5692.9270193392322
 21
3737.645088770782
 31
0.0
  0
LINE
  5
7AD8
  8
1
  6
CONTINUOUS
 10
6642.9270193392322
 20
3622.6450887707829
 30
0.0
 11
6642.9270193392322
 21
3557.6450887707829
 31
0.0
  0
LINE
  5
7AD9
  8
1
  6
CONTINUOUS
 10
6642.9270193392322
 20
3862.645088770782
 30
0.0
 11
6642.9270193392322
 21
3737.645088770782
 31
0.0
  0
LINE
  5
7ADA
  8
1
  6
CONTINUOUS
 10
6657.9270193392322
 20
5327.6450887707833
 30
0.0
 11
6657.9270193392322
 21
4347.6450887707824
 31
0.0
  0
LINE
  5
7ADB
  8
1
  6
CONTINUOUS
 10
5697.4270193392322
 20
4990.0450887707821
 30
0.0
 11
5697.4270193392322
 21
4685.2450887707828
 31
0.0
  0
LINE
  5
7ADC
  8
1
  6
CONTINUOUS
 10
5622.4270193392322
 20
4990.0450887707821
 30
0.0
 11
5622.4270193392322
 21
4685.2450887707828
 31
0.0
  0
LINE
  5
7ADD
  8
1
  6
CONTINUOUS
 10
5904.9270193392331
 20
4801.6450887707833
 30
0.0
 11
6574.9270193392322
 21
4801.6450887707833
 31
0.0
  0
LINE
  5
7ADE
  8
1
  6
CONTINUOUS
 10
5622.4270193392322
 20
4225.0450887707821
 30
0.0
 11
5697.4270193392322
 21
4225.0450887707821
 31
0.0
  0
LINE
  5
7ADF
  8
1
  6
CONTINUOUS
 10
5622.4270193392322
 20
4685.2450887707828
 30
0.0
 11
5697.4270193392322
 21
4685.2450887707828
 31
0.0
  0
LINE
  5
7AE0
  8
1
  6
CONTINUOUS
 10
5697.4270193392322
 20
4051.645088770782
 30
0.0
 11
5732.4270193392322
 21
4051.645088770782
 31
0.0
  0
LINE
  5
7AE1
  8
1
  6
CONTINUOUS
 10
5697.4270193392322
 20
4093.6450887707829
 30
0.0
 11
5732.4270193392322
 21
4093.6450887707829
 31
0.0
  0
LINE
  5
7AE2
  8
1
  6
CONTINUOUS
 10
5697.4270193392322
 20
4807.6450887707833
 30
0.0
 11
5904.9270193392331
 21
4807.6450887707833
 31
0.0
  0
LINE
  5
7AE3
  8
1
  6
CONTINUOUS
 10
5732.4270193392322
 20
4234.6450887707824
 30
0.0
 11
5904.9270193392331
 21
4234.6450887707824
 31
0.0
  0
LINE
  5
7AE4
  8
1
  6
CONTINUOUS
 10
6574.9270193392322
 20
4387.6450887707824
 30
0.0
 11
6657.9270193392322
 21
4387.6450887707824
 31
0.0
  0
LINE
  5
7AE5
  8
1
  6
CONTINUOUS
 10
5904.9270193392331
 20
5480.6450887707824
 30
0.0
 11
6574.9270193392322
 21
5480.6450887707824
 31
0.0
  0
LINE
  5
7AE6
  8
1
  6
CONTINUOUS
 10
5579.9270193392322
 20
5040.0450887707811
 30
0.0
 11
5719.9270193392322
 21
5040.0450887707811
 31
0.0
  0
LINE
  5
7AE7
  8
1
  6
CONTINUOUS
 10
5622.4270193392322
 20
4990.0450887707821
 30
0.0
 11
5697.4270193392322
 21
4990.0450887707821
 31
0.0
  0
LINE
  5
7AE8
  8
1
  6
CONTINUOUS
 10
5697.4270193392322
 20
4867.6450887707824
 30
0.0
 11
5904.9270193392331
 21
4867.6450887707824
 31
0.0
  0
LINE
  5
7AE9
  8
1
  6
CONTINUOUS
 10
6574.9270193392322
 20
5287.6450887707833
 30
0.0
 11
6657.9270193392322
 21
5287.6450887707833
 31
0.0
  0
LINE
  5
7AEA
  8
4
  6
CONTINUOUS
 10
7400.0
 20
2000.0
 30
0.0
 11
7400.0
 21
1200.0
 31
0.0
  0
LINE
  5
7AEB
  8
4
  6
CONTINUOUS
 10
4600.0
 20
2000.0
 30
0.0
 11
4600.0
 21
1200.0
 31
0.0
  0
LINE
  5
7AEC
  8
4
  6
CONTINUOUS
 10
2600.0
 20
2000.0
 30
0.0
 11
2600.0
 21
1200.0
 31
0.0
  0
LINE
  5
7AEF
  8
4
  6
CONTINUOUS
 10
2600.0
 20
1200.0
 30
0.0
 11
7400.0
 21
1200.0
 31
0.0
  0
LINE
  5
7AF0
  8
4
  6
CONTINUOUS
 10
2600.0
 20
1600.0
 30
0.0
 11
7400.0
 21
1600.0
 31
0.0
  0
TEXT
  5
7AF1
  8
4
  6
CONTINUOUS
 10
2754.0083232000002
 20
1726.1721031999989
 30
0.0
 40
200.0
  1
機器名称
  0
TEXT
  5
7AF2
  8
4
  6
CONTINUOUS
 10
2745.032424
 20
1286.5806264
 30
0.0
 40
200.0
  1
機器型番
  0
TEXT
  5
7AF3
  8
4
  6
CONTINUOUS
 10
4710.7149823999989
 20
1690.2870751999999
 30
0.0
 40
168.88888879999999
  1
ミツヤリミットロードファン
  0
TEXT
  5
7AF4
  8
4
  6
CONTINUOUS
 10
4746.6179824000001
 20
1268.6383367999999
 30
0.0
 40
200.0
  1
LLE#5 1/2-4
  0
TEXT
  5
7AF6
  8
4
  6
CONTINUOUS
 10
2897.7533623999998
 20
9533.7153655999991
 30
0.0
 40
216.0
  1
床置防振ベット
  0
TEXT
  5
7AF7
  8
4
  6
CONTINUOUS
 10
1264.6703735999999
 20
10135.5239048
 30
0.0
 40
240.0
  1
ベルト駆動式片吸込両持排煙ファン
  0
LINE
  5
7AF8
  8
4
  6
CONTINUOUS
 10
1000.0
 20
9877.635016799999
 30
0.0
 11
7400.0
 21
9877.635016799999
 31
0.0
  0
LINE
  5
7AF9
  8
4
  6
CONTINUOUS
 10
1000.0
 20
10677.635016800001
 30
0.0
 11
7400.0
 21
10677.635016800001
 31
0.0
  0
LINE
  5
7AFA
  8
4
  6
CONTINUOUS
 10
2600.0
 20
2000.0
 30
0.0
 11
7400.0
 21
2000.0
 31
0.0
  0
LINE
  5
7AFB
  8
4
  6
CONTINUOUS
 10
1000.0
 20
10677.635016800001
 30
0.0
 11
1000.0
 21
9877.635016799999
 31
0.0
  0
TEXT
  5
7AFC
  8
4
  6
CONTINUOUS
 10
1154.3180336
 20
9529.2779104000001
 30
0.0
 40
216.0
  1
右回転左横向
  0
TEXT
  5
7AFD
  8
4
  6
CONTINUOUS
 10
5875.8782375999999
 20
10824.244326399999
 30
0.0
 40
224.0
  1
No.
  0
TEXT
  5
7AFE
  8
4
  6
CONTINUOUS
 10
5245.1842504000006
 20
9533.7153655999991
 30
0.0
 40
216.0
  1
縮尺：1/40
  0
LINE
  5
7AFF
  8
4
  6
CONTINUOUS
 10
7400.0
 20
10677.635016800001
 30
0.0
 11
7400.0
 21
9877.635016799999
 31
0.0
  0
LINE
  5
7B01
  8
4
  6
CONTINUOUS
 10
5762.4696895999996
 20
10725.0543328
 30
0.0
 11
5762.4696895999996
 21
11146.609046400001
 31
0.0
  0
LINE
  5
7B02
  8
4
  6
CONTINUOUS
 10
5762.4696895999996
 20
11146.609046400001
 30
0.0
 11
7400.0
 21
11146.609046400001
 31
0.0
  0
LINE
  5
7B03
  8
4
  6
CONTINUOUS
 10
7400.0
 20
11146.609046400001
 30
0.0
 11
7400.0
 21
10725.0543328
 31
0.0
  0
LINE
  5
7B04
  8
4
  6
CONTINUOUS
 10
7400.0
 20
10725.0543328
 30
0.0
 11
5762.4696895999996
 21
10725.0543328
 31
0.0
  0
DIMENSION
  5
7B1E
  8
3
  6
CONTINUOUS
  2
*D1
 10
3298.9144563532618
 20
3240.267967770782
 30
0.0
 11
3013.200170638976
 21
3240.267967770782
 31
0.0
 70
   128
 13
2738.9144563532618
 23
3557.6450887707829
 33
0.0
 14
3298.9144563532618
 24
3402.0515487707812
 34
0.0
1001
ACAD
1000
DSTYLE
1002
{
1070
   287
1070
     3
1070
   287
1070
     3
1070
   287
1070
     3
1070
    40
1040
40.0
1070
   143
1040
0.039
1070
   172
1070
     1
1070
   271
1070
     0
1070
   279
1070
     0
1070
   288
1070
     1
1002
}
  0
DIMENSION
  5
7B2A
  8
3
  6
CONTINUOUS
  2
*D2
 10
4638.9144563532609
 20
3240.267967770782
 30
0.0
 11
3968.9144563532618
 21
3340.267967770782
 31
0.0
 70
     0
 13
3298.9144563532618
 23
3402.0515487707812
 33
0.0
 14
4638.9144563532609
 24
3557.6450887707829
 34
0.0
1001
ACAD
1000
DSTYLE
1002
{
1070
   287
1070
     3
1070
   287
1070
     3
1070
   287
1070
     3
1070
    40
1040
40.0
1070
   143
1040
0.039
1070
   172
1070
     1
1070
   271
1070
     0
1070
   279
1070
     0
1070
   288
1070
     1
1002
}
  0
DIMENSION
  5
7B37
  8
3
  6
CONTINUOUS
  2
*D3
 10
2402.817057353262
 20
3876.645088770782
 30
0.0
 11
2402.8170573532611
 21
4354.2082327707822
 31
0.0
 70
   128
 13
2678.9144563532618
 23
4801.6450887707833
 33
0.0
 14
2678.9144563532618
 24
3876.645088770782
 34
0.0
 50
90.0
1001
ACAD
1000
DSTYLE
1002
{
1070
   287
1070
     3
1070
   287
1070
     3
1070
   287
1070
     3
1070
    40
1040
40.0
1070
   143
1040
0.039
1070
   172
1070
     1
1070
   271
1070
     0
1070
   279
1070
     0
1070
   288
1070
     1
1002
}
  0
DIMENSION
  5
7B6A
  8
3
  6
CONTINUOUS
  2
*D4
 10
3298.9144563532618
 20
5603.8402327707818
 30
0.0
 11
3024.6287420675471
 21
5603.8402327707818
 31
0.0
 70
   128
 13
2678.9144563532618
 23
4841.6450887707824
 33
0.0
 14
3298.9144563532618
 24
5478.2123757707823
 34
0.0
1001
ACAD
1000
DSTYLE
1002
{
1070
   287
1070
     3
1070
   287
1070
     3
1070
   287
1070
     3
1070
    40
1040
40.0
1070
   143
1040
0.039
1070
   172
1070
     1
1070
   271
1070
     0
1070
   279
1070
     0
1070
   288
1070
     1
1002
}
  0
DIMENSION
  5
7B76
  8
3
  6
CONTINUOUS
  2
*D5
 10
4075.9144563532618
 20
5603.8402327707818
 30
0.0
 11
3687.4144563532609
 21
5703.8402327707818
 31
0.0
 70
     0
 13
3298.9144563532618
 23
5478.2123757707823
 33
0.0
 14
4075.9144563532618
 24
4837.6450887707824
 34
0.0
1001
ACAD
1000
DSTYLE
1002
{
1070
   287
1070
     3
1070
   287
1070
     3
1070
   287
1070
     3
1070
    40
1040
40.0
1070
   143
1040
0.039
1070
   172
1070
     1
1070
   271
1070
     0
1070
   279
1070
     0
1070
   288
1070
     1
1002
}
  0
DIMENSION
  5
7B83
  8
3
  6
CONTINUOUS
  2
*D6
 10
4638.9144563532609
 20
6642.8187170557449
 30
0.0
 11
3672.2228953532608
 21
6642.8187170557449
 31
0.0
 70
   128
 13
2738.9144563532618
 23
7145.4092860557448
 33
0.0
 14
4638.9144563532609
 24
7145.4092860557448
 34
0.0
1001
ACAD
1000
DSTYLE
1002
{
1070
   287
1070
     3
1070
   287
1070
     3
1070
   287
1070
     3
1070
    40
1040
40.0
1070
   143
1040
0.039
1070
   172
1070
     1
1070
   271
1070
     0
1070
   279
1070
     0
1070
   288
1070
     1
1002
}
  0
DIMENSION
  5
7B90
  8
3
  6
CONTINUOUS
  2
*D7
 10
4987.6693873532622
 20
7145.4092860557448
 30
0.0
 11
4987.6693873532613
 21
7674.9827700557462
 31
0.0
 70
   128
 13
4638.9144563532609
 23
8095.4092860557457
 33
0.0
 14
4638.9144563532609
 24
7145.4092860557448
 34
0.0
 50
90.0
1001
ACAD
1000
DSTYLE
1002
{
1070
   287
1070
     3
1070
   287
1070
     3
1070
   287
1070
     3
1070
    40
1040
40.0
1070
   143
1040
0.039
1070
   172
1070
     1
1070
   271
1070
     0
1070
   279
1070
     0
1070
   288
1070
     1
1002
}
  0
LINE
  5
7B91
  8
2
  6
CENTER
 10
4273.231435353262
 20
7692.4092860557448
 30
0.0
 11
2538.2940411680829
 21
7692.4092860557448
 31
0.0
  0
LINE
  5
7B92
  8
2
  6
CENTER
 10
3298.9144563532618
 20
5522.350460770781
 30
0.0
 11
3298.9144563532618
 21
3402.0515487707812
 31
0.0
  0
LINE
  5
7B93
  8
2
  6
CENTER
 10
4162.8785853532609
 20
4837.6450887707824
 30
0.0
 11
2687.685425353262
 21
4837.6450887707824
 31
0.0
  0
LINE
  5
7B94
  8
2
  6
CENTER
 10
6239.9270193392331
 20
5679.293046770782
 30
0.0
 11
6239.9270193392331
 21
3464.306022770782
 31
0.0
  0
DIMENSION
  5
7BA1
  8
3
  6
CONTINUOUS
  2
*D8
 10
6988.6165236481293
 20
4387.6450887707824
 30
0.0
 11
6988.6165236481274
 21
4855.4990767707823
 31
0.0
 70
   128
 13
6657.9270193392322
 23
5287.6450887707833
 33
0.0
 14
6657.9270193392322
 24
4387.6450887707824
 34
0.0
 50
90.0
1001
ACAD
1000
DSTYLE
1002
{
1070
   287
1070
     3
1070
   287
1070
     3
1070
   287
1070
     3
1070
     3
1000
φ<>
1070
    40
1040
40.0
1070
   143
1040
0.039
1070
   172
1070
     1
1070
   271
1070
     0
1070
   279
1070
     0
1070
   288
1070
     1
1002
}
  0
DIMENSION
  5
7BAF
  8
3
  6
CONTINUOUS
  2
*D9
 10
6574.9270193392322
 20
5657.0549357707832
 30
0.0
 11
6179.2127336249468
 21
5657.0549357707832
 31
0.0
 70
   128
 13
5904.9270193392331
 23
5480.6450887707824
 33
0.0
 14
6574.9270193392322
 24
5480.6450887707824
 34
0.0
1001
ACAD
1000
DSTYLE
1002
{
1070
   287
1070
     3
1070
   287
1070
     3
1070
   287
1070
     3
1070
    40
1040
40.0
1070
   143
1040
0.039
1070
   172
1070
     1
1070
   271
1070
     0
1070
   279
1070
     0
1070
   288
1070
     1
1002
}
  0
DIMENSION
  5
7C06
  8
3
  6
CONTINUOUS
  2
*D10
 10
6239.9270193392331
 20
3253.4082157707821
 30
0.0
 11
5966.4270193392322
 21
3348.032578673402
 31
0.0
 70
   128
 13
5692.9270193392322
 23
3557.6450887707829
 33
0.0
 14
6239.9270193392331
 24
3464.306022770782
 34
0.0
1001
ACAD
1000
DSTYLE
1002
{
1070
   288
1070
     1
1070
   172
1070
     1
1070
    40
1040
40.0
1070
   271
1070
     0
1070
   143
1040
0.039
1002
}
  0
DIMENSION
  5
7C14
  8
3
  6
CONTINUOUS
  2
*D11
 10
6642.9270193392322
 20
3253.4082157707821
 30
0.0
 11
6441.4270193392331
 21
3364.058673674419
 31
0.0
 70
   128
 13
6239.9270193392331
 23
3464.306022770782
 33
0.0
 14
6642.9270193392322
 24
3557.6450887707829
 34
0.0
1001
ACAD
1000
DSTYLE
1002
{
1070
   288
1070
     1
1070
   172
1070
     1
1070
    40
1040
40.0
1070
   271
1070
     0
1070
   143
1040
0.039
1002
}
  0
DIMENSION
  5
7C3C
  8
3
  6
CONTINUOUS
  2
*D12
 10
2135.8980473532611
 20
4837.6450887707824
 30
0.0
 11
2135.8980473532611
 21
4367.0071617707808
 31
0.0
 70
   128
 13
2678.9144563532618
 23
3876.645088770782
 33
0.0
 14
2687.685425353262
 24
4837.6450887707824
 34
0.0
 50
90.0
1001
ACAD
1000
DSTYLE
1002
{
1070
   287
1070
     3
1070
   287
1070
     3
1070
   287
1070
     3
1070
    40
1040
40.0
1070
   143
1040
0.039
1070
   172
1070
     1
1070
   271
1070
     0
1070
   279
1070
     0
1070
   288
1070
     1
1002
}
  0
DIMENSION
  5
7C49
  8
3
  6
CONTINUOUS
  2
*D13
 10
1929.01952783041
 20
4837.6450887707833
 30
0.0
 11
1929.0195278304079
 21
5111.9308030564971
 31
0.0
 70
   128
 13
3298.9144563532618
 23
5480.6450887707824
 33
0.0
 14
2687.685425353262
 24
4837.6450887707824
 34
0.0
 50
90.0
1001
ACAD
1000
DSTYLE
1002
{
1070
   287
1070
     3
1070
   287
1070
     3
1070
   287
1070
     3
1070
    40
1040
40.0
1070
   143
1040
0.039
1070
   172
1070
     1
1070
   271
1070
     0
1070
   279
1070
     0
1070
   288
1070
     1
1002
}
  0
DIMENSION
  5
7C55
  8
3
  6
CONTINUOUS
  2
*D14
 10
1929.0195278304079
 20
3737.645088770782
 30
0.0
 11
1829.0195278304079
 21
4287.6450887707833
 31
0.0
 70
     0
 13
2687.685425353262
 23
4837.6450887707824
 33
0.0
 14
2738.9144563532618
 24
3737.645088770782
 34
0.0
 50
90.0
1001
ACAD
1000
DSTYLE
1002
{
1070
   287
1070
     3
1070
   287
1070
     3
1070
   287
1070
     3
1070
    40
1040
40.0
1070
   143
1040
0.039
1070
   172
1070
     1
1070
   271
1070
     0
1070
   279
1070
     0
1070
   288
1070
     1
1002
}
  0
DIMENSION
  5
7C8C
  8
3
  6
CONTINUOUS
  2
*D15
 10
1303.770764507492
 20
3557.6450887707829
 30
0.0
 11
1303.7707645074911
 21
4537.7810705764641
 31
0.0
 70
   128
 13
3298.9144563532618
 23
5480.6450887707824
 33
0.0
 14
2738.9144563532618
 24
3557.6450887707829
 34
0.0
 50
90.0
1001
ACAD
1000
DSTYLE
1002
{
1070
   287
1070
     3
1070
   287
1070
     3
1070
   287
1070
     3
1070
    40
1040
40.0
1070
   143
1040
0.039
1070
   172
1070
     1
1070
   271
1070
     0
1070
   279
1070
     0
1070
   288
1070
     1
1002
}
  0
DIMENSION
  5
7CA5
  8
3
  6
CONTINUOUS
  2
*D16
 10
6239.9270193392331
 20
5903.0408337707822
 30
0.0
 11
6448.9270193392331
 21
6017.2357696886393
 31
0.0
 12
0.0
 22
-387.7427242292178
 32
0.0
 70
   128
 13
6657.9270193392322
 23
5327.6450887707833
 33
0.0
 14
6239.9270193392331
 24
5837.0515897707819
 34
0.0
1001
ACAD
1000
DSTYLE
1002
{
1070
   288
1070
     1
1070
   172
1070
     1
1070
    40
1040
40.0
1070
   271
1070
     0
1070
   143
1040
0.039
1002
}
  0
DIMENSION
  5
7CB1
  8
3
  6
CONTINUOUS
  2
*D17
 10
5579.9270193392322
 20
5903.0408337707822
 30
0.0
 11
5909.9270193392322
 21
6103.0408337707831
 31
0.0
 70
     0
  1
MAX\P720
 13
6239.9270193392331
 23
5837.0515897707819
 33
0.0
 14
5579.9270193392322
 24
5040.0450887707811
 34
0.0
1001
ACAD
1000
DSTYLE
1002
{
1070
   287
1070
     3
1070
   287
1070
     3
1070
   287
1070
     3
1070
    40
1040
40.0
1070
   143
1040
0.039
1070
   172
1070
     1
1070
   271
1070
     0
1070
   279
1070
     0
1070
   288
1070
     1
1002
}
  0
DIMENSION
  5
7E67
  8
3
  2
*D18
 10
4638.9144563532609
 20
5866.7387017214314
 30
0.0
 11
3748.5889159752192
 21
5866.7387017214314
 31
0.0
 70
   128
 13
2678.9144563532618
 23
4841.6450887707824
 33
0.0
 14
4638.9144563532609
 24
3862.645088770782
 34
0.0
1001
ACAD
1000
DSTYLE
1002
{
1070
   287
1070
     3
1070
   287
1070
     3
1070
   287
1070
     3
1070
    40
1040
40.0
1070
   143
1040
0.039
1070
   172
1070
     1
1070
   271
1070
     0
1070
   279
1070
     0
1070
   288
1070
     1
1002
}
  0
DIMENSION
  5
8044
  8
3
  2
*D19
 10
1929.0195278304079
 20
3622.6450887707829
 30
0.0
 11
1606.162384973265
 21
3777.573660199354
 31
0.0
 70
     0
  1
(<>)
 13
2738.9144563532618
 23
3737.645088770782
 33
0.0
 14
2738.9144563532618
 24
3622.6450887707829
 34
0.0
 50
90.0
1001
ACAD
1000
DSTYLE
1002
{
1070
   287
1070
     4
1070
   287
1070
     4
1070
   287
1070
     4
1070
     7
1000
NONE
1070
     6
1000
NONE
1070
    40
1040
40.0
1070
   143
1040
0.039
1070
   172
1070
     1
1070
   271
1070
     0
1070
   279
1070
     1
1070
   288
1070
     1
1002
}
  0
DIMENSION
  5
8056
  8
3
  2
*D20
 10
1929.0195278304079
 20
3557.6450887707829
 30
0.0
 11
1950.8351665776861
 21
3310.1984483588089
 31
0.0
 70
   128
 13
2738.9144563532618
 23
3622.6450887707829
 33
0.0
 14
2738.9144563532618
 24
3557.6450887707829
 34
0.0
 50
90.0
1001
ACAD
1000
DSTYLE
1002
{
1070
   287
1070
     4
1070
   287
1070
     4
1070
   287
1070
     4
1070
     6
1000
DOTSMALL
1070
    40
1040
40.0
1070
   143
1040
0.039
1070
   172
1070
     1
1070
   271
1070
     0
1070
   279
1070
     1
1070
   288
1070
     1
1002
}
  0
ENDSEC
  0
EOF
