  0
SECTION
  2
HEADER
  9
$ACADVER
  1
AC1009
  9
$INSBASE
 10
0.0
 20
0.0
 30
0.0
  9
$EXTMIN
 10
1000.0
 20
1200.0
 30
0.0
  9
$EXTMAX
 10
7400.0
 20
11146.609046400001
 30
0.0
  9
$LIMMIN
 10
0.0
 20
0.0
  9
$LIMMAX
 10
297.0
 20
210.0
  9
$ORTHOMODE
 70
     0
  9
$REGENMODE
 70
     1
  9
$FILLMODE
 70
     0
  9
$QTEXTMODE
 70
     0
  9
$MIRRTEXT
 70
     1
  9
$DRAGMODE
 70
     2
  9
$LTSCALE
 40
100.0
  9
$OSMODE
 70
    37
  9
$ATTMODE
 70
     1
  9
$TEXTSIZE
 40
180.0
  9
$TRACEWID
 40
0.05
  9
$TEXTSTYLE
  7
STANDARD
  9
$CLAYER
  8
3
  9
$CELTYPE
  6
BYLAYER
  9
$CECOLOR
 62
   256
  9
$DIMSCALE
 40
40.0
  9
$DIMASZ
 40
2.0
  9
$DIMEXO
 40
0.5
  9
$DIMDLI
 40
10.0
  9
$DIMRND
 40
0.0
  9
$DIMDLE
 40
0.0
  9
$DIMEXE
 40
1.0
  9
$DIMTP
 40
1.0
  9
$DIMTM
 40
1.0
  9
$DIMTXT
 40
3.0
  9
$DIMCEN
 40
0.0
  9
$DIMTSZ
 40
0.0
  9
$DIMTOL
 70
     0
  9
$DIMLIM
 70
     0
  9
$DIMTIH
 70
     0
  9
$DIMTOH
 70
     0
  9
$DIMSE1
 70
     0
  9
$DIMSE2
 70
     0
  9
$DIMTAD
 70
     1
  9
$DIMZIN
 70
     8
  9
$DIMBLK
  1

  9
$DIMASO
 70
     1
  9
$DIMSHO
 70
     1
  9
$DIMPOST
  1

  9
$DIMAPOST
  1

  9
$DIMALT
 70
     0
  9
$DIMALTD
 70
     2
  9
$DIMALTF
 40
0.039
  9
$DIMLFAC
 40
1.0
  9
$DIMTOFL
 70
     1
  9
$DIMTVP
 40
0.0
  9
$DIMTIX
 70
     0
  9
$DIMSOXD
 70
     0
  9
$DIMSAH
 70
     1
  9
$DIMBLK1
  1
OPEN
  9
$DIMBLK2
  1
OPEN
  9
$DIMSTYLE
  2
IGA
  9
$DIMCLRD
 70
     0
  9
$DIMCLRE
 70
     0
  9
$DIMCLRT
 70
     0
  9
$DIMTFAC
 40
10.0
  9
$DIMGAP
 40
1.0
  9
$LUNITS
 70
     2
  9
$LUPREC
 70
     3
  9
$SKETCHINC
 40
0.1
  9
$FILLETRAD
 40
50.0
  9
$AUNITS
 70
     0
  9
$AUPREC
 70
     0
  9
$MENU
  1
acad
  9
$ELEVATION
 40
0.0
  9
$PELEVATION
 40
0.0
  9
$THICKNESS
 40
0.0
  9
$LIMCHECK
 70
     0
  9
$BLIPMODE
 70
     0
  9
$CHAMFERA
 40
0.5
  9
$CHAMFERB
 40
0.5
  9
$SKPOLY
 70
     0
  9
$TDCREATE
 40
2450752.4857211811
  9
$TDUPDATE
 40
2454953.6862820019
  9
$TDINDWG
 40
0.0071347222
  9
$TDUSRTIMER
 40
0.0071347222
  9
$USRTIMER
 70
     1
  9
$ANGBASE
 50
0.0
  9
$ANGDIR
 70
     0
  9
$PDMODE
 70
     0
  9
$PDSIZE
 40
0.0
  9
$PLINEWID
 40
0.0
  9
$COORDS
 70
     1
  9
$SPLFRAME
 70
     0
  9
$SPLINETYPE
 70
     6
  9
$SPLINESEGS
 70
     8
  9
$ATTDIA
 70
     0
  9
$ATTREQ
 70
     1
  9
$HANDLING
 70
 10241
  9
$HANDSEED
  5
8291
  9
$SURFTAB1
 70
     6
  9
$SURFTAB2
 70
     6
  9
$SURFTYPE
 70
     6
  9
$SURFU
 70
     6
  9
$SURFV
 70
     6
  9
$UCSNAME
  2

  9
$UCSORG
 10
0.0
 20
0.0
 30
0.0
  9
$UCSXDIR
 10
1.0
 20
0.0
 30
0.0
  9
$UCSYDIR
 10
0.0
 20
1.0
 30
0.0
  9
$PUCSNAME
  2

  9
$PUCSORG
 10
0.0
 20
0.0
 30
0.0
  9
$PUCSXDIR
 10
1.0
 20
0.0
 30
0.0
  9
$PUCSYDIR
 10
0.0
 20
1.0
 30
0.0
  9
$USERI1
 70
     0
  9
$USERI2
 70
     0
  9
$USERI3
 70
     0
  9
$USERI4
 70
     0
  9
$USERI5
 70
     0
  9
$USERR1
 40
0.0
  9
$USERR2
 40
0.0
  9
$USERR3
 40
0.0
  9
$USERR4
 40
0.0
  9
$USERR5
 40
0.0
  9
$WORLDVIEW
 70
     1
  9
$SHADEDGE
 70
     3
  9
$SHADEDIF
 70
    70
  9
$TILEMODE
 70
     1
  9
$MAXACTVP
 70
    16
  9
$PLIMCHECK
 70
     0
  9
$PEXTMIN
 10
1.0000000000000000E+020
 20
1.0000000000000000E+020
 30
1.0000000000000000E+020
  9
$PEXTMAX
 10
-1.0000000000000000E+020
 20
-1.0000000000000000E+020
 30
-1.0000000000000000E+020
  9
$PLIMMIN
 10
0.0
 20
0.0
  9
$PLIMMAX
 10
12.0
 20
9.0
  9
$UNITMODE
 70
     0
  9
$VISRETAIN
 70
     0
  9
$PLINEGEN
 70
     0
  9
$PSLTSCALE
 70
     1
  0
ENDSEC
  0
SECTION
  2
TABLES
  0
TABLE
  2
VPORT
 70
     2
  0
VPORT
  2
*ACTIVE
 70
     0
 10
0.0
 20
0.0
 11
1.0
 21
1.0
 12
14921.647664257671
 22
6171.7850824025127
 13
0.0
 23
0.0
 14
10.0
 24
10.0
 15
10.0
 25
10.0
 16
0.0
 26
0.0
 36
1.0
 17
0.0
 27
0.0
 37
0.0
 40
12325.361018025251
 41
3.1666666666666661
 42
50.0
 43
0.0
 44
0.0
 50
0.0
 51
0.0
 71
     0
 72
   100
 73
     1
 74
     0
 75
     0
 76
     0
 77
     0
 78
     0
  0
ENDTAB
  0
TABLE
  2
LTYPE
 70
     2
  0
LTYPE
  2
CONTINUOUS
 70
     0
  3
Solid line
 72
    65
 73
     0
 40
0.0
  0
LTYPE
  2
CENTER
 70
     0
  3
____ _ ____ _ ____ _ ____ _ ____ _ ____ _ ____ 
 72
    65
 73
     4
 40
2.0
 49
1.25
 49
-0.25
 49
0.25
 49
-0.25
  0
ENDTAB
  0
TABLE
  2
LAYER
 70
     6
  0
LAYER
  2
0
 70
     0
 62
     7
  6
CONTINUOUS
  0
LAYER
  2
3
 70
     0
 62
     2
  6
CONTINUOUS
  0
LAYER
  2
2
 70
     0
 62
     3
  6
CENTER
  0
LAYER
  2
1
 70
     0
 62
     4
  6
CONTINUOUS
  0
LAYER
  2
4
 70
     0
 62
     7
  6
CONTINUOUS
  0
LAYER
  2
DEFPOINTS
 70
     0
 62
     7
  6
CONTINUOUS
  0
ENDTAB
  0
TABLE
  2
STYLE
 70
     1
  0
STYLE
  2
STANDARD
 70
     0
 40
0.0
 41
1.0
 50
0.0
 71
     0
 42
180.0
  3
simplex.shx
  4
extfont.shx
  0
ENDTAB
  0
TABLE
  2
VIEW
 70
     0
  0
ENDTAB
  0
TABLE
  2
UCS
 70
     0
  0
ENDTAB
  0
TABLE
  2
APPID
 70
     1
  0
APPID
  2
ACAD
 70
     0
  0
ENDTAB
  0
TABLE
  2
DIMSTYLE
 70
     1
  0
DIMSTYLE
  2
IGA
 70
     0
  3

  4

  5

  6
OPEN
  7
OPEN
 40
2.0
 41
2.0
 42
0.5
 43
10.0
 44
1.0
 45
0.0
 46
0.0
 47
1.0
 48
1.0
140
3.0
141
0.0
142
0.0
143
0.03937
144
1.0
145
0.0
146
10.0
147
1.0
 71
     0
 72
     0
 73
     0
 74
     0
 75
     0
 76
     0
 77
     1
 78
     8
170
     0
171
     2
172
     0
173
     1
174
     0
175
     0
176
     0
177
     0
178
     0
  0
ENDTAB
  0
ENDSEC
  0
SECTION
  2
BLOCKS
  0
BLOCK
  8
0
  2
$MODEL_SPACE
 70
     0
 10
0.0
 20
0.0
 30
0.0
  3
$MODEL_SPACE
  1

  0
ENDBLK
  5
1B
  8
0
  0
BLOCK
 67
     1
  8
0
  2
$PAPER_SPACE
 70
     0
 10
0.0
 20
0.0
 30
0.0
  3
$PAPER_SPACE
  1

  0
ENDBLK
  5
18
 67
     1
  8
0
  0
BLOCK
  8
0
  2
_OPEN
 70
     0
 10
0.0
 20
0.0
 30
0.0
  3
_OPEN
  1

  0
LINE
  5
7B0C
  8
0
  6
BYBLOCK
 62
     0
 10
-1.0
 20
0.166667
 30
0.0
 11
0.0
 21
0.0
 31
0.0
  0
LINE
  5
7B0D
  8
0
  6
BYBLOCK
 62
     0
 10
0.0
 20
0.0
 30
0.0
 11
-1.0
 21
-0.166667
 31
0.0
  0
LINE
  5
7B0E
  8
0
  6
BYBLOCK
 62
     0
 10
0.0
 20
0.0
 30
0.0
 11
-1.0
 21
0.0
 31
0.0
  0
ENDBLK
  5
7B0F
  8
0
  0
BLOCK
  8
0
  2
*D1
 70
     1
 10
0.0
 20
0.0
 30
0.0
  3
*D1
  1

  0
LINE
  5
81E1
  8
3
  6
CONTINUOUS
 62
     0
 10
1485.2565248480109
 20
3638.8640612473669
 30
0.0
 11
1485.2565248480109
 21
3235.9332572473668
 31
0.0
  0
LINE
  5
81E2
  8
3
  6
CONTINUOUS
 62
     0
 10
2825.2565248480109
 20
3506.5788792473668
 30
0.0
 11
2825.2565248480109
 21
3235.9332572473668
 31
0.0
  0
LINE
  5
81E3
  8
3
  6
CONTINUOUS
 62
     0
 10
1565.2565248480109
 20
3275.9332572473668
 30
0.0
 11
2745.2565248480109
 21
3275.9332572473668
 31
0.0
  0
INSERT
  5
81E4
  8
3
  6
CONTINUOUS
 62
     0
  2
_OPEN
 10
1485.2565248480109
 20
3275.9332572473668
 30
0.0
 41
80.0
 42
80.0
 43
80.0
 50
180.0
  0
INSERT
  5
81E5
  8
3
  6
CONTINUOUS
 62
     0
  2
_OPEN
 10
2825.2565248480109
 20
3275.9332572473668
 30
0.0
 41
80.0
 42
80.0
 43
80.0
  0
TEXT
  8
3
  40
120
  5
827F
  62
0
  72
0
  71
0
 10
1953.09
 20
3163.53
 30
0.000000
  1
1340
  0
POINT
  5
81E7
  8
DEFPOINTS
  6
CONTINUOUS
 62
     0
 10
1485.2565248480109
 20
3658.8640612473669
 30
0.0
  0
POINT
  5
81E8
  8
DEFPOINTS
  6
CONTINUOUS
 62
     0
 10
2825.2565248480109
 20
3526.5788792473668
 30
0.0
  0
POINT
  5
81E9
  8
DEFPOINTS
  6
CONTINUOUS
 62
     0
 10
2825.2565248480109
 20
3275.9332572473668
 30
0.0
  0
ENDBLK
  5
7D55
  8
0
  0
BLOCK
  8
0
  2
*D2
 70
     1
 10
0.0
 20
0.0
 30
0.0
  3
*D2
  1

  0
LINE
  5
81EA
  8
3
  6
CONTINUOUS
 62
     0
 10
2825.2565248480109
 20
3506.5788792473668
 30
0.0
 11
2825.2565248480109
 21
3235.9332572473668
 31
0.0
  0
LINE
  5
81EB
  8
3
  6
CONTINUOUS
 62
     0
 10
3385.2565248480109
 20
3638.8640612473669
 30
0.0
 11
3385.2565248480109
 21
3235.9332572473668
 31
0.0
  0
LINE
  5
81EC
  8
3
  6
CONTINUOUS
 62
     0
 10
2905.2565248480109
 20
3275.9332572473668
 30
0.0
 11
3305.2565248480109
 21
3275.9332572473668
 31
0.0
  0
INSERT
  5
81ED
  8
3
  6
CONTINUOUS
 62
     0
  2
_OPEN
 10
2825.2565248480109
 20
3275.9332572473668
 30
0.0
 41
80.0
 42
80.0
 43
80.0
 50
180.0
  0
INSERT
  5
81EE
  8
3
  6
CONTINUOUS
 62
     0
  2
_OPEN
 10
3385.2565248480109
 20
3275.9332572473668
 30
0.0
 41
80.0
 42
80.0
 43
80.0
  0
TEXT
  8
3
  40
120
  5
8280
  62
0
  72
0
  71
0
 10
2870.97
 20
3163.53
 30
0.000000
  1
560
  0
POINT
  5
81F0
  8
DEFPOINTS
  6
CONTINUOUS
 62
     0
 10
2825.2565248480109
 20
3526.5788792473668
 30
0.0
  0
POINT
  5
81F1
  8
DEFPOINTS
  6
CONTINUOUS
 62
     0
 10
3385.2565248480109
 20
3658.8640612473669
 30
0.0
  0
POINT
  5
81F2
  8
DEFPOINTS
  6
CONTINUOUS
 62
     0
 10
3385.2565248480109
 20
3275.9332572473668
 30
0.0
  0
ENDBLK
  5
7D4A
  8
0
  0
BLOCK
  8
0
  2
*D3
 70
     1
 10
0.0
 20
0.0
 30
0.0
  3
*D3
  1

  0
LINE
  5
81F3
  8
3
  6
CONTINUOUS
 62
     0
 10
2048.2565248480109
 20
4958.8640612473682
 30
0.0
 11
2048.2565248480109
 21
5831.340448917178
 31
0.0
  0
LINE
  5
81F4
  8
3
  6
CONTINUOUS
 62
     0
 10
2825.2565248480109
 20
5646.6926607044807
 30
0.0
 11
2825.2565248480109
 21
5831.340448917178
 31
0.0
  0
LINE
  5
81F5
  8
3
  6
CONTINUOUS
 62
     0
 10
2128.2565248480109
 20
5791.340448917178
 30
0.0
 11
2745.2565248480109
 21
5791.340448917178
 31
0.0
  0
INSERT
  5
81F6
  8
3
  6
CONTINUOUS
 62
     0
  2
_OPEN
 10
2048.2565248480109
 20
5791.340448917178
 30
0.0
 41
80.0
 42
80.0
 43
80.0
 50
180.0
  0
INSERT
  5
81F7
  8
3
  6
CONTINUOUS
 62
     0
  2
_OPEN
 10
2825.2565248480109
 20
5791.340448917178
 30
0.0
 41
80.0
 42
80.0
 43
80.0
  0
TEXT
  8
3
  40
120
  5
8281
  62
0
  72
0
  71
0
 10
2222.22
 20
5678.94
 30
0.000000
  1
777
  0
POINT
  5
81F9
  8
DEFPOINTS
  6
CONTINUOUS
 62
     0
 10
2048.2565248480109
 20
4938.8640612473673
 30
0.0
  0
POINT
  5
81FA
  8
DEFPOINTS
  6
CONTINUOUS
 62
     0
 10
2825.2565248480109
 20
5626.6926607044807
 30
0.0
  0
POINT
  5
81FB
  8
DEFPOINTS
  6
CONTINUOUS
 62
     0
 10
2825.2565248480109
 20
5791.340448917178
 30
0.0
  0
ENDBLK
  5
7EA5
  8
0
  0
BLOCK
  8
0
  2
*D4
 70
     1
 10
0.0
 20
0.0
 30
0.0
  3
*D4
  1

  0
LINE
  5
81FC
  8
3
  6
CONTINUOUS
 62
     0
 10
2825.2565248480109
 20
5646.6926607044807
 30
0.0
 11
2825.2565248480109
 21
5831.340448917178
 31
0.0
  0
LINE
  5
81FD
  8
3
  6
CONTINUOUS
 62
     0
 10
3445.2565248480109
 20
4962.8640612473673
 30
0.0
 11
3445.2565248480109
 21
5831.340448917178
 31
0.0
  0
LINE
  5
81FE
  8
3
  6
CONTINUOUS
 62
     0
 10
2905.2565248480109
 20
5791.340448917178
 30
0.0
 11
3365.2565248480109
 21
5791.340448917178
 31
0.0
  0
INSERT
  5
81FF
  8
3
  6
CONTINUOUS
 62
     0
  2
_OPEN
 10
2825.2565248480109
 20
5791.340448917178
 30
0.0
 41
80.0
 42
80.0
 43
80.0
 50
180.0
  0
INSERT
  5
8200
  8
3
  6
CONTINUOUS
 62
     0
  2
_OPEN
 10
3445.2565248480109
 20
5791.340448917178
 30
0.0
 41
80.0
 42
80.0
 43
80.0
  0
TEXT
  8
3
  40
120
  5
8282
  62
0
  72
0
  71
0
 10
2895.26
 20
5678.94
 30
0.000000
  1
620
  0
POINT
  5
8202
  8
DEFPOINTS
  6
CONTINUOUS
 62
     0
 10
2825.2565248480109
 20
5626.6926607044807
 30
0.0
  0
POINT
  5
8203
  8
DEFPOINTS
  6
CONTINUOUS
 62
     0
 10
3445.2565248480109
 20
4942.8640612473673
 30
0.0
  0
POINT
  5
8204
  8
DEFPOINTS
  6
CONTINUOUS
 62
     0
 10
3445.2565248480109
 20
5791.340448917178
 30
0.0
  0
ENDBLK
  5
7E9A
  8
0
  0
BLOCK
  8
0
  2
*D5
 70
     1
 10
0.0
 20
0.0
 30
0.0
  3
*D5
  1

  0
LINE
  5
8205
  8
3
  6
CONTINUOUS
 62
     0
 10
3465.2565248480109
 20
4902.8640612473673
 30
0.0
 11
3806.6782788480118
 21
4902.8640612473673
 31
0.0
  0
LINE
  5
8206
  8
3
  6
CONTINUOUS
 62
     0
 10
3465.2565248480109
 20
3977.8640612473669
 30
0.0
 11
3806.6782788480118
 21
3977.8640612473669
 31
0.0
  0
LINE
  5
8207
  8
3
  6
CONTINUOUS
 62
     0
 10
3766.6782788480118
 20
4822.8640612473682
 30
0.0
 11
3766.6782788480118
 21
4057.8640612473669
 31
0.0
  0
INSERT
  5
8208
  8
3
  6
CONTINUOUS
 62
     0
  2
_OPEN
 10
3766.6782788480118
 20
4902.8640612473673
 30
0.0
 41
80.0
 42
80.0
 43
80.0
 50
90.0
  0
INSERT
  5
8209
  8
3
  6
CONTINUOUS
 62
     0
  2
_OPEN
 10
3766.6782788480118
 20
3977.8640612473669
 30
0.0
 41
80.0
 42
80.0
 43
80.0
 50
270.0
  0
TEXT
  8
3
  40
120
  5
8283
  62
0
  72
0
  71
0
 10
3426.68
 20
4275.89
 30
0.000000
  1
925
  0
POINT
  5
820B
  8
DEFPOINTS
  6
CONTINUOUS
 62
     0
 10
3445.2565248480109
 20
4902.8640612473673
 30
0.0
  0
POINT
  5
820C
  8
DEFPOINTS
  6
CONTINUOUS
 62
     0
 10
3445.2565248480109
 20
3977.8640612473669
 30
0.0
  0
POINT
  5
820D
  8
DEFPOINTS
  6
CONTINUOUS
 62
     0
 10
3766.6782788480118
 20
3977.8640612473669
 30
0.0
  0
ENDBLK
  5
7D29
  8
0
  0
BLOCK
  8
0
  2
*D6
 70
     1
 10
0.0
 20
0.0
 30
0.0
  3
*D6
  1

  0
LINE
  5
820E
  8
3
  6
CONTINUOUS
 62
     0
 10
2845.2565248480109
 20
5581.8640612473673
 30
0.0
 11
4275.634774800812
 21
5581.8640612473673
 31
0.0
  0
LINE
  5
820F
  8
3
  6
CONTINUOUS
 62
     0
 10
3378.8238128480111
 20
4938.8640612473673
 30
0.0
 11
4275.634774800812
 21
4938.8640612473673
 31
0.0
  0
LINE
  5
8210
  8
3
  6
CONTINUOUS
 62
     0
 10
4235.634774800812
 20
5501.8640612473673
 30
0.0
 11
4235.634774800812
 21
5018.8640612473673
 31
0.0
  0
INSERT
  5
8211
  8
3
  6
CONTINUOUS
 62
     0
  2
_OPEN
 10
4235.634774800812
 20
5581.8640612473673
 30
0.0
 41
80.0
 42
80.0
 43
80.0
 50
90.0
  0
INSERT
  5
8212
  8
3
  6
CONTINUOUS
 62
     0
  2
_OPEN
 10
4235.634774800812
 20
4938.8640612473673
 30
0.0
 41
80.0
 42
80.0
 43
80.0
 50
270.0
  0
TEXT
  8
3
  40
120
  5
8284
  62
0
  72
0
  71
0
 10
3895.63
 20
5095.18
 30
0.000000
  1
643
  0
POINT
  5
8214
  8
DEFPOINTS
  6
CONTINUOUS
 62
     0
 10
2825.2565248480109
 20
5581.8640612473673
 30
0.0
  0
POINT
  5
8215
  8
DEFPOINTS
  6
CONTINUOUS
 62
     0
 10
3358.8238128480111
 20
4938.8640612473673
 30
0.0
  0
POINT
  5
8216
  8
DEFPOINTS
  6
CONTINUOUS
 62
     0
 10
4235.634774800812
 20
4938.8640612473673
 30
0.0
  0
ENDBLK
  5
7E6E
  8
0
  0
BLOCK
  8
0
  2
*D7
 70
     1
 10
0.0
 20
0.0
 30
0.0
  3
*D7
  1

  0
LINE
  5
8217
  8
3
  6
CONTINUOUS
 62
     0
 10
3378.8238128480111
 20
4938.8640612473673
 30
0.0
 11
4275.6347748008111
 21
4938.8640612473673
 31
0.0
  0
LINE
  5
8218
  8
3
  6
CONTINUOUS
 62
     0
 10
3405.2565248480109
 20
3838.8640612473669
 30
0.0
 11
4275.6347748008111
 21
3838.8640612473669
 31
0.0
  0
LINE
  5
8219
  8
3
  6
CONTINUOUS
 62
     0
 10
4235.6347748008111
 20
4858.8640612473673
 30
0.0
 11
4235.6347748008111
 21
3918.8640612473669
 31
0.0
  0
INSERT
  5
821A
  8
3
  6
CONTINUOUS
 62
     0
  2
_OPEN
 10
4235.6347748008111
 20
4938.8640612473673
 30
0.0
 41
80.0
 42
80.0
 43
80.0
 50
90.0
  0
INSERT
  5
821B
  8
3
  6
CONTINUOUS
 62
     0
  2
_OPEN
 10
4235.6347748008111
 20
3838.8640612473669
 30
0.0
 41
80.0
 42
80.0
 43
80.0
 50
270.0
  0
TEXT
  8
3
  40
120
  5
8285
  62
0
  72
0
  71
0
 10
3895.63
 20
4176.46
 30
0.000000
  1
1100
  0
POINT
  5
821D
  8
DEFPOINTS
  6
CONTINUOUS
 62
     0
 10
3358.8238128480111
 20
4938.8640612473673
 30
0.0
  0
POINT
  5
821E
  8
DEFPOINTS
  6
CONTINUOUS
 62
     0
 10
3385.2565248480109
 20
3838.8640612473669
 30
0.0
  0
POINT
  5
821F
  8
DEFPOINTS
  6
CONTINUOUS
 62
     0
 10
4235.6347748008111
 20
3838.8640612473669
 30
0.0
  0
ENDBLK
  5
7DA6
  8
0
  0
BLOCK
  8
0
  2
*D8
 70
     1
 10
0.0
 20
0.0
 30
0.0
  3
*D8
  1

  0
LINE
  5
8220
  8
3
  6
CONTINUOUS
 62
     0
 10
3378.8238128480111
 20
4938.8640612473673
 30
0.0
 11
4029.1453637089298
 21
4938.8640612473673
 31
0.0
  0
LINE
  5
8221
  8
3
  6
CONTINUOUS
 62
     0
 10
3465.2565248480109
 20
3977.8640612473669
 30
0.0
 11
4029.1453637089298
 21
3977.8640612473669
 31
0.0
  0
LINE
  5
8222
  8
3
  6
CONTINUOUS
 62
     0
 10
3989.1453637089289
 20
4858.8640612473673
 30
0.0
 11
3989.1453637089289
 21
4057.8640612473669
 31
0.0
  0
INSERT
  5
8223
  8
3
  6
CONTINUOUS
 62
     0
  2
_OPEN
 10
3989.1453637089289
 20
4938.8640612473673
 30
0.0
 41
80.0
 42
80.0
 43
80.0
 50
90.0
  0
INSERT
  5
8224
  8
3
  6
CONTINUOUS
 62
     0
  2
_OPEN
 10
3989.1453637089289
 20
3977.8640612473669
 30
0.0
 41
80.0
 42
80.0
 43
80.0
 50
270.0
  0
TEXT
  8
3
  40
120
  5
8286
  62
0
  72
0
  71
0
 10
3649.15
 20
4295.78
 30
0.000000
  1
961
  0
POINT
  5
8226
  8
DEFPOINTS
  6
CONTINUOUS
 62
     0
 10
3358.8238128480111
 20
4938.8640612473673
 30
0.0
  0
POINT
  5
8227
  8
DEFPOINTS
  6
CONTINUOUS
 62
     0
 10
3445.2565248480109
 20
3977.8640612473669
 30
0.0
  0
POINT
  5
8228
  8
DEFPOINTS
  6
CONTINUOUS
 62
     0
 10
3989.1453637089289
 20
3977.8640612473669
 30
0.0
  0
ENDBLK
  5
7DC7
  8
0
  0
BLOCK
  8
0
  2
*D9
 70
     1
 10
0.0
 20
0.0
 30
0.0
  3
*D9
  1

  0
LINE
  5
8229
  8
3
  6
CONTINUOUS
 62
     0
 10
2845.2565248480109
 20
5581.8640612473673
 30
0.0
 11
4754.5341231706916
 21
5581.8640612473673
 31
0.0
  0
LINE
  5
822A
  8
3
  6
CONTINUOUS
 62
     0
 10
3405.2565248480109
 20
3658.8640612473669
 30
0.0
 11
4754.5341231706916
 21
3658.8640612473669
 31
0.0
  0
LINE
  5
822B
  8
3
  6
CONTINUOUS
 62
     0
 10
4714.5341231706916
 20
5501.8640612473673
 30
0.0
 11
4714.5341231706916
 21
3738.8640612473669
 31
0.0
  0
INSERT
  5
822C
  8
3
  6
CONTINUOUS
 62
     0
  2
_OPEN
 10
4714.5341231706916
 20
5581.8640612473673
 30
0.0
 41
80.0
 42
80.0
 43
80.0
 50
90.0
  0
INSERT
  5
822D
  8
3
  6
CONTINUOUS
 62
     0
  2
_OPEN
 10
4714.5341231706916
 20
3658.8640612473669
 30
0.0
 41
80.0
 42
80.0
 43
80.0
 50
270.0
  0
TEXT
  8
3
  40
120
  5
8287
  62
0
  72
0
  71
0
 10
4374.53
 20
4648.41
 30
0.000000
  1
1923
  0
POINT
  5
822F
  8
DEFPOINTS
  6
CONTINUOUS
 62
     0
 10
2825.2565248480109
 20
5581.8640612473673
 30
0.0
  0
POINT
  5
8230
  8
DEFPOINTS
  6
CONTINUOUS
 62
     0
 10
3385.2565248480109
 20
3658.8640612473669
 30
0.0
  0
POINT
  5
8231
  8
DEFPOINTS
  6
CONTINUOUS
 62
     0
 10
4714.5341231706916
 20
3658.8640612473669
 30
0.0
  0
ENDBLK
  5
7E63
  8
0
  0
BLOCK
  8
0
  2
*D10
 70
     1
 10
0.0
 20
0.0
 30
0.0
  3
*D10
  1

  0
LINE
  5
8232
  8
3
  6
CONTINUOUS
 62
     0
 10
1485.2565248480109
 20
7318.1014702473667
 30
0.0
 11
1485.2565248480109
 21
6791.027319247366
 31
0.0
  0
LINE
  5
8233
  8
3
  6
CONTINUOUS
 62
     0
 10
3385.2565248480109
 20
7318.1014702473667
 30
0.0
 11
3385.2565248480109
 21
6791.027319247366
 31
0.0
  0
LINE
  5
8234
  8
3
  6
CONTINUOUS
 62
     0
 10
1565.2565248480109
 20
6831.0273192473669
 30
0.0
 11
3305.2565248480109
 21
6831.0273192473669
 31
0.0
  0
INSERT
  5
8235
  8
3
  6
CONTINUOUS
 62
     0
  2
_OPEN
 10
1485.2565248480109
 20
6831.0273192473669
 30
0.0
 41
80.0
 42
80.0
 43
80.0
 50
180.0
  0
INSERT
  5
8236
  8
3
  6
CONTINUOUS
 62
     0
  2
_OPEN
 10
3385.2565248480109
 20
6831.0273192473669
 30
0.0
 41
80.0
 42
80.0
 43
80.0
  0
TEXT
  8
3
  40
120
  5
8288
  62
0
  72
0
  71
0
 10
2229.77
 20
6718.63
 30
0.000000
  1
1900
  0
POINT
  5
8238
  8
DEFPOINTS
  6
CONTINUOUS
 62
     0
 10
1485.2565248480109
 20
7338.1014702473676
 30
0.0
  0
POINT
  5
8239
  8
DEFPOINTS
  6
CONTINUOUS
 62
     0
 10
3385.2565248480109
 20
7338.1014702473676
 30
0.0
  0
POINT
  5
823A
  8
DEFPOINTS
  6
CONTINUOUS
 62
     0
 10
3385.2565248480109
 20
6831.0273192473669
 30
0.0
  0
ENDBLK
  5
7CE5
  8
0
  0
BLOCK
  8
0
  2
*D11
 70
     1
 10
0.0
 20
0.0
 30
0.0
  3
*D11
  1

  0
LINE
  5
823B
  8
3
  6
CONTINUOUS
 62
     0
 10
3405.2565248480109
 20
8288.1014702473676
 30
0.0
 11
3862.288335848013
 21
8288.1014702473676
 31
0.0
  0
LINE
  5
823C
  8
3
  6
CONTINUOUS
 62
     0
 10
3405.2565248480109
 20
7338.1014702473676
 30
0.0
 11
3862.288335848013
 21
7338.1014702473676
 31
0.0
  0
LINE
  5
823D
  8
3
  6
CONTINUOUS
 62
     0
 10
3822.288335848014
 20
8208.1014702473694
 30
0.0
 11
3822.288335848014
 21
7418.1014702473676
 31
0.0
  0
INSERT
  5
823E
  8
3
  6
CONTINUOUS
 62
     0
  2
_OPEN
 10
3822.288335848014
 20
8288.1014702473676
 30
0.0
 41
80.0
 42
80.0
 43
80.0
 50
90.0
  0
INSERT
  5
823F
  8
3
  6
CONTINUOUS
 62
     0
  2
_OPEN
 10
3822.288335848014
 20
7338.1014702473676
 30
0.0
 41
80.0
 42
80.0
 43
80.0
 50
270.0
  0
TEXT
  8
3
  40
120
  5
8289
  62
0
  72
0
  71
0
 10
3482.29
 20
7676.15
 30
0.000000
  1
950
  0
POINT
  5
8241
  8
DEFPOINTS
  6
CONTINUOUS
 62
     0
 10
3385.2565248480109
 20
8288.1014702473676
 30
0.0
  0
POINT
  5
8242
  8
DEFPOINTS
  6
CONTINUOUS
 62
     0
 10
3385.2565248480109
 20
7338.1014702473676
 30
0.0
  0
POINT
  5
8243
  8
DEFPOINTS
  6
CONTINUOUS
 62
     0
 10
3822.288335848014
 20
7338.1014702473676
 30
0.0
  0
ENDBLK
  5
7CDA
  8
0
  0
BLOCK
  8
0
  2
*D12
 70
     1
 10
0.0
 20
0.0
 30
0.0
  3
*D12
  1

  0
LINE
  5
8244
  8
3
  6
CONTINUOUS
 62
     0
 10
6740.8370739360826
 20
5388.8640612473673
 30
0.0
 11
7088.0839808938426
 21
5388.8640612473673
 31
0.0
  0
LINE
  5
8245
  8
3
  6
CONTINUOUS
 62
     0
 10
6740.8370739360826
 20
4488.8640612473673
 30
0.0
 11
7088.0839808938426
 21
4488.8640612473673
 31
0.0
  0
LINE
  5
8246
  8
3
  6
CONTINUOUS
 62
     0
 10
7048.0839808938435
 20
5308.8640612473673
 30
0.0
 11
7048.0839808938435
 21
4568.8640612473673
 31
0.0
  0
INSERT
  5
8247
  8
3
  6
CONTINUOUS
 62
     0
  2
_OPEN
 10
7048.0839808938435
 20
5388.8640612473673
 30
0.0
 41
80.0
 42
80.0
 43
80.0
 50
90.0
  0
INSERT
  5
8248
  8
3
  6
CONTINUOUS
 62
     0
  2
_OPEN
 10
7048.0839808938435
 20
4488.8640612473673
 30
0.0
 41
80.0
 42
80.0
 43
80.0
 50
270.0
  0
TEXT
  8
3
  40
120
  5
828A
  62
0
  72
0
  71
0
 10
6708.08
 20
4708.64
 30
0.000000
  1
φ900
  0
POINT
  5
824A
  8
DEFPOINTS
  6
CONTINUOUS
 62
     0
 10
6720.8370739360826
 20
5388.8640612473673
 30
0.0
  0
POINT
  5
824B
  8
DEFPOINTS
  6
CONTINUOUS
 62
     0
 10
6720.8370739360826
 20
4488.8640612473673
 30
0.0
  0
POINT
  5
824C
  8
DEFPOINTS
  6
CONTINUOUS
 62
     0
 10
7048.0839808938435
 20
4488.8640612473673
 30
0.0
  0
ENDBLK
  5
7E2A
  8
0
  0
BLOCK
  8
0
  2
*D13
 70
     1
 10
0.0
 20
0.0
 30
0.0
  3
*D13
  1

  0
LINE
  5
7FA9
  8
3
  6
CONTINUOUS
 62
     0
 10
5755.8370739360844
 20
3638.8640612473669
 30
0.0
 11
5755.8370739360844
 21
3274.3532542473658
 31
0.0
  0
LINE
  5
7FAA
  8
3
  6
CONTINUOUS
 62
     0
 10
6302.8370739360844
 20
3493.2395522473662
 30
0.0
 11
6302.8370739360844
 21
3274.3532542473658
 31
0.0
  0
LINE
  5
7FAB
  8
3
  6
CONTINUOUS
 62
     0
 10
5675.8370739360826
 20
3314.3532542473658
 30
0.0
 11
5595.8370739360844
 21
3314.3532542473658
 31
0.0
  0
LINE
  5
7FAC
  8
3
  6
CONTINUOUS
 62
     0
 10
6382.8370739360844
 20
3314.3532542473658
 30
0.0
 11
6462.8370739360826
 21
3314.3532542473658
 31
0.0
  0
TEXT
  5
7FAD
  8
3
 62
     0
 10
5875.0513596503688
 20
3338.5944710809522
 30
0.0
 40
120.0
  1
547
  0
LINE
  5
7FAE
  8
3
  6
CONTINUOUS
 62
     0
 10
5755.8370739360844
 20
3314.3532542473658
 30
0.0
 11
6302.8370739360844
 21
3314.3532542473658
 31
0.0
  0
INSERT
  5
7FAF
  8
3
  6
CONTINUOUS
 62
     0
  2
_OPEN
 10
5755.8370739360844
 20
3314.3532542473658
 30
0.0
 41
80.0
 42
80.0
 43
80.0
  0
INSERT
  5
7FB0
  8
3
  6
CONTINUOUS
 62
     0
  2
_OPEN
 10
6302.8370739360844
 20
3314.3532542473658
 30
0.0
 41
80.0
 42
80.0
 43
80.0
 50
180.0
  0
POINT
  5
7FB1
  8
DEFPOINTS
  6
CONTINUOUS
 62
     0
 10
5755.8370739360844
 20
3658.8640612473669
 30
0.0
  0
POINT
  5
7FB2
  8
DEFPOINTS
  6
CONTINUOUS
 62
     0
 10
6302.8370739360844
 20
3513.2395522473671
 30
0.0
  0
POINT
  5
7FB3
  8
DEFPOINTS
  6
CONTINUOUS
 62
     0
 10
6302.8370739360844
 20
3314.3532542473658
 30
0.0
  0
ENDBLK
  5
7DF3
  8
0
  0
BLOCK
  8
0
  2
*D14
 70
     1
 10
0.0
 20
0.0
 30
0.0
  3
*D14
  1

  0
LINE
  5
7FB4
  8
3
  6
CONTINUOUS
 62
     0
 10
6302.8370739360844
 20
3493.2395522473662
 30
0.0
 11
6302.8370739360844
 21
3273.6709852473682
 31
0.0
  0
LINE
  5
7FB5
  8
3
  6
CONTINUOUS
 62
     0
 10
6705.8370739360844
 20
3638.8640612473669
 30
0.0
 11
6705.8370739360844
 21
3273.6709852473682
 31
0.0
  0
LINE
  5
7FB6
  8
3
  6
CONTINUOUS
 62
     0
 10
6382.8370739360844
 20
3313.6709852473682
 30
0.0
 11
6625.8370739360844
 21
3313.6709852473682
 31
0.0
  0
TEXT
  5
7FB7
  8
3
 62
     0
 10
6350.0513596503679
 20
3368.7723025849082
 30
0.0
 40
120.0
  1
403
  0
INSERT
  5
7FB8
  8
3
  6
CONTINUOUS
 62
     0
  2
_OPEN
 10
6302.8370739360844
 20
3313.6709852473682
 30
0.0
 41
80.0
 42
80.0
 43
80.0
 50
180.0
  0
INSERT
  5
7FB9
  8
3
  6
CONTINUOUS
 62
     0
  2
_OPEN
 10
6705.8370739360844
 20
3313.6709852473682
 30
0.0
 41
80.0
 42
80.0
 43
80.0
  0
POINT
  5
7FBA
  8
DEFPOINTS
  6
CONTINUOUS
 62
     0
 10
6302.8370739360844
 20
3513.2395522473671
 30
0.0
  0
POINT
  5
7FBB
  8
DEFPOINTS
  6
CONTINUOUS
 62
     0
 10
6705.8370739360844
 20
3658.8640612473669
 30
0.0
  0
POINT
  5
7FBC
  8
DEFPOINTS
  6
CONTINUOUS
 62
     0
 10
6705.8370739360844
 20
3313.6709852473682
 30
0.0
  0
ENDBLK
  5
7DFE
  8
0
  0
BLOCK
  8
0
  2
*D15
 70
     1
 10
0.0
 20
0.0
 30
0.0
  3
*D15
  1

  0
LINE
  5
824D
  8
3
  6
CONTINUOUS
 62
     0
 10
5967.8370739360844
 20
5601.8640612473682
 30
0.0
 11
5967.8370739360844
 21
5797.062677247367
 31
0.0
  0
LINE
  5
824E
  8
3
  6
CONTINUOUS
 62
     0
 10
6637.8370739360826
 20
5601.8640612473682
 30
0.0
 11
6637.8370739360826
 21
5797.062677247367
 31
0.0
  0
LINE
  5
824F
  8
3
  6
CONTINUOUS
 62
     0
 10
6047.8370739360826
 20
5757.062677247367
 30
0.0
 11
6557.8370739360844
 21
5757.062677247367
 31
0.0
  0
INSERT
  5
8250
  8
3
  6
CONTINUOUS
 62
     0
  2
_OPEN
 10
5967.8370739360844
 20
5757.062677247367
 30
0.0
 41
80.0
 42
80.0
 43
80.0
 50
180.0
  0
INSERT
  5
8251
  8
3
  6
CONTINUOUS
 62
     0
  2
_OPEN
 10
6637.8370739360826
 20
5757.062677247367
 30
0.0
 41
80.0
 42
80.0
 43
80.0
  0
TEXT
  8
3
  40
120
  5
828B
  62
0
  72
0
  71
0
 10
6002.12
 20
5644.66
 30
0.000000
  1
670
  0
POINT
  5
8253
  8
DEFPOINTS
  6
CONTINUOUS
 62
     0
 10
5967.8370739360844
 20
5581.8640612473673
 30
0.0
  0
POINT
  5
8254
  8
DEFPOINTS
  6
CONTINUOUS
 62
     0
 10
6637.8370739360826
 20
5581.8640612473673
 30
0.0
  0
POINT
  5
8255
  8
DEFPOINTS
  6
CONTINUOUS
 62
     0
 10
6637.8370739360826
 20
5757.062677247367
 30
0.0
  0
ENDBLK
  5
7CAA
  8
0
  0
BLOCK
  8
0
  2
*D16
 70
     1
 10
0.0
 20
0.0
 30
0.0
  3
*D16
  1

  0
LINE
  5
8256
  8
3
  6
CONTINUOUS
 62
     0
 10
5642.8370739360844
 20
5161.264061247367
 30
0.0
 11
5642.8370739360844
 21
6073.6271231281862
 31
0.0
  0
LINE
  5
8257
  8
3
  6
CONTINUOUS
 62
     0
 10
6302.8370739360844
 20
5978.1874901281872
 30
0.0
 11
6302.8370739360844
 21
6073.6271231281862
 31
0.0
  0
LINE
  5
8258
  8
3
  6
CONTINUOUS
 62
     0
 10
5722.8370739360844
 20
6033.6271231281862
 30
0.0
 11
6222.8370739360844
 21
6033.6271231281862
 31
0.0
  0
INSERT
  5
8259
  8
3
  6
CONTINUOUS
 62
     0
  2
_OPEN
 10
5642.8370739360844
 20
6033.6271231281862
 30
0.0
 41
80.0
 42
80.0
 43
80.0
 50
180.0
  0
INSERT
  5
825A
  8
3
  6
CONTINUOUS
 62
     0
  2
_OPEN
 10
6302.8370739360844
 20
6033.6271231281862
 30
0.0
 41
80.0
 42
80.0
 43
80.0
  0
TEXT
  8
3
  40
120
  5
828C
  62
0
  72
0
  71
0
 10
5771.41
 20
6021.23
 30
0.000000
  1
MAX
  0
TEXT
  8
3
  40
120
  5
828D
  62
0
  72
0
  71
0
 10
5771.41
 20
5865.23
 30
0.000000
  1
720
  0
POINT
  5
825C
  8
DEFPOINTS
  6
CONTINUOUS
 62
     0
 10
5642.8370739360844
 20
5141.264061247367
 30
0.0
  0
POINT
  5
825D
  8
DEFPOINTS
  6
CONTINUOUS
 62
     0
 10
6302.8370739360844
 20
5958.1874901281863
 30
0.0
  0
POINT
  5
825E
  8
DEFPOINTS
  6
CONTINUOUS
 62
     0
 10
6302.8370739360844
 20
6033.6271231281862
 30
0.0
  0
ENDBLK
  5
7E56
  8
0
  0
BLOCK
  8
0
  2
*D17
 70
     1
 10
0.0
 20
0.0
 30
0.0
  3
*D17
  1

  0
LINE
  5
7E37
  8
0
  6
BYBLOCK
 62
     0
 10
6302.8370739360844
 20
5978.1874901281872
 30
0.0
 11
6302.8370739360844
 21
6073.6271231281862
 31
0.0
  0
LINE
  5
7E38
  8
0
  6
BYBLOCK
 62
     0
 10
6720.8370739360826
 20
5448.8640612473673
 30
0.0
 11
6720.8370739360826
 21
6073.6271231281862
 31
0.0
  0
LINE
  5
7E39
  8
0
  6
BYBLOCK
 62
     0
 10
6382.8370739360844
 20
6033.6271231281862
 30
0.0
 11
6640.8370739360826
 21
6033.6271231281862
 31
0.0
  0
TEXT
  5
7E3A
  8
3
 62
     0
 10
6368.9799310789404
 20
6070.3967188231263
 30
0.0
 40
120.0
  1
418
  0
INSERT
  5
7E3B
  8
0
  6
BYBLOCK
 62
     0
  2
_OPEN
 10
6302.8370739360844
 20
6033.6271231281862
 30
0.0
 41
80.0
 42
80.0
 43
80.0
 50
180.0
  0
INSERT
  5
7E3C
  8
0
  6
BYBLOCK
 62
     0
  2
_OPEN
 10
6720.8370739360826
 20
6033.6271231281862
 30
0.0
 41
80.0
 42
80.0
 43
80.0
  0
POINT
  5
7E3D
  8
DEFPOINTS
  6
BYBLOCK
 62
     0
 10
6302.8370739360844
 20
5958.1874901281863
 30
0.0
  0
POINT
  5
7E3E
  8
DEFPOINTS
  6
BYBLOCK
 62
     0
 10
6720.8370739360826
 20
5428.8640612473673
 30
0.0
  0
POINT
  5
7E3F
  8
DEFPOINTS
  6
BYBLOCK
 62
     0
 10
6720.8370739360826
 20
6033.6271231281862
 30
0.0
  0
ENDBLK
  5
7E40
  8
0
  0
BLOCK
  8
0
  2
*D18
 70
     1
 10
0.0
 20
0.0
 30
0.0
  3
*D18
  1

  0
LINE
  5
825F
  8
3
 62
     0
 10
3445.2565248480109
 20
4962.8640612473673
 30
0.0
 11
3445.2565248480109
 21
6092.7087757828303
 31
0.0
  0
LINE
  5
8260
  8
3
 62
     0
 10
1485.2565248480109
 20
3983.8640612473669
 30
0.0
 11
1485.2565248480109
 21
6092.7087757828303
 31
0.0
  0
LINE
  5
8261
  8
3
 62
     0
 10
3365.2565248480109
 20
6052.7087757828303
 30
0.0
 11
1565.2565248480109
 21
6052.7087757828303
 31
0.0
  0
INSERT
  5
8262
  8
3
 62
     0
  2
_OPEN
 10
3445.2565248480109
 20
6052.7087757828303
 30
0.0
 41
80.0
 42
80.0
 43
80.0
  0
INSERT
  5
8263
  8
3
 62
     0
  2
_OPEN
 10
1485.2565248480109
 20
6052.7087757828303
 30
0.0
 41
80.0
 42
80.0
 43
80.0
 50
180.0
  0
TEXT
  8
3
  40
120
  5
828E
  62
0
  72
0
  71
0
 10
2311.11
 20
5940.31
 30
0.000000
  1
1960
  0
POINT
  5
8265
  8
DEFPOINTS
 62
     0
 10
3445.2565248480109
 20
4942.8640612473673
 30
0.0
  0
POINT
  5
8266
  8
DEFPOINTS
 62
     0
 10
1485.2565248480109
 20
3963.8640612473669
 30
0.0
  0
POINT
  5
8267
  8
DEFPOINTS
 62
     0
 10
1485.2565248480109
 20
6052.7087757828303
 30
0.0
  0
ENDBLK
  5
7EB1
  8
0
  0
BLOCK
  8
0
  2
*D19
 70
     1
 10
0.0
 20
0.0
 30
0.0
  3
*D19
  1

  0
LINE
  5
8268
  8
3
 62
     0
 10
3405.2565248480109
 20
3838.8640612473669
 30
0.0
 11
4275.6347748008111
 21
3838.8640612473669
 31
0.0
  0
LINE
  5
8269
  8
3
 62
     0
 10
3405.2565248480109
 20
3723.8640612473669
 30
0.0
 11
4275.6347748008111
 21
3723.8640612473669
 31
0.0
  0
LINE
  5
826A
  8
3
 62
     0
 10
4235.6347748008111
 20
3838.8640612473669
 30
0.0
 11
4235.6347748008111
 21
3723.8640612473669
 31
0.0
  0
LINE
  5
826B
  8
3
 62
     0
 10
4235.6347748008111
 20
3781.3640612473682
 30
0.0
 11
4609.9204890865249
 21
3893.649775533082
 31
0.0
  0
LINE
  5
826C
  8
3
 62
     0
 10
4609.9204890865249
 20
3893.649775533082
 30
0.0
 11
4609.9204890865249
 21
4390.792632675938
 31
0.0
  0
TEXT
  8
3
  40
120
  5
828F
  62
0
  72
0
  71
0
 10
4238.49
 20
3929.82
 30
0.000000
  1
(115)
  0
POINT
  5
826E
  8
DEFPOINTS
 62
     0
 10
3385.2565248480109
 20
3838.8640612473669
 30
0.0
  0
POINT
  5
826F
  8
DEFPOINTS
 62
     0
 10
3385.2565248480109
 20
3723.8640612473669
 30
0.0
  0
POINT
  5
8270
  8
DEFPOINTS
 62
     0
 10
4235.6347748008111
 20
3723.8640612473669
 30
0.0
  0
ENDBLK
  5
7FCF
  8
0
  0
BLOCK
  8
0
  2
*D20
 70
     1
 10
0.0
 20
0.0
 30
0.0
  3
*D20
  1

  0
LINE
  5
8271
  8
3
 62
     0
 10
3405.2565248480109
 20
3723.8640612473669
 30
0.0
 11
4275.6347748008111
 21
3723.8640612473669
 31
0.0
  0
LINE
  5
8272
  8
3
 62
     0
 10
3405.2565248480109
 20
3658.8640612473669
 30
0.0
 11
4275.6347748008111
 21
3658.8640612473669
 31
0.0
  0
LINE
  5
8273
  8
3
 62
     0
 10
4235.6347748008111
 20
3723.8640612473669
 30
0.0
 11
4235.6347748008111
 21
3803.8640612473669
 31
0.0
  0
LINE
  5
8274
  8
3
 62
     0
 10
4235.6347748008111
 20
3578.8640612473669
 30
0.0
 11
4235.6347748008111
 21
3498.8640612473669
 31
0.0
  0
TEXT
  8
3
  40
120
  5
8290
  62
0
  72
0
  71
0
 10
3918.92
 20
3243.40
 30
0.000000
  1
65
  0
LINE
  5
8276
  8
3
 62
     0
 10
4235.6347748008111
 20
3723.8640612473669
 30
0.0
 11
4235.6347748008111
 21
3658.8640612473669
 31
0.0
  0
INSERT
  5
8277
  8
3
 62
     0
  2
_DOTSMALL
 10
4235.6347748008111
 20
3723.8640612473669
 30
0.0
 41
80.0
 42
80.0
 43
80.0
 50
270.0
  0
INSERT
  5
8278
  8
3
 62
     0
  2
_OPEN
 10
4235.6347748008111
 20
3658.8640612473669
 30
0.0
 41
80.0
 42
80.0
 43
80.0
 50
90.0
  0
POINT
  5
8279
  8
DEFPOINTS
 62
     0
 10
3385.2565248480109
 20
3723.8640612473669
 30
0.0
  0
POINT
  5
827A
  8
DEFPOINTS
 62
     0
 10
3385.2565248480109
 20
3658.8640612473669
 30
0.0
  0
POINT
  5
827B
  8
DEFPOINTS
 62
     0
 10
4235.6347748008111
 20
3658.8640612473669
 30
0.0
  0
ENDBLK
  5
7FE1
  8
0
  0
BLOCK
  8
0
  2
_DOTSMALL
 70
     0
 10
0.0
 20
0.0
 30
0.0
  3
_DOTSMALL
  1

  0
POLYLINE
  5
8005
  8
3
 62
     0
 66
     1
 10
0.0
 20
0.0
 30
0.0
 70
     1
 40
0.5
 41
0.5
  0
VERTEX
  5
827C
  8
3
 62
     0
 10
-0.0625
 20
0.0
 30
0.0
 42
1.0
  0
VERTEX
  5
827D
  8
3
 62
     0
 10
0.0625
 20
0.0
 30
0.0
 42
1.0
  0
SEQEND
  5
827E
  8
3
 62
     0
  0
ENDBLK
  5
8007
  8
0
  0
BLOCK
  8
0
  2
_NONE
 70
     0
 10
0.0
 20
0.0
 30
0.0
  3
_NONE
  1

  0
ENDBLK
  5
8015
  8
0
  0
ENDSEC
  0
SECTION
  2
ENTITIES
  0
LINE
  5
7A79
  8
2
  6
CENTER
 10
1547.8565248480111
 20
4173.8640612473673
 30
0.0
 11
1862.656524848011
 21
4173.8640612473673
 31
0.0
  0
CIRCLE
  5
7A7A
  8
1
  6
CONTINUOUS
 10
1705.2565248480109
 20
4173.8640612473673
 30
0.0
 40
152.40000000000001
  0
LINE
  5
7A7B
  8
1
  6
CONTINUOUS
 10
1507.7565248480109
 20
3963.8640612473669
 30
0.0
 11
1902.7565248480109
 21
3963.8640612473669
 31
0.0
  0
ARC
  5
7A7C
  8
1
  6
CONTINUOUS
 10
1705.2565248480109
 20
4173.8640612473673
 30
0.0
 40
162.0
 50
324.972283
 51
215.02771699999991
  0
LINE
  5
7A7D
  8
1
  6
CONTINUOUS
 10
1485.2565248480109
 20
3963.8640612473669
 30
0.0
 11
3385.2565248480109
 21
3963.8640612473669
 31
0.0
  0
LINE
  5
7A7E
  8
1
  6
CONTINUOUS
 10
1485.2565248480109
 20
3838.8640612473669
 30
0.0
 11
3385.2565248480109
 21
3838.8640612473669
 31
0.0
  0
ARC
  5
7A7F
  8
1
  6
CONTINUOUS
 10
1705.2565248480109
 20
4173.8640612473673
 30
0.0
 40
202.40000000000001
 50
124.33447099999989
 51
304.33447099999989
  0
LINE
  5
7A80
  8
1
  6
CONTINUOUS
 10
1591.098277848012
 20
4340.9977042473674
 30
0.0
 11
2711.098277848012
 21
5105.9977042473683
 31
0.0
  0
LINE
  5
7A81
  8
1
  6
CONTINUOUS
 10
1619.299425848011
 20
4299.7097492473667
 30
0.0
 11
2739.2994258480121
 21
5064.7097492473658
 31
0.0
  0
LINE
  5
7A82
  8
1
  6
CONTINUOUS
 10
1485.2565248480109
 20
3723.8640612473669
 30
0.0
 11
3385.2565248480109
 21
3723.8640612473669
 31
0.0
  0
LINE
  5
7A83
  8
1
  6
CONTINUOUS
 10
1485.2565248480109
 20
3658.8640612473669
 30
0.0
 11
3385.2565248480109
 21
3658.8640612473669
 31
0.0
  0
LINE
  5
7A84
  8
1
  6
CONTINUOUS
 10
1551.2565248480109
 20
4013.8640612473669
 30
0.0
 11
1517.7565248480109
 21
4013.8640612473669
 31
0.0
  0
LINE
  5
7A85
  8
1
  6
CONTINUOUS
 10
1517.7565248480109
 20
4013.8640612473669
 30
0.0
 11
1507.7565248480109
 21
3963.8640612473669
 31
0.0
  0
LINE
  5
7A86
  8
1
  6
CONTINUOUS
 10
1551.2565248480109
 20
4031.8640612473669
 30
0.0
 11
1572.598858848012
 21
4080.8804942473671
 31
0.0
  0
LINE
  5
7A87
  8
1
  6
CONTINUOUS
 10
1551.2565248480109
 20
4013.8640612473669
 30
0.0
 11
1551.2565248480109
 21
4031.8640612473669
 31
0.0
  0
LINE
  5
7A88
  8
1
  6
CONTINUOUS
 10
1485.2565248480109
 20
3963.8640612473669
 30
0.0
 11
1485.2565248480109
 21
3838.8640612473669
 31
0.0
  0
LINE
  5
7A89
  8
1
  6
CONTINUOUS
 10
1485.2565248480109
 20
3723.8640612473669
 30
0.0
 11
1485.2565248480109
 21
3658.8640612473669
 31
0.0
  0
LINE
  5
7A8A
  8
2
  6
CENTER
 10
1705.2565248480109
 20
4016.4640612473672
 30
0.0
 11
1705.2565248480109
 21
4331.264061247367
 31
0.0
  0
LINE
  5
7A8B
  8
1
  6
CONTINUOUS
 10
3405.2565248480109
 20
3981.2617102473678
 30
0.0
 11
3405.2565248480109
 21
4902.8640612473673
 31
0.0
  0
LINE
  5
7A8C
  8
1
  6
CONTINUOUS
 10
3445.2565248480109
 20
3937.8640612473669
 30
0.0
 11
3445.2565248480109
 21
4942.8640612473673
 31
0.0
  0
ARC
  5
7A8D
  8
1
  6
CONTINUOUS
 10
2892.2565248480109
 20
4871.8640612473682
 30
0.0
 40
844.0
 50
175.4468479999999
 51
265.44684799999987
  0
LINE
  5
7A8E
  8
1
  6
CONTINUOUS
 10
1819.4147718480119
 20
4006.7304182473672
 30
0.0
 11
2939.4147718480122
 21
4771.7304182473681
 31
0.0
  0
LINE
  5
7A8F
  8
1
  6
CONTINUOUS
 10
1791.213623848012
 20
4048.018373247367
 30
0.0
 11
2911.213623848012
 21
4813.0183732473661
 31
0.0
  0
LINE
  5
7A90
  8
1
  6
CONTINUOUS
 10
2825.2565248480109
 20
4030.527624247366
 30
0.0
 11
3445.2565248480109
 21
3977.8640612473669
 31
0.0
  0
LINE
  5
7A91
  8
1
  6
CONTINUOUS
 10
1902.7565248480109
 20
3963.8640612473669
 30
0.0
 11
1892.7565248480109
 21
4013.8640612473669
 31
0.0
  0
LINE
  5
7A92
  8
1
  6
CONTINUOUS
 10
1892.7565248480109
 20
4013.8640612473669
 30
0.0
 11
1859.2565248480109
 21
4013.8640612473669
 31
0.0
  0
LINE
  5
7A93
  8
1
  6
CONTINUOUS
 10
1859.2565248480109
 20
4013.8640612473669
 30
0.0
 11
1859.2565248480109
 21
4031.8640612473669
 31
0.0
  0
LINE
  5
7A94
  8
1
  6
CONTINUOUS
 10
1859.2565248480109
 20
4031.8640612473669
 30
0.0
 11
1837.9141908480119
 21
4080.8804942473671
 31
0.0
  0
LINE
  5
7A95
  8
1
  6
CONTINUOUS
 10
3385.2565248480109
 20
3963.8640612473669
 30
0.0
 11
3385.2565248480109
 21
3838.8640612473669
 31
0.0
  0
LINE
  5
7A96
  8
1
  6
CONTINUOUS
 10
3385.2565248480109
 20
3723.8640612473669
 30
0.0
 11
3385.2565248480109
 21
3658.8640612473669
 31
0.0
  0
LINE
  5
7A97
  8
2
  6
CENTER
 10
1953.8380718480109
 20
4938.8640612473673
 30
0.0
 11
3523.6315418480108
 21
4938.8640612473673
 31
0.0
  0
CIRCLE
  5
7A98
  8
1
  6
CONTINUOUS
 10
2825.2565248480109
 20
4938.8640612473673
 30
0.0
 40
152.40000000000001
  0
CIRCLE
  5
7A99
  8
1
  6
CONTINUOUS
 10
2825.2565248480109
 20
4938.8640612473673
 30
0.0
 40
490.0
  0
CIRCLE
  5
7A9A
  8
1
  6
CONTINUOUS
 10
2825.2565248480109
 20
4938.8640612473673
 30
0.0
 40
450.0
  0
ARC
  5
7A9B
  8
1
  6
CONTINUOUS
 10
2771.7565248480109
 20
4992.3640612473682
 30
0.0
 40
589.5
 50
354.79296399999998
 51
84.792963999999998
  0
ARC
  5
7A9C
  8
1
  6
CONTINUOUS
 10
2825.2565248480109
 20
4938.8640612473673
 30
0.0
 40
202.40000000000001
 50
304.33447099999989
 51
124.33447099999989
  0
LINE
  5
7A9D
  8
2
  6
CENTER
 10
2825.2565248480109
 20
8421.7660862473676
 30
0.0
 11
2825.2565248480109
 21
7111.5291862473678
 31
0.0
  0
ARC
  5
7A9E
  8
1
  6
CONTINUOUS
 10
2758.2565248480109
 20
4871.8640612473682
 30
0.0
 40
710.0
 50
84.585157999999979
 51
174.58515800000001
  0
LINE
  5
7A9F
  8
1
  6
CONTINUOUS
 10
3352.883089848011
 20
4902.8640612473673
 30
0.0
 11
3445.2565248480109
 21
4902.8640612473673
 31
0.0
  0
ARC
  5
7AA0
  8
1
  6
CONTINUOUS
 10
2878.7565248480109
 20
4992.3640612473682
 30
0.0
 40
482.5
 50
349.31016799999998
 51
353.63390600000002
  0
LINE
  5
7AA1
  8
1
  6
CONTINUOUS
 10
5760.3370739360826
 20
4326.264061247367
 30
0.0
 11
5760.3370739360826
 21
4021.4640612473672
 31
0.0
  0
LINE
  5
7AA2
  8
1
  6
CONTINUOUS
 10
5782.8370739360826
 20
5141.264061247367
 30
0.0
 11
5782.8370739360826
 21
3971.4640612473659
 31
0.0
  0
LINE
  5
7AA3
  8
1
  6
CONTINUOUS
 10
5642.8370739360844
 20
5141.264061247367
 30
0.0
 11
5642.8370739360844
 21
3971.4640612473659
 31
0.0
  0
LINE
  5
7AA4
  8
1
  6
CONTINUOUS
 10
5685.3370739360826
 20
4326.264061247367
 30
0.0
 11
5685.3370739360826
 21
4021.4640612473672
 31
0.0
  0
LINE
  5
7AA5
  8
1
  6
CONTINUOUS
 10
5795.3370739360826
 20
4335.8640612473673
 30
0.0
 11
5795.3370739360826
 21
3963.8640612473669
 31
0.0
  0
LINE
  5
7AA6
  8
1
  6
CONTINUOUS
 10
5967.8370739360844
 20
5581.8640612473673
 30
0.0
 11
5967.8370739360844
 21
3963.8640612473669
 31
0.0
  0
LINE
  5
7AA7
  8
1
  6
CONTINUOUS
 10
6637.8370739360826
 20
5581.8640612473673
 30
0.0
 11
6637.8370739360826
 21
3963.8640612473669
 31
0.0
  0
LINE
  5
7AA8
  8
1
  6
CONTINUOUS
 10
5967.8370739360844
 20
4902.8640612473673
 30
0.0
 11
6637.8370739360826
 21
3977.8640612473669
 31
0.0
  0
LINE
  5
7AA9
  8
1
  6
CONTINUOUS
 10
6637.8370739360826
 20
4902.8640612473673
 30
0.0
 11
5967.8370739360844
 21
3977.8640612473669
 31
0.0
  0
LINE
  5
7AAA
  8
1
  6
CONTINUOUS
 10
5755.8370739360844
 20
3658.8640612473669
 30
0.0
 11
6705.8370739360844
 21
3658.8640612473669
 31
0.0
  0
LINE
  5
7AAB
  8
1
  6
CONTINUOUS
 10
5755.8370739360844
 20
3723.8640612473669
 30
0.0
 11
6705.8370739360844
 21
3723.8640612473669
 31
0.0
  0
LINE
  5
7AAC
  8
1
  6
CONTINUOUS
 10
5755.8370739360844
 20
3963.8640612473669
 30
0.0
 11
6705.8370739360844
 21
3963.8640612473669
 31
0.0
  0
LINE
  5
7AAD
  8
1
  6
CONTINUOUS
 10
5755.8370739360844
 20
3838.8640612473669
 30
0.0
 11
6705.8370739360844
 21
3838.8640612473669
 31
0.0
  0
LINE
  5
7AAE
  8
1
  6
CONTINUOUS
 10
5967.8370739360844
 20
3977.8640612473669
 30
0.0
 11
6637.8370739360826
 21
3977.8640612473669
 31
0.0
  0
LINE
  5
7AAF
  8
1
  6
CONTINUOUS
 10
5755.8370739360844
 20
3723.8640612473669
 30
0.0
 11
5755.8370739360844
 21
3658.8640612473669
 31
0.0
  0
LINE
  5
7AB0
  8
1
  6
CONTINUOUS
 10
5642.8370739360844
 20
3971.4640612473659
 30
0.0
 11
5782.8370739360826
 21
3971.4640612473659
 31
0.0
  0
LINE
  5
7AB1
  8
1
  6
CONTINUOUS
 10
5685.3370739360826
 20
4021.4640612473672
 30
0.0
 11
5760.3370739360826
 21
4021.4640612473672
 31
0.0
  0
LINE
  5
7AB2
  8
1
  6
CONTINUOUS
 10
5795.3370739360826
 20
4013.8640612473669
 30
0.0
 11
5967.8370739360844
 21
4013.8640612473669
 31
0.0
  0
LINE
  5
7AB3
  8
1
  6
CONTINUOUS
 10
5755.8370739360844
 20
3963.8640612473669
 30
0.0
 11
5755.8370739360844
 21
3838.8640612473669
 31
0.0
  0
LINE
  5
7AB4
  8
1
  6
CONTINUOUS
 10
6705.8370739360844
 20
3723.8640612473669
 30
0.0
 11
6705.8370739360844
 21
3658.8640612473669
 31
0.0
  0
LINE
  5
7AB5
  8
1
  6
CONTINUOUS
 10
6705.8370739360844
 20
3963.8640612473669
 30
0.0
 11
6705.8370739360844
 21
3838.8640612473669
 31
0.0
  0
LINE
  5
7AB6
  8
1
  6
CONTINUOUS
 10
6720.8370739360826
 20
5428.8640612473673
 30
0.0
 11
6720.8370739360826
 21
4448.8640612473673
 31
0.0
  0
LINE
  5
7AB7
  8
1
  6
CONTINUOUS
 10
5760.3370739360826
 20
5091.264061247367
 30
0.0
 11
5760.3370739360826
 21
4786.4640612473668
 31
0.0
  0
LINE
  5
7AB8
  8
1
  6
CONTINUOUS
 10
5685.3370739360826
 20
5091.264061247367
 30
0.0
 11
5685.3370739360826
 21
4786.4640612473668
 31
0.0
  0
LINE
  5
7AB9
  8
1
  6
CONTINUOUS
 10
5967.8370739360844
 20
4902.8640612473673
 30
0.0
 11
6637.8370739360826
 21
4902.8640612473673
 31
0.0
  0
LINE
  5
7ABA
  8
1
  6
CONTINUOUS
 10
5685.3370739360826
 20
4326.264061247367
 30
0.0
 11
5760.3370739360826
 21
4326.264061247367
 31
0.0
  0
LINE
  5
7ABB
  8
1
  6
CONTINUOUS
 10
5685.3370739360826
 20
4786.4640612473668
 30
0.0
 11
5760.3370739360826
 21
4786.4640612473668
 31
0.0
  0
LINE
  5
7ABC
  8
1
  6
CONTINUOUS
 10
5760.3370739360826
 20
4152.8640612473673
 30
0.0
 11
5795.3370739360826
 21
4152.8640612473673
 31
0.0
  0
LINE
  5
7ABD
  8
1
  6
CONTINUOUS
 10
5760.3370739360826
 20
4194.8640612473673
 30
0.0
 11
5795.3370739360826
 21
4194.8640612473673
 31
0.0
  0
LINE
  5
7ABE
  8
1
  6
CONTINUOUS
 10
5760.3370739360826
 20
4908.8640612473673
 30
0.0
 11
5967.8370739360844
 21
4908.8640612473673
 31
0.0
  0
LINE
  5
7ABF
  8
1
  6
CONTINUOUS
 10
5795.3370739360826
 20
4335.8640612473673
 30
0.0
 11
5967.8370739360844
 21
4335.8640612473673
 31
0.0
  0
LINE
  5
7AC0
  8
1
  6
CONTINUOUS
 10
6637.8370739360826
 20
4488.8640612473673
 30
0.0
 11
6720.8370739360826
 21
4488.8640612473673
 31
0.0
  0
LINE
  5
7AC1
  8
1
  6
CONTINUOUS
 10
5967.8370739360844
 20
5581.8640612473673
 30
0.0
 11
6637.8370739360826
 21
5581.8640612473673
 31
0.0
  0
LINE
  5
7AC2
  8
1
  6
CONTINUOUS
 10
5642.8370739360844
 20
5141.264061247367
 30
0.0
 11
5782.8370739360826
 21
5141.264061247367
 31
0.0
  0
LINE
  5
7AC3
  8
1
  6
CONTINUOUS
 10
5685.3370739360826
 20
5091.264061247367
 30
0.0
 11
5760.3370739360826
 21
5091.264061247367
 31
0.0
  0
LINE
  5
7AC4
  8
1
  6
CONTINUOUS
 10
5760.3370739360826
 20
4968.8640612473682
 30
0.0
 11
5967.8370739360844
 21
4968.8640612473682
 31
0.0
  0
LINE
  5
7AC5
  8
1
  6
CONTINUOUS
 10
6637.8370739360826
 20
5388.8640612473673
 30
0.0
 11
6720.8370739360826
 21
5388.8640612473673
 31
0.0
  0
LINE
  5
7AC6
  8
1
  6
CONTINUOUS
 10
1857.656524848011
 20
7342.6014702473676
 30
0.0
 11
1552.8565248480111
 21
7342.6014702473676
 31
0.0
  0
LINE
  5
7AC7
  8
1
  6
CONTINUOUS
 10
1502.8565248480111
 20
7365.1014702473667
 30
0.0
 11
3027.6565248480119
 21
7365.1014702473667
 31
0.0
  0
LINE
  5
7AC8
  8
1
  6
CONTINUOUS
 10
1502.8565248480111
 20
7225.1014702473676
 30
0.0
 11
3027.6565248480119
 21
7225.1014702473676
 31
0.0
  0
LINE
  5
7AC9
  8
1
  6
CONTINUOUS
 10
1543.2565248480109
 20
7377.6014702473667
 30
0.0
 11
1867.2565248480109
 21
7377.6014702473667
 31
0.0
  0
LINE
  5
7ACA
  8
1
  6
CONTINUOUS
 10
1857.656524848011
 20
7267.6014702473676
 30
0.0
 11
1552.8565248480111
 21
7267.6014702473676
 31
0.0
  0
LINE
  5
7ACB
  8
1
  6
CONTINUOUS
 10
1543.2565248480109
 20
7870.6014702473676
 30
0.0
 11
1867.2565248480109
 21
7870.6014702473676
 31
0.0
  0
LINE
  5
7ACC
  8
1
  6
CONTINUOUS
 10
1485.2565248480109
 20
8288.1014702473676
 30
0.0
 11
2375.2565248480109
 21
8288.1014702473676
 31
0.0
  0
LINE
  5
7ACD
  8
1
  6
CONTINUOUS
 10
1543.2565248480109
 20
7377.6014702473667
 30
0.0
 11
1543.2565248480109
 21
7870.6014702473676
 31
0.0
  0
LINE
  5
7ACE
  8
1
  6
CONTINUOUS
 10
1485.2565248480109
 20
8288.1014702473676
 30
0.0
 11
1485.2565248480109
 21
7338.1014702473676
 31
0.0
  0
LINE
  5
7ACF
  8
1
  6
CONTINUOUS
 10
1502.8565248480111
 20
7225.1014702473676
 30
0.0
 11
1502.8565248480111
 21
7365.1014702473667
 31
0.0
  0
LINE
  5
7AD0
  8
1
  6
CONTINUOUS
 10
1552.8565248480111
 20
7342.6014702473676
 30
0.0
 11
1552.8565248480111
 21
7267.6014702473676
 31
0.0
  0
LINE
  5
7AD1
  8
1
  6
CONTINUOUS
 10
1485.2565248480109
 20
7338.1014702473676
 30
0.0
 11
1552.8565248480111
 21
7338.1014702473676
 31
0.0
  0
LINE
  5
7AD2
  8
1
  6
CONTINUOUS
 10
2672.8565248480122
 20
7342.6014702473676
 30
0.0
 11
2977.6565248480119
 21
7342.6014702473676
 31
0.0
  0
LINE
  5
7AD3
  8
1
  6
CONTINUOUS
 10
2672.8565248480122
 20
7267.6014702473676
 30
0.0
 11
2977.6565248480119
 21
7267.6014702473676
 31
0.0
  0
LINE
  5
7AD4
  8
1
  6
CONTINUOUS
 10
2335.2565248480109
 20
8303.1014702473676
 30
0.0
 11
3315.2565248480109
 21
8303.1014702473676
 31
0.0
  0
LINE
  5
7AD5
  8
1
  6
CONTINUOUS
 10
2048.2565248480109
 20
8220.1014702473676
 30
0.0
 11
3445.2565248480109
 21
8220.1014702473676
 31
0.0
  0
LINE
  5
7AD6
  8
1
  6
CONTINUOUS
 10
2048.2565248480109
 20
7550.1014702473676
 30
0.0
 11
3445.2565248480109
 21
7550.1014702473676
 31
0.0
  0
LINE
  5
7AD7
  8
1
  6
CONTINUOUS
 10
1867.2565248480109
 20
7377.6014702473667
 30
0.0
 11
1867.2565248480109
 21
7870.6014702473676
 31
0.0
  0
LINE
  5
7AD8
  8
1
  6
CONTINUOUS
 10
2048.2565248480109
 20
8220.1014702473676
 30
0.0
 11
2048.2565248480109
 21
7550.1014702473676
 31
0.0
  0
LINE
  5
7AD9
  8
1
  6
CONTINUOUS
 10
1857.656524848011
 20
7338.1014702473676
 30
0.0
 11
2672.8565248480122
 21
7338.1014702473676
 31
0.0
  0
LINE
  5
7ADA
  8
1
  6
CONTINUOUS
 10
1857.656524848011
 20
7342.6014702473676
 30
0.0
 11
1857.656524848011
 21
7267.6014702473676
 31
0.0
  0
LINE
  5
7ADB
  8
1
  6
CONTINUOUS
 10
1684.2565248480109
 20
7342.6014702473676
 30
0.0
 11
1684.2565248480109
 21
7377.6014702473667
 31
0.0
  0
LINE
  5
7ADC
  8
1
  6
CONTINUOUS
 10
1726.2565248480109
 20
7342.6014702473676
 30
0.0
 11
1726.2565248480109
 21
7377.6014702473667
 31
0.0
  0
LINE
  5
7ADD
  8
1
  6
CONTINUOUS
 10
2672.8565248480122
 20
7342.6014702473676
 30
0.0
 11
2672.8565248480122
 21
7267.6014702473676
 31
0.0
  0
LINE
  5
7ADE
  8
1
  6
CONTINUOUS
 10
2795.2565248480109
 20
7550.1014702473676
 30
0.0
 11
2795.2565248480109
 21
7342.6014702473676
 31
0.0
  0
LINE
  5
7ADF
  8
1
  6
CONTINUOUS
 10
2855.2565248480109
 20
7550.1014702473676
 30
0.0
 11
2855.2565248480109
 21
7342.6014702473676
 31
0.0
  0
LINE
  5
7AE0
  8
1
  6
CONTINUOUS
 10
2375.2565248480109
 20
8303.1014702473676
 30
0.0
 11
2375.2565248480109
 21
8220.1014702473676
 31
0.0
  0
LINE
  5
7AE1
  8
1
  6
CONTINUOUS
 10
3405.2565248480109
 20
7550.1014702473676
 30
0.0
 11
3405.2565248480109
 21
8220.1014702473676
 31
0.0
  0
LINE
  5
7AE2
  8
1
  6
CONTINUOUS
 10
3445.2565248480109
 20
7510.1014702473667
 30
0.0
 11
3445.2565248480109
 21
8260.1014702473676
 31
0.0
  0
LINE
  5
7AE3
  8
1
  6
CONTINUOUS
 10
3027.6565248480119
 20
7225.1014702473676
 30
0.0
 11
3027.6565248480119
 21
7365.1014702473667
 31
0.0
  0
LINE
  5
7AE4
  8
1
  6
CONTINUOUS
 10
2977.6565248480119
 20
7342.6014702473676
 30
0.0
 11
2977.6565248480119
 21
7267.6014702473676
 31
0.0
  0
LINE
  5
7AE5
  8
1
  6
CONTINUOUS
 10
2977.6565248480119
 20
7338.1014702473676
 30
0.0
 11
3385.2565248480109
 21
7338.1014702473676
 31
0.0
  0
LINE
  5
7AE6
  8
1
  6
CONTINUOUS
 10
3385.2565248480109
 20
7550.1014702473676
 30
0.0
 11
3385.2565248480109
 21
7338.1014702473676
 31
0.0
  0
LINE
  5
7AE7
  8
1
  6
CONTINUOUS
 10
3275.2565248480109
 20
8288.1014702473676
 30
0.0
 11
3385.2565248480109
 21
8288.1014702473676
 31
0.0
  0
LINE
  5
7AE8
  8
1
  6
CONTINUOUS
 10
3275.2565248480109
 20
8303.1014702473676
 30
0.0
 11
3275.2565248480109
 21
8220.1014702473676
 31
0.0
  0
LINE
  5
7AE9
  8
1
  6
CONTINUOUS
 10
3385.2565248480109
 20
8288.1014702473676
 30
0.0
 11
3385.2565248480109
 21
8220.1014702473676
 31
0.0
  0
LINE
  5
7AEA
  8
4
  6
CONTINUOUS
 10
7400.0
 20
2000.0
 30
0.0
 11
7400.0
 21
1200.0
 31
0.0
  0
LINE
  5
7AEB
  8
4
  6
CONTINUOUS
 10
4600.0
 20
2000.0
 30
0.0
 11
4600.0
 21
1200.0
 31
0.0
  0
LINE
  5
7AEC
  8
4
  6
CONTINUOUS
 10
2600.0
 20
2000.0
 30
0.0
 11
2600.0
 21
1200.0
 31
0.0
  0
LINE
  5
7AEF
  8
4
  6
CONTINUOUS
 10
2600.0
 20
1200.0
 30
0.0
 11
7400.0
 21
1200.0
 31
0.0
  0
LINE
  5
7AF0
  8
4
  6
CONTINUOUS
 10
2600.0
 20
1600.0
 30
0.0
 11
7400.0
 21
1600.0
 31
0.0
  0
TEXT
  5
7AF1
  8
4
  6
CONTINUOUS
 10
2754.0083232000002
 20
1726.1721031999989
 30
0.0
 40
200.0
  1
機器名称
  0
TEXT
  5
7AF2
  8
4
  6
CONTINUOUS
 10
2745.032424
 20
1286.5806264
 30
0.0
 40
200.0
  1
機器型番
  0
TEXT
  5
7AF3
  8
4
  6
CONTINUOUS
 10
4710.7149823999989
 20
1690.2870751999999
 30
0.0
 40
168.88888879999999
  1
ミツヤリミットロードファン
  0
TEXT
  5
7AF4
  8
4
  6
CONTINUOUS
 10
4746.6179824000001
 20
1268.6383367999999
 30
0.0
 40
200.0
  1
LLE#5 1/2-4
  0
TEXT
  5
7AF6
  8
4
  6
CONTINUOUS
 10
2897.7534104000001
 20
9533.7153655999991
 30
0.0
 40
216.0
  1
床置防振ベット
  0
TEXT
  5
7AF7
  8
4
  6
CONTINUOUS
 10
1264.6703735999999
 20
10135.5239048
 30
0.0
 40
240.0
  1
ベルト駆動式片吸込両持排煙ファン
  0
LINE
  5
7AF8
  8
4
  6
CONTINUOUS
 10
1000.0
 20
9877.635016799999
 30
0.0
 11
7400.0
 21
9877.635016799999
 31
0.0
  0
LINE
  5
7AF9
  8
4
  6
CONTINUOUS
 10
1000.0
 20
10677.635016800001
 30
0.0
 11
7400.0
 21
10677.635016800001
 31
0.0
  0
LINE
  5
7AFA
  8
4
  6
CONTINUOUS
 10
2600.0
 20
2000.0
 30
0.0
 11
7400.0
 21
2000.0
 31
0.0
  0
LINE
  5
7AFB
  8
4
  6
CONTINUOUS
 10
1000.0
 20
10677.635016800001
 30
0.0
 11
1000.0
 21
9877.635016799999
 31
0.0
  0
TEXT
  5
7AFC
  8
4
  6
CONTINUOUS
 10
1154.3180815999999
 20
9529.2779104000001
 30
0.0
 40
216.0
  1
左回転右横向
  0
TEXT
  5
7AFD
  8
4
  6
CONTINUOUS
 10
5875.8782375999999
 20
10824.244326399999
 30
0.0
 40
224.0
  1
No.
  0
TEXT
  5
7AFE
  8
4
  6
CONTINUOUS
 10
5245.1842504000006
 20
9533.7153655999991
 30
0.0
 40
216.0
  1
縮尺：1/40
  0
LINE
  5
7AFF
  8
4
  6
CONTINUOUS
 10
7400.0
 20
10677.635016800001
 30
0.0
 11
7400.0
 21
9877.635016799999
 31
0.0
  0
LINE
  5
7B01
  8
4
  6
CONTINUOUS
 10
5762.4696895999996
 20
10725.0543328
 30
0.0
 11
5762.4696895999996
 21
11146.609046400001
 31
0.0
  0
LINE
  5
7B02
  8
4
  6
CONTINUOUS
 10
5762.4696895999996
 20
11146.609046400001
 30
0.0
 11
7400.0
 21
11146.609046400001
 31
0.0
  0
LINE
  5
7B03
  8
4
  6
CONTINUOUS
 10
7400.0
 20
11146.609046400001
 30
0.0
 11
7400.0
 21
10725.0543328
 31
0.0
  0
LINE
  5
7B04
  8
4
  6
CONTINUOUS
 10
7400.0
 20
10725.0543328
 30
0.0
 11
5762.4696895999996
 21
10725.0543328
 31
0.0
  0
DIMENSION
  5
7B1D
  8
3
  6
CONTINUOUS
  2
*D1
 10
2825.2565248480109
 20
3275.9332572473668
 30
0.0
 11
2193.0935218480122
 21
3275.9332572473668
 31
0.0
 70
   128
 13
1485.2565248480109
 23
3658.8640612473669
 33
0.0
 14
2825.2565248480109
 24
3526.5788792473668
 34
0.0
1001
ACAD
1000
DSTYLE
1002
{
1070
   287
1070
     3
1070
   287
1070
     3
1070
   287
1070
     3
1070
    40
1040
40.0
1070
   143
1040
0.039
1070
   172
1070
     1
1070
   271
1070
     0
1070
   279
1070
     0
1070
   288
1070
     1
1002
}
  0
DIMENSION
  5
7B2B
  8
3
  6
CONTINUOUS
  2
*D2
 10
3385.2565248480109
 20
3275.9332572473668
 30
0.0
 11
3110.9708105622972
 21
3275.9332572473668
 31
0.0
 70
   128
 13
2825.2565248480109
 23
3526.5788792473668
 33
0.0
 14
3385.2565248480109
 24
3658.8640612473669
 34
0.0
1001
ACAD
1000
DSTYLE
1002
{
1070
   287
1070
     3
1070
   287
1070
     3
1070
   287
1070
     3
1070
    40
1040
40.0
1070
   143
1040
0.039
1070
   172
1070
     1
1070
   271
1070
     0
1070
   279
1070
     0
1070
   288
1070
     1
1002
}
  0
DIMENSION
  5
7B4E
  8
3
  6
CONTINUOUS
  2
*D3
 10
2825.2565248480109
 20
5791.340448917178
 30
0.0
 11
2462.221536848012
 21
5791.340448917178
 31
0.0
 70
   128
 13
2048.2565248480109
 23
4938.8640612473673
 33
0.0
 14
2825.2565248480109
 24
5626.6926607044807
 34
0.0
1001
ACAD
1000
DSTYLE
1002
{
1070
   287
1070
     3
1070
   287
1070
     3
1070
   287
1070
     3
1070
    40
1040
40.0
1070
   143
1040
0.039
1070
   172
1070
     1
1070
   271
1070
     0
1070
   279
1070
     0
1070
   288
1070
     1
1002
}
  0
DIMENSION
  5
7B5A
  8
3
  6
CONTINUOUS
  2
*D4
 10
3445.2565248480109
 20
5791.340448917178
 30
0.0
 11
3135.2565248480109
 21
5891.3404489171789
 31
0.0
 70
     0
 13
2825.2565248480109
 23
5626.6926607044807
 33
0.0
 14
3445.2565248480109
 24
4942.8640612473673
 34
0.0
1001
ACAD
1000
DSTYLE
1002
{
1070
   287
1070
     3
1070
   287
1070
     3
1070
   287
1070
     3
1070
    40
1040
40.0
1070
   143
1040
0.039
1070
   172
1070
     1
1070
   271
1070
     0
1070
   279
1070
     0
1070
   288
1070
     1
1002
}
  0
DIMENSION
  5
7B67
  8
3
  6
CONTINUOUS
  2
*D5
 10
3766.6782788480118
 20
3977.8640612473669
 30
0.0
 11
3766.6782788480118
 21
4488.2873952473656
 31
0.0
 70
   128
 13
3445.2565248480109
 23
4902.8640612473673
 33
0.0
 14
3445.2565248480109
 24
3977.8640612473669
 34
0.0
 50
90.0
1001
ACAD
1000
DSTYLE
1002
{
1070
   287
1070
     3
1070
   287
1070
     3
1070
   287
1070
     3
1070
    40
1040
40.0
1070
   143
1040
0.039
1070
   172
1070
     1
1070
   271
1070
     0
1070
   279
1070
     0
1070
   288
1070
     1
1002
}
  0
DIMENSION
  5
7B74
  8
3
  6
CONTINUOUS
  2
*D6
 10
4235.634774800812
 20
4938.8640612473673
 30
0.0
 11
4235.6347748008111
 21
5307.5783469616517
 31
0.0
 70
   128
 13
2825.2565248480109
 23
5581.8640612473673
 33
0.0
 14
3358.8238128480111
 24
4938.8640612473673
 34
0.0
 50
90.0
1001
ACAD
1000
DSTYLE
1002
{
1070
   287
1070
     3
1070
   287
1070
     3
1070
   287
1070
     3
1070
    40
1040
40.0
1070
   143
1040
0.039
1070
   172
1070
     1
1070
   271
1070
     0
1070
   279
1070
     0
1070
   288
1070
     1
1002
}
  0
DIMENSION
  5
7B80
  8
3
  6
CONTINUOUS
  2
*D7
 10
4235.6347748008111
 20
3838.8640612473669
 30
0.0
 11
4135.6347748008102
 21
4388.8640612473682
 31
0.0
 70
     0
 13
3358.8238128480111
 23
4938.8640612473673
 33
0.0
 14
3385.2565248480109
 24
3838.8640612473669
 34
0.0
 50
90.0
1001
ACAD
1000
DSTYLE
1002
{
1070
   287
1070
     3
1070
   287
1070
     3
1070
   287
1070
     3
1070
    40
1040
40.0
1070
   143
1040
0.039
1070
   172
1070
     1
1070
   271
1070
     0
1070
   279
1070
     0
1070
   288
1070
     1
1002
}
  0
DIMENSION
  5
7BA2
  8
3
  6
CONTINUOUS
  2
*D8
 10
3989.1453637089289
 20
3977.8640612473669
 30
0.0
 11
3989.1453637089289
 21
4508.1795552473668
 31
0.0
 70
   128
 13
3358.8238128480111
 23
4938.8640612473673
 33
0.0
 14
3445.2565248480109
 24
3977.8640612473669
 34
0.0
 50
90.0
1001
ACAD
1000
DSTYLE
1002
{
1070
   287
1070
     3
1070
   287
1070
     3
1070
   287
1070
     3
1070
    40
1040
40.0
1070
   143
1040
0.039
1070
   172
1070
     1
1070
   271
1070
     0
1070
   279
1070
     0
1070
   288
1070
     1
1002
}
  0
DIMENSION
  5
7BD9
  8
3
  6
CONTINUOUS
  2
*D9
 10
4714.5341231706916
 20
3658.8640612473669
 30
0.0
 11
4714.5341231706907
 21
4860.8104224764747
 31
0.0
 70
   128
 13
2825.2565248480109
 23
5581.8640612473673
 33
0.0
 14
3385.2565248480109
 24
3658.8640612473669
 34
0.0
 50
90.0
1001
ACAD
1000
DSTYLE
1002
{
1070
   287
1070
     3
1070
   287
1070
     3
1070
   287
1070
     3
1070
    40
1040
40.0
1070
   143
1040
0.039
1070
   172
1070
     1
1070
   271
1070
     0
1070
   279
1070
     0
1070
   288
1070
     1
1002
}
  0
DIMENSION
  5
7BE6
  8
3
  6
CONTINUOUS
  2
*D10
 10
3385.2565248480109
 20
6831.0273192473669
 30
0.0
 11
2469.7726428480119
 21
6831.0273192473669
 31
0.0
 70
   128
 13
1485.2565248480109
 23
7338.1014702473676
 33
0.0
 14
3385.2565248480109
 24
7338.1014702473676
 34
0.0
1001
ACAD
1000
DSTYLE
1002
{
1070
   287
1070
     3
1070
   287
1070
     3
1070
   287
1070
     3
1070
    40
1040
40.0
1070
   143
1040
0.039
1070
   172
1070
     1
1070
   271
1070
     0
1070
   279
1070
     0
1070
   288
1070
     1
1002
}
  0
DIMENSION
  5
7BF3
  8
3
  6
CONTINUOUS
  2
*D11
 10
3822.288335848014
 20
7338.1014702473676
 30
0.0
 11
3822.2883358480121
 21
7888.546754247368
 31
0.0
 70
   128
 13
3385.2565248480109
 23
8288.1014702473676
 33
0.0
 14
3385.2565248480109
 24
7338.1014702473676
 34
0.0
 50
90.0
1001
ACAD
1000
DSTYLE
1002
{
1070
   287
1070
     3
1070
   287
1070
     3
1070
   287
1070
     3
1070
    40
1040
40.0
1070
   143
1040
0.039
1070
   172
1070
     1
1070
   271
1070
     0
1070
   279
1070
     0
1070
   288
1070
     1
1002
}
  0
LINE
  5
7BF4
  8
2
  6
CENTER
 10
1656.9195078480111
 20
7885.1014702473667
 30
0.0
 11
3568.2625348480119
 21
7885.1014702473667
 31
0.0
  0
LINE
  5
7BF5
  8
2
  6
CENTER
 10
2825.2565248480109
 20
5657.6017872473676
 30
0.0
 11
2825.2565248480109
 21
3526.5788792473668
 31
0.0
  0
LINE
  5
7BF6
  8
2
  6
CENTER
 10
6302.8370739360844
 20
5743.3861714978193
 30
0.0
 11
6302.8370739360844
 21
3513.2395522473671
 31
0.0
  0
DIMENSION
  5
7C03
  8
3
  6
CONTINUOUS
  2
*D12
 10
7048.0839808938435
 20
4488.8640612473673
 30
0.0
 11
7048.0839808938417
 21
4921.0406966364026
 31
0.0
 70
   128
 13
6720.8370739360826
 23
5388.8640612473673
 33
0.0
 14
6720.8370739360826
 24
4488.8640612473673
 34
0.0
 50
90.0
1001
ACAD
1000
DSTYLE
1002
{
1070
   287
1070
     3
1070
   287
1070
     3
1070
   287
1070
     3
1070
     3
1000
φ<>
1070
    40
1040
40.0
1070
   143
1040
0.039
1070
   172
1070
     1
1070
   271
1070
     0
1070
   279
1070
     0
1070
   288
1070
     1
1002
}
  0
DIMENSION
  5
7C12
  8
3
  6
CONTINUOUS
  2
*D13
 10
6302.8370739360844
 20
3314.3532542473658
 30
0.0
 11
6029.3370739360826
 21
3398.5944710809531
 31
0.0
 70
   128
 13
5755.8370739360844
 23
3658.8640612473669
 33
0.0
 14
6302.8370739360844
 24
3513.2395522473671
 34
0.0
1001
ACAD
1000
DSTYLE
1002
{
1070
   288
1070
     1
1070
   172
1070
     1
1070
    40
1040
40.0
1070
   271
1070
     0
1070
   143
1040
0.039
1002
}
  0
DIMENSION
  5
7C20
  8
3
  6
CONTINUOUS
  2
*D14
 10
6705.8370739360844
 20
3313.6709852473682
 30
0.0
 11
6504.3370739360844
 21
3428.7723025849082
 31
0.0
 70
   128
 13
6302.8370739360844
 23
3513.2395522473671
 33
0.0
 14
6705.8370739360844
 24
3658.8640612473669
 34
0.0
1001
ACAD
1000
DSTYLE
1002
{
1070
   288
1070
     1
1070
   172
1070
     1
1070
    40
1040
40.0
1070
   271
1070
     0
1070
   143
1040
0.039
1002
}
  0
DIMENSION
  5
7C43
  8
3
  6
CONTINUOUS
  2
*D15
 10
6637.8370739360826
 20
5757.062677247367
 30
0.0
 11
6242.1227882217991
 21
5757.062677247367
 31
0.0
 70
   128
 13
5967.8370739360844
 23
5581.8640612473673
 33
0.0
 14
6637.8370739360826
 24
5581.8640612473673
 34
0.0
1001
ACAD
1000
DSTYLE
1002
{
1070
   287
1070
     3
1070
   287
1070
     3
1070
   287
1070
     3
1070
    40
1040
40.0
1070
   143
1040
0.039
1070
   172
1070
     1
1070
   271
1070
     0
1070
   279
1070
     0
1070
   288
1070
     1
1002
}
  0
DIMENSION
  5
7C51
  8
3
  6
CONTINUOUS
  2
*D16
 10
6302.8370739360844
 20
6033.6271231281862
 30
0.0
 11
6011.4085025075119
 21
6033.6271231281862
 31
0.0
 70
   128
  1
MAX\P720
 13
5642.8370739360844
 23
5141.264061247367
 33
0.0
 14
6302.8370739360844
 24
5958.1874901281863
 34
0.0
1001
ACAD
1000
DSTYLE
1002
{
1070
   287
1070
     3
1070
   287
1070
     3
1070
   287
1070
     3
1070
    40
1040
40.0
1070
   143
1040
0.039
1070
   172
1070
     1
1070
   271
1070
     0
1070
   279
1070
     0
1070
   288
1070
     1
1002
}
  0
DIMENSION
  5
7C5F
  8
3
  6
CONTINUOUS
  2
*D17
 10
6720.8370739360826
 20
6033.6271231281862
 30
0.0
 11
6511.8370739360844
 21
6130.3967188231254
 31
0.0
 70
   128
 13
6302.8370739360844
 23
5958.1874901281863
 33
0.0
 14
6720.8370739360826
 24
5428.8640612473673
 34
0.0
1001
ACAD
1000
DSTYLE
1002
{
1070
   288
1070
     1
1070
   172
1070
     1
1070
    40
1040
40.0
1070
   271
1070
     0
1070
   143
1040
0.039
1002
}
  0
LINE
  5
7C77
  8
2
  6
CENTER
 10
5508.8127839360823
 20
4938.8640612473673
 30
0.0
 11
6802.999431936084
 21
4938.8640612473673
 31
0.0
  0
DIMENSION
  5
7EB2
  8
3
  2
*D18
 10
1485.2565248480109
 20
6052.7087757828303
 30
0.0
 11
2551.1146277028311
 21
6052.7087757828303
 31
0.0
 70
   128
 13
3445.2565248480109
 23
4942.8640612473673
 33
0.0
 14
1485.2565248480109
 24
3963.8640612473669
 34
0.0
1001
ACAD
1000
DSTYLE
1002
{
1070
   287
1070
     3
1070
   287
1070
     3
1070
   287
1070
     3
1070
    40
1040
40.0
1070
   143
1040
0.039
1070
   172
1070
     1
1070
   271
1070
     0
1070
   279
1070
     0
1070
   288
1070
     1
1002
}
  0
DIMENSION
  5
7FBE
  8
3
  2
*D19
 10
4235.6347748008111
 20
3723.8640612473669
 30
0.0
 11
4478.4919176579542
 21
3933.649775533082
 31
0.0
 70
     0
  1
(<>)
 13
3385.2565248480109
 23
3838.8640612473669
 33
0.0
 14
3385.2565248480109
 24
3723.8640612473669
 34
0.0
 50
90.0
1001
ACAD
1000
DSTYLE
1002
{
1070
   287
1070
     4
1070
   287
1070
     4
1070
   287
1070
     4
1070
     7
1000
NONE
1070
     6
1000
NONE
1070
    40
1040
40.0
1070
   143
1040
0.039
1070
   172
1070
     1
1070
   271
1070
     0
1070
   279
1070
     1
1070
   288
1070
     1
1002
}
  0
DIMENSION
  5
7FD0
  8
3
  2
*D20
 10
4235.6347748008111
 20
3658.8640612473669
 30
0.0
 11
4258.9167555993772
 21
3455.7981236998562
 31
0.0
 70
   128
 13
3385.2565248480109
 23
3723.8640612473669
 33
0.0
 14
3385.2565248480109
 24
3658.8640612473669
 34
0.0
 50
90.0
1001
ACAD
1000
DSTYLE
1002
{
1070
   287
1070
     4
1070
   287
1070
     4
1070
   287
1070
     4
1070
     6
1000
DOTSMALL
1070
    40
1040
40.0
1070
   143
1040
0.039
1070
   172
1070
     1
1070
   271
1070
     0
1070
   279
1070
     1
1070
   288
1070
     1
1002
}
  0
ENDSEC
  0
EOF
