  0
SECTION
  2
HEADER
  9
$ACADVER
  1
AC1009
  9
$INSBASE
 10
0.0
 20
0.0
 30
0.0
  9
$EXTMIN
 10
1000.0
 20
1200.0
 30
0.0
  9
$EXTMAX
 10
7560.0
 20
11146.609046400001
 30
0.0
  9
$LIMMIN
 10
0.0
 20
0.0
  9
$LIMMAX
 10
297.0
 20
210.0
  9
$ORTHOMODE
 70
     0
  9
$REGENMODE
 70
     1
  9
$FILLMODE
 70
     0
  9
$QTEXTMODE
 70
     0
  9
$MIRRTEXT
 70
     1
  9
$DRAGMODE
 70
     2
  9
$LTSCALE
 40
100.0
  9
$OSMODE
 70
    37
  9
$ATTMODE
 70
     1
  9
$TEXTSIZE
 40
180.0
  9
$TRACEWID
 40
0.05
  9
$TEXTSTYLE
  7
STANDARD
  9
$CLAYER
  8
3
  9
$CELTYPE
  6
BYLAYER
  9
$CECOLOR
 62
   256
  9
$DIMSCALE
 40
40.0
  9
$DIMASZ
 40
2.0
  9
$DIMEXO
 40
0.5
  9
$DIMDLI
 40
10.0
  9
$DIMRND
 40
0.0
  9
$DIMDLE
 40
0.0
  9
$DIMEXE
 40
1.0
  9
$DIMTP
 40
1.0
  9
$DIMTM
 40
1.0
  9
$DIMTXT
 40
3.0
  9
$DIMCEN
 40
0.0
  9
$DIMTSZ
 40
0.0
  9
$DIMTOL
 70
     0
  9
$DIMLIM
 70
     0
  9
$DIMTIH
 70
     0
  9
$DIMTOH
 70
     0
  9
$DIMSE1
 70
     0
  9
$DIMSE2
 70
     0
  9
$DIMTAD
 70
     1
  9
$DIMZIN
 70
     8
  9
$DIMBLK
  1

  9
$DIMASO
 70
     1
  9
$DIMSHO
 70
     1
  9
$DIMPOST
  1

  9
$DIMAPOST
  1

  9
$DIMALT
 70
     0
  9
$DIMALTD
 70
     2
  9
$DIMALTF
 40
0.039
  9
$DIMLFAC
 40
1.0
  9
$DIMTOFL
 70
     1
  9
$DIMTVP
 40
0.0
  9
$DIMTIX
 70
     0
  9
$DIMSOXD
 70
     0
  9
$DIMSAH
 70
     1
  9
$DIMBLK1
  1
OPEN
  9
$DIMBLK2
  1
OPEN
  9
$DIMSTYLE
  2
IGA
  9
$DIMCLRD
 70
     0
  9
$DIMCLRE
 70
     0
  9
$DIMCLRT
 70
     0
  9
$DIMTFAC
 40
10.0
  9
$DIMGAP
 40
1.0
  9
$LUNITS
 70
     2
  9
$LUPREC
 70
     3
  9
$SKETCHINC
 40
0.1
  9
$FILLETRAD
 40
50.0
  9
$AUNITS
 70
     0
  9
$AUPREC
 70
     0
  9
$MENU
  1
acad
  9
$ELEVATION
 40
0.0
  9
$PELEVATION
 40
0.0
  9
$THICKNESS
 40
0.0
  9
$LIMCHECK
 70
     0
  9
$BLIPMODE
 70
     0
  9
$CHAMFERA
 40
0.5
  9
$CHAMFERB
 40
0.5
  9
$SKPOLY
 70
     0
  9
$TDCREATE
 40
2450752.5708219898
  9
$TDUPDATE
 40
2454953.6860772921
  9
$TDINDWG
 40
0.0047952546
  9
$TDUSRTIMER
 40
0.0047952546
  9
$USRTIMER
 70
     1
  9
$ANGBASE
 50
0.0
  9
$ANGDIR
 70
     0
  9
$PDMODE
 70
     0
  9
$PDSIZE
 40
0.0
  9
$PLINEWID
 40
0.0
  9
$COORDS
 70
     1
  9
$SPLFRAME
 70
     0
  9
$SPLINETYPE
 70
     6
  9
$SPLINESEGS
 70
     8
  9
$ATTDIA
 70
     0
  9
$ATTREQ
 70
     1
  9
$HANDLING
 70
 10241
  9
$HANDSEED
  5
7F14
  9
$SURFTAB1
 70
     6
  9
$SURFTAB2
 70
     6
  9
$SURFTYPE
 70
     6
  9
$SURFU
 70
     6
  9
$SURFV
 70
     6
  9
$UCSNAME
  2

  9
$UCSORG
 10
0.0
 20
0.0
 30
0.0
  9
$UCSXDIR
 10
1.0
 20
0.0
 30
0.0
  9
$UCSYDIR
 10
0.0
 20
1.0
 30
0.0
  9
$PUCSNAME
  2

  9
$PUCSORG
 10
0.0
 20
0.0
 30
0.0
  9
$PUCSXDIR
 10
1.0
 20
0.0
 30
0.0
  9
$PUCSYDIR
 10
0.0
 20
1.0
 30
0.0
  9
$USERI1
 70
     0
  9
$USERI2
 70
     0
  9
$USERI3
 70
     0
  9
$USERI4
 70
     0
  9
$USERI5
 70
     0
  9
$USERR1
 40
0.0
  9
$USERR2
 40
0.0
  9
$USERR3
 40
0.0
  9
$USERR4
 40
0.0
  9
$USERR5
 40
0.0
  9
$WORLDVIEW
 70
     1
  9
$SHADEDGE
 70
     3
  9
$SHADEDIF
 70
    70
  9
$TILEMODE
 70
     1
  9
$MAXACTVP
 70
    16
  9
$PLIMCHECK
 70
     0
  9
$PEXTMIN
 10
1.0000000000000000E+020
 20
1.0000000000000000E+020
 30
1.0000000000000000E+020
  9
$PEXTMAX
 10
-1.0000000000000000E+020
 20
-1.0000000000000000E+020
 30
-1.0000000000000000E+020
  9
$PLIMMIN
 10
0.0
 20
0.0
  9
$PLIMMAX
 10
12.0
 20
9.0
  9
$UNITMODE
 70
     0
  9
$VISRETAIN
 70
     0
  9
$PLINEGEN
 70
     0
  9
$PSLTSCALE
 70
     1
  0
ENDSEC
  0
SECTION
  2
TABLES
  0
TABLE
  2
VPORT
 70
     2
  0
VPORT
  2
*ACTIVE
 70
     0
 10
0.0
 20
0.0
 11
1.0
 21
1.0
 12
19660.951956947851
 22
4516.4110660589331
 13
0.0
 23
0.0
 14
10.0
 24
10.0
 15
10.0
 25
10.0
 16
0.0
 26
0.0
 36
1.0
 17
0.0
 27
0.0
 37
0.0
 40
15078.11784520525
 41
3.1666666666666661
 42
50.0
 43
0.0
 44
0.0
 50
0.0
 51
0.0
 71
     0
 72
   100
 73
     1
 74
     0
 75
     0
 76
     0
 77
     0
 78
     0
  0
ENDTAB
  0
TABLE
  2
LTYPE
 70
     2
  0
LTYPE
  2
CONTINUOUS
 70
     0
  3
Solid line
 72
    65
 73
     0
 40
0.0
  0
LTYPE
  2
CENTER
 70
     0
  3
____ _ ____ _ ____ _ ____ _ ____ _ ____ _ ____ 
 72
    65
 73
     4
 40
2.0
 49
1.25
 49
-0.25
 49
0.25
 49
-0.25
  0
ENDTAB
  0
TABLE
  2
LAYER
 70
     6
  0
LAYER
  2
0
 70
     0
 62
     7
  6
CONTINUOUS
  0
LAYER
  2
3
 70
     0
 62
     2
  6
CONTINUOUS
  0
LAYER
  2
2
 70
     0
 62
     3
  6
CENTER
  0
LAYER
  2
1
 70
     0
 62
     4
  6
CONTINUOUS
  0
LAYER
  2
4
 70
     0
 62
     7
  6
CONTINUOUS
  0
LAYER
  2
DEFPOINTS
 70
     0
 62
     7
  6
CONTINUOUS
  0
ENDTAB
  0
TABLE
  2
STYLE
 70
     1
  0
STYLE
  2
STANDARD
 70
     0
 40
0.0
 41
1.0
 50
0.0
 71
     0
 42
180.0
  3
simplex.shx
  4
extfont.shx
  0
ENDTAB
  0
TABLE
  2
VIEW
 70
     0
  0
ENDTAB
  0
TABLE
  2
UCS
 70
     0
  0
ENDTAB
  0
TABLE
  2
APPID
 70
     1
  0
APPID
  2
ACAD
 70
     0
  0
ENDTAB
  0
TABLE
  2
DIMSTYLE
 70
     1
  0
DIMSTYLE
  2
IGA
 70
     0
  3

  4

  5

  6
OPEN
  7
OPEN
 40
2.0
 41
2.0
 42
0.5
 43
10.0
 44
1.0
 45
0.0
 46
0.0
 47
1.0
 48
1.0
140
3.0
141
0.0
142
0.0
143
0.03937
144
1.0
145
0.0
146
10.0
147
1.0
 71
     0
 72
     0
 73
     0
 74
     0
 75
     0
 76
     0
 77
     1
 78
     8
170
     0
171
     2
172
     0
173
     1
174
     0
175
     0
176
     0
177
     0
178
     0
  0
ENDTAB
  0
ENDSEC
  0
SECTION
  2
BLOCKS
  0
BLOCK
  8
0
  2
$MODEL_SPACE
 70
     0
 10
0.0
 20
0.0
 30
0.0
  3
$MODEL_SPACE
  1

  0
ENDBLK
  5
1B
  8
0
  0
BLOCK
 67
     1
  8
0
  2
$PAPER_SPACE
 70
     0
 10
0.0
 20
0.0
 30
0.0
  3
$PAPER_SPACE
  1

  0
ENDBLK
  5
18
 67
     1
  8
0
  0
BLOCK
  8
0
  2
_OPEN
 70
     0
 10
0.0
 20
0.0
 30
0.0
  3
_OPEN
  1

  0
LINE
  5
7AEA
  8
0
  6
BYBLOCK
 62
     0
 10
-1.0
 20
0.166667
 30
0.0
 11
0.0
 21
0.0
 31
0.0
  0
LINE
  5
7AEB
  8
0
  6
BYBLOCK
 62
     0
 10
0.0
 20
0.0
 30
0.0
 11
-1.0
 21
-0.166667
 31
0.0
  0
LINE
  5
7AEC
  8
0
  6
BYBLOCK
 62
     0
 10
0.0
 20
0.0
 30
0.0
 11
-1.0
 21
0.0
 31
0.0
  0
ENDBLK
  5
7AED
  8
0
  0
BLOCK
  8
0
  2
*D1
 70
     1
 10
0.0
 20
0.0
 30
0.0
  3
*D1
  1

  0
LINE
  5
7E79
  8
3
  6
CONTINUOUS
 62
     0
 10
1614.0096757514621
 20
3945.885538
 30
0.0
 11
1614.0096757514621
 21
3590.4182430000001
 31
0.0
  0
LINE
  5
7E7A
  8
3
  6
CONTINUOUS
 62
     0
 10
2954.0096757514621
 20
3827.945385999999
 30
0.0
 11
2954.0096757514621
 21
3590.4182430000001
 31
0.0
  0
LINE
  5
7E7B
  8
3
  6
CONTINUOUS
 62
     0
 10
1694.0096757514621
 20
3630.4182430000001
 30
0.0
 11
2874.0096757514621
 21
3630.4182430000001
 31
0.0
  0
INSERT
  5
7E7C
  8
3
  6
CONTINUOUS
 62
     0
  2
_OPEN
 10
1614.0096757514621
 20
3630.4182430000001
 30
0.0
 41
80.0
 42
80.0
 43
80.0
 50
180.0
  0
INSERT
  5
7E7D
  8
3
  6
CONTINUOUS
 62
     0
  2
_OPEN
 10
2954.0096757514621
 20
3630.4182430000001
 30
0.0
 41
80.0
 42
80.0
 43
80.0
  0
TEXT
  8
3
  40
120
  5
7F04
  62
0
  72
0
  71
0
 10
2044.81
 20
3518.02
 30
0.000000
  1
1340
  0
POINT
  5
7E7F
  8
DEFPOINTS
  6
CONTINUOUS
 62
     0
 10
1614.0096757514621
 20
3965.885538
 30
0.0
  0
POINT
  5
7E80
  8
DEFPOINTS
  6
CONTINUOUS
 62
     0
 10
2954.0096757514621
 20
3847.9453859999999
 30
0.0
  0
POINT
  5
7E81
  8
DEFPOINTS
  6
CONTINUOUS
 62
     0
 10
2954.0096757514621
 20
3630.4182430000001
 30
0.0
  0
ENDBLK
  5
7D23
  8
0
  0
BLOCK
  8
0
  2
*D2
 70
     1
 10
0.0
 20
0.0
 30
0.0
  3
*D2
  1

  0
LINE
  5
7E82
  8
3
  6
CONTINUOUS
 62
     0
 10
2954.0096757514621
 20
3827.945385999999
 30
0.0
 11
2954.0096757514621
 21
3589.905197
 31
0.0
  0
LINE
  5
7E83
  8
3
  6
CONTINUOUS
 62
     0
 10
3514.0096757514621
 20
3945.885538
 30
0.0
 11
3514.0096757514621
 21
3589.905197
 31
0.0
  0
LINE
  5
7E84
  8
3
  6
CONTINUOUS
 62
     0
 10
3034.0096757514621
 20
3629.905197
 30
0.0
 11
3434.0096757514621
 21
3629.905197
 31
0.0
  0
INSERT
  5
7E85
  8
3
  6
CONTINUOUS
 62
     0
  2
_OPEN
 10
2954.0096757514621
 20
3629.905197
 30
0.0
 41
80.0
 42
80.0
 43
80.0
 50
180.0
  0
INSERT
  5
7E86
  8
3
  6
CONTINUOUS
 62
     0
  2
_OPEN
 10
3514.0096757514621
 20
3629.905197
 30
0.0
 41
80.0
 42
80.0
 43
80.0
  0
TEXT
  8
3
  40
120
  5
7F05
  62
0
  72
0
  71
0
 10
2999.72
 20
3517.51
 30
0.000000
  1
560
  0
POINT
  5
7E88
  8
DEFPOINTS
  6
CONTINUOUS
 62
     0
 10
2954.0096757514621
 20
3847.9453859999999
 30
0.0
  0
POINT
  5
7E89
  8
DEFPOINTS
  6
CONTINUOUS
 62
     0
 10
3514.0096757514621
 20
3965.885538
 30
0.0
  0
POINT
  5
7E8A
  8
DEFPOINTS
  6
CONTINUOUS
 62
     0
 10
3514.0096757514621
 20
3629.905197
 30
0.0
  0
ENDBLK
  5
7D18
  8
0
  0
BLOCK
  8
0
  2
*D3
 70
     1
 10
0.0
 20
0.0
 30
0.0
  3
*D3
  1

  0
LINE
  5
7E8B
  8
3
  6
CONTINUOUS
 62
     0
 10
2978.0096757514621
 20
5496.8855380000005
 30
0.0
 11
4038.7950547514629
 21
5496.8855380000005
 31
0.0
  0
LINE
  5
7E8C
  8
3
  6
CONTINUOUS
 62
     0
 10
3614.5769627514619
 20
4876.8855380000005
 30
0.0
 11
4038.7950547514629
 21
4876.8855380000005
 31
0.0
  0
LINE
  5
7E8D
  8
3
  6
CONTINUOUS
 62
     0
 10
3998.7950547514629
 20
5576.8855380000005
 30
0.0
 11
3998.7950547514629
 21
5656.8855380000005
 31
0.0
  0
LINE
  5
7E8E
  8
3
  6
CONTINUOUS
 62
     0
 10
3998.795054751462
 20
4796.8855380000005
 30
0.0
 11
3998.795054751462
 21
4716.8855380000005
 31
0.0
  0
LINE
  5
7E8F
  8
3
  6
CONTINUOUS
 62
     0
 10
3998.7950547514629
 20
5496.8855380000005
 30
0.0
 11
3998.795054751462
 21
4876.8855380000005
 31
0.0
  0
INSERT
  5
7E90
  8
3
  6
CONTINUOUS
 62
     0
  2
_OPEN
 10
3998.7950547514629
 20
5496.8855380000005
 30
0.0
 41
80.0
 42
80.0
 43
80.0
 50
270.0
  0
INSERT
  5
7E91
  8
3
  6
CONTINUOUS
 62
     0
  2
_OPEN
 10
3998.795054751462
 20
4876.8855380000005
 30
0.0
 41
80.0
 42
80.0
 43
80.0
 50
90.0
  0
TEXT
  8
3
  40
120
  5
7F06
  62
0
  72
0
  71
0
 10
3658.80
 20
4938.77
 30
0.000000
  1
620
  0
POINT
  5
7E93
  8
DEFPOINTS
  6
CONTINUOUS
 62
     0
 10
2958.0096757514621
 20
5496.8855380000005
 30
0.0
  0
POINT
  5
7E94
  8
DEFPOINTS
  6
CONTINUOUS
 62
     0
 10
3594.5769627514619
 20
4876.8855380000005
 30
0.0
  0
POINT
  5
7E95
  8
DEFPOINTS
  6
CONTINUOUS
 62
     0
 10
3998.795054751462
 20
4876.8855380000005
 30
0.0
  0
ENDBLK
  5
7D0D
  8
0
  0
BLOCK
  8
0
  2
*D4
 70
     1
 10
0.0
 20
0.0
 30
0.0
  3
*D4
  1

  0
LINE
  5
7E96
  8
3
  6
CONTINUOUS
 62
     0
 10
3614.5769627514619
 20
4876.8855380000005
 30
0.0
 11
4038.795054751462
 21
4876.8855380000005
 31
0.0
  0
LINE
  5
7E97
  8
3
  6
CONTINUOUS
 62
     0
 10
3534.0096757514621
 20
4056.885538
 30
0.0
 11
4038.795054751462
 21
4056.885538
 31
0.0
  0
LINE
  5
7E98
  8
3
  6
CONTINUOUS
 62
     0
 10
3998.795054751462
 20
4796.8855380000005
 30
0.0
 11
3998.795054751462
 21
4136.8855380000005
 31
0.0
  0
INSERT
  5
7E99
  8
3
  6
CONTINUOUS
 62
     0
  2
_OPEN
 10
3998.795054751462
 20
4876.8855380000005
 30
0.0
 41
80.0
 42
80.0
 43
80.0
 50
90.0
  0
INSERT
  5
7E9A
  8
3
  6
CONTINUOUS
 62
     0
  2
_OPEN
 10
3998.795054751462
 20
4056.885538
 30
0.0
 41
80.0
 42
80.0
 43
80.0
 50
270.0
  0
TEXT
  8
3
  40
120
  5
7F07
  62
0
  72
0
  71
0
 10
3658.80
 20
4254.49
 30
0.000000
  1
820
  0
POINT
  5
7E9C
  8
DEFPOINTS
  6
CONTINUOUS
 62
     0
 10
3594.5769627514619
 20
4876.8855380000005
 30
0.0
  0
POINT
  5
7E9D
  8
DEFPOINTS
  6
CONTINUOUS
 62
     0
 10
3514.0096757514621
 20
4056.885538
 30
0.0
  0
POINT
  5
7E9E
  8
DEFPOINTS
  6
CONTINUOUS
 62
     0
 10
3998.795054751462
 20
4056.885538
 30
0.0
  0
ENDBLK
  5
7D02
  8
0
  0
BLOCK
  8
0
  2
*D5
 70
     1
 10
0.0
 20
0.0
 30
0.0
  3
*D5
  1

  0
LINE
  5
7E9F
  8
3
  6
CONTINUOUS
 62
     0
 10
3534.0096757514621
 20
4056.885538
 30
0.0
 11
4038.7950547514629
 21
4056.885538
 31
0.0
  0
LINE
  5
7EA0
  8
3
  6
CONTINUOUS
 62
     0
 10
3534.0096757514621
 20
3965.885538
 30
0.0
 11
4038.7950547514629
 21
3965.885538
 31
0.0
  0
LINE
  5
7EA1
  8
3
  6
CONTINUOUS
 62
     0
 10
3998.795054751462
 20
4136.8855380000005
 30
0.0
 11
3998.795054751462
 21
4216.8855380000005
 31
0.0
  0
LINE
  5
7EA2
  8
3
  6
CONTINUOUS
 62
     0
 10
3998.795054751462
 20
3885.8855380000009
 30
0.0
 11
3998.795054751462
 21
3583.0283951428569
 31
0.0
  0
LINE
  5
7EA3
  8
3
  6
CONTINUOUS
 62
     0
 10
3998.795054751462
 20
4056.885538
 30
0.0
 11
3998.795054751462
 21
3965.885538
 31
0.0
  0
INSERT
  5
7EA4
  8
3
  6
CONTINUOUS
 62
     0
  2
_OPEN
 10
3998.795054751462
 20
4056.885538
 30
0.0
 41
80.0
 42
80.0
 43
80.0
 50
270.0
  0
INSERT
  5
7EA5
  8
3
  6
CONTINUOUS
 62
     0
  2
_OPEN
 10
3998.795054751462
 20
3965.885538
 30
0.0
 41
80.0
 42
80.0
 43
80.0
 50
90.0
  0
TEXT
  8
3
  40
120
  5
7F08
  62
0
  72
0
  71
0
 10
3658.80
 20
3482.06
 30
0.000000
  1
91
  0
POINT
  5
7EA7
  8
DEFPOINTS
  6
CONTINUOUS
 62
     0
 10
3514.0096757514621
 20
4056.885538
 30
0.0
  0
POINT
  5
7EA8
  8
DEFPOINTS
  6
CONTINUOUS
 62
     0
 10
3514.0096757514621
 20
3965.885538
 30
0.0
  0
POINT
  5
7EA9
  8
DEFPOINTS
  6
CONTINUOUS
 62
     0
 10
3998.795054751462
 20
3965.885538
 30
0.0
  0
ENDBLK
  5
7CF7
  8
0
  0
BLOCK
  8
0
  2
*D6
 70
     1
 10
0.0
 20
0.0
 30
0.0
  3
*D6
  1

  0
LINE
  5
7EAA
  8
3
  6
CONTINUOUS
 62
     0
 10
3000.5096757514621
 20
5496.8855380000005
 30
0.0
 11
4364.0399017514628
 21
5496.8855380000005
 31
0.0
  0
LINE
  5
7EAB
  8
3
  6
CONTINUOUS
 62
     0
 10
3534.0096757514621
 20
3965.885538
 30
0.0
 11
4364.0399017514628
 21
3965.885538
 31
0.0
  0
LINE
  5
7EAC
  8
3
  6
CONTINUOUS
 62
     0
 10
4324.0399017514619
 20
5416.8855380000005
 30
0.0
 11
4324.0399017514619
 21
4045.885538
 31
0.0
  0
INSERT
  5
7EAD
  8
3
  6
CONTINUOUS
 62
     0
  2
_OPEN
 10
4324.0399017514619
 20
5496.8855380000005
 30
0.0
 41
80.0
 42
80.0
 43
80.0
 50
90.0
  0
INSERT
  5
7EAE
  8
3
  6
CONTINUOUS
 62
     0
  2
_OPEN
 10
4324.0399017514619
 20
3965.885538
 30
0.0
 41
80.0
 42
80.0
 43
80.0
 50
270.0
  0
TEXT
  8
3
  40
120
  5
7F09
  62
0
  72
0
  71
0
 10
3984.04
 20
4408.68
 30
0.000000
  1
1531
  0
POINT
  5
7EB0
  8
DEFPOINTS
  6
CONTINUOUS
 62
     0
 10
2980.5096757514621
 20
5496.8855380000005
 30
0.0
  0
POINT
  5
7EB1
  8
DEFPOINTS
  6
CONTINUOUS
 62
     0
 10
3514.0096757514621
 20
3965.885538
 30
0.0
  0
POINT
  5
7EB2
  8
DEFPOINTS
  6
CONTINUOUS
 62
     0
 10
4324.0399017514619
 20
3965.885538
 30
0.0
  0
ENDBLK
  5
7CEA
  8
0
  0
BLOCK
  8
0
  2
*D7
 70
     1
 10
0.0
 20
0.0
 30
0.0
  3
*D7
  1

  0
LINE
  5
7EB3
  8
3
  6
CONTINUOUS
 62
     0
 10
1993.0096757514621
 20
5516.8855380000005
 30
0.0
 11
1993.0096757514621
 21
5761.0726830000003
 31
0.0
  0
LINE
  5
7EB4
  8
3
  6
CONTINUOUS
 62
     0
 10
2918.0096757514621
 20
5516.8855380000005
 30
0.0
 11
2918.0096757514621
 21
5761.0726830000003
 31
0.0
  0
LINE
  5
7EB5
  8
3
  6
CONTINUOUS
 62
     0
 10
2073.0096757514621
 20
5721.0726830000003
 30
0.0
 11
2838.0096757514621
 21
5721.0726830000003
 31
0.0
  0
INSERT
  5
7EB6
  8
3
  6
CONTINUOUS
 62
     0
  2
_OPEN
 10
1993.0096757514621
 20
5721.0726830000003
 30
0.0
 41
80.0
 42
80.0
 43
80.0
 50
180.0
  0
INSERT
  5
7EB7
  8
3
  6
CONTINUOUS
 62
     0
  2
_OPEN
 10
2918.0096757514621
 20
5721.0726830000003
 30
0.0
 41
80.0
 42
80.0
 43
80.0
  0
TEXT
  8
3
  40
120
  5
7F0A
  62
0
  72
0
  71
0
 10
2204.85
 20
5608.67
 30
0.000000
  1
925
  0
POINT
  5
7EB9
  8
DEFPOINTS
  6
CONTINUOUS
 62
     0
 10
1993.0096757514621
 20
5496.8855380000005
 30
0.0
  0
POINT
  5
7EBA
  8
DEFPOINTS
  6
CONTINUOUS
 62
     0
 10
2918.0096757514621
 20
5496.8855380000005
 30
0.0
  0
POINT
  5
7EBB
  8
DEFPOINTS
  6
CONTINUOUS
 62
     0
 10
2918.0096757514621
 20
5721.0726830000003
 30
0.0
  0
ENDBLK
  5
7CDF
  8
0
  0
BLOCK
  8
0
  2
*D8
 70
     1
 10
0.0
 20
0.0
 30
0.0
  3
*D8
  1

  0
LINE
  5
7EBC
  8
3
  6
CONTINUOUS
 62
     0
 10
1993.0096757514621
 20
5516.8855380000005
 30
0.0
 11
1993.0096757514621
 21
5967.3544009999996
 31
0.0
  0
LINE
  5
7EBD
  8
3
  6
CONTINUOUS
 62
     0
 10
2954.0096757514621
 20
5429.9103020000002
 30
0.0
 11
2954.0096757514621
 21
5967.3544009999996
 31
0.0
  0
LINE
  5
7EBE
  8
3
  6
CONTINUOUS
 62
     0
 10
2073.0096757514621
 20
5927.3544009999987
 30
0.0
 11
2874.0096757514621
 21
5927.3544009999987
 31
0.0
  0
INSERT
  5
7EBF
  8
3
  6
CONTINUOUS
 62
     0
  2
_OPEN
 10
1993.0096757514621
 20
5927.3544009999987
 30
0.0
 41
80.0
 42
80.0
 43
80.0
 50
180.0
  0
INSERT
  5
7EC0
  8
3
  6
CONTINUOUS
 62
     0
  2
_OPEN
 10
2954.0096757514621
 20
5927.3544009999987
 30
0.0
 41
80.0
 42
80.0
 43
80.0
  0
TEXT
  8
3
  40
120
  5
7F0B
  62
0
  72
0
  71
0
 10
2225.50
 20
5814.95
 30
0.000000
  1
961
  0
POINT
  5
7EC2
  8
DEFPOINTS
  6
CONTINUOUS
 62
     0
 10
1993.0096757514621
 20
5496.8855380000005
 30
0.0
  0
POINT
  5
7EC3
  8
DEFPOINTS
  6
CONTINUOUS
 62
     0
 10
2954.0096757514621
 20
5409.9103020000002
 30
0.0
  0
POINT
  5
7EC4
  8
DEFPOINTS
  6
CONTINUOUS
 62
     0
 10
2954.0096757514621
 20
5927.3544009999987
 30
0.0
  0
ENDBLK
  5
7CD4
  8
0
  0
BLOCK
  8
0
  2
*D9
 70
     1
 10
0.0
 20
0.0
 30
0.0
  3
*D9
  1

  0
LINE
  5
7EC5
  8
3
  6
CONTINUOUS
 62
     0
 10
2954.0096757514621
 20
5429.9103020000002
 30
0.0
 11
2954.0096757514621
 21
5967.3544009999996
 31
0.0
  0
LINE
  5
7EC6
  8
3
  6
CONTINUOUS
 62
     0
 10
3597.0096757514611
 20
4896.8855380000014
 30
0.0
 11
3597.0096757514611
 21
5967.3544009999996
 31
0.0
  0
LINE
  5
7EC7
  8
3
  6
CONTINUOUS
 62
     0
 10
3034.0096757514621
 20
5927.3544009999987
 30
0.0
 11
3517.0096757514621
 21
5927.3544009999987
 31
0.0
  0
INSERT
  5
7EC8
  8
3
  6
CONTINUOUS
 62
     0
  2
_OPEN
 10
2954.0096757514621
 20
5927.3544009999987
 30
0.0
 41
80.0
 42
80.0
 43
80.0
 50
180.0
  0
INSERT
  5
7EC9
  8
3
  6
CONTINUOUS
 62
     0
  2
_OPEN
 10
3597.0096757514611
 20
5927.3544009999987
 30
0.0
 41
80.0
 42
80.0
 43
80.0
  0
TEXT
  8
3
  40
120
  5
7F0C
  62
0
  72
0
  71
0
 10
3035.51
 20
5814.95
 30
0.000000
  1
643
  0
POINT
  5
7ECB
  8
DEFPOINTS
  6
CONTINUOUS
 62
     0
 10
2954.0096757514621
 20
5409.9103020000002
 30
0.0
  0
POINT
  5
7ECC
  8
DEFPOINTS
  6
CONTINUOUS
 62
     0
 10
3597.0096757514611
 20
4876.8855380000005
 30
0.0
  0
POINT
  5
7ECD
  8
DEFPOINTS
  6
CONTINUOUS
 62
     0
 10
3597.0096757514611
 20
5927.3544009999987
 30
0.0
  0
ENDBLK
  5
7D92
  8
0
  0
BLOCK
  8
0
  2
*D10
 70
     1
 10
0.0
 20
0.0
 30
0.0
  3
*D10
  1

  0
LINE
  5
7ECE
  8
3
  6
CONTINUOUS
 62
     0
 10
1614.0096757514621
 20
7451.6861719349481
 30
0.0
 11
1614.0096757514621
 21
6883.3021319349482
 31
0.0
  0
LINE
  5
7ECF
  8
3
  6
CONTINUOUS
 62
     0
 10
3514.0096757514621
 20
7451.6861719349481
 30
0.0
 11
3514.0096757514621
 21
6883.3021319349482
 31
0.0
  0
LINE
  5
7ED0
  8
3
  6
CONTINUOUS
 62
     0
 10
1694.0096757514621
 20
6923.3021319349491
 30
0.0
 11
3434.0096757514621
 21
6923.3021319349491
 31
0.0
  0
INSERT
  5
7ED1
  8
3
  6
CONTINUOUS
 62
     0
  2
_OPEN
 10
1614.0096757514621
 20
6923.3021319349491
 30
0.0
 41
80.0
 42
80.0
 43
80.0
 50
180.0
  0
INSERT
  5
7ED2
  8
3
  6
CONTINUOUS
 62
     0
  2
_OPEN
 10
3514.0096757514621
 20
6923.3021319349491
 30
0.0
 41
80.0
 42
80.0
 43
80.0
  0
TEXT
  8
3
  40
120
  5
7F0D
  62
0
  72
0
  71
0
 10
2385.54
 20
6810.90
 30
0.000000
  1
1900
  0
POINT
  5
7ED4
  8
DEFPOINTS
  6
CONTINUOUS
 62
     0
 10
1614.0096757514621
 20
7471.6861719349472
 30
0.0
  0
POINT
  5
7ED5
  8
DEFPOINTS
  6
CONTINUOUS
 62
     0
 10
3514.0096757514621
 20
7471.6861719349472
 30
0.0
  0
POINT
  5
7ED6
  8
DEFPOINTS
  6
CONTINUOUS
 62
     0
 10
3514.0096757514621
 20
6923.3021319349491
 30
0.0
  0
ENDBLK
  5
7CBE
  8
0
  0
BLOCK
  8
0
  2
*D11
 70
     1
 10
0.0
 20
0.0
 30
0.0
  3
*D11
  1

  0
LINE
  5
7ED7
  8
3
  6
CONTINUOUS
 62
     0
 10
3534.0096757514621
 20
8421.6861719349472
 30
0.0
 11
3976.8436457514631
 21
8421.6861719349472
 31
0.0
  0
LINE
  5
7ED8
  8
3
  6
CONTINUOUS
 62
     0
 10
3534.0096757514621
 20
7471.6861719349472
 30
0.0
 11
3976.8436457514631
 21
7471.6861719349472
 31
0.0
  0
LINE
  5
7ED9
  8
3
  6
CONTINUOUS
 62
     0
 10
3936.8436457514631
 20
8341.6861719349472
 30
0.0
 11
3936.8436457514631
 21
7551.6861719349481
 31
0.0
  0
INSERT
  5
7EDA
  8
3
  6
CONTINUOUS
 62
     0
  2
_OPEN
 10
3936.8436457514631
 20
8421.6861719349472
 30
0.0
 41
80.0
 42
80.0
 43
80.0
 50
90.0
  0
INSERT
  5
7EDB
  8
3
  6
CONTINUOUS
 62
     0
  2
_OPEN
 10
3936.8436457514631
 20
7471.6861719349472
 30
0.0
 41
80.0
 42
80.0
 43
80.0
 50
270.0
  0
TEXT
  8
3
  40
120
  5
7F0E
  62
0
  72
0
  71
0
 10
3596.84
 20
7759.83
 30
0.000000
  1
950
  0
POINT
  5
7EDD
  8
DEFPOINTS
  6
CONTINUOUS
 62
     0
 10
3514.0096757514621
 20
8421.6861719349472
 30
0.0
  0
POINT
  5
7EDE
  8
DEFPOINTS
  6
CONTINUOUS
 62
     0
 10
3514.0096757514621
 20
7471.6861719349472
 30
0.0
  0
POINT
  5
7EDF
  8
DEFPOINTS
  6
CONTINUOUS
 62
     0
 10
3936.8436457514631
 20
7471.6861719349472
 30
0.0
  0
ENDBLK
  5
7CB3
  8
0
  0
BLOCK
  8
0
  2
*D12
 70
     1
 10
0.0
 20
0.0
 30
0.0
  3
*D12
  1

  0
LINE
  5
7D5C
  8
0
  6
BYBLOCK
 62
     0
 10
5678.9936980146776
 20
3945.885538
 30
0.0
 11
5678.9936980146776
 21
3639.3943410000002
 31
0.0
  0
LINE
  5
7D5D
  8
0
  6
BYBLOCK
 62
     0
 10
6225.9936980146767
 20
3874.96659
 30
0.0
 11
6225.9936980146767
 21
3639.3943410000002
 31
0.0
  0
LINE
  5
7D5E
  8
0
  6
BYBLOCK
 62
     0
 10
5758.9936980146767
 20
3679.3943410000002
 30
0.0
 11
6145.9936980146767
 21
3679.3943410000002
 31
0.0
  0
TEXT
  5
7D5F
  8
3
 62
     0
 10
5798.207983728963
 20
3714.4477119028738
 30
0.0
 40
120.0
  1
547
  0
INSERT
  5
7D60
  8
0
  6
BYBLOCK
 62
     0
  2
_OPEN
 10
5678.9936980146776
 20
3679.3943410000002
 30
0.0
 41
80.0
 42
80.0
 43
80.0
 50
180.0
  0
INSERT
  5
7D61
  8
0
  6
BYBLOCK
 62
     0
  2
_OPEN
 10
6225.9936980146767
 20
3679.3943410000002
 30
0.0
 41
80.0
 42
80.0
 43
80.0
  0
POINT
  5
7D62
  8
DEFPOINTS
  6
BYBLOCK
 62
     0
 10
5678.9936980146776
 20
3965.885538
 30
0.0
  0
POINT
  5
7D63
  8
DEFPOINTS
  6
BYBLOCK
 62
     0
 10
6225.9936980146767
 20
3894.96659
 30
0.0
  0
POINT
  5
7D64
  8
DEFPOINTS
  6
BYBLOCK
 62
     0
 10
6225.9936980146767
 20
3679.3943410000002
 30
0.0
  0
ENDBLK
  5
7D65
  8
0
  0
BLOCK
  8
0
  2
*D13
 70
     1
 10
0.0
 20
0.0
 30
0.0
  3
*D13
  1

  0
LINE
  5
7D51
  8
0
  6
BYBLOCK
 62
     0
 10
6225.9936980146767
 20
3874.96659
 30
0.0
 11
6225.9936980146767
 21
3636.191131
 31
0.0
  0
LINE
  5
7D52
  8
0
  6
BYBLOCK
 62
     0
 10
6628.9936980146776
 20
3945.885538
 30
0.0
 11
6628.9936980146776
 21
3636.191131
 31
0.0
  0
LINE
  5
7D53
  8
0
  6
BYBLOCK
 62
     0
 10
6305.9936980146776
 20
3676.191131
 30
0.0
 11
6548.9936980146776
 21
3676.191131
 31
0.0
  0
TEXT
  5
7D54
  8
3
 62
     0
 10
6273.207983728963
 20
3707.2781503288488
 30
0.0
 40
120.0
  1
403
  0
INSERT
  5
7D55
  8
0
  6
BYBLOCK
 62
     0
  2
_OPEN
 10
6225.9936980146767
 20
3676.191131
 30
0.0
 41
80.0
 42
80.0
 43
80.0
 50
180.0
  0
INSERT
  5
7D56
  8
0
  6
BYBLOCK
 62
     0
  2
_OPEN
 10
6628.9936980146776
 20
3676.191131
 30
0.0
 41
80.0
 42
80.0
 43
80.0
  0
POINT
  5
7D57
  8
DEFPOINTS
  6
BYBLOCK
 62
     0
 10
6225.9936980146767
 20
3894.96659
 30
0.0
  0
POINT
  5
7D58
  8
DEFPOINTS
  6
BYBLOCK
 62
     0
 10
6628.9936980146776
 20
3965.885538
 30
0.0
  0
POINT
  5
7D59
  8
DEFPOINTS
  6
BYBLOCK
 62
     0
 10
6628.9936980146776
 20
3676.191131
 30
0.0
  0
ENDBLK
  5
7D5A
  8
0
  0
BLOCK
  8
0
  2
*D14
 70
     1
 10
0.0
 20
0.0
 30
0.0
  3
*D14
  1

  0
LINE
  5
7EE0
  8
3
  6
CONTINUOUS
 62
     0
 10
5890.9936980146767
 20
5516.8855380000005
 30
0.0
 11
5890.9936980146767
 21
5667.5677850000002
 31
0.0
  0
LINE
  5
7EE1
  8
3
  6
CONTINUOUS
 62
     0
 10
6560.9936980146776
 20
5516.8855380000005
 30
0.0
 11
6560.9936980146776
 21
5667.5677850000002
 31
0.0
  0
LINE
  5
7EE2
  8
3
  6
CONTINUOUS
 62
     0
 10
5970.9936980146776
 20
5627.5677850000002
 30
0.0
 11
6480.9936980146767
 21
5627.5677850000002
 31
0.0
  0
INSERT
  5
7EE3
  8
3
  6
CONTINUOUS
 62
     0
  2
_OPEN
 10
5890.9936980146767
 20
5627.5677850000002
 30
0.0
 41
80.0
 42
80.0
 43
80.0
 50
180.0
  0
INSERT
  5
7EE4
  8
3
  6
CONTINUOUS
 62
     0
  2
_OPEN
 10
6560.9936980146776
 20
5627.5677850000002
 30
0.0
 41
80.0
 42
80.0
 43
80.0
  0
TEXT
  8
3
  40
120
  5
7F0F
  62
0
  72
0
  71
0
 10
6046.71
 20
5515.17
 30
0.000000
  1
670
  0
POINT
  5
7EE6
  8
DEFPOINTS
  6
CONTINUOUS
 62
     0
 10
5890.9936980146767
 20
5496.8855380000005
 30
0.0
  0
POINT
  5
7EE7
  8
DEFPOINTS
  6
CONTINUOUS
 62
     0
 10
6560.9936980146776
 20
5496.8855380000005
 30
0.0
  0
POINT
  5
7EE8
  8
DEFPOINTS
  6
CONTINUOUS
 62
     0
 10
6560.9936980146776
 20
5627.5677850000002
 30
0.0
  0
ENDBLK
  5
7C8E
  8
0
  0
BLOCK
  8
0
  2
*D15
 70
     1
 10
0.0
 20
0.0
 30
0.0
  3
*D15
  1

  0
LINE
  5
7EE9
  8
3
  6
CONTINUOUS
 62
     0
 10
5565.9936980146767
 20
5099.2855380000001
 30
0.0
 11
5565.9936980146767
 21
6010.4783280000001
 31
0.0
  0
LINE
  5
7EEA
  8
3
  6
CONTINUOUS
 62
     0
 10
6225.9936980146767
 20
5868.8207659999989
 30
0.0
 11
6225.9936980146767
 21
6010.4783280000001
 31
0.0
  0
LINE
  5
7EEB
  8
3
  6
CONTINUOUS
 62
     0
 10
5645.9936980146767
 20
5970.4783280000001
 30
0.0
 11
6145.9936980146767
 21
5970.4783280000001
 31
0.0
  0
INSERT
  5
7EEC
  8
3
  6
CONTINUOUS
 62
     0
  2
_OPEN
 10
5565.9936980146767
 20
5970.4783280000001
 30
0.0
 41
80.0
 42
80.0
 43
80.0
 50
180.0
  0
INSERT
  5
7EED
  8
3
  6
CONTINUOUS
 62
     0
  2
_OPEN
 10
6225.9936980146767
 20
5970.4783280000001
 30
0.0
 41
80.0
 42
80.0
 43
80.0
  0
TEXT
  8
3
  40
120
  5
7F10
  62
0
  72
0
  71
0
 10
5694.57
 20
5958.08
 30
0.000000
  1
MAX
  0
TEXT
  8
3
  40
120
  5
7F11
  62
0
  72
0
  71
0
 10
5694.57
 20
5802.08
 30
0.000000
  1
720
  0
POINT
  5
7EEF
  8
DEFPOINTS
  6
CONTINUOUS
 62
     0
 10
5565.9936980146767
 20
5079.2855380000001
 30
0.0
  0
POINT
  5
7EF0
  8
DEFPOINTS
  6
CONTINUOUS
 62
     0
 10
6225.9936980146767
 20
5848.8207659999998
 30
0.0
  0
POINT
  5
7EF1
  8
DEFPOINTS
  6
CONTINUOUS
 62
     0
 10
6225.9936980146767
 20
5970.4783280000001
 30
0.0
  0
ENDBLK
  5
7D86
  8
0
  0
BLOCK
  8
0
  2
*D16
 70
     1
 10
0.0
 20
0.0
 30
0.0
  3
*D16
  1

  0
LINE
  5
7D46
  8
0
  6
BYBLOCK
 62
     0
 10
6225.9936980146767
 20
5868.8207659999989
 30
0.0
 11
6225.9936980146767
 21
6010.4783280000001
 31
0.0
  0
LINE
  5
7D47
  8
0
  6
BYBLOCK
 62
     0
 10
6643.9936980146776
 20
5386.8855380000014
 30
0.0
 11
6643.9936980146776
 21
6010.4783280000001
 31
0.0
  0
LINE
  5
7D48
  8
0
  6
BYBLOCK
 62
     0
 10
6305.9936980146776
 20
5970.4783280000001
 30
0.0
 11
6563.9936980146767
 21
5970.4783280000001
 31
0.0
  0
TEXT
  5
7D49
  8
3
 62
     0
 10
6292.1365551575354
 20
6015.8809829163947
 30
0.0
 40
120.0
  1
418
  0
INSERT
  5
7D4A
  8
0
  6
BYBLOCK
 62
     0
  2
_OPEN
 10
6225.9936980146767
 20
5970.4783280000001
 30
0.0
 41
80.0
 42
80.0
 43
80.0
 50
180.0
  0
INSERT
  5
7D4B
  8
0
  6
BYBLOCK
 62
     0
  2
_OPEN
 10
6643.9936980146776
 20
5970.4783280000001
 30
0.0
 41
80.0
 42
80.0
 43
80.0
  0
POINT
  5
7D4C
  8
DEFPOINTS
  6
BYBLOCK
 62
     0
 10
6225.9936980146767
 20
5848.8207659999998
 30
0.0
  0
POINT
  5
7D4D
  8
DEFPOINTS
  6
BYBLOCK
 62
     0
 10
6643.9936980146776
 20
5366.8855380000005
 30
0.0
  0
POINT
  5
7D4E
  8
DEFPOINTS
  6
BYBLOCK
 62
     0
 10
6643.9936980146776
 20
5970.4783280000001
 30
0.0
  0
ENDBLK
  5
7D4F
  8
0
  0
BLOCK
  8
0
  2
*D17
 70
     1
 10
0.0
 20
0.0
 30
0.0
  3
*D17
  1

  0
LINE
  5
7EF2
  8
3
  6
CONTINUOUS
 62
     0
 10
6663.9936980146767
 20
5326.8855380000005
 30
0.0
 11
7014.4784090146777
 21
5326.8855380000005
 31
0.0
  0
LINE
  5
7EF3
  8
3
  6
CONTINUOUS
 62
     0
 10
6663.9936980146767
 20
4426.8855380000005
 30
0.0
 11
7014.4784090146777
 21
4426.8855380000005
 31
0.0
  0
LINE
  5
7EF4
  8
3
  6
CONTINUOUS
 62
     0
 10
6974.4784090146786
 20
5246.8855380000005
 30
0.0
 11
6974.4784090146786
 21
4506.8855380000005
 31
0.0
  0
INSERT
  5
7EF5
  8
3
  6
CONTINUOUS
 62
     0
  2
_OPEN
 10
6974.4784090146786
 20
5326.8855380000005
 30
0.0
 41
80.0
 42
80.0
 43
80.0
 50
90.0
  0
INSERT
  5
7EF6
  8
3
  6
CONTINUOUS
 62
     0
  2
_OPEN
 10
6974.4784090146786
 20
4426.8855380000005
 30
0.0
 41
80.0
 42
80.0
 43
80.0
 50
270.0
  0
TEXT
  8
3
  40
120
  5
7F12
  62
0
  72
0
  71
0
 10
6634.48
 20
4673.33
 30
0.000000
  1
φ900
  0
POINT
  5
7EF8
  8
DEFPOINTS
  6
CONTINUOUS
 62
     0
 10
6643.9936980146776
 20
5326.8855380000005
 30
0.0
  0
POINT
  5
7EF9
  8
DEFPOINTS
  6
CONTINUOUS
 62
     0
 10
6643.9936980146776
 20
4426.8855380000005
 30
0.0
  0
POINT
  5
7EFA
  8
DEFPOINTS
  6
CONTINUOUS
 62
     0
 10
6974.4784090146786
 20
4426.8855380000005
 30
0.0
  0
ENDBLK
  5
7D7B
  8
0
  0
BLOCK
  8
0
  2
*D18
 70
     1
 10
0.0
 20
0.0
 30
0.0
  3
*D18
  1

  0
LINE
  5
7EFB
  8
3
 62
     0
 10
3597.0096757514611
 20
4916.8855380000005
 30
0.0
 11
3597.0096757514611
 21
6194.746313121952
 31
0.0
  0
LINE
  5
7EFC
  8
3
 62
     0
 10
1614.0096757514621
 20
4201.8855380000005
 30
0.0
 11
1614.0096757514621
 21
6194.746313121952
 31
0.0
  0
LINE
  5
7EFD
  8
3
 62
     0
 10
3517.0096757514621
 20
6154.746313121952
 30
0.0
 11
1694.0096757514621
 21
6154.746313121952
 31
0.0
  0
INSERT
  5
7EFE
  8
3
 62
     0
  2
_OPEN
 10
3597.0096757514611
 20
6154.746313121952
 30
0.0
 41
80.0
 42
80.0
 43
80.0
  0
INSERT
  5
7EFF
  8
3
 62
     0
  2
_OPEN
 10
1614.0096757514621
 20
6154.746313121952
 30
0.0
 41
80.0
 42
80.0
 43
80.0
 50
180.0
  0
TEXT
  8
3
  40
120
  5
7F13
  62
0
  72
0
  71
0
 10
2475.54
 20
6042.35
 30
0.000000
  1
1983
  0
POINT
  5
7F01
  8
DEFPOINTS
 62
     0
 10
3597.0096757514611
 20
4896.8855380000014
 30
0.0
  0
POINT
  5
7F02
  8
DEFPOINTS
 62
     0
 10
1614.0096757514621
 20
4181.8855380000005
 30
0.0
  0
POINT
  5
7F03
  8
DEFPOINTS
 62
     0
 10
1614.0096757514621
 20
6154.746313121952
 30
0.0
  0
ENDBLK
  5
7D9E
  8
0
  0
ENDSEC
  0
SECTION
  2
ENTITIES
  0
ARC
  5
7A78
  8
1
  6
CONTINUOUS
 10
3007.5096757514621
 20
4823.3855380000014
 30
0.0
 40
589.5
 50
5.2070360000000004
 51
95.207036000000002
  0
ARC
  5
7A79
  8
1
  6
CONTINUOUS
 10
2887.0096757514621
 20
4809.8855380000005
 30
0.0
 40
710.0
 50
297.80908099999988
 51
5.4148420000000002
  0
LINE
  5
7A7A
  8
2
  6
CENTER
 10
1834.0096757514621
 20
4234.4855379999999
 30
0.0
 11
1834.0096757514621
 21
4549.2855380000001
 31
0.0
  0
CIRCLE
  5
7A7B
  8
1
  6
CONTINUOUS
 10
1834.0096757514621
 20
4391.8855380000005
 30
0.0
 40
152.40000000000001
  0
ARC
  5
7A7C
  8
1
  6
CONTINUOUS
 10
1834.0096757514621
 20
4391.8855380000005
 30
0.0
 40
162.0
 50
324.972283
 51
215.02771699999991
  0
ARC
  5
7A7D
  8
1
  6
CONTINUOUS
 10
2887.0096757514621
 20
4943.8855380000005
 30
0.0
 40
844.0
 50
184.5531519999999
 51
244.53440099999989
  0
ARC
  5
7A7E
  8
1
  6
CONTINUOUS
 10
1834.0096757514621
 20
4391.8855380000005
 30
0.0
 40
202.40000000000001
 50
113.41433499999999
 51
293.41433499999988
  0
LINE
  5
7A7F
  8
1
  6
CONTINUOUS
 10
1914.4388797514621
 20
4206.152118
 30
0.0
 11
3034.4388797514621
 21
4691.152118
 31
0.0
  0
LINE
  5
7A80
  8
1
  6
CONTINUOUS
 10
1894.570004751462
 20
4252.0348799999992
 30
0.0
 11
3014.570004751462
 21
4737.0348799999992
 31
0.0
  0
LINE
  5
7A81
  8
1
  6
CONTINUOUS
 10
1614.0096757514621
 20
4181.8855380000005
 30
0.0
 11
3514.0096757514621
 21
4181.8855380000005
 31
0.0
  0
LINE
  5
7A82
  8
1
  6
CONTINUOUS
 10
1614.0096757514621
 20
4056.885538
 30
0.0
 11
3514.0096757514621
 21
4056.885538
 31
0.0
  0
LINE
  5
7A83
  8
1
  6
CONTINUOUS
 10
1614.0096757514621
 20
4030.885538
 30
0.0
 11
3514.0096757514621
 21
4030.885538
 31
0.0
  0
LINE
  5
7A84
  8
1
  6
CONTINUOUS
 10
1614.0096757514621
 20
3965.885538
 30
0.0
 11
3514.0096757514621
 21
3965.885538
 31
0.0
  0
LINE
  5
7A85
  8
1
  6
CONTINUOUS
 10
1636.5096757514621
 20
4181.8855380000005
 30
0.0
 11
2031.5096757514621
 21
4181.8855380000005
 31
0.0
  0
LINE
  5
7A86
  8
1
  6
CONTINUOUS
 10
1680.0096757514609
 20
4231.8855380000005
 30
0.0
 11
1646.5096757514621
 21
4231.8855380000005
 31
0.0
  0
LINE
  5
7A87
  8
1
  6
CONTINUOUS
 10
1646.5096757514621
 20
4231.8855380000005
 30
0.0
 11
1636.5096757514621
 21
4181.8855380000005
 31
0.0
  0
LINE
  5
7A88
  8
1
  6
CONTINUOUS
 10
1680.0096757514609
 20
4249.8855380000005
 30
0.0
 11
1701.352009751462
 21
4298.9019710000002
 31
0.0
  0
LINE
  5
7A89
  8
1
  6
CONTINUOUS
 10
1680.0096757514609
 20
4231.8855380000005
 30
0.0
 11
1680.0096757514609
 21
4249.8855380000005
 31
0.0
  0
LINE
  5
7A8A
  8
1
  6
CONTINUOUS
 10
1614.0096757514621
 20
4181.8855380000005
 30
0.0
 11
1614.0096757514621
 21
4056.885538
 31
0.0
  0
LINE
  5
7A8B
  8
1
  6
CONTINUOUS
 10
1614.0096757514621
 20
4030.885538
 30
0.0
 11
1614.0096757514621
 21
3965.885538
 31
0.0
  0
LINE
  5
7A8C
  8
1
  6
CONTINUOUS
 10
2031.5096757514621
 20
4181.8855380000005
 30
0.0
 11
2021.5096757514621
 21
4231.8855380000005
 31
0.0
  0
LINE
  5
7A8D
  8
1
  6
CONTINUOUS
 10
2021.5096757514621
 20
4231.8855380000005
 30
0.0
 11
1988.0096757514621
 21
4231.8855380000005
 31
0.0
  0
LINE
  5
7A8E
  8
1
  6
CONTINUOUS
 10
1988.0096757514621
 20
4231.8855380000005
 30
0.0
 11
1988.0096757514621
 21
4249.8855380000005
 31
0.0
  0
LINE
  5
7A8F
  8
1
  6
CONTINUOUS
 10
1988.0096757514621
 20
4249.8855380000005
 30
0.0
 11
1966.667341751461
 21
4298.9019710000002
 31
0.0
  0
LINE
  5
7A90
  8
1
  6
CONTINUOUS
 10
3514.0096757514621
 20
4181.8855380000005
 30
0.0
 11
3514.0096757514621
 21
4056.885538
 31
0.0
  0
LINE
  5
7A91
  8
1
  6
CONTINUOUS
 10
3514.0096757514621
 20
4030.885538
 30
0.0
 11
3514.0096757514621
 21
3965.885538
 31
0.0
  0
LINE
  5
7A92
  8
1
  6
CONTINUOUS
 10
1996.4073247514621
 20
5456.8855380000005
 30
0.0
 11
2918.0096757514621
 21
5456.8855380000005
 31
0.0
  0
LINE
  5
7A93
  8
1
  6
CONTINUOUS
 10
1953.0096757514621
 20
5496.8855380000005
 30
0.0
 11
2958.0096757514621
 21
5496.8855380000005
 31
0.0
  0
LINE
  5
7A94
  8
1
  6
CONTINUOUS
 10
1753.580471751462
 20
4577.618958
 30
0.0
 11
2873.580471751462
 21
5062.618958
 31
0.0
  0
LINE
  5
7A95
  8
1
  6
CONTINUOUS
 10
1773.4493467514619
 20
4531.7361959999989
 30
0.0
 11
2893.4493467514621
 21
5016.7361959999998
 31
0.0
  0
LINE
  5
7A96
  8
1
  6
CONTINUOUS
 10
2045.6732387514619
 20
4876.8855380000005
 30
0.0
 11
1993.0096757514621
 21
5496.8855380000005
 31
0.0
  0
LINE
  5
7A97
  8
2
  6
CENTER
 10
1676.609675751462
 20
4391.8855380000005
 30
0.0
 11
1991.409675751461
 21
4391.8855380000005
 31
0.0
  0
CIRCLE
  5
7A98
  8
1
  6
CONTINUOUS
 10
2954.0096757514621
 20
4876.8855380000005
 30
0.0
 40
490.0
  0
CIRCLE
  5
7A99
  8
1
  6
CONTINUOUS
 10
2954.0096757514621
 20
4876.8855380000005
 30
0.0
 40
450.0
  0
LINE
  5
7A9A
  8
2
  6
CENTER
 10
6745.0538230146776
 20
4876.8855380000005
 30
0.0
 11
5475.4051290146781
 21
4876.8855380000005
 31
0.0
  0
CIRCLE
  5
7A9B
  8
1
  6
CONTINUOUS
 10
2954.0096757514621
 20
4876.8855380000005
 30
0.0
 40
152.40000000000001
  0
ARC
  5
7A9C
  8
1
  6
CONTINUOUS
 10
2954.0096757514621
 20
4876.8855380000005
 30
0.0
 40
202.40000000000001
 50
293.41433499999988
 51
113.41433499999999
  0
LINE
  5
7A9D
  8
2
  6
CENTER
 10
2954.0096757514621
 20
3847.9453859999999
 30
0.0
 11
2954.0096757514621
 21
5518.3824430000013
 31
0.0
  0
LINE
  5
7A9E
  8
1
  6
CONTINUOUS
 10
2918.0096757514621
 20
5404.512103
 30
0.0
 11
2918.0096757514621
 21
5496.8855380000005
 31
0.0
  0
ARC
  5
7A9F
  8
1
  6
CONTINUOUS
 10
3007.5096757514621
 20
4930.3855380000014
 30
0.0
 40
482.5
 50
96.36609399999999
 51
100.6898319999999
  0
LINE
  5
7AA0
  8
1
  6
CONTINUOUS
 10
5683.4936980146776
 20
4544.2855380000001
 30
0.0
 11
5683.4936980146776
 21
4239.4855379999999
 31
0.0
  0
LINE
  5
7AA1
  8
1
  6
CONTINUOUS
 10
5705.9936980146776
 20
5079.2855380000001
 30
0.0
 11
5705.9936980146776
 21
4189.4855379999999
 31
0.0
  0
LINE
  5
7AA2
  8
1
  6
CONTINUOUS
 10
5565.9936980146767
 20
5079.2855380000001
 30
0.0
 11
5565.9936980146767
 21
4189.4855379999999
 31
0.0
  0
LINE
  5
7AA3
  8
1
  6
CONTINUOUS
 10
5608.4936980146776
 20
4544.2855380000001
 30
0.0
 11
5608.4936980146776
 21
4239.4855379999999
 31
0.0
  0
LINE
  5
7AA4
  8
1
  6
CONTINUOUS
 10
5718.4936980146776
 20
4553.8855380000014
 30
0.0
 11
5718.4936980146776
 21
4181.8855380000005
 31
0.0
  0
LINE
  5
7AA5
  8
1
  6
CONTINUOUS
 10
5890.9936980146767
 20
5496.8855380000005
 30
0.0
 11
5890.9936980146767
 21
4181.8855380000005
 31
0.0
  0
LINE
  5
7AA6
  8
1
  6
CONTINUOUS
 10
6560.9936980146776
 20
5496.8855380000005
 30
0.0
 11
6560.9936980146776
 21
4181.8855380000005
 31
0.0
  0
LINE
  5
7AA7
  8
1
  6
CONTINUOUS
 10
5678.9936980146776
 20
3965.885538
 30
0.0
 11
6628.9936980146776
 21
3965.885538
 31
0.0
  0
LINE
  5
7AA8
  8
1
  6
CONTINUOUS
 10
5678.9936980146776
 20
4030.885538
 30
0.0
 11
6628.9936980146776
 21
4030.885538
 31
0.0
  0
LINE
  5
7AA9
  8
1
  6
CONTINUOUS
 10
5678.9936980146776
 20
4181.8855380000005
 30
0.0
 11
6628.9936980146776
 21
4181.8855380000005
 31
0.0
  0
LINE
  5
7AAA
  8
1
  6
CONTINUOUS
 10
5678.9936980146776
 20
4056.885538
 30
0.0
 11
6628.9936980146776
 21
4056.885538
 31
0.0
  0
LINE
  5
7AAB
  8
1
  6
CONTINUOUS
 10
5678.9936980146776
 20
4030.885538
 30
0.0
 11
5678.9936980146776
 21
3965.885538
 31
0.0
  0
LINE
  5
7AAC
  8
1
  6
CONTINUOUS
 10
5565.9936980146767
 20
4189.4855379999999
 30
0.0
 11
5705.9936980146776
 21
4189.4855379999999
 31
0.0
  0
LINE
  5
7AAD
  8
1
  6
CONTINUOUS
 10
5608.4936980146776
 20
4239.4855379999999
 30
0.0
 11
5683.4936980146776
 21
4239.4855379999999
 31
0.0
  0
LINE
  5
7AAE
  8
1
  6
CONTINUOUS
 10
5718.4936980146776
 20
4231.8855380000005
 30
0.0
 11
5890.9936980146767
 21
4231.8855380000005
 31
0.0
  0
LINE
  5
7AAF
  8
1
  6
CONTINUOUS
 10
5678.9936980146776
 20
4181.8855380000005
 30
0.0
 11
5678.9936980146776
 21
4056.885538
 31
0.0
  0
LINE
  5
7AB0
  8
1
  6
CONTINUOUS
 10
6628.9936980146776
 20
4030.885538
 30
0.0
 11
6628.9936980146776
 21
3965.885538
 31
0.0
  0
LINE
  5
7AB1
  8
1
  6
CONTINUOUS
 10
6628.9936980146776
 20
4181.8855380000005
 30
0.0
 11
6628.9936980146776
 21
4056.885538
 31
0.0
  0
LINE
  5
7AB2
  8
1
  6
CONTINUOUS
 10
5850.9936980146767
 20
5496.8855380000005
 30
0.0
 11
6600.9936980146767
 21
5496.8855380000005
 31
0.0
  0
LINE
  5
7AB3
  8
1
  6
CONTINUOUS
 10
5890.9936980146767
 20
5456.8855380000005
 30
0.0
 11
6560.9936980146776
 21
5456.8855380000005
 31
0.0
  0
LINE
  5
7AB4
  8
1
  6
CONTINUOUS
 10
5683.4936980146776
 20
5029.2855379999992
 30
0.0
 11
5683.4936980146776
 21
4724.485537999999
 31
0.0
  0
LINE
  5
7AB5
  8
1
  6
CONTINUOUS
 10
5565.9936980146767
 20
5079.2855380000001
 30
0.0
 11
5705.9936980146776
 21
5079.2855380000001
 31
0.0
  0
LINE
  5
7AB6
  8
1
  6
CONTINUOUS
 10
5608.4936980146776
 20
4544.2855380000001
 30
0.0
 11
5683.4936980146776
 21
4544.2855380000001
 31
0.0
  0
LINE
  5
7AB7
  8
1
  6
CONTINUOUS
 10
5608.4936980146776
 20
4724.485537999999
 30
0.0
 11
5683.4936980146776
 21
4724.485537999999
 31
0.0
  0
LINE
  5
7AB8
  8
1
  6
CONTINUOUS
 10
5608.4936980146776
 20
5029.2855379999992
 30
0.0
 11
5683.4936980146776
 21
5029.2855379999992
 31
0.0
  0
LINE
  5
7AB9
  8
1
  6
CONTINUOUS
 10
5683.4936980146776
 20
4370.8855380000005
 30
0.0
 11
5718.4936980146776
 21
4370.8855380000005
 31
0.0
  0
LINE
  5
7ABA
  8
1
  6
CONTINUOUS
 10
5683.4936980146776
 20
4412.8855380000005
 30
0.0
 11
5718.4936980146776
 21
4412.8855380000005
 31
0.0
  0
LINE
  5
7ABB
  8
1
  6
CONTINUOUS
 10
5683.4936980146776
 20
4846.8855380000014
 30
0.0
 11
5890.9936980146767
 21
4846.8855380000014
 31
0.0
  0
LINE
  5
7ABC
  8
1
  6
CONTINUOUS
 10
5683.4936980146776
 20
4906.8855380000005
 30
0.0
 11
5890.9936980146767
 21
4906.8855380000005
 31
0.0
  0
LINE
  5
7ABD
  8
1
  6
CONTINUOUS
 10
5718.4936980146776
 20
4553.8855380000014
 30
0.0
 11
5890.9936980146767
 21
4553.8855380000014
 31
0.0
  0
LINE
  5
7ABE
  8
1
  6
CONTINUOUS
 10
5608.4936980146776
 20
5029.2855379999992
 30
0.0
 11
5608.4936980146776
 21
4724.485537999999
 31
0.0
  0
LINE
  5
7ABF
  8
1
  6
CONTINUOUS
 10
6643.9936980146776
 20
5366.8855380000005
 30
0.0
 11
6643.9936980146776
 21
4386.8855380000005
 31
0.0
  0
LINE
  5
7AC0
  8
1
  6
CONTINUOUS
 10
6560.9936980146776
 20
4426.8855380000005
 30
0.0
 11
6643.9936980146776
 21
4426.8855380000005
 31
0.0
  0
LINE
  5
7AC1
  8
1
  6
CONTINUOUS
 10
6560.9936980146776
 20
5326.8855380000005
 30
0.0
 11
6643.9936980146776
 21
5326.8855380000005
 31
0.0
  0
LINE
  5
7AC2
  8
1
  6
CONTINUOUS
 10
1993.0096757514621
 20
8353.6861719349472
 30
0.0
 11
3597.0096757514611
 21
8353.6861719349472
 31
0.0
  0
LINE
  5
7AC3
  8
1
  6
CONTINUOUS
 10
1993.0096757514621
 20
7683.6861719349472
 30
0.0
 11
3597.0096757514611
 21
7683.6861719349472
 31
0.0
  0
LINE
  5
7AC4
  8
1
  6
CONTINUOUS
 10
1631.609675751462
 20
7498.6861719349481
 30
0.0
 11
3156.4096757514621
 21
7498.6861719349481
 31
0.0
  0
LINE
  5
7AC5
  8
1
  6
CONTINUOUS
 10
1631.609675751462
 20
7358.6861719349472
 30
0.0
 11
3156.4096757514621
 21
7358.6861719349472
 31
0.0
  0
LINE
  5
7AC6
  8
1
  6
CONTINUOUS
 10
1986.409675751461
 20
7471.6861719349472
 30
0.0
 11
2801.609675751462
 21
7471.6861719349472
 31
0.0
  0
LINE
  5
7AC7
  8
1
  6
CONTINUOUS
 10
1614.0096757514621
 20
8421.6861719349472
 30
0.0
 11
2504.0096757514621
 21
8421.6861719349472
 31
0.0
  0
LINE
  5
7AC8
  8
1
  6
CONTINUOUS
 10
2918.0096757514621
 20
7683.6861719349472
 30
0.0
 11
1993.0096757514621
 21
8353.6861719349472
 31
0.0
  0
LINE
  5
7AC9
  8
1
  6
CONTINUOUS
 10
2918.0096757514621
 20
8353.6861719349472
 30
0.0
 11
1993.0096757514621
 21
7683.6861719349472
 31
0.0
  0
LINE
  5
7ACA
  8
1
  6
CONTINUOUS
 10
1672.0096757514621
 20
7511.1861719349481
 30
0.0
 11
1672.0096757514621
 21
8004.1861719349463
 31
0.0
  0
LINE
  5
7ACB
  8
1
  6
CONTINUOUS
 10
1614.0096757514621
 20
8421.6861719349472
 30
0.0
 11
1614.0096757514621
 21
7471.6861719349472
 31
0.0
  0
LINE
  5
7ACC
  8
1
  6
CONTINUOUS
 10
1993.0096757514621
 20
7683.6861719349472
 30
0.0
 11
1993.0096757514621
 21
8353.6861719349472
 31
0.0
  0
LINE
  5
7ACD
  8
1
  6
CONTINUOUS
 10
1986.409675751461
 20
7476.1861719349472
 30
0.0
 11
1681.609675751462
 21
7476.1861719349472
 31
0.0
  0
LINE
  5
7ACE
  8
1
  6
CONTINUOUS
 10
1672.0096757514621
 20
7511.1861719349481
 30
0.0
 11
1996.0096757514609
 21
7511.1861719349481
 31
0.0
  0
LINE
  5
7ACF
  8
1
  6
CONTINUOUS
 10
1986.409675751461
 20
7401.1861719349472
 30
0.0
 11
1681.609675751462
 21
7401.1861719349472
 31
0.0
  0
LINE
  5
7AD0
  8
1
  6
CONTINUOUS
 10
1631.609675751462
 20
7358.6861719349472
 30
0.0
 11
1631.609675751462
 21
7498.6861719349481
 31
0.0
  0
LINE
  5
7AD1
  8
1
  6
CONTINUOUS
 10
1681.609675751462
 20
7476.1861719349472
 30
0.0
 11
1681.609675751462
 21
7401.1861719349472
 31
0.0
  0
LINE
  5
7AD2
  8
1
  6
CONTINUOUS
 10
1614.0096757514621
 20
7471.6861719349472
 30
0.0
 11
1681.609675751462
 21
7471.6861719349472
 31
0.0
  0
LINE
  5
7AD3
  8
1
  6
CONTINUOUS
 10
1986.409675751461
 20
7476.1861719349472
 30
0.0
 11
1986.409675751461
 21
7401.1861719349472
 31
0.0
  0
LINE
  5
7AD4
  8
1
  6
CONTINUOUS
 10
1996.0096757514609
 20
7511.1861719349481
 30
0.0
 11
1996.0096757514609
 21
7683.6861719349472
 31
0.0
  0
LINE
  5
7AD5
  8
1
  6
CONTINUOUS
 10
1813.0096757514621
 20
7476.1861719349472
 30
0.0
 11
1813.0096757514621
 21
7511.1861719349481
 31
0.0
  0
LINE
  5
7AD6
  8
1
  6
CONTINUOUS
 10
1855.0096757514609
 20
7476.1861719349472
 30
0.0
 11
1855.0096757514609
 21
7511.1861719349481
 31
0.0
  0
LINE
  5
7AD7
  8
1
  6
CONTINUOUS
 10
1672.0096757514621
 20
8004.1861719349463
 30
0.0
 11
1993.0096757514621
 21
8004.1861719349463
 31
0.0
  0
LINE
  5
7AD8
  8
1
  6
CONTINUOUS
 10
2918.0096757514621
 20
7683.6861719349472
 30
0.0
 11
2918.0096757514621
 21
8353.6861719349472
 31
0.0
  0
LINE
  5
7AD9
  8
1
  6
CONTINUOUS
 10
2801.609675751462
 20
7476.1861719349472
 30
0.0
 11
3106.4096757514621
 21
7476.1861719349472
 31
0.0
  0
LINE
  5
7ADA
  8
1
  6
CONTINUOUS
 10
2801.609675751462
 20
7401.1861719349472
 30
0.0
 11
3106.4096757514621
 21
7401.1861719349472
 31
0.0
  0
LINE
  5
7ADB
  8
1
  6
CONTINUOUS
 10
2801.609675751462
 20
7476.1861719349472
 30
0.0
 11
2801.609675751462
 21
7401.1861719349472
 31
0.0
  0
LINE
  5
7ADC
  8
1
  6
CONTINUOUS
 10
2924.0096757514621
 20
7683.6861719349472
 30
0.0
 11
2924.0096757514621
 21
7476.1861719349472
 31
0.0
  0
LINE
  5
7ADD
  8
1
  6
CONTINUOUS
 10
3156.4096757514621
 20
7358.6861719349472
 30
0.0
 11
3156.4096757514621
 21
7498.6861719349481
 31
0.0
  0
LINE
  5
7ADE
  8
1
  6
CONTINUOUS
 10
3106.4096757514621
 20
7476.1861719349472
 30
0.0
 11
3106.4096757514621
 21
7401.1861719349472
 31
0.0
  0
LINE
  5
7ADF
  8
1
  6
CONTINUOUS
 10
3106.4096757514621
 20
7471.6861719349472
 30
0.0
 11
3514.0096757514621
 21
7471.6861719349472
 31
0.0
  0
LINE
  5
7AE0
  8
1
  6
CONTINUOUS
 10
2984.0096757514621
 20
7683.6861719349472
 30
0.0
 11
2984.0096757514621
 21
7476.1861719349472
 31
0.0
  0
LINE
  5
7AE1
  8
1
  6
CONTINUOUS
 10
3514.0096757514621
 20
7683.6861719349472
 30
0.0
 11
3514.0096757514621
 21
7471.6861719349472
 31
0.0
  0
LINE
  5
7AE2
  8
1
  6
CONTINUOUS
 10
2464.0096757514621
 20
8436.6861719349472
 30
0.0
 11
3444.0096757514621
 21
8436.6861719349472
 31
0.0
  0
LINE
  5
7AE3
  8
1
  6
CONTINUOUS
 10
2504.0096757514621
 20
8436.6861719349472
 30
0.0
 11
2504.0096757514621
 21
8353.6861719349472
 31
0.0
  0
LINE
  5
7AE4
  8
1
  6
CONTINUOUS
 10
3404.0096757514621
 20
8421.6861719349472
 30
0.0
 11
3514.0096757514621
 21
8421.6861719349472
 31
0.0
  0
LINE
  5
7AE5
  8
1
  6
CONTINUOUS
 10
3404.0096757514621
 20
8436.6861719349472
 30
0.0
 11
3404.0096757514621
 21
8353.6861719349472
 31
0.0
  0
LINE
  5
7AE6
  8
1
  6
CONTINUOUS
 10
3514.0096757514621
 20
8421.6861719349472
 30
0.0
 11
3514.0096757514621
 21
8353.6861719349472
 31
0.0
  0
LINE
  5
7AE7
  8
1
  6
CONTINUOUS
 10
3597.0096757514611
 20
7683.6861719349472
 30
0.0
 11
3597.0096757514611
 21
8353.6861719349472
 31
0.0
  0
DIMENSION
  5
7AFB
  8
3
  6
CONTINUOUS
  2
*D1
 10
2954.0096757514621
 20
3630.4182430000001
 30
0.0
 11
2284.8061827514621
 21
3630.4182430000001
 31
0.0
 70
   128
 13
1614.0096757514621
 23
3965.885538
 33
0.0
 14
2954.0096757514621
 24
3847.9453859999999
 34
0.0
1001
ACAD
1000
DSTYLE
1002
{
1070
   287
1070
     3
1070
   287
1070
     3
1070
    40
1040
40.0
1070
   143
1040
0.039
1070
   172
1070
     1
1070
   271
1070
     0
1070
   279
1070
     0
1070
   288
1070
     1
1002
}
  0
DIMENSION
  5
7B09
  8
3
  6
CONTINUOUS
  2
*D2
 10
3514.0096757514621
 20
3629.905197
 30
0.0
 11
3239.7239614657478
 21
3629.905197
 31
0.0
 70
   128
 13
2954.0096757514621
 23
3847.9453859999999
 33
0.0
 14
3514.0096757514621
 24
3965.885538
 34
0.0
1001
ACAD
1000
DSTYLE
1002
{
1070
   287
1070
     3
1070
   287
1070
     3
1070
    40
1040
40.0
1070
   143
1040
0.039
1070
   172
1070
     1
1070
   271
1070
     0
1070
   279
1070
     0
1070
   288
1070
     1
1002
}
  0
DIMENSION
  5
7B2C
  8
3
  6
CONTINUOUS
  2
*D3
 10
3998.795054751462
 20
4876.8855380000005
 30
0.0
 11
3998.795054751462
 21
5151.1712522857151
 31
0.0
 70
   128
 13
2958.0096757514621
 23
5496.8855380000005
 33
0.0
 14
3594.5769627514619
 24
4876.8855380000005
 34
0.0
 50
90.0
1001
ACAD
1000
DSTYLE
1002
{
1070
   287
1070
     3
1070
   287
1070
     3
1070
    40
1040
40.0
1070
   143
1040
0.039
1070
   172
1070
     1
1070
   271
1070
     0
1070
   279
1070
     0
1070
   288
1070
     1
1002
}
  0
DIMENSION
  5
7B38
  8
3
  6
CONTINUOUS
  2
*D4
 10
3998.795054751462
 20
4056.885538
 30
0.0
 11
3898.7950547514611
 21
4466.8855380000023
 31
0.0
 70
     0
 13
3594.5769627514619
 23
4876.8855380000005
 33
0.0
 14
3514.0096757514621
 24
4056.885538
 34
0.0
 50
90.0
1001
ACAD
1000
DSTYLE
1002
{
1070
   287
1070
     3
1070
   287
1070
     3
1070
    40
1040
40.0
1070
   143
1040
0.039
1070
   172
1070
     1
1070
   271
1070
     0
1070
   279
1070
     0
1070
   288
1070
     1
1002
}
  0
DIMENSION
  5
7B48
  8
3
  6
CONTINUOUS
  2
*D5
 10
3998.795054751462
 20
3965.885538
 30
0.0
 11
3998.7950547514611
 21
3694.4569665714289
 31
0.0
 70
   128
 13
3514.0096757514621
 23
4056.885538
 33
0.0
 14
3514.0096757514621
 24
3965.885538
 34
0.0
 50
90.0
1001
ACAD
1000
DSTYLE
1002
{
1070
   287
1070
     3
1070
   287
1070
     3
1070
    40
1040
40.0
1070
   143
1040
0.039
1070
   172
1070
     1
1070
   271
1070
     0
1070
   279
1070
     0
1070
   288
1070
     1
1002
}
  0
DIMENSION
  5
7B6F
  8
3
  6
CONTINUOUS
  2
*D6
 10
4324.0399017514619
 20
3965.885538
 30
0.0
 11
4324.039901751461
 21
4621.0834649999988
 31
0.0
 70
   128
 13
2980.5096757514621
 23
5496.8855380000005
 33
0.0
 14
3514.0096757514621
 24
3965.885538
 34
0.0
 50
90.0
1001
ACAD
1000
DSTYLE
1002
{
1070
   287
1070
     3
1070
   287
1070
     3
1070
    40
1040
40.0
1070
   143
1040
0.039
1070
   172
1070
     1
1070
   271
1070
     0
1070
   279
1070
     0
1070
   288
1070
     1
1002
}
  0
DIMENSION
  5
7B7C
  8
3
  6
CONTINUOUS
  2
*D7
 10
2918.0096757514621
 20
5721.0726830000003
 30
0.0
 11
2444.8472887514622
 21
5721.0726830000003
 31
0.0
 70
   128
 13
1993.0096757514621
 23
5496.8855380000005
 33
0.0
 14
2918.0096757514621
 24
5496.8855380000005
 34
0.0
1001
ACAD
1000
DSTYLE
1002
{
1070
   287
1070
     3
1070
   287
1070
     3
1070
    40
1040
40.0
1070
   143
1040
0.039
1070
   172
1070
     1
1070
   271
1070
     0
1070
   279
1070
     0
1070
   288
1070
     1
1002
}
  0
DIMENSION
  5
7B89
  8
3
  6
CONTINUOUS
  2
*D8
 10
2954.0096757514621
 20
5927.3544009999987
 30
0.0
 11
2465.4977767514629
 21
5927.3544009999987
 31
0.0
 70
   128
 13
1993.0096757514621
 23
5496.8855380000005
 33
0.0
 14
2954.0096757514621
 24
5409.9103020000002
 34
0.0
1001
ACAD
1000
DSTYLE
1002
{
1070
   287
1070
     3
1070
   287
1070
     3
1070
    40
1040
40.0
1070
   143
1040
0.039
1070
   172
1070
     1
1070
   271
1070
     0
1070
   279
1070
     0
1070
   288
1070
     1
1002
}
  0
DIMENSION
  5
7B95
  8
3
  6
CONTINUOUS
  2
*D9
 10
3597.0096757514611
 20
5927.3544009999987
 30
0.0
 11
3275.5096757514621
 21
6027.3544009999996
 31
0.0
 70
     0
 13
2954.0096757514621
 23
5409.9103020000002
 33
0.0
 14
3597.0096757514611
 24
4876.8855380000005
 34
0.0
1001
ACAD
1000
DSTYLE
1002
{
1070
   287
1070
     3
1070
   287
1070
     3
1070
    40
1040
40.0
1070
   143
1040
0.039
1070
   172
1070
     1
1070
   271
1070
     0
1070
   279
1070
     0
1070
   288
1070
     1
1002
}
  0
DIMENSION
  5
7BA2
  8
3
  6
CONTINUOUS
  2
*D10
 10
3514.0096757514621
 20
6923.3021319349491
 30
0.0
 11
2625.5389357514618
 21
6923.3021319349491
 31
0.0
 70
   128
 13
1614.0096757514621
 23
7471.6861719349472
 33
0.0
 14
3514.0096757514621
 24
7471.6861719349472
 34
0.0
1001
ACAD
1000
DSTYLE
1002
{
1070
   287
1070
     3
1070
   287
1070
     3
1070
    40
1040
40.0
1070
   143
1040
0.039
1070
   172
1070
     1
1070
   271
1070
     0
1070
   279
1070
     0
1070
   288
1070
     1
1002
}
  0
DIMENSION
  5
7BAF
  8
3
  6
CONTINUOUS
  2
*D11
 10
3936.8436457514631
 20
7471.6861719349472
 30
0.0
 11
3936.8436457514622
 21
7972.2340129349486
 31
0.0
 70
   128
 13
3514.0096757514621
 23
8421.6861719349472
 33
0.0
 14
3514.0096757514621
 24
7471.6861719349472
 34
0.0
 50
90.0
1001
ACAD
1000
DSTYLE
1002
{
1070
   287
1070
     3
1070
   287
1070
     3
1070
    40
1040
40.0
1070
   143
1040
0.039
1070
   172
1070
     1
1070
   271
1070
     0
1070
   279
1070
     0
1070
   288
1070
     1
1002
}
  0
LINE
  5
7BB0
  8
2
  6
CENTER
 10
1931.0582657514619
 20
8018.6861719349481
 30
0.0
 11
3652.8997207514622
 21
8018.6861719349481
 31
0.0
  0
LINE
  5
7BB1
  8
2
  6
CENTER
 10
2954.0096757514621
 20
7215.1881009349481
 30
0.0
 11
2954.0096757514621
 21
8493.2209129349485
 31
0.0
  0
LINE
  5
7BB2
  8
2
  6
CENTER
 10
6225.9936980146767
 20
5652.7987300000004
 30
0.0
 11
6225.9936980146767
 21
3894.96659
 31
0.0
  0
DIMENSION
  5
7BC1
  8
3
  6
CONTINUOUS
  2
*D12
 10
6225.9936980146767
 20
3679.3943410000002
 30
0.0
 11
5952.4936980146767
 21
3774.4477119028738
 31
0.0
 70
   128
 13
5678.9936980146776
 23
3965.885538
 33
0.0
 14
6225.9936980146767
 24
3894.96659
 34
0.0
1001
ACAD
1000
DSTYLE
1002
{
1070
   288
1070
     1
1070
   172
1070
     1
1070
    40
1040
40.0
1070
   271
1070
     0
1070
   143
1040
0.039
1002
}
  0
DIMENSION
  5
7BCF
  8
3
  6
CONTINUOUS
  2
*D13
 10
6628.9936980146776
 20
3676.191131
 30
0.0
 11
6427.4936980146776
 21
3767.2781503288488
 31
0.0
 70
   128
 13
6225.9936980146767
 23
3894.96659
 33
0.0
 14
6628.9936980146776
 24
3965.885538
 34
0.0
1001
ACAD
1000
DSTYLE
1002
{
1070
   288
1070
     1
1070
   172
1070
     1
1070
    40
1040
40.0
1070
   271
1070
     0
1070
   143
1040
0.039
1002
}
  0
DIMENSION
  5
7BF2
  8
3
  6
CONTINUOUS
  2
*D14
 10
6560.9936980146776
 20
5627.5677850000002
 30
0.0
 11
6286.707983728963
 21
5627.5677850000002
 31
0.0
 70
   128
 13
5890.9936980146767
 23
5496.8855380000005
 33
0.0
 14
6560.9936980146776
 24
5496.8855380000005
 34
0.0
1001
ACAD
1000
DSTYLE
1002
{
1070
   287
1070
     3
1070
   287
1070
     3
1070
    40
1040
40.0
1070
   143
1040
0.039
1070
   172
1070
     1
1070
   271
1070
     0
1070
   279
1070
     0
1070
   288
1070
     1
1002
}
  0
DIMENSION
  5
7BFF
  8
3
  6
CONTINUOUS
  2
*D15
 10
6225.9936980146767
 20
5970.4783280000001
 30
0.0
 11
5934.565126586107
 21
5970.4783280000001
 31
0.0
 70
   128
  1
MAX\P720
 13
5565.9936980146767
 23
5079.2855380000001
 33
0.0
 14
6225.9936980146767
 24
5848.8207659999998
 34
0.0
1001
ACAD
1000
DSTYLE
1002
{
1070
   287
1070
     3
1070
   287
1070
     3
1070
    40
1040
40.0
1070
   143
1040
0.039
1070
   172
1070
     1
1070
   271
1070
     0
1070
   279
1070
     0
1070
   288
1070
     1
1002
}
  0
DIMENSION
  5
7C0D
  8
3
  6
CONTINUOUS
  2
*D16
 10
6643.9936980146776
 20
5970.4783280000001
 30
0.0
 11
6434.9936980146776
 21
6075.8809829163947
 31
0.0
 70
   128
 13
6225.9936980146767
 23
5848.8207659999998
 33
0.0
 14
6643.9936980146776
 24
5366.8855380000005
 34
0.0
1001
ACAD
1000
DSTYLE
1002
{
1070
   288
1070
     1
1070
   172
1070
     1
1070
    40
1040
40.0
1070
   271
1070
     0
1070
   143
1040
0.039
1002
}
  0
DIMENSION
  5
7C30
  8
3
  6
CONTINUOUS
  2
*D17
 10
6974.4784090146786
 20
4426.8855380000005
 30
0.0
 11
6974.4784090146777
 21
4885.7317128851137
 31
0.0
 70
   128
 13
6643.9936980146776
 23
5326.8855380000005
 33
0.0
 14
6643.9936980146776
 24
4426.8855380000005
 34
0.0
 50
90.0
1001
ACAD
1000
DSTYLE
1002
{
1070
   287
1070
     3
1070
   287
1070
     3
1070
     3
1000
φ<>
1070
    40
1040
40.0
1070
   143
1040
0.039
1070
   172
1070
     1
1070
   271
1070
     0
1070
   279
1070
     0
1070
   288
1070
     1
1002
}
  0
LINE
  5
7C31
  8
2
  6
CENTER
 10
3650.3936037514609
 20
4876.8855380000005
 30
0.0
 11
1960.2656997514621
 21
4876.8855380000005
 31
0.0
  0
LINE
  5
7C32
  8
4
  6
CONTINUOUS
 10
7400.0
 20
2000.0
 30
0.0
 11
7400.0
 21
1200.0
 31
0.0
  0
LINE
  5
7C33
  8
4
  6
CONTINUOUS
 10
4600.0
 20
2000.0
 30
0.0
 11
4600.0
 21
1200.0
 31
0.0
  0
LINE
  5
7C34
  8
4
  6
CONTINUOUS
 10
2600.0
 20
2000.0
 30
0.0
 11
2600.0
 21
1200.0
 31
0.0
  0
LINE
  5
7C37
  8
4
  6
CONTINUOUS
 10
2600.0
 20
1200.0
 30
0.0
 11
7400.0
 21
1200.0
 31
0.0
  0
LINE
  5
7C38
  8
4
  6
CONTINUOUS
 10
2600.0
 20
1600.0
 30
0.0
 11
7400.0
 21
1600.0
 31
0.0
  0
TEXT
  5
7C39
  8
4
  6
CONTINUOUS
 10
2754.0083232000002
 20
1726.1721031999989
 30
0.0
 40
200.0
  1
機器名称
  0
TEXT
  5
7C3A
  8
4
  6
CONTINUOUS
 10
2745.032424
 20
1286.5806264
 30
0.0
 40
200.0
  1
機器型番
  0
TEXT
  5
7C3B
  8
4
  6
CONTINUOUS
 10
4710.7149823999989
 20
1690.2870751999999
 30
0.0
 40
168.88888879999999
  1
ミツヤリミットロードファン
  0
TEXT
  5
7C3C
  8
4
  6
CONTINUOUS
 10
4746.6179824000001
 20
1268.6383367999999
 30
0.0
 40
200.0
  1
LLE#5 1/2-4
  0
TEXT
  5
7C3E
  8
4
  6
CONTINUOUS
 10
3058.7414967999998
 20
9533.7153655999991
 30
0.0
 40
216.0
  1
床置防振ベット
  0
TEXT
  5
7C3F
  8
4
  6
CONTINUOUS
 10
1264.6703735999999
 20
10135.5239048
 30
0.0
 40
240.0
  1
ベルト駆動式片吸込片持排煙ファン
  0
LINE
  5
7C40
  8
4
  6
CONTINUOUS
 10
1000.0
 20
9877.635016799999
 30
0.0
 11
7400.0
 21
9877.635016799999
 31
0.0
  0
LINE
  5
7C41
  8
4
  6
CONTINUOUS
 10
1000.0
 20
10677.635016800001
 30
0.0
 11
7400.0
 21
10677.635016800001
 31
0.0
  0
LINE
  5
7C42
  8
4
  6
CONTINUOUS
 10
2600.0
 20
2000.0
 30
0.0
 11
7400.0
 21
2000.0
 31
0.0
  0
LINE
  5
7C43
  8
4
  6
CONTINUOUS
 10
1000.0
 20
10677.635016800001
 30
0.0
 11
1000.0
 21
9877.635016799999
 31
0.0
  0
TEXT
  5
7C44
  8
4
  6
CONTINUOUS
 10
1315.3061680000001
 20
9529.2779104000001
 30
0.0
 40
216.0
  1
右回転上向
  0
TEXT
  5
7C45
  8
4
  6
CONTINUOUS
 10
5875.8782375999999
 20
10824.244326399999
 30
0.0
 40
224.0
  1
No.
  0
TEXT
  5
7C46
  8
4
  6
CONTINUOUS
 10
5245.1842504000006
 20
9533.7153655999991
 30
0.0
 40
216.0
  1
縮尺：1/40
  0
LINE
  5
7C47
  8
4
  6
CONTINUOUS
 10
7400.0
 20
10677.635016800001
 30
0.0
 11
7400.0
 21
9877.635016799999
 31
0.0
  0
LINE
  5
7C48
  8
4
  6
CONTINUOUS
 10
7560.0
 20
10620.0
 30
0.0
 11
7560.0
 21
10620.0
 31
0.0
  0
LINE
  5
7C49
  8
4
  6
CONTINUOUS
 10
5762.4696895999996
 20
10725.0543328
 30
0.0
 11
5762.4696895999996
 21
11146.609046400001
 31
0.0
  0
LINE
  5
7C4A
  8
4
  6
CONTINUOUS
 10
5762.4696895999996
 20
11146.609046400001
 30
0.0
 11
7400.0
 21
11146.609046400001
 31
0.0
  0
LINE
  5
7C4B
  8
4
  6
CONTINUOUS
 10
7400.0
 20
11146.609046400001
 30
0.0
 11
7400.0
 21
10725.0543328
 31
0.0
  0
LINE
  5
7C4C
  8
4
  6
CONTINUOUS
 10
7400.0
 20
10725.0543328
 30
0.0
 11
5762.4696895999996
 21
10725.0543328
 31
0.0
  0
DIMENSION
  5
7D9F
  8
3
  2
*D18
 10
1614.0096757514621
 20
6154.746313121952
 30
0.0
 11
2715.541324847763
 21
6154.746313121952
 31
0.0
 70
   128
 13
3597.0096757514611
 23
4896.8855380000014
 33
0.0
 14
1614.0096757514621
 24
4181.8855380000005
 34
0.0
1001
ACAD
1000
DSTYLE
1002
{
1070
   287
1070
     3
1070
   287
1070
     3
1070
    40
1040
40.0
1070
   143
1040
0.039
1070
   172
1070
     1
1070
   271
1070
     0
1070
   279
1070
     0
1070
   288
1070
     1
1002
}
  0
ENDSEC
  0
EOF
