  0
SECTION
  2
HEADER
  9
$ACADVER
  1
AC1009
  9
$INSBASE
 10
0.0
 20
0.0
 30
0.0
  9
$EXTMIN
 10
1000.0
 20
1200.0
 30
0.0
  9
$EXTMAX
 10
7560.0
 20
11146.609046400001
 30
0.0
  9
$LIMMIN
 10
0.0
 20
0.0
  9
$LIMMAX
 10
297.0
 20
210.0
  9
$ORTHOMODE
 70
     0
  9
$REGENMODE
 70
     1
  9
$FILLMODE
 70
     0
  9
$QTEXTMODE
 70
     0
  9
$MIRRTEXT
 70
     1
  9
$DRAGMODE
 70
     2
  9
$LTSCALE
 40
100.0
  9
$OSMODE
 70
    37
  9
$ATTMODE
 70
     1
  9
$TEXTSIZE
 40
180.0
  9
$TRACEWID
 40
0.05
  9
$TEXTSTYLE
  7
STANDARD
  9
$CLAYER
  8
3
  9
$CELTYPE
  6
BYLAYER
  9
$CECOLOR
 62
   256
  9
$DIMSCALE
 40
40.0
  9
$DIMASZ
 40
2.0
  9
$DIMEXO
 40
0.5
  9
$DIMDLI
 40
10.0
  9
$DIMRND
 40
0.0
  9
$DIMDLE
 40
0.0
  9
$DIMEXE
 40
1.0
  9
$DIMTP
 40
1.0
  9
$DIMTM
 40
1.0
  9
$DIMTXT
 40
3.0
  9
$DIMCEN
 40
0.0
  9
$DIMTSZ
 40
0.0
  9
$DIMTOL
 70
     0
  9
$DIMLIM
 70
     0
  9
$DIMTIH
 70
     0
  9
$DIMTOH
 70
     0
  9
$DIMSE1
 70
     0
  9
$DIMSE2
 70
     0
  9
$DIMTAD
 70
     1
  9
$DIMZIN
 70
     8
  9
$DIMBLK
  1

  9
$DIMASO
 70
     1
  9
$DIMSHO
 70
     1
  9
$DIMPOST
  1

  9
$DIMAPOST
  1

  9
$DIMALT
 70
     0
  9
$DIMALTD
 70
     2
  9
$DIMALTF
 40
0.039
  9
$DIMLFAC
 40
1.0
  9
$DIMTOFL
 70
     1
  9
$DIMTVP
 40
0.0
  9
$DIMTIX
 70
     0
  9
$DIMSOXD
 70
     0
  9
$DIMSAH
 70
     1
  9
$DIMBLK1
  1
OPEN
  9
$DIMBLK2
  1
OPEN
  9
$DIMSTYLE
  2
IGA
  9
$DIMCLRD
 70
     0
  9
$DIMCLRE
 70
     0
  9
$DIMCLRT
 70
     0
  9
$DIMTFAC
 40
10.0
  9
$DIMGAP
 40
1.0
  9
$LUNITS
 70
     2
  9
$LUPREC
 70
     3
  9
$SKETCHINC
 40
0.1
  9
$FILLETRAD
 40
50.0
  9
$AUNITS
 70
     0
  9
$AUPREC
 70
     0
  9
$MENU
  1
acad
  9
$ELEVATION
 40
0.0
  9
$PELEVATION
 40
0.0
  9
$THICKNESS
 40
0.0
  9
$LIMCHECK
 70
     0
  9
$BLIPMODE
 70
     0
  9
$CHAMFERA
 40
0.5
  9
$CHAMFERB
 40
0.5
  9
$SKPOLY
 70
     0
  9
$TDCREATE
 40
2450752.4202969908
  9
$TDUPDATE
 40
2454953.6860273718
  9
$TDINDWG
 40
0.0067114352
  9
$TDUSRTIMER
 40
0.0067114352
  9
$USRTIMER
 70
     1
  9
$ANGBASE
 50
0.0
  9
$ANGDIR
 70
     0
  9
$PDMODE
 70
     0
  9
$PDSIZE
 40
0.0
  9
$PLINEWID
 40
0.0
  9
$COORDS
 70
     1
  9
$SPLFRAME
 70
     0
  9
$SPLINETYPE
 70
     6
  9
$SPLINESEGS
 70
     8
  9
$ATTDIA
 70
     0
  9
$ATTREQ
 70
     1
  9
$HANDLING
 70
 10241
  9
$HANDSEED
  5
7F86
  9
$SURFTAB1
 70
     6
  9
$SURFTAB2
 70
     6
  9
$SURFTYPE
 70
     6
  9
$SURFU
 70
     6
  9
$SURFV
 70
     6
  9
$UCSNAME
  2

  9
$UCSORG
 10
0.0
 20
0.0
 30
0.0
  9
$UCSXDIR
 10
1.0
 20
0.0
 30
0.0
  9
$UCSYDIR
 10
0.0
 20
1.0
 30
0.0
  9
$PUCSNAME
  2

  9
$PUCSORG
 10
0.0
 20
0.0
 30
0.0
  9
$PUCSXDIR
 10
1.0
 20
0.0
 30
0.0
  9
$PUCSYDIR
 10
0.0
 20
1.0
 30
0.0
  9
$USERI1
 70
     0
  9
$USERI2
 70
     0
  9
$USERI3
 70
     0
  9
$USERI4
 70
     0
  9
$USERI5
 70
     0
  9
$USERR1
 40
0.0
  9
$USERR2
 40
0.0
  9
$USERR3
 40
0.0
  9
$USERR4
 40
0.0
  9
$USERR5
 40
0.0
  9
$WORLDVIEW
 70
     1
  9
$SHADEDGE
 70
     3
  9
$SHADEDIF
 70
    70
  9
$TILEMODE
 70
     1
  9
$MAXACTVP
 70
    16
  9
$PLIMCHECK
 70
     0
  9
$PEXTMIN
 10
1.0000000000000000E+020
 20
1.0000000000000000E+020
 30
1.0000000000000000E+020
  9
$PEXTMAX
 10
-1.0000000000000000E+020
 20
-1.0000000000000000E+020
 30
-1.0000000000000000E+020
  9
$PLIMMIN
 10
0.0
 20
0.0
  9
$PLIMMAX
 10
12.0
 20
9.0
  9
$UNITMODE
 70
     0
  9
$VISRETAIN
 70
     0
  9
$PLINEGEN
 70
     0
  9
$PSLTSCALE
 70
     1
  0
ENDSEC
  0
SECTION
  2
TABLES
  0
TABLE
  2
VPORT
 70
     2
  0
VPORT
  2
*ACTIVE
 70
     0
 10
0.0
 20
0.0
 11
1.0
 21
1.0
 12
18485.135274264961
 22
5222.6226718528087
 13
0.0
 23
0.0
 14
10.0
 24
10.0
 15
10.0
 25
10.0
 16
0.0
 26
0.0
 36
1.0
 17
0.0
 27
0.0
 37
0.0
 40
15032.28757675102
 41
3.1666666666666661
 42
50.0
 43
0.0
 44
0.0
 50
0.0
 51
0.0
 71
     0
 72
   100
 73
     1
 74
     0
 75
     0
 76
     0
 77
     0
 78
     0
  0
ENDTAB
  0
TABLE
  2
LTYPE
 70
     2
  0
LTYPE
  2
CONTINUOUS
 70
     0
  3
Solid line
 72
    65
 73
     0
 40
0.0
  0
LTYPE
  2
CENTER
 70
     0
  3
____ _ ____ _ ____ _ ____ _ ____ _ ____ _ ____ 
 72
    65
 73
     4
 40
2.0
 49
1.25
 49
-0.25
 49
0.25
 49
-0.25
  0
ENDTAB
  0
TABLE
  2
LAYER
 70
     6
  0
LAYER
  2
0
 70
     0
 62
     7
  6
CONTINUOUS
  0
LAYER
  2
3
 70
     0
 62
     2
  6
CONTINUOUS
  0
LAYER
  2
2
 70
     0
 62
     3
  6
CENTER
  0
LAYER
  2
1
 70
     0
 62
     4
  6
CONTINUOUS
  0
LAYER
  2
4
 70
     0
 62
     7
  6
CONTINUOUS
  0
LAYER
  2
DEFPOINTS
 70
     0
 62
     7
  6
CONTINUOUS
  0
ENDTAB
  0
TABLE
  2
STYLE
 70
     1
  0
STYLE
  2
STANDARD
 70
     0
 40
0.0
 41
1.0
 50
0.0
 71
     0
 42
180.0
  3
simplex.shx
  4
extfont.shx
  0
ENDTAB
  0
TABLE
  2
VIEW
 70
     0
  0
ENDTAB
  0
TABLE
  2
UCS
 70
     0
  0
ENDTAB
  0
TABLE
  2
APPID
 70
     1
  0
APPID
  2
ACAD
 70
     0
  0
ENDTAB
  0
TABLE
  2
DIMSTYLE
 70
     1
  0
DIMSTYLE
  2
IGA
 70
     0
  3

  4

  5

  6
OPEN
  7
OPEN
 40
2.0
 41
2.0
 42
0.5
 43
10.0
 44
1.0
 45
0.0
 46
0.0
 47
1.0
 48
1.0
140
3.0
141
0.0
142
0.0
143
0.03937
144
1.0
145
0.0
146
10.0
147
1.0
 71
     0
 72
     0
 73
     0
 74
     0
 75
     0
 76
     0
 77
     1
 78
     8
170
     0
171
     2
172
     0
173
     1
174
     0
175
     0
176
     0
177
     0
178
     0
  0
ENDTAB
  0
ENDSEC
  0
SECTION
  2
BLOCKS
  0
BLOCK
  8
0
  2
$MODEL_SPACE
 70
     0
 10
0.0
 20
0.0
 30
0.0
  3
$MODEL_SPACE
  1

  0
ENDBLK
  5
1B
  8
0
  0
BLOCK
 67
     1
  8
0
  2
$PAPER_SPACE
 70
     0
 10
0.0
 20
0.0
 30
0.0
  3
$PAPER_SPACE
  1

  0
ENDBLK
  5
18
 67
     1
  8
0
  0
BLOCK
  8
0
  2
_OPEN
 70
     0
 10
0.0
 20
0.0
 30
0.0
  3
_OPEN
  1

  0
LINE
  5
7AEB
  8
0
  6
BYBLOCK
 62
     0
 10
-1.0
 20
0.166667
 30
0.0
 11
0.0
 21
0.0
 31
0.0
  0
LINE
  5
7AEC
  8
0
  6
BYBLOCK
 62
     0
 10
0.0
 20
0.0
 30
0.0
 11
-1.0
 21
-0.166667
 31
0.0
  0
LINE
  5
7AED
  8
0
  6
BYBLOCK
 62
     0
 10
0.0
 20
0.0
 30
0.0
 11
-1.0
 21
0.0
 31
0.0
  0
ENDBLK
  5
7AEE
  8
0
  0
BLOCK
  8
0
  2
*D1
 70
     1
 10
0.0
 20
0.0
 30
0.0
  3
*D1
  1

  0
LINE
  5
7EED
  8
3
  6
CONTINUOUS
 62
     0
 10
1223.895550603107
 20
3639.7300283133231
 30
0.0
 11
1223.895550603107
 21
3293.5085129315021
 31
0.0
  0
LINE
  5
7EEE
  8
3
  6
CONTINUOUS
 62
     0
 10
2563.895550603107
 20
3582.4870283133232
 30
0.0
 11
2563.895550603107
 21
3293.5085129315021
 31
0.0
  0
LINE
  5
7EEF
  8
3
  6
CONTINUOUS
 62
     0
 10
1303.895550603107
 20
3333.508512931503
 30
0.0
 11
2483.895550603107
 21
3333.508512931503
 31
0.0
  0
INSERT
  5
7EF0
  8
3
  6
CONTINUOUS
 62
     0
  2
_OPEN
 10
1223.895550603107
 20
3333.508512931503
 30
0.0
 41
80.0
 42
80.0
 43
80.0
 50
180.0
  0
INSERT
  5
7EF1
  8
3
  6
CONTINUOUS
 62
     0
  2
_OPEN
 10
2563.895550603107
 20
3333.508512931503
 30
0.0
 41
80.0
 42
80.0
 43
80.0
  0
TEXT
  8
3
  40
120
  5
7F76
  62
0
  72
0
  71
0
 10
1687.86
 20
3221.11
 30
0.000000
  1
1340
  0
POINT
  5
7EF3
  8
DEFPOINTS
  6
CONTINUOUS
 62
     0
 10
1223.895550603107
 20
3659.7300283133231
 30
0.0
  0
POINT
  5
7EF4
  8
DEFPOINTS
  6
CONTINUOUS
 62
     0
 10
2563.895550603107
 20
3602.4870283133232
 30
0.0
  0
POINT
  5
7EF5
  8
DEFPOINTS
  6
CONTINUOUS
 62
     0
 10
2563.895550603107
 20
3333.508512931503
 30
0.0
  0
ENDBLK
  5
7DDB
  8
0
  0
BLOCK
  8
0
  2
*D2
 70
     1
 10
0.0
 20
0.0
 30
0.0
  3
*D2
  1

  0
LINE
  5
7EF6
  8
3
  6
CONTINUOUS
 62
     0
 10
2563.895550603107
 20
3582.4870283133232
 30
0.0
 11
2563.895550603107
 21
3292.482419931503
 31
0.0
  0
LINE
  5
7EF7
  8
3
  6
CONTINUOUS
 62
     0
 10
3123.895550603107
 20
3639.7300283133231
 30
0.0
 11
3123.895550603107
 21
3292.482419931503
 31
0.0
  0
LINE
  5
7EF8
  8
3
  6
CONTINUOUS
 62
     0
 10
2643.895550603107
 20
3332.482419931503
 30
0.0
 11
3043.895550603107
 21
3332.482419931503
 31
0.0
  0
INSERT
  5
7EF9
  8
3
  6
CONTINUOUS
 62
     0
  2
_OPEN
 10
2563.895550603107
 20
3332.482419931503
 30
0.0
 41
80.0
 42
80.0
 43
80.0
 50
180.0
  0
INSERT
  5
7EFA
  8
3
  6
CONTINUOUS
 62
     0
  2
_OPEN
 10
3123.895550603107
 20
3332.482419931503
 30
0.0
 41
80.0
 42
80.0
 43
80.0
  0
TEXT
  8
3
  40
120
  5
7F77
  62
0
  72
0
  71
0
 10
2598.18
 20
3220.08
 30
0.000000
  1
560
  0
POINT
  5
7EFC
  8
DEFPOINTS
  6
CONTINUOUS
 62
     0
 10
2563.895550603107
 20
3602.4870283133232
 30
0.0
  0
POINT
  5
7EFD
  8
DEFPOINTS
  6
CONTINUOUS
 62
     0
 10
3123.895550603107
 20
3659.7300283133231
 30
0.0
  0
POINT
  5
7EFE
  8
DEFPOINTS
  6
CONTINUOUS
 62
     0
 10
3123.895550603107
 20
3332.482419931503
 30
0.0
  0
ENDBLK
  5
7DE6
  8
0
  0
BLOCK
  8
0
  2
*D3
 70
     1
 10
0.0
 20
0.0
 30
0.0
  3
*D3
  1

  0
LINE
  5
7EFF
  8
3
  6
CONTINUOUS
 62
     0
 10
3203.895550603107
 20
5391.7300283133236
 30
0.0
 11
3595.1145536031081
 21
5391.7300283133236
 31
0.0
  0
LINE
  5
7F00
  8
3
  6
CONTINUOUS
 62
     0
 10
3203.895550603107
 20
4466.7300283133236
 30
0.0
 11
3595.1145536031072
 21
4466.7300283133236
 31
0.0
  0
LINE
  5
7F01
  8
3
  6
CONTINUOUS
 62
     0
 10
3555.1145536031072
 20
5311.7300283133227
 30
0.0
 11
3555.1145536031072
 21
4546.7300283133227
 31
0.0
  0
INSERT
  5
7F02
  8
3
  6
CONTINUOUS
 62
     0
  2
_OPEN
 10
3555.1145536031072
 20
5391.7300283133236
 30
0.0
 41
80.0
 42
80.0
 43
80.0
 50
90.0
  0
INSERT
  5
7F03
  8
3
  6
CONTINUOUS
 62
     0
  2
_OPEN
 10
3555.1145536031072
 20
4466.7300283133236
 30
0.0
 41
80.0
 42
80.0
 43
80.0
 50
270.0
  0
TEXT
  8
3
  40
120
  5
7F78
  62
0
  72
0
  71
0
 10
3215.11
 20
4722.30
 30
0.000000
  1
925
  0
POINT
  5
7F05
  8
DEFPOINTS
  6
CONTINUOUS
 62
     0
 10
3183.895550603107
 20
5391.7300283133236
 30
0.0
  0
POINT
  5
7F06
  8
DEFPOINTS
  6
CONTINUOUS
 62
     0
 10
3183.895550603107
 20
4466.7300283133236
 30
0.0
  0
POINT
  5
7F07
  8
DEFPOINTS
  6
CONTINUOUS
 62
     0
 10
3555.1145536031072
 20
4466.7300283133236
 30
0.0
  0
ENDBLK
  5
7D10
  8
0
  0
BLOCK
  8
0
  2
*D4
 70
     1
 10
0.0
 20
0.0
 30
0.0
  3
*D4
  1

  0
LINE
  5
7F08
  8
3
  6
CONTINUOUS
 62
     0
 10
3203.895550603107
 20
5391.7300283133236
 30
0.0
 11
3864.2489304854271
 21
5391.7300283133236
 31
0.0
  0
LINE
  5
7F09
  8
3
  6
CONTINUOUS
 62
     0
 10
3116.9203156031072
 20
4430.7300283133227
 30
0.0
 11
3864.2489304854262
 21
4430.7300283133227
 31
0.0
  0
LINE
  5
7F0A
  8
3
  6
CONTINUOUS
 62
     0
 10
3824.2489304854271
 20
5311.7300283133227
 30
0.0
 11
3824.2489304854262
 21
4510.7300283133227
 31
0.0
  0
INSERT
  5
7F0B
  8
3
  6
CONTINUOUS
 62
     0
  2
_OPEN
 10
3824.2489304854271
 20
5391.7300283133236
 30
0.0
 41
80.0
 42
80.0
 43
80.0
 50
90.0
  0
INSERT
  5
7F0C
  8
3
  6
CONTINUOUS
 62
     0
  2
_OPEN
 10
3824.2489304854262
 20
4430.7300283133227
 30
0.0
 41
80.0
 42
80.0
 43
80.0
 50
270.0
  0
TEXT
  8
3
  40
120
  5
7F79
  62
0
  72
0
  71
0
 10
3484.25
 20
4696.52
 30
0.000000
  1
961
  0
POINT
  5
7F0E
  8
DEFPOINTS
  6
CONTINUOUS
 62
     0
 10
3183.895550603107
 20
5391.7300283133236
 30
0.0
  0
POINT
  5
7F0F
  8
DEFPOINTS
  6
CONTINUOUS
 62
     0
 10
3096.9203156031072
 20
4430.7300283133227
 30
0.0
  0
POINT
  5
7F10
  8
DEFPOINTS
  6
CONTINUOUS
 62
     0
 10
3824.2489304854262
 20
4430.7300283133227
 30
0.0
  0
ENDBLK
  5
7DB8
  8
0
  0
BLOCK
  8
0
  2
*D5
 70
     1
 10
0.0
 20
0.0
 30
0.0
  3
*D5
  1

  0
LINE
  5
7F11
  8
3
  6
CONTINUOUS
 62
     0
 10
3116.9203156031072
 20
4430.7300283133227
 30
0.0
 11
3864.2489304854262
 21
4430.7300283133227
 31
0.0
  0
LINE
  5
7F12
  8
3
  6
CONTINUOUS
 62
     0
 10
3143.895550603107
 20
3750.7300283133241
 30
0.0
 11
3864.2489304854262
 21
3750.7300283133241
 31
0.0
  0
LINE
  5
7F13
  8
3
  6
CONTINUOUS
 62
     0
 10
3824.2489304854262
 20
4350.7300283133236
 30
0.0
 11
3824.2489304854262
 21
3830.7300283133241
 31
0.0
  0
INSERT
  5
7F14
  8
3
  6
CONTINUOUS
 62
     0
  2
_OPEN
 10
3824.2489304854262
 20
4430.7300283133227
 30
0.0
 41
80.0
 42
80.0
 43
80.0
 50
90.0
  0
INSERT
  5
7F15
  8
3
  6
CONTINUOUS
 62
     0
  2
_OPEN
 10
3824.2489304854262
 20
3750.7300283133241
 30
0.0
 41
80.0
 42
80.0
 43
80.0
 50
270.0
  0
TEXT
  8
3
  40
120
  5
7F7A
  62
0
  72
0
  71
0
 10
3484.25
 20
3878.33
 30
0.000000
  1
680
  0
POINT
  5
7F17
  8
DEFPOINTS
  6
CONTINUOUS
 62
     0
 10
3096.9203156031072
 20
4430.7300283133227
 30
0.0
  0
POINT
  5
7F18
  8
DEFPOINTS
  6
CONTINUOUS
 62
     0
 10
3123.895550603107
 20
3750.7300283133241
 30
0.0
  0
POINT
  5
7F19
  8
DEFPOINTS
  6
CONTINUOUS
 62
     0
 10
3824.2489304854262
 20
3750.7300283133241
 30
0.0
  0
ENDBLK
  5
7DC3
  8
0
  0
BLOCK
  8
0
  2
*D6
 70
     1
 10
0.0
 20
0.0
 30
0.0
  3
*D6
  1

  0
LINE
  5
7F1A
  8
3
  6
CONTINUOUS
 62
     0
 10
3143.895550603107
 20
3750.7300283133241
 30
0.0
 11
3864.2489304854271
 21
3750.7300283133241
 31
0.0
  0
LINE
  5
7F1B
  8
3
  6
CONTINUOUS
 62
     0
 10
3143.895550603107
 20
3659.7300283133231
 30
0.0
 11
3864.2489304854271
 21
3659.7300283133231
 31
0.0
  0
LINE
  5
7F1C
  8
3
  6
CONTINUOUS
 62
     0
 10
3824.2489304854271
 20
3830.7300283133241
 30
0.0
 11
3824.2489304854271
 21
3910.7300283133231
 31
0.0
  0
LINE
  5
7F1D
  8
3
  6
CONTINUOUS
 62
     0
 10
3824.2489304854271
 20
3579.7300283133241
 30
0.0
 11
3824.2489304854271
 21
3276.87288545618
 31
0.0
  0
LINE
  5
7F1E
  8
3
  6
CONTINUOUS
 62
     0
 10
3824.2489304854271
 20
3750.7300283133241
 30
0.0
 11
3824.2489304854271
 21
3659.7300283133231
 31
0.0
  0
INSERT
  5
7F1F
  8
3
  6
CONTINUOUS
 62
     0
  2
_OPEN
 10
3824.2489304854271
 20
3750.7300283133241
 30
0.0
 41
80.0
 42
80.0
 43
80.0
 50
270.0
  0
INSERT
  5
7F20
  8
3
  6
CONTINUOUS
 62
     0
  2
_OPEN
 10
3824.2489304854271
 20
3659.7300283133231
 30
0.0
 41
80.0
 42
80.0
 43
80.0
 50
90.0
  0
TEXT
  8
3
  40
120
  5
7F7B
  62
0
  72
0
  71
0
 10
3484.25
 20
3175.90
 30
0.000000
  1
91
  0
POINT
  5
7F22
  8
DEFPOINTS
  6
CONTINUOUS
 62
     0
 10
3123.895550603107
 20
3750.7300283133241
 30
0.0
  0
POINT
  5
7F23
  8
DEFPOINTS
  6
CONTINUOUS
 62
     0
 10
3123.895550603107
 20
3659.7300283133231
 30
0.0
  0
POINT
  5
7F24
  8
DEFPOINTS
  6
CONTINUOUS
 62
     0
 10
3824.2489304854271
 20
3659.7300283133231
 30
0.0
  0
ENDBLK
  5
7DD0
  8
0
  0
BLOCK
  8
0
  2
*D7
 70
     1
 10
0.0
 20
0.0
 30
0.0
  3
*D7
  1

  0
LINE
  5
7F25
  8
3
  6
CONTINUOUS
 62
     0
 10
3203.895550603107
 20
5431.7300283133236
 30
0.0
 11
4159.1963763677441
 21
5431.7300283133236
 31
0.0
  0
LINE
  5
7F26
  8
3
  6
CONTINUOUS
 62
     0
 10
3143.895550603107
 20
3659.7300283133231
 30
0.0
 11
4159.1963763677441
 21
3659.7300283133231
 31
0.0
  0
LINE
  5
7F27
  8
3
  6
CONTINUOUS
 62
     0
 10
4119.196376367745
 20
5351.7300283133236
 30
0.0
 11
4119.196376367745
 21
3739.7300283133231
 31
0.0
  0
INSERT
  5
7F28
  8
3
  6
CONTINUOUS
 62
     0
  2
_OPEN
 10
4119.196376367745
 20
5431.7300283133236
 30
0.0
 41
80.0
 42
80.0
 43
80.0
 50
90.0
  0
INSERT
  5
7F29
  8
3
  6
CONTINUOUS
 62
     0
  2
_OPEN
 10
4119.196376367745
 20
3659.7300283133231
 30
0.0
 41
80.0
 42
80.0
 43
80.0
 50
270.0
  0
TEXT
  8
3
  40
120
  5
7F7C
  62
0
  72
0
  71
0
 10
3779.20
 20
4283.96
 30
0.000000
  1
1772
  0
POINT
  5
7F2B
  8
DEFPOINTS
  6
CONTINUOUS
 62
     0
 10
3183.895550603107
 20
5431.7300283133236
 30
0.0
  0
POINT
  5
7F2C
  8
DEFPOINTS
  6
CONTINUOUS
 62
     0
 10
3123.895550603107
 20
3659.7300283133231
 30
0.0
  0
POINT
  5
7F2D
  8
DEFPOINTS
  6
CONTINUOUS
 62
     0
 10
4119.196376367745
 20
3659.7300283133231
 30
0.0
  0
ENDBLK
  5
7DAD
  8
0
  0
BLOCK
  8
0
  2
*D8
 70
     1
 10
0.0
 20
0.0
 30
0.0
  3
*D8
  1

  0
LINE
  5
7F2E
  8
3
  6
CONTINUOUS
 62
     0
 10
1786.895550603107
 20
4450.7300283133236
 30
0.0
 11
1786.895550603107
 21
5594.5753893133233
 31
0.0
  0
LINE
  5
7F2F
  8
3
  6
CONTINUOUS
 62
     0
 10
2563.895550603107
 20
5359.0664653133217
 30
0.0
 11
2563.895550603107
 21
5594.5753893133233
 31
0.0
  0
LINE
  5
7F30
  8
3
  6
CONTINUOUS
 62
     0
 10
1866.895550603107
 20
5554.5753893133233
 30
0.0
 11
2483.895550603107
 21
5554.5753893133233
 31
0.0
  0
INSERT
  5
7F31
  8
3
  6
CONTINUOUS
 62
     0
  2
_OPEN
 10
1786.895550603107
 20
5554.5753893133233
 30
0.0
 41
80.0
 42
80.0
 43
80.0
 50
180.0
  0
INSERT
  5
7F32
  8
3
  6
CONTINUOUS
 62
     0
  2
_OPEN
 10
2563.895550603107
 20
5554.5753893133233
 30
0.0
 41
80.0
 42
80.0
 43
80.0
  0
TEXT
  8
3
  40
120
  5
7F7D
  62
0
  72
0
  71
0
 10
1941.86
 20
5442.18
 30
0.000000
  1
777
  0
POINT
  5
7F34
  8
DEFPOINTS
  6
CONTINUOUS
 62
     0
 10
1786.895550603107
 20
4430.7300283133227
 30
0.0
  0
POINT
  5
7F35
  8
DEFPOINTS
  6
CONTINUOUS
 62
     0
 10
2563.895550603107
 20
5339.0664653133217
 30
0.0
  0
POINT
  5
7F36
  8
DEFPOINTS
  6
CONTINUOUS
 62
     0
 10
2563.895550603107
 20
5554.5753893133233
 30
0.0
  0
ENDBLK
  5
7D8A
  8
0
  0
BLOCK
  8
0
  2
*D9
 70
     1
 10
0.0
 20
0.0
 30
0.0
  3
*D9
  1

  0
LINE
  5
7F37
  8
3
  6
CONTINUOUS
 62
     0
 10
2563.895550603107
 20
5359.0664653133217
 30
0.0
 11
2563.895550603107
 21
5594.5753893133233
 31
0.0
  0
LINE
  5
7F38
  8
3
  6
CONTINUOUS
 62
     0
 10
3183.895550603107
 20
5451.7300283133236
 30
0.0
 11
3183.895550603107
 21
5594.5753893133233
 31
0.0
  0
LINE
  5
7F39
  8
3
  6
CONTINUOUS
 62
     0
 10
2643.895550603107
 20
5554.5753893133233
 30
0.0
 11
3103.895550603107
 21
5554.5753893133233
 31
0.0
  0
INSERT
  5
7F3A
  8
3
  6
CONTINUOUS
 62
     0
  2
_OPEN
 10
2563.895550603107
 20
5554.5753893133233
 30
0.0
 41
80.0
 42
80.0
 43
80.0
 50
180.0
  0
INSERT
  5
7F3B
  8
3
  6
CONTINUOUS
 62
     0
  2
_OPEN
 10
3183.895550603107
 20
5554.5753893133233
 30
0.0
 41
80.0
 42
80.0
 43
80.0
  0
TEXT
  8
3
  40
120
  5
7F7E
  62
0
  72
0
  71
0
 10
2633.90
 20
5442.18
 30
0.000000
  1
620
  0
POINT
  5
7F3D
  8
DEFPOINTS
  6
CONTINUOUS
 62
     0
 10
2563.895550603107
 20
5339.0664653133217
 30
0.0
  0
POINT
  5
7F3E
  8
DEFPOINTS
  6
CONTINUOUS
 62
     0
 10
3183.895550603107
 20
5431.7300283133236
 30
0.0
  0
POINT
  5
7F3F
  8
DEFPOINTS
  6
CONTINUOUS
 62
     0
 10
3183.895550603107
 20
5554.5753893133233
 30
0.0
  0
ENDBLK
  5
7CCC
  8
0
  0
BLOCK
  8
0
  2
*D10
 70
     1
 10
0.0
 20
0.0
 30
0.0
  3
*D10
  1

  0
LINE
  5
7F40
  8
3
  6
CONTINUOUS
 62
     0
 10
1223.895550603107
 20
6959.7384283133242
 30
0.0
 11
1223.895550603107
 21
6441.803678313323
 31
0.0
  0
LINE
  5
7F41
  8
3
  6
CONTINUOUS
 62
     0
 10
3123.895550603107
 20
6959.7384283133242
 30
0.0
 11
3123.895550603107
 21
6441.803678313323
 31
0.0
  0
LINE
  5
7F42
  8
3
  6
CONTINUOUS
 62
     0
 10
1303.895550603107
 20
6481.803678313323
 30
0.0
 11
3043.895550603107
 21
6481.803678313323
 31
0.0
  0
INSERT
  5
7F43
  8
3
  6
CONTINUOUS
 62
     0
  2
_OPEN
 10
1223.895550603107
 20
6481.803678313323
 30
0.0
 41
80.0
 42
80.0
 43
80.0
 50
180.0
  0
INSERT
  5
7F44
  8
3
  6
CONTINUOUS
 62
     0
  2
_OPEN
 10
3123.895550603107
 20
6481.803678313323
 30
0.0
 41
80.0
 42
80.0
 43
80.0
  0
TEXT
  8
3
  40
120
  5
7F7F
  62
0
  72
0
  71
0
 10
1913.98
 20
6369.40
 30
0.000000
  1
1900
  0
POINT
  5
7F46
  8
DEFPOINTS
  6
CONTINUOUS
 62
     0
 10
1223.895550603107
 20
6979.7384283133242
 30
0.0
  0
POINT
  5
7F47
  8
DEFPOINTS
  6
CONTINUOUS
 62
     0
 10
3123.895550603107
 20
6979.7384283133242
 30
0.0
  0
POINT
  5
7F48
  8
DEFPOINTS
  6
CONTINUOUS
 62
     0
 10
3123.895550603107
 20
6481.803678313323
 30
0.0
  0
ENDBLK
  5
7CC1
  8
0
  0
BLOCK
  8
0
  2
*D11
 70
     1
 10
0.0
 20
0.0
 30
0.0
  3
*D11
  1

  0
LINE
  5
7F49
  8
3
  6
CONTINUOUS
 62
     0
 10
3143.895550603107
 20
7929.7384283133242
 30
0.0
 11
3547.6199946031079
 21
7929.7384283133242
 31
0.0
  0
LINE
  5
7F4A
  8
3
  6
CONTINUOUS
 62
     0
 10
3143.895550603107
 20
6979.7384283133242
 30
0.0
 11
3547.6199946031079
 21
6979.7384283133242
 31
0.0
  0
LINE
  5
7F4B
  8
3
  6
CONTINUOUS
 62
     0
 10
3507.6199946031088
 20
7849.7384283133224
 30
0.0
 11
3507.6199946031079
 21
7059.7384283133233
 31
0.0
  0
INSERT
  5
7F4C
  8
3
  6
CONTINUOUS
 62
     0
  2
_OPEN
 10
3507.6199946031088
 20
7929.7384283133242
 30
0.0
 41
80.0
 42
80.0
 43
80.0
 50
90.0
  0
INSERT
  5
7F4D
  8
3
  6
CONTINUOUS
 62
     0
  2
_OPEN
 10
3507.6199946031079
 20
6979.7384283133242
 30
0.0
 41
80.0
 42
80.0
 43
80.0
 50
270.0
  0
TEXT
  8
3
  40
120
  5
7F80
  62
0
  72
0
  71
0
 10
3167.62
 20
7307.00
 30
0.000000
  1
950
  0
POINT
  5
7F4F
  8
DEFPOINTS
  6
CONTINUOUS
 62
     0
 10
3123.895550603107
 20
7929.7384283133242
 30
0.0
  0
POINT
  5
7F50
  8
DEFPOINTS
  6
CONTINUOUS
 62
     0
 10
3123.895550603107
 20
6979.7384283133242
 30
0.0
  0
POINT
  5
7F51
  8
DEFPOINTS
  6
CONTINUOUS
 62
     0
 10
3507.6199946031079
 20
6979.7384283133242
 30
0.0
  0
ENDBLK
  5
7CB6
  8
0
  0
BLOCK
  8
0
  2
*D12
 70
     1
 10
0.0
 20
0.0
 30
0.0
  3
*D12
  1

  0
LINE
  5
7E09
  8
0
  6
BYBLOCK
 62
     0
 10
5349.4762866462888
 20
3639.7300283133231
 30
0.0
 11
5349.4762866462888
 21
3316.888802564562
 31
0.0
  0
LINE
  5
7E0A
  8
0
  6
BYBLOCK
 62
     0
 10
5896.4762866462888
 20
3564.6995657200569
 30
0.0
 11
5896.4762866462888
 21
3316.888802564562
 31
0.0
  0
LINE
  5
7E0B
  8
0
  6
BYBLOCK
 62
     0
 10
5429.4762866462888
 20
3356.888802564562
 30
0.0
 11
5816.4762866462879
 21
3356.888802564562
 31
0.0
  0
TEXT
  5
7E0C
  8
3
 62
     0
 10
5468.6905723605742
 20
3393.251500162205
 30
0.0
 40
120.0
  1
547
  0
INSERT
  5
7E0D
  8
0
  6
BYBLOCK
 62
     0
  2
_OPEN
 10
5349.4762866462888
 20
3356.888802564562
 30
0.0
 41
80.0
 42
80.0
 43
80.0
 50
180.0
  0
INSERT
  5
7E0E
  8
0
  6
BYBLOCK
 62
     0
  2
_OPEN
 10
5896.4762866462888
 20
3356.888802564562
 30
0.0
 41
80.0
 42
80.0
 43
80.0
  0
POINT
  5
7E0F
  8
DEFPOINTS
  6
BYBLOCK
 62
     0
 10
5349.4762866462888
 20
3659.7300283133231
 30
0.0
  0
POINT
  5
7E10
  8
DEFPOINTS
  6
BYBLOCK
 62
     0
 10
5896.4762866462888
 20
3584.6995657200569
 30
0.0
  0
POINT
  5
7E11
  8
DEFPOINTS
  6
BYBLOCK
 62
     0
 10
5896.4762866462888
 20
3356.888802564562
 30
0.0
  0
ENDBLK
  5
7E12
  8
0
  0
BLOCK
  8
0
  2
*D13
 70
     1
 10
0.0
 20
0.0
 30
0.0
  3
*D13
  1

  0
LINE
  5
7DFE
  8
0
  6
BYBLOCK
 62
     0
 10
5896.4762866462888
 20
3564.6995657200569
 30
0.0
 11
5896.4762866462888
 21
3315.862709564562
 31
0.0
  0
LINE
  5
7DFF
  8
0
  6
BYBLOCK
 62
     0
 10
6299.4762866462888
 20
3639.7300283133231
 30
0.0
 11
6299.4762866462888
 21
3315.862709564562
 31
0.0
  0
LINE
  5
7E00
  8
0
  6
BYBLOCK
 62
     0
 10
5976.4762866462879
 20
3355.862709564562
 30
0.0
 11
6219.4762866462888
 21
3355.862709564562
 31
0.0
  0
TEXT
  5
7E01
  8
3
 62
     0
 10
5943.6905723605742
 20
3393.251500162205
 30
0.0
 40
120.0
  1
403
  0
INSERT
  5
7E02
  8
0
  6
BYBLOCK
 62
     0
  2
_OPEN
 10
5896.4762866462888
 20
3355.862709564562
 30
0.0
 41
80.0
 42
80.0
 43
80.0
 50
180.0
  0
INSERT
  5
7E03
  8
0
  6
BYBLOCK
 62
     0
  2
_OPEN
 10
6299.4762866462888
 20
3355.862709564562
 30
0.0
 41
80.0
 42
80.0
 43
80.0
  0
POINT
  5
7E04
  8
DEFPOINTS
  6
BYBLOCK
 62
     0
 10
5896.4762866462888
 20
3584.6995657200569
 30
0.0
  0
POINT
  5
7E05
  8
DEFPOINTS
  6
BYBLOCK
 62
     0
 10
6299.4762866462888
 20
3659.7300283133231
 30
0.0
  0
POINT
  5
7E06
  8
DEFPOINTS
  6
BYBLOCK
 62
     0
 10
6299.4762866462888
 20
3355.862709564562
 30
0.0
  0
ENDBLK
  5
7E07
  8
0
  0
BLOCK
  8
0
  2
*D14
 70
     1
 10
0.0
 20
0.0
 30
0.0
  3
*D14
  1

  0
LINE
  5
7F52
  8
3
  6
CONTINUOUS
 62
     0
 10
5561.4762866462888
 20
5411.7300283133236
 30
0.0
 11
5561.4762866462888
 21
5589.9450213133232
 31
0.0
  0
LINE
  5
7F53
  8
3
  6
CONTINUOUS
 62
     0
 10
6231.4762866462888
 20
5411.7300283133236
 30
0.0
 11
6231.4762866462888
 21
5589.9450213133232
 31
0.0
  0
LINE
  5
7F54
  8
3
  6
CONTINUOUS
 62
     0
 10
5641.4762866462879
 20
5549.9450213133232
 30
0.0
 11
6151.4762866462888
 21
5549.9450213133232
 31
0.0
  0
INSERT
  5
7F55
  8
3
  6
CONTINUOUS
 62
     0
  2
_OPEN
 10
5561.4762866462888
 20
5549.9450213133232
 30
0.0
 41
80.0
 42
80.0
 43
80.0
 50
180.0
  0
INSERT
  5
7F56
  8
3
  6
CONTINUOUS
 62
     0
  2
_OPEN
 10
6231.4762866462888
 20
5549.9450213133232
 30
0.0
 41
80.0
 42
80.0
 43
80.0
  0
TEXT
  8
3
  40
120
  5
7F81
  62
0
  72
0
  71
0
 10
5595.76
 20
5437.55
 30
0.000000
  1
670
  0
POINT
  5
7F58
  8
DEFPOINTS
  6
CONTINUOUS
 62
     0
 10
5561.4762866462888
 20
5391.7300283133236
 30
0.0
  0
POINT
  5
7F59
  8
DEFPOINTS
  6
CONTINUOUS
 62
     0
 10
6231.4762866462888
 20
5391.7300283133236
 30
0.0
  0
POINT
  5
7F5A
  8
DEFPOINTS
  6
CONTINUOUS
 62
     0
 10
6231.4762866462888
 20
5549.9450213133232
 30
0.0
  0
ENDBLK
  5
7C91
  8
0
  0
BLOCK
  8
0
  2
*D15
 70
     1
 10
0.0
 20
0.0
 30
0.0
  3
*D15
  1

  0
LINE
  5
7F5B
  8
3
  6
CONTINUOUS
 62
     0
 10
5236.4762866462888
 20
4653.1300283133232
 30
0.0
 11
5236.4762866462888
 21
5904.5245823133237
 31
0.0
  0
LINE
  5
7F5C
  8
3
  6
CONTINUOUS
 62
     0
 10
5896.4762866462888
 20
5807.1689453133231
 30
0.0
 11
5896.4762866462888
 21
5904.5245823133237
 31
0.0
  0
LINE
  5
7F5D
  8
3
  6
CONTINUOUS
 62
     0
 10
5316.4762866462879
 20
5864.5245823133237
 30
0.0
 11
5816.4762866462879
 21
5864.5245823133237
 31
0.0
  0
INSERT
  5
7F5E
  8
3
  6
CONTINUOUS
 62
     0
  2
_OPEN
 10
5236.4762866462888
 20
5864.5245823133237
 30
0.0
 41
80.0
 42
80.0
 43
80.0
 50
180.0
  0
INSERT
  5
7F5F
  8
3
  6
CONTINUOUS
 62
     0
  2
_OPEN
 10
5896.4762866462888
 20
5864.5245823133237
 30
0.0
 41
80.0
 42
80.0
 43
80.0
  0
TEXT
  8
3
  40
120
  5
7F82
  62
0
  72
0
  71
0
 10
5365.05
 20
5852.12
 30
0.000000
  1
MAX
  0
TEXT
  8
3
  40
120
  5
7F83
  62
0
  72
0
  71
0
 10
5365.05
 20
5696.12
 30
0.000000
  1
720
  0
POINT
  5
7F61
  8
DEFPOINTS
  6
CONTINUOUS
 62
     0
 10
5236.4762866462888
 20
4633.1300283133232
 30
0.0
  0
POINT
  5
7F62
  8
DEFPOINTS
  6
CONTINUOUS
 62
     0
 10
5896.4762866462888
 20
5787.1689453133231
 30
0.0
  0
POINT
  5
7F63
  8
DEFPOINTS
  6
CONTINUOUS
 62
     0
 10
5896.4762866462888
 20
5864.5245823133237
 30
0.0
  0
ENDBLK
  5
7D7E
  8
0
  0
BLOCK
  8
0
  2
*D16
 70
     1
 10
0.0
 20
0.0
 30
0.0
  3
*D16
  1

  0
LINE
  5
7D5F
  8
0
  6
BYBLOCK
 62
     0
 10
5896.4762866462888
 20
5807.1689453133231
 30
0.0
 11
5896.4762866462888
 21
5905.0376593133242
 31
0.0
  0
LINE
  5
7D60
  8
0
  6
BYBLOCK
 62
     0
 10
6314.4762866462888
 20
4940.7300283133236
 30
0.0
 11
6314.4762866462888
 21
5905.0376593133242
 31
0.0
  0
LINE
  5
7D61
  8
0
  6
BYBLOCK
 62
     0
 10
5976.4762866462879
 20
5865.0376593133233
 30
0.0
 11
6234.4762866462879
 21
5865.0376593133233
 31
0.0
  0
TEXT
  5
7D62
  8
3
 62
     0
 10
5962.6191437891457
 20
5913.3045384598372
 30
0.0
 40
120.0
  1
418
  0
INSERT
  5
7D63
  8
0
  6
BYBLOCK
 62
     0
  2
_OPEN
 10
5896.4762866462888
 20
5865.0376593133233
 30
0.0
 41
80.0
 42
80.0
 43
80.0
 50
180.0
  0
INSERT
  5
7D64
  8
0
  6
BYBLOCK
 62
     0
  2
_OPEN
 10
6314.4762866462888
 20
5865.0376593133233
 30
0.0
 41
80.0
 42
80.0
 43
80.0
  0
POINT
  5
7D65
  8
DEFPOINTS
  6
BYBLOCK
 62
     0
 10
5896.4762866462888
 20
5787.1689453133231
 30
0.0
  0
POINT
  5
7D66
  8
DEFPOINTS
  6
BYBLOCK
 62
     0
 10
6314.4762866462888
 20
4920.7300283133227
 30
0.0
  0
POINT
  5
7D67
  8
DEFPOINTS
  6
BYBLOCK
 62
     0
 10
6314.4762866462888
 20
5865.0376593133233
 30
0.0
  0
ENDBLK
  5
7D68
  8
0
  0
BLOCK
  8
0
  2
*D17
 70
     1
 10
0.0
 20
0.0
 30
0.0
  3
*D17
  1

  0
LINE
  5
7F64
  8
3
  6
CONTINUOUS
 62
     0
 10
6334.4762866462888
 20
4880.7300283133227
 30
0.0
 11
6703.6549786462901
 21
4880.7300283133227
 31
0.0
  0
LINE
  5
7F65
  8
3
  6
CONTINUOUS
 62
     0
 10
6334.4762866462888
 20
3980.7300283133241
 30
0.0
 11
6703.6549786462901
 21
3980.7300283133241
 31
0.0
  0
LINE
  5
7F66
  8
3
  6
CONTINUOUS
 62
     0
 10
6663.6549786462911
 20
4800.7300283133236
 30
0.0
 11
6663.6549786462911
 21
4060.7300283133231
 31
0.0
  0
INSERT
  5
7F67
  8
3
  6
CONTINUOUS
 62
     0
  2
_OPEN
 10
6663.6549786462911
 20
4880.7300283133227
 30
0.0
 41
80.0
 42
80.0
 43
80.0
 50
90.0
  0
INSERT
  5
7F68
  8
3
  6
CONTINUOUS
 62
     0
  2
_OPEN
 10
6663.6549786462911
 20
3980.7300283133241
 30
0.0
 41
80.0
 42
80.0
 43
80.0
 50
270.0
  0
TEXT
  8
3
  40
120
  5
7F84
  62
0
  72
0
  71
0
 10
6323.65
 20
4212.28
 30
0.000000
  1
φ900
  0
POINT
  5
7F6A
  8
DEFPOINTS
  6
CONTINUOUS
 62
     0
 10
6314.4762866462888
 20
4880.7300283133227
 30
0.0
  0
POINT
  5
7F6B
  8
DEFPOINTS
  6
CONTINUOUS
 62
     0
 10
6314.4762866462888
 20
3980.7300283133241
 30
0.0
  0
POINT
  5
7F6C
  8
DEFPOINTS
  6
CONTINUOUS
 62
     0
 10
6663.6549786462911
 20
3980.7300283133241
 30
0.0
  0
ENDBLK
  5
7D73
  8
0
  0
BLOCK
  8
0
  2
*D18
 70
     1
 10
0.0
 20
0.0
 30
0.0
  3
*D18
  1

  0
LINE
  5
7F6D
  8
3
 62
     0
 10
3183.895550603107
 20
5451.7300283133236
 30
0.0
 11
3183.895550603107
 21
5837.6265511689089
 31
0.0
  0
LINE
  5
7F6E
  8
3
 62
     0
 10
1223.895550603107
 20
3895.7300283133231
 30
0.0
 11
1223.895550603107
 21
5837.6265511689089
 31
0.0
  0
LINE
  5
7F6F
  8
3
 62
     0
 10
3103.895550603107
 20
5797.6265511689089
 30
0.0
 11
1303.895550603107
 21
5797.6265511689089
 31
0.0
  0
INSERT
  5
7F70
  8
3
 62
     0
  2
_OPEN
 10
3183.895550603107
 20
5797.6265511689089
 30
0.0
 41
80.0
 42
80.0
 43
80.0
  0
INSERT
  5
7F71
  8
3
 62
     0
  2
_OPEN
 10
1223.895550603107
 20
5797.6265511689089
 30
0.0
 41
80.0
 42
80.0
 43
80.0
 50
180.0
  0
TEXT
  8
3
  40
120
  5
7F85
  62
0
  72
0
  71
0
 10
1994.88
 20
5685.23
 30
0.000000
  1
1960
  0
POINT
  5
7F73
  8
DEFPOINTS
 62
     0
 10
3183.895550603107
 20
5431.7300283133236
 30
0.0
  0
POINT
  5
7F74
  8
DEFPOINTS
 62
     0
 10
1223.895550603107
 20
3875.7300283133241
 30
0.0
  0
POINT
  5
7F75
  8
DEFPOINTS
 62
     0
 10
1223.895550603107
 20
5797.6265511689089
 30
0.0
  0
ENDBLK
  5
7D96
  8
0
  0
ENDSEC
  0
SECTION
  2
ENTITIES
  0
LINE
  5
7A78
  8
1
  6
CONTINUOUS
 10
2563.895550603107
 20
5339.0664653133217
 30
0.0
 11
3183.895550603107
 21
5391.7300283133236
 31
0.0
  0
LINE
  5
7A79
  8
1
  6
CONTINUOUS
 10
1223.895550603107
 20
3750.7300283133241
 30
0.0
 11
3123.895550603107
 21
3750.7300283133241
 31
0.0
  0
LINE
  5
7A7A
  8
1
  6
CONTINUOUS
 10
1223.895550603107
 20
3875.7300283133241
 30
0.0
 11
3123.895550603107
 21
3875.7300283133241
 31
0.0
  0
CIRCLE
  5
7A7B
  8
1
  6
CONTINUOUS
 10
2563.895550603107
 20
4430.7300283133227
 30
0.0
 40
450.0
  0
CIRCLE
  5
7A7C
  8
1
  6
CONTINUOUS
 10
2563.895550603107
 20
4430.7300283133227
 30
0.0
 40
490.0
  0
CIRCLE
  5
7A7D
  8
1
  6
CONTINUOUS
 10
2563.895550603107
 20
4430.7300283133227
 30
0.0
 40
152.40000000000001
  0
ARC
  5
7A7E
  8
1
  6
CONTINUOUS
 10
2563.895550603107
 20
4430.7300283133227
 30
0.0
 40
202.40000000000001
 50
287.120701
 51
107.1207009999999
  0
LINE
  5
7A7F
  8
1
  6
CONTINUOUS
 10
1488.759921603106
 20
3940.083373313324
 30
0.0
 11
2608.7599216031058
 21
4285.083373313324
 31
0.0
  0
LINE
  5
7A80
  8
1
  6
CONTINUOUS
 10
1503.479203603106
 20
3892.2990373133221
 30
0.0
 11
2623.4792036031058
 21
4237.2990373133234
 31
0.0
  0
LINE
  5
7A81
  8
2
  6
CENTER
 10
1739.657485603107
 20
4430.7300283133227
 30
0.0
 11
3247.419510603107
 21
4430.7300283133227
 31
0.0
  0
LINE
  5
7A82
  8
1
  6
CONTINUOUS
 10
1223.895550603107
 20
3724.7300283133231
 30
0.0
 11
3123.895550603107
 21
3724.7300283133231
 31
0.0
  0
LINE
  5
7A83
  8
1
  6
CONTINUOUS
 10
1223.895550603107
 20
3659.7300283133231
 30
0.0
 11
3123.895550603107
 21
3659.7300283133231
 31
0.0
  0
ARC
  5
7A84
  8
1
  6
CONTINUOUS
 10
2496.895550603107
 20
4497.7300283133227
 30
0.0
 40
710.0
 50
185.41484199999999
 51
241.17024000000001
  0
ARC
  5
7A85
  8
1
  6
CONTINUOUS
 10
1443.895550603107
 20
4085.7300283133231
 30
0.0
 40
162.0
 50
324.972283
 51
215.02771699999991
  0
CIRCLE
  5
7A86
  8
1
  6
CONTINUOUS
 10
1443.895550603107
 20
4085.7300283133231
 30
0.0
 40
152.40000000000001
  0
ARC
  5
7A87
  8
1
  6
CONTINUOUS
 10
1443.895550603107
 20
4085.7300283133231
 30
0.0
 40
202.40000000000001
 50
107.1207009999999
 51
287.120701
  0
LINE
  5
7A88
  8
2
  6
CENTER
 10
1443.895550603107
 20
3928.3300283133231
 30
0.0
 11
1443.895550603107
 21
4243.1300283133232
 31
0.0
  0
LINE
  5
7A89
  8
1
  6
CONTINUOUS
 10
1246.395550603107
 20
3875.7300283133241
 30
0.0
 11
1641.395550603107
 21
3875.7300283133241
 31
0.0
  0
LINE
  5
7A8A
  8
1
  6
CONTINUOUS
 10
1223.895550603107
 20
3875.7300283133241
 30
0.0
 11
1223.895550603107
 21
3750.7300283133241
 31
0.0
  0
LINE
  5
7A8B
  8
1
  6
CONTINUOUS
 10
1289.895550603107
 20
3925.7300283133241
 30
0.0
 11
1289.895550603107
 21
3943.7300283133231
 31
0.0
  0
LINE
  5
7A8C
  8
1
  6
CONTINUOUS
 10
1289.895550603107
 20
3943.7300283133231
 30
0.0
 11
1311.2378846031079
 21
3992.7464613133229
 31
0.0
  0
LINE
  5
7A8D
  8
1
  6
CONTINUOUS
 10
1256.395550603107
 20
3925.7300283133241
 30
0.0
 11
1246.395550603107
 21
3875.7300283133241
 31
0.0
  0
LINE
  5
7A8E
  8
1
  6
CONTINUOUS
 10
1289.895550603107
 20
3925.7300283133241
 30
0.0
 11
1256.395550603107
 21
3925.7300283133241
 31
0.0
  0
LINE
  5
7A8F
  8
1
  6
CONTINUOUS
 10
1223.895550603107
 20
3724.7300283133231
 30
0.0
 11
1223.895550603107
 21
3659.7300283133231
 31
0.0
  0
LINE
  5
7A90
  8
1
  6
CONTINUOUS
 10
1597.895550603107
 20
3943.7300283133231
 30
0.0
 11
1576.553216603108
 21
3992.7464613133229
 31
0.0
  0
LINE
  5
7A91
  8
1
  6
CONTINUOUS
 10
1597.895550603107
 20
3925.7300283133241
 30
0.0
 11
1597.895550603107
 21
3943.7300283133231
 31
0.0
  0
LINE
  5
7A92
  8
1
  6
CONTINUOUS
 10
1631.395550603107
 20
3925.7300283133241
 30
0.0
 11
1597.895550603107
 21
3925.7300283133241
 31
0.0
  0
LINE
  5
7A93
  8
1
  6
CONTINUOUS
 10
1641.395550603107
 20
3875.7300283133241
 30
0.0
 11
1631.395550603107
 21
3925.7300283133241
 31
0.0
  0
LINE
  5
7A94
  8
2
  6
CENTER
 10
1286.4955506031069
 20
4085.7300283133231
 30
0.0
 11
1601.295550603106
 21
4085.7300283133231
 31
0.0
  0
ARC
  5
7A95
  8
1
  6
CONTINUOUS
 10
2630.895550603107
 20
4497.7300283133227
 30
0.0
 40
844.0
 50
94.553151999999983
 51
184.5531519999999
  0
LINE
  5
7A96
  8
1
  6
CONTINUOUS
 10
1399.0311796031069
 20
4231.3766833133232
 30
0.0
 11
2519.0311796031069
 21
4576.3766833133232
 31
0.0
  0
LINE
  5
7A97
  8
1
  6
CONTINUOUS
 10
1384.3118976031069
 20
4279.1610193133229
 30
0.0
 11
2504.3118976031069
 21
4624.161019313322
 31
0.0
  0
LINE
  5
7A98
  8
2
  6
CENTER
 10
2563.895550603107
 20
3602.4870283133232
 30
0.0
 11
2563.895550603107
 21
5413.782943313322
 31
0.0
  0
ARC
  5
7A99
  8
1
  6
CONTINUOUS
 10
2510.395550603107
 20
4377.2300283133227
 30
0.0
 40
589.5
 50
301.70982900000001
 51
5.2070360000000004
  0
LINE
  5
7A9A
  8
1
  6
CONTINUOUS
 10
6231.4762866462888
 20
5391.7300283133236
 30
0.0
 11
6231.4762866462888
 21
3875.7300283133241
 31
0.0
  0
LINE
  5
7A9B
  8
1
  6
CONTINUOUS
 10
5561.4762866462888
 20
5391.7300283133236
 30
0.0
 11
5561.4762866462888
 21
3875.7300283133241
 31
0.0
  0
LINE
  5
7A9C
  8
1
  6
CONTINUOUS
 10
5388.9762866462888
 20
4247.7300283133227
 30
0.0
 11
5388.9762866462888
 21
3875.7300283133241
 31
0.0
  0
LINE
  5
7A9D
  8
1
  6
CONTINUOUS
 10
5278.9762866462888
 20
4238.1300283133241
 30
0.0
 11
5278.9762866462888
 21
3933.3300283133231
 31
0.0
  0
LINE
  5
7A9E
  8
1
  6
CONTINUOUS
 10
5236.4762866462888
 20
4633.1300283133232
 30
0.0
 11
5236.4762866462888
 21
3883.3300283133231
 31
0.0
  0
LINE
  5
7A9F
  8
1
  6
CONTINUOUS
 10
5376.4762866462888
 20
4633.1300283133232
 30
0.0
 11
5376.4762866462888
 21
3883.3300283133231
 31
0.0
  0
LINE
  5
7AA0
  8
1
  6
CONTINUOUS
 10
5353.9762866462888
 20
4238.1300283133241
 30
0.0
 11
5353.9762866462888
 21
3933.3300283133231
 31
0.0
  0
LINE
  5
7AA1
  8
1
  6
CONTINUOUS
 10
6314.4762866462888
 20
4920.7300283133227
 30
0.0
 11
6314.4762866462888
 21
3940.7300283133231
 31
0.0
  0
LINE
  5
7AA2
  8
1
  6
CONTINUOUS
 10
3123.895550603107
 20
3875.7300283133241
 30
0.0
 11
3123.895550603107
 21
3750.7300283133241
 31
0.0
  0
LINE
  5
7AA3
  8
1
  6
CONTINUOUS
 10
3123.895550603107
 20
3724.7300283133231
 30
0.0
 11
3123.895550603107
 21
3659.7300283133231
 31
0.0
  0
LINE
  5
7AA4
  8
1
  6
CONTINUOUS
 10
5349.4762866462888
 20
3659.7300283133231
 30
0.0
 11
6299.4762866462888
 21
3659.7300283133231
 31
0.0
  0
LINE
  5
7AA5
  8
1
  6
CONTINUOUS
 10
5349.4762866462888
 20
3724.7300283133231
 30
0.0
 11
6299.4762866462888
 21
3724.7300283133231
 31
0.0
  0
LINE
  5
7AA6
  8
1
  6
CONTINUOUS
 10
5349.4762866462888
 20
3750.7300283133241
 30
0.0
 11
6299.4762866462888
 21
3750.7300283133241
 31
0.0
  0
LINE
  5
7AA7
  8
1
  6
CONTINUOUS
 10
5349.4762866462888
 20
3875.7300283133241
 30
0.0
 11
6299.4762866462888
 21
3875.7300283133241
 31
0.0
  0
LINE
  5
7AA8
  8
1
  6
CONTINUOUS
 10
5349.4762866462888
 20
3724.7300283133231
 30
0.0
 11
5349.4762866462888
 21
3659.7300283133231
 31
0.0
  0
LINE
  5
7AA9
  8
1
  6
CONTINUOUS
 10
5349.4762866462888
 20
3875.7300283133241
 30
0.0
 11
5349.4762866462888
 21
3750.7300283133241
 31
0.0
  0
LINE
  5
7AAA
  8
1
  6
CONTINUOUS
 10
5388.9762866462888
 20
3925.7300283133241
 30
0.0
 11
5561.4762866462888
 21
3925.7300283133241
 31
0.0
  0
LINE
  5
7AAB
  8
1
  6
CONTINUOUS
 10
5278.9762866462888
 20
3933.3300283133231
 30
0.0
 11
5353.9762866462888
 21
3933.3300283133231
 31
0.0
  0
LINE
  5
7AAC
  8
1
  6
CONTINUOUS
 10
5236.4762866462888
 20
3883.3300283133231
 30
0.0
 11
5376.4762866462888
 21
3883.3300283133231
 31
0.0
  0
LINE
  5
7AAD
  8
1
  6
CONTINUOUS
 10
6299.4762866462888
 20
3724.7300283133231
 30
0.0
 11
6299.4762866462888
 21
3659.7300283133231
 31
0.0
  0
LINE
  5
7AAE
  8
1
  6
CONTINUOUS
 10
6299.4762866462888
 20
3875.7300283133241
 30
0.0
 11
6299.4762866462888
 21
3750.7300283133241
 31
0.0
  0
LINE
  5
7AAF
  8
1
  6
CONTINUOUS
 10
6231.4762866462888
 20
3980.7300283133241
 30
0.0
 11
6314.4762866462888
 21
3980.7300283133241
 31
0.0
  0
LINE
  5
7AB0
  8
1
  6
CONTINUOUS
 10
3183.895550603107
 20
5431.7300283133236
 30
0.0
 11
3183.895550603107
 21
4426.7300283133236
 31
0.0
  0
LINE
  5
7AB1
  8
1
  6
CONTINUOUS
 10
3143.895550603107
 20
5388.3323793133231
 30
0.0
 11
3143.895550603107
 21
4466.7300283133236
 31
0.0
  0
LINE
  5
7AB2
  8
1
  6
CONTINUOUS
 10
3091.5221156031071
 20
4466.7300283133236
 30
0.0
 11
3183.895550603107
 21
4466.7300283133236
 31
0.0
  0
ARC
  5
7AB3
  8
1
  6
CONTINUOUS
 10
2617.395550603107
 20
4377.2300283133227
 30
0.0
 40
482.5
 50
6.3660939999999986
 51
10.689831999999999
  0
LINE
  5
7AB4
  8
1
  6
CONTINUOUS
 10
5561.4762866462888
 20
5391.7300283133236
 30
0.0
 11
6231.4762866462888
 21
4466.7300283133236
 31
0.0
  0
LINE
  5
7AB5
  8
1
  6
CONTINUOUS
 10
6231.4762866462888
 20
5391.7300283133236
 30
0.0
 11
5561.4762866462888
 21
4466.7300283133236
 31
0.0
  0
LINE
  5
7AB6
  8
1
  6
CONTINUOUS
 10
5561.4762866462888
 20
4466.7300283133236
 30
0.0
 11
6231.4762866462888
 21
4466.7300283133236
 31
0.0
  0
LINE
  5
7AB7
  8
1
  6
CONTINUOUS
 10
5278.9762866462888
 20
4583.1300283133223
 30
0.0
 11
5278.9762866462888
 21
4278.3300283133221
 31
0.0
  0
LINE
  5
7AB8
  8
1
  6
CONTINUOUS
 10
5388.9762866462888
 20
4247.7300283133227
 30
0.0
 11
5561.4762866462888
 21
4247.7300283133227
 31
0.0
  0
LINE
  5
7AB9
  8
1
  6
CONTINUOUS
 10
5353.9762866462888
 20
4460.7300283133227
 30
0.0
 11
5561.4762866462888
 21
4460.7300283133227
 31
0.0
  0
LINE
  5
7ABA
  8
1
  6
CONTINUOUS
 10
5353.9762866462888
 20
4400.7300283133236
 30
0.0
 11
5561.4762866462888
 21
4400.7300283133236
 31
0.0
  0
LINE
  5
7ABB
  8
1
  6
CONTINUOUS
 10
5353.9762866462888
 20
4106.7300283133227
 30
0.0
 11
5388.9762866462888
 21
4106.7300283133227
 31
0.0
  0
LINE
  5
7ABC
  8
1
  6
CONTINUOUS
 10
5353.9762866462888
 20
4064.7300283133231
 30
0.0
 11
5388.9762866462888
 21
4064.7300283133231
 31
0.0
  0
LINE
  5
7ABD
  8
1
  6
CONTINUOUS
 10
5278.9762866462888
 20
4583.1300283133223
 30
0.0
 11
5353.9762866462888
 21
4583.1300283133223
 31
0.0
  0
LINE
  5
7ABE
  8
1
  6
CONTINUOUS
 10
5278.9762866462888
 20
4278.3300283133221
 30
0.0
 11
5353.9762866462888
 21
4278.3300283133221
 31
0.0
  0
LINE
  5
7ABF
  8
1
  6
CONTINUOUS
 10
5278.9762866462888
 20
4238.1300283133241
 30
0.0
 11
5353.9762866462888
 21
4238.1300283133241
 31
0.0
  0
LINE
  5
7AC0
  8
1
  6
CONTINUOUS
 10
5236.4762866462888
 20
4633.1300283133232
 30
0.0
 11
5376.4762866462888
 21
4633.1300283133232
 31
0.0
  0
LINE
  5
7AC1
  8
1
  6
CONTINUOUS
 10
5353.9762866462888
 20
4583.1300283133223
 30
0.0
 11
5353.9762866462888
 21
4278.3300283133221
 31
0.0
  0
LINE
  5
7AC2
  8
1
  6
CONTINUOUS
 10
5561.4762866462888
 20
5391.7300283133236
 30
0.0
 11
6231.4762866462888
 21
5391.7300283133236
 31
0.0
  0
LINE
  5
7AC3
  8
1
  6
CONTINUOUS
 10
6231.4762866462888
 20
4880.7300283133227
 30
0.0
 11
6314.4762866462888
 21
4880.7300283133227
 31
0.0
  0
LINE
  5
7AC4
  8
1
  6
CONTINUOUS
 10
1786.895550603107
 20
7191.7384283133233
 30
0.0
 11
3183.895550603107
 21
7191.7384283133233
 31
0.0
  0
LINE
  5
7AC5
  8
1
  6
CONTINUOUS
 10
1786.895550603107
 20
7861.7384283133233
 30
0.0
 11
3183.895550603107
 21
7861.7384283133233
 31
0.0
  0
LINE
  5
7AC6
  8
1
  6
CONTINUOUS
 10
2073.895550603107
 20
7944.7384283133233
 30
0.0
 11
3053.895550603107
 21
7944.7384283133233
 31
0.0
  0
LINE
  5
7AC7
  8
1
  6
CONTINUOUS
 10
2411.4955506031069
 20
6909.2384283133224
 30
0.0
 11
2716.2955506031062
 21
6909.2384283133224
 31
0.0
  0
LINE
  5
7AC8
  8
1
  6
CONTINUOUS
 10
1241.4955506031069
 20
6866.7384283133233
 30
0.0
 11
2766.2955506031071
 21
6866.7384283133233
 31
0.0
  0
LINE
  5
7AC9
  8
1
  6
CONTINUOUS
 10
1241.4955506031069
 20
7006.7384283133233
 30
0.0
 11
2766.2955506031071
 21
7006.7384283133233
 31
0.0
  0
LINE
  5
7ACA
  8
1
  6
CONTINUOUS
 10
2411.4955506031069
 20
6984.2384283133224
 30
0.0
 11
2716.2955506031062
 21
6984.2384283133224
 31
0.0
  0
LINE
  5
7ACB
  8
1
  6
CONTINUOUS
 10
1223.895550603107
 20
7929.7384283133242
 30
0.0
 11
2113.8955506031061
 21
7929.7384283133242
 31
0.0
  0
LINE
  5
7ACC
  8
1
  6
CONTINUOUS
 10
1281.895550603107
 20
7512.2384283133233
 30
0.0
 11
1605.895550603107
 21
7512.2384283133233
 31
0.0
  0
LINE
  5
7ACD
  8
1
  6
CONTINUOUS
 10
1596.295550603106
 20
6909.2384283133224
 30
0.0
 11
1291.4955506031069
 21
6909.2384283133224
 31
0.0
  0
LINE
  5
7ACE
  8
1
  6
CONTINUOUS
 10
1281.895550603107
 20
7019.2384283133242
 30
0.0
 11
1605.895550603107
 21
7019.2384283133242
 31
0.0
  0
LINE
  5
7ACF
  8
1
  6
CONTINUOUS
 10
1596.295550603106
 20
6984.2384283133224
 30
0.0
 11
1291.4955506031069
 21
6984.2384283133224
 31
0.0
  0
LINE
  5
7AD0
  8
1
  6
CONTINUOUS
 10
1223.895550603107
 20
7929.7384283133242
 30
0.0
 11
1223.895550603107
 21
6979.7384283133242
 31
0.0
  0
LINE
  5
7AD1
  8
1
  6
CONTINUOUS
 10
1281.895550603107
 20
7019.2384283133242
 30
0.0
 11
1281.895550603107
 21
7512.2384283133233
 31
0.0
  0
LINE
  5
7AD2
  8
1
  6
CONTINUOUS
 10
1223.895550603107
 20
6979.7384283133242
 30
0.0
 11
1291.4955506031069
 21
6979.7384283133242
 31
0.0
  0
LINE
  5
7AD3
  8
1
  6
CONTINUOUS
 10
1291.4955506031069
 20
6984.2384283133224
 30
0.0
 11
1291.4955506031069
 21
6909.2384283133224
 31
0.0
  0
LINE
  5
7AD4
  8
1
  6
CONTINUOUS
 10
1241.4955506031069
 20
6866.7384283133233
 30
0.0
 11
1241.4955506031069
 21
7006.7384283133233
 31
0.0
  0
LINE
  5
7AD5
  8
1
  6
CONTINUOUS
 10
1786.895550603107
 20
7861.7384283133233
 30
0.0
 11
1786.895550603107
 21
7191.7384283133233
 31
0.0
  0
LINE
  5
7AD6
  8
1
  6
CONTINUOUS
 10
1605.895550603107
 20
7019.2384283133242
 30
0.0
 11
1605.895550603107
 21
7512.2384283133233
 31
0.0
  0
LINE
  5
7AD7
  8
1
  6
CONTINUOUS
 10
1596.295550603106
 20
6979.7384283133242
 30
0.0
 11
2411.4955506031069
 21
6979.7384283133242
 31
0.0
  0
LINE
  5
7AD8
  8
1
  6
CONTINUOUS
 10
1464.895550603107
 20
6984.2384283133224
 30
0.0
 11
1464.895550603107
 21
7019.2384283133242
 31
0.0
  0
LINE
  5
7AD9
  8
1
  6
CONTINUOUS
 10
1422.895550603107
 20
6984.2384283133224
 30
0.0
 11
1422.895550603107
 21
7019.2384283133242
 31
0.0
  0
LINE
  5
7ADA
  8
1
  6
CONTINUOUS
 10
1596.295550603106
 20
6984.2384283133224
 30
0.0
 11
1596.295550603106
 21
6909.2384283133224
 31
0.0
  0
LINE
  5
7ADB
  8
1
  6
CONTINUOUS
 10
2533.895550603107
 20
7191.7384283133233
 30
0.0
 11
2533.895550603107
 21
6984.2384283133224
 31
0.0
  0
LINE
  5
7ADC
  8
1
  6
CONTINUOUS
 10
2411.4955506031069
 20
6984.2384283133224
 30
0.0
 11
2411.4955506031069
 21
6909.2384283133224
 31
0.0
  0
LINE
  5
7ADD
  8
1
  6
CONTINUOUS
 10
2113.8955506031061
 20
7944.7384283133233
 30
0.0
 11
2113.8955506031061
 21
7861.7384283133233
 31
0.0
  0
LINE
  5
7ADE
  8
1
  6
CONTINUOUS
 10
3183.895550603107
 20
7151.7384283133242
 30
0.0
 11
3183.895550603107
 21
7901.7384283133242
 31
0.0
  0
LINE
  5
7ADF
  8
1
  6
CONTINUOUS
 10
3143.895550603107
 20
7191.7384283133233
 30
0.0
 11
3143.895550603107
 21
7861.7384283133233
 31
0.0
  0
LINE
  5
7AE0
  8
1
  6
CONTINUOUS
 10
3123.895550603107
 20
7191.7384283133233
 30
0.0
 11
3123.895550603107
 21
6979.7384283133242
 31
0.0
  0
LINE
  5
7AE1
  8
1
  6
CONTINUOUS
 10
2593.895550603107
 20
7191.7384283133233
 30
0.0
 11
2593.895550603107
 21
6984.2384283133224
 31
0.0
  0
LINE
  5
7AE2
  8
1
  6
CONTINUOUS
 10
2716.2955506031062
 20
6979.7384283133242
 30
0.0
 11
3123.895550603107
 21
6979.7384283133242
 31
0.0
  0
LINE
  5
7AE3
  8
1
  6
CONTINUOUS
 10
2716.2955506031062
 20
6984.2384283133224
 30
0.0
 11
2716.2955506031062
 21
6909.2384283133224
 31
0.0
  0
LINE
  5
7AE4
  8
1
  6
CONTINUOUS
 10
2766.2955506031071
 20
6866.7384283133233
 30
0.0
 11
2766.2955506031071
 21
7006.7384283133233
 31
0.0
  0
LINE
  5
7AE5
  8
1
  6
CONTINUOUS
 10
3123.895550603107
 20
7929.7384283133242
 30
0.0
 11
3123.895550603107
 21
7861.7384283133233
 31
0.0
  0
LINE
  5
7AE6
  8
1
  6
CONTINUOUS
 10
3013.895550603107
 20
7944.7384283133233
 30
0.0
 11
3013.895550603107
 21
7861.7384283133233
 31
0.0
  0
LINE
  5
7AE7
  8
1
  6
CONTINUOUS
 10
3013.895550603107
 20
7929.7384283133242
 30
0.0
 11
3123.895550603107
 21
7929.7384283133242
 31
0.0
  0
DIMENSION
  5
7AFC
  8
3
  6
CONTINUOUS
  2
*D1
 10
2563.895550603107
 20
3333.508512931503
 30
0.0
 11
1927.8592126031069
 21
3333.508512931503
 31
0.0
 70
   128
 13
1223.895550603107
 23
3659.7300283133231
 33
0.0
 14
2563.895550603107
 24
3602.4870283133232
 34
0.0
1001
ACAD
1000
DSTYLE
1002
{
1070
   287
1070
     3
1070
   287
1070
     3
1070
    40
1040
40.0
1070
   143
1040
0.039
1070
   172
1070
     1
1070
   271
1070
     0
1070
   279
1070
     0
1070
   288
1070
     1
1002
}
  0
DIMENSION
  5
7B0A
  8
3
  6
CONTINUOUS
  2
*D2
 10
3123.895550603107
 20
3332.482419931503
 30
0.0
 11
2838.1812648888208
 21
3332.482419931503
 31
0.0
 70
   128
 13
2563.895550603107
 23
3602.4870283133232
 33
0.0
 14
3123.895550603107
 24
3659.7300283133231
 34
0.0
1001
ACAD
1000
DSTYLE
1002
{
1070
   287
1070
     3
1070
   287
1070
     3
1070
    40
1040
40.0
1070
   143
1040
0.039
1070
   172
1070
     1
1070
   271
1070
     0
1070
   279
1070
     0
1070
   288
1070
     1
1002
}
  0
DIMENSION
  5
7B2D
  8
3
  6
CONTINUOUS
  2
*D3
 10
3555.1145536031072
 20
4466.7300283133236
 30
0.0
 11
3555.1145536031072
 21
4934.7041713133231
 31
0.0
 70
   128
 13
3183.895550603107
 23
5391.7300283133236
 33
0.0
 14
3183.895550603107
 24
4466.7300283133236
 34
0.0
 50
90.0
1001
ACAD
1000
DSTYLE
1002
{
1070
   287
1070
     3
1070
   287
1070
     3
1070
    40
1040
40.0
1070
   143
1040
0.039
1070
   172
1070
     1
1070
   271
1070
     0
1070
   279
1070
     0
1070
   288
1070
     1
1002
}
  0
DIMENSION
  5
7B3A
  8
3
  6
CONTINUOUS
  2
*D4
 10
3824.2489304854262
 20
4430.7300283133227
 30
0.0
 11
3824.2489304854262
 21
4908.9189493133226
 31
0.0
 70
   128
 13
3183.895550603107
 23
5391.7300283133236
 33
0.0
 14
3096.9203156031072
 24
4430.7300283133227
 34
0.0
 50
90.0
1001
ACAD
1000
DSTYLE
1002
{
1070
   287
1070
     3
1070
   287
1070
     3
1070
    40
1040
40.0
1070
   143
1040
0.039
1070
   172
1070
     1
1070
   271
1070
     0
1070
   279
1070
     0
1070
   288
1070
     1
1002
}
  0
DIMENSION
  5
7B46
  8
3
  6
CONTINUOUS
  2
*D5
 10
3824.2489304854262
 20
3750.7300283133241
 30
0.0
 11
3724.2489304854262
 21
4090.7300283133231
 31
0.0
 70
     0
 13
3096.9203156031072
 23
4430.7300283133227
 33
0.0
 14
3123.895550603107
 24
3750.7300283133241
 34
0.0
 50
90.0
1001
ACAD
1000
DSTYLE
1002
{
1070
   287
1070
     3
1070
   287
1070
     3
1070
    40
1040
40.0
1070
   143
1040
0.039
1070
   172
1070
     1
1070
   271
1070
     0
1070
   279
1070
     0
1070
   288
1070
     1
1002
}
  0
DIMENSION
  5
7B56
  8
3
  6
CONTINUOUS
  2
*D6
 10
3824.2489304854271
 20
3659.7300283133231
 30
0.0
 11
3824.2489304854262
 21
3388.301456884752
 31
0.0
 70
   128
 13
3123.895550603107
 23
3750.7300283133241
 33
0.0
 14
3123.895550603107
 24
3659.7300283133231
 34
0.0
 50
90.0
1001
ACAD
1000
DSTYLE
1002
{
1070
   287
1070
     3
1070
   287
1070
     3
1070
    40
1040
40.0
1070
   143
1040
0.039
1070
   172
1070
     1
1070
   271
1070
     0
1070
   279
1070
     0
1070
   288
1070
     1
1002
}
  0
DIMENSION
  5
7B7D
  8
3
  6
CONTINUOUS
  2
*D7
 10
4119.196376367745
 20
3659.7300283133231
 30
0.0
 11
4119.1963763677441
 21
4496.3556043133231
 31
0.0
 70
   128
 13
3183.895550603107
 23
5431.7300283133236
 33
0.0
 14
3123.895550603107
 24
3659.7300283133231
 34
0.0
 50
90.0
1001
ACAD
1000
DSTYLE
1002
{
1070
   287
1070
     3
1070
   287
1070
     3
1070
    40
1040
40.0
1070
   143
1040
0.039
1070
   172
1070
     1
1070
   271
1070
     0
1070
   279
1070
     0
1070
   288
1070
     1
1002
}
  0
DIMENSION
  5
7B8A
  8
3
  6
CONTINUOUS
  2
*D8
 10
2563.895550603107
 20
5554.5753893133233
 30
0.0
 11
2181.8584346031071
 21
5554.5753893133233
 31
0.0
 70
   128
 13
1786.895550603107
 23
4430.7300283133227
 33
0.0
 14
2563.895550603107
 24
5339.0664653133217
 34
0.0
1001
ACAD
1000
DSTYLE
1002
{
1070
   287
1070
     3
1070
   287
1070
     3
1070
    40
1040
40.0
1070
   143
1040
0.039
1070
   172
1070
     1
1070
   271
1070
     0
1070
   279
1070
     0
1070
   288
1070
     1
1002
}
  0
DIMENSION
  5
7B96
  8
3
  6
CONTINUOUS
  2
*D9
 10
3183.895550603107
 20
5554.5753893133233
 30
0.0
 11
2873.895550603107
 21
5654.5753893133233
 31
0.0
 70
     0
 13
2563.895550603107
 23
5339.0664653133217
 33
0.0
 14
3183.895550603107
 24
5431.7300283133236
 34
0.0
1001
ACAD
1000
DSTYLE
1002
{
1070
   287
1070
     3
1070
   287
1070
     3
1070
    40
1040
40.0
1070
   143
1040
0.039
1070
   172
1070
     1
1070
   271
1070
     0
1070
   279
1070
     0
1070
   288
1070
     1
1002
}
  0
LINE
  5
7B97
  8
2
  6
CENTER
 10
5122.6175866462881
 20
4430.7300283133227
 30
0.0
 11
6391.7867436462893
 21
4430.7300283133227
 31
0.0
  0
DIMENSION
  5
7BA4
  8
3
  6
CONTINUOUS
  2
*D10
 10
3123.895550603107
 20
6481.803678313323
 30
0.0
 11
2153.9834146031071
 21
6481.803678313323
 31
0.0
 70
   128
 13
1223.895550603107
 23
6979.7384283133242
 33
0.0
 14
3123.895550603107
 24
6979.7384283133242
 34
0.0
1001
ACAD
1000
DSTYLE
1002
{
1070
   287
1070
     3
1070
   287
1070
     3
1070
    40
1040
40.0
1070
   143
1040
0.039
1070
   172
1070
     1
1070
   271
1070
     0
1070
   279
1070
     0
1070
   288
1070
     1
1002
}
  0
DIMENSION
  5
7BB1
  8
3
  6
CONTINUOUS
  2
*D11
 10
3507.6199946031079
 20
6979.7384283133242
 30
0.0
 11
3507.619994603107
 21
7519.3952843133229
 31
0.0
 70
   128
 13
3123.895550603107
 23
7929.7384283133242
 33
0.0
 14
3123.895550603107
 24
6979.7384283133242
 34
0.0
 50
90.0
1001
ACAD
1000
DSTYLE
1002
{
1070
   287
1070
     3
1070
   287
1070
     3
1070
    40
1040
40.0
1070
   143
1040
0.039
1070
   172
1070
     1
1070
   271
1070
     0
1070
   279
1070
     0
1070
   288
1070
     1
1002
}
  0
LINE
  5
7BB2
  8
2
  6
CENTER
 10
1709.4562886031069
 20
7526.7384283133242
 30
0.0
 11
3244.3265576031072
 21
7526.7384283133242
 31
0.0
  0
LINE
  5
7BB3
  8
2
  6
CENTER
 10
2563.895550603107
 20
6780.3991203133228
 30
0.0
 11
2563.895550603107
 21
7989.6992483133226
 31
0.0
  0
LINE
  5
7BB4
  8
2
  6
CENTER
 10
5896.4762866462888
 20
5483.416551313323
 30
0.0
 11
5896.4762866462888
 21
3584.6995657200569
 31
0.0
  0
DIMENSION
  5
7BC3
  8
3
  6
CONTINUOUS
  2
*D12
 10
5896.4762866462888
 20
3356.888802564562
 30
0.0
 11
5622.9762866462888
 21
3453.251500162205
 31
0.0
 70
   128
 13
5349.4762866462888
 23
3659.7300283133231
 33
0.0
 14
5896.4762866462888
 24
3584.6995657200569
 34
0.0
1001
ACAD
1000
DSTYLE
1002
{
1070
   288
1070
     1
1070
   172
1070
     1
1070
    40
1040
40.0
1070
   271
1070
     0
1070
   143
1040
0.039
1002
}
  0
DIMENSION
  5
7BD1
  8
3
  6
CONTINUOUS
  2
*D13
 10
6299.4762866462888
 20
3355.862709564562
 30
0.0
 11
6097.9762866462888
 21
3453.251500162205
 31
0.0
 70
   128
 13
5896.4762866462888
 23
3584.6995657200569
 33
0.0
 14
6299.4762866462888
 24
3659.7300283133231
 34
0.0
1001
ACAD
1000
DSTYLE
1002
{
1070
   288
1070
     1
1070
   172
1070
     1
1070
    40
1040
40.0
1070
   271
1070
     0
1070
   143
1040
0.039
1002
}
  0
DIMENSION
  5
7BF4
  8
3
  6
CONTINUOUS
  2
*D14
 10
6231.4762866462888
 20
5549.9450213133232
 30
0.0
 11
5835.7620009320026
 21
5549.9450213133232
 31
0.0
 70
   128
 13
5561.4762866462888
 23
5391.7300283133236
 33
0.0
 14
6231.4762866462888
 24
5391.7300283133236
 34
0.0
1001
ACAD
1000
DSTYLE
1002
{
1070
   287
1070
     3
1070
   287
1070
     3
1070
    40
1040
40.0
1070
   143
1040
0.039
1070
   172
1070
     1
1070
   271
1070
     0
1070
   279
1070
     0
1070
   288
1070
     1
1002
}
  0
DIMENSION
  5
7C03
  8
3
  6
CONTINUOUS
  2
*D15
 10
5896.4762866462888
 20
5864.5245823133237
 30
0.0
 11
5605.0477152177173
 21
5864.5245823133237
 31
0.0
 70
   128
  1
MAX\P720
 13
5236.4762866462888
 23
4633.1300283133232
 33
0.0
 14
5896.4762866462888
 24
5787.1689453133231
 34
0.0
1001
ACAD
1000
DSTYLE
1002
{
1070
   287
1070
     3
1070
   287
1070
     3
1070
    40
1040
40.0
1070
   143
1040
0.039
1070
   172
1070
     1
1070
   271
1070
     0
1070
   279
1070
     0
1070
   288
1070
     1
1002
}
  0
DIMENSION
  5
7C11
  8
3
  6
CONTINUOUS
  2
*D16
 10
6314.4762866462888
 20
5865.0376593133233
 30
0.0
 11
6105.4762866462888
 21
5973.3045384598372
 31
0.0
 70
   128
 13
5896.4762866462888
 23
5787.1689453133231
 33
0.0
 14
6314.4762866462888
 24
4920.7300283133227
 34
0.0
1001
ACAD
1000
DSTYLE
1002
{
1070
   288
1070
     1
1070
   172
1070
     1
1070
    40
1040
40.0
1070
   271
1070
     0
1070
   143
1040
0.039
1002
}
  0
DIMENSION
  5
7C35
  8
3
  6
CONTINUOUS
  2
*D17
 10
6663.6549786462911
 20
3980.7300283133241
 30
0.0
 11
6663.6549786462892
 21
4424.6837503133229
 31
0.0
 70
   128
 13
6314.4762866462888
 23
4880.7300283133227
 33
0.0
 14
6314.4762866462888
 24
3980.7300283133241
 34
0.0
 50
90.0
1001
ACAD
1000
DSTYLE
1002
{
1070
   287
1070
     3
1070
   287
1070
     3
1070
     3
1000
φ<>
1070
    40
1040
40.0
1070
   143
1040
0.039
1070
   172
1070
     1
1070
   271
1070
     0
1070
   279
1070
     0
1070
   288
1070
     1
1002
}
  0
LINE
  5
7C36
  8
4
  6
CONTINUOUS
 10
7400.0
 20
2000.0
 30
0.0
 11
7400.0
 21
1200.0
 31
0.0
  0
LINE
  5
7C37
  8
4
  6
CONTINUOUS
 10
4600.0
 20
2000.0
 30
0.0
 11
4600.0
 21
1200.0
 31
0.0
  0
LINE
  5
7C38
  8
4
  6
CONTINUOUS
 10
2600.0
 20
2000.0
 30
0.0
 11
2600.0
 21
1200.0
 31
0.0
  0
LINE
  5
7C3B
  8
4
  6
CONTINUOUS
 10
2600.0
 20
1200.0
 30
0.0
 11
7400.0
 21
1200.0
 31
0.0
  0
LINE
  5
7C3C
  8
4
  6
CONTINUOUS
 10
2600.0
 20
1600.0
 30
0.0
 11
7400.0
 21
1600.0
 31
0.0
  0
TEXT
  5
7C3D
  8
4
  6
CONTINUOUS
 10
2754.0083232000002
 20
1726.1721031999989
 30
0.0
 40
200.0
  1
機器名称
  0
TEXT
  5
7C3E
  8
4
  6
CONTINUOUS
 10
2745.032424
 20
1286.5806264
 30
0.0
 40
200.0
  1
機器型番
  0
TEXT
  5
7C3F
  8
4
  6
CONTINUOUS
 10
4710.7149823999989
 20
1690.2870751999999
 30
0.0
 40
168.88888879999999
  1
ミツヤリミットロードファン
  0
TEXT
  5
7C40
  8
4
  6
CONTINUOUS
 10
4746.6179824000001
 20
1268.6383367999999
 30
0.0
 40
200.0
  1
LLE#5 1/2-4
  0
TEXT
  5
7C42
  8
4
  6
CONTINUOUS
 10
2927.8112855999998
 20
9533.7153655999991
 30
0.0
 40
216.0
  1
床置防振ベット
  0
TEXT
  5
7C43
  8
4
  6
CONTINUOUS
 10
1264.6703735999999
 20
10135.5239048
 30
0.0
 40
240.0
  1
ベルト駆動式片吸込両持排煙ファン
  0
LINE
  5
7C44
  8
4
  6
CONTINUOUS
 10
1000.0
 20
9877.635016799999
 30
0.0
 11
7400.0
 21
9877.635016799999
 31
0.0
  0
LINE
  5
7C45
  8
4
  6
CONTINUOUS
 10
1000.0
 20
10677.635016800001
 30
0.0
 11
7400.0
 21
10677.635016800001
 31
0.0
  0
LINE
  5
7C46
  8
4
  6
CONTINUOUS
 10
2600.0
 20
2000.0
 30
0.0
 11
7400.0
 21
2000.0
 31
0.0
  0
LINE
  5
7C47
  8
4
  6
CONTINUOUS
 10
1000.0
 20
10677.635016800001
 30
0.0
 11
1000.0
 21
9877.635016799999
 31
0.0
  0
TEXT
  5
7C48
  8
4
  6
CONTINUOUS
 10
1184.3759568
 20
9529.2779104000001
 30
0.0
 40
216.0
  1
右回転右横向
  0
TEXT
  5
7C49
  8
4
  6
CONTINUOUS
 10
5875.8782375999999
 20
10824.244326399999
 30
0.0
 40
224.0
  1
No.
  0
TEXT
  5
7C4A
  8
4
  6
CONTINUOUS
 10
5245.1842504000006
 20
9533.7153655999991
 30
0.0
 40
216.0
  1
縮尺：1/40
  0
LINE
  5
7C4B
  8
4
  6
CONTINUOUS
 10
7400.0
 20
10677.635016800001
 30
0.0
 11
7400.0
 21
9877.635016799999
 31
0.0
  0
LINE
  5
7C4C
  8
4
  6
CONTINUOUS
 10
7560.0
 20
10620.0
 30
0.0
 11
7560.0
 21
10620.0
 31
0.0
  0
LINE
  5
7C4D
  8
4
  6
CONTINUOUS
 10
5762.4696895999996
 20
10725.0543328
 30
0.0
 11
5762.4696895999996
 21
11146.609046400001
 31
0.0
  0
LINE
  5
7C4E
  8
4
  6
CONTINUOUS
 10
5762.4696895999996
 20
11146.609046400001
 30
0.0
 11
7400.0
 21
11146.609046400001
 31
0.0
  0
LINE
  5
7C4F
  8
4
  6
CONTINUOUS
 10
7400.0
 20
11146.609046400001
 30
0.0
 11
7400.0
 21
10725.0543328
 31
0.0
  0
LINE
  5
7C50
  8
4
  6
CONTINUOUS
 10
7400.0
 20
10725.0543328
 30
0.0
 11
5762.4696895999996
 21
10725.0543328
 31
0.0
  0
DIMENSION
  5
7D97
  8
3
  2
*D18
 10
1223.895550603107
 20
5797.6265511689089
 30
0.0
 11
2234.8769178219291
 21
5797.6265511689089
 31
0.0
 70
   128
 13
3183.895550603107
 23
5431.7300283133236
 33
0.0
 14
1223.895550603107
 24
3875.7300283133241
 34
0.0
1001
ACAD
1000
DSTYLE
1002
{
1070
   287
1070
     3
1070
   287
1070
     3
1070
    40
1040
40.0
1070
   143
1040
0.039
1070
   172
1070
     1
1070
   271
1070
     0
1070
   279
1070
     0
1070
   288
1070
     1
1002
}
  0
ENDSEC
  0
EOF
