  0
SECTION
  2
HEADER
  9
$ACADVER
  1
AC1009
  9
$INSBASE
 10
0.0
 20
0.0
 30
0.0
  9
$EXTMIN
 10
1000.0
 20
1200.0
 30
0.0
  9
$EXTMAX
 10
7400.0
 20
11146.609046400001
 30
0.0
  9
$LIMMIN
 10
0.0
 20
0.0
  9
$LIMMAX
 10
297.0
 20
210.0
  9
$ORTHOMODE
 70
     0
  9
$REGENMODE
 70
     1
  9
$FILLMODE
 70
     0
  9
$QTEXTMODE
 70
     0
  9
$MIRRTEXT
 70
     1
  9
$DRAGMODE
 70
     2
  9
$LTSCALE
 40
100.0
  9
$OSMODE
 70
    37
  9
$ATTMODE
 70
     1
  9
$TEXTSIZE
 40
180.0
  9
$TRACEWID
 40
0.05
  9
$TEXTSTYLE
  7
STANDARD
  9
$CLAYER
  8
3
  9
$CELTYPE
  6
BYLAYER
  9
$CECOLOR
 62
   256
  9
$DIMSCALE
 40
40.0
  9
$DIMASZ
 40
2.0
  9
$DIMEXO
 40
0.5
  9
$DIMDLI
 40
10.0
  9
$DIMRND
 40
0.0
  9
$DIMDLE
 40
0.0
  9
$DIMEXE
 40
1.0
  9
$DIMTP
 40
1.0
  9
$DIMTM
 40
1.0
  9
$DIMTXT
 40
3.0
  9
$DIMCEN
 40
0.0
  9
$DIMTSZ
 40
0.0
  9
$DIMTOL
 70
     0
  9
$DIMLIM
 70
     0
  9
$DIMTIH
 70
     0
  9
$DIMTOH
 70
     0
  9
$DIMSE1
 70
     0
  9
$DIMSE2
 70
     0
  9
$DIMTAD
 70
     1
  9
$DIMZIN
 70
     8
  9
$DIMBLK
  1

  9
$DIMASO
 70
     1
  9
$DIMSHO
 70
     1
  9
$DIMPOST
  1

  9
$DIMAPOST
  1

  9
$DIMALT
 70
     0
  9
$DIMALTD
 70
     2
  9
$DIMALTF
 40
0.039
  9
$DIMLFAC
 40
1.0
  9
$DIMTOFL
 70
     1
  9
$DIMTVP
 40
0.0
  9
$DIMTIX
 70
     0
  9
$DIMSOXD
 70
     0
  9
$DIMSAH
 70
     1
  9
$DIMBLK1
  1
OPEN
  9
$DIMBLK2
  1
OPEN
  9
$DIMSTYLE
  2
IGA
  9
$DIMCLRD
 70
     0
  9
$DIMCLRE
 70
     0
  9
$DIMCLRT
 70
     0
  9
$DIMTFAC
 40
10.0
  9
$DIMGAP
 40
1.0
  9
$LUNITS
 70
     2
  9
$LUPREC
 70
     3
  9
$SKETCHINC
 40
0.1
  9
$FILLETRAD
 40
50.0
  9
$AUNITS
 70
     0
  9
$AUPREC
 70
     0
  9
$MENU
  1
acad
  9
$ELEVATION
 40
0.0
  9
$PELEVATION
 40
0.0
  9
$THICKNESS
 40
0.0
  9
$LIMCHECK
 70
     0
  9
$BLIPMODE
 70
     0
  9
$CHAMFERA
 40
0.5
  9
$CHAMFERB
 40
0.5
  9
$SKPOLY
 70
     0
  9
$TDCREATE
 40
2450752.5567258098
  9
$TDUPDATE
 40
2454953.685922117
  9
$TDINDWG
 40
0.0052921991
  9
$TDUSRTIMER
 40
0.0052921991
  9
$USRTIMER
 70
     1
  9
$ANGBASE
 50
0.0
  9
$ANGDIR
 70
     0
  9
$PDMODE
 70
     0
  9
$PDSIZE
 40
0.0
  9
$PLINEWID
 40
0.0
  9
$COORDS
 70
     1
  9
$SPLFRAME
 70
     0
  9
$SPLINETYPE
 70
     6
  9
$SPLINESEGS
 70
     8
  9
$ATTDIA
 70
     0
  9
$ATTREQ
 70
     1
  9
$HANDLING
 70
 10241
  9
$HANDSEED
  5
7F3E
  9
$SURFTAB1
 70
     6
  9
$SURFTAB2
 70
     6
  9
$SURFTYPE
 70
     6
  9
$SURFU
 70
     6
  9
$SURFV
 70
     6
  9
$UCSNAME
  2

  9
$UCSORG
 10
0.0
 20
0.0
 30
0.0
  9
$UCSXDIR
 10
1.0
 20
0.0
 30
0.0
  9
$UCSYDIR
 10
0.0
 20
1.0
 30
0.0
  9
$PUCSNAME
  2

  9
$PUCSORG
 10
0.0
 20
0.0
 30
0.0
  9
$PUCSXDIR
 10
1.0
 20
0.0
 30
0.0
  9
$PUCSYDIR
 10
0.0
 20
1.0
 30
0.0
  9
$USERI1
 70
     0
  9
$USERI2
 70
     0
  9
$USERI3
 70
     0
  9
$USERI4
 70
     0
  9
$USERI5
 70
     0
  9
$USERR1
 40
0.0
  9
$USERR2
 40
0.0
  9
$USERR3
 40
0.0
  9
$USERR4
 40
0.0
  9
$USERR5
 40
0.0
  9
$WORLDVIEW
 70
     1
  9
$SHADEDGE
 70
     3
  9
$SHADEDIF
 70
    70
  9
$TILEMODE
 70
     1
  9
$MAXACTVP
 70
    16
  9
$PLIMCHECK
 70
     0
  9
$PEXTMIN
 10
1.0000000000000000E+020
 20
1.0000000000000000E+020
 30
1.0000000000000000E+020
  9
$PEXTMAX
 10
-1.0000000000000000E+020
 20
-1.0000000000000000E+020
 30
-1.0000000000000000E+020
  9
$PLIMMIN
 10
0.0
 20
0.0
  9
$PLIMMAX
 10
12.0
 20
9.0
  9
$UNITMODE
 70
     0
  9
$VISRETAIN
 70
     0
  9
$PLINEGEN
 70
     0
  9
$PSLTSCALE
 70
     1
  0
ENDSEC
  0
SECTION
  2
TABLES
  0
TABLE
  2
VPORT
 70
     2
  0
VPORT
  2
*ACTIVE
 70
     0
 10
0.0
 20
0.0
 11
1.0
 21
1.0
 12
16556.97561634193
 22
5071.4348539182283
 13
0.0
 23
0.0
 14
10.0
 24
10.0
 15
10.0
 25
10.0
 16
0.0
 26
0.0
 36
1.0
 17
0.0
 27
0.0
 37
0.0
 40
12249.512939935899
 41
3.1666666666666661
 42
50.0
 43
0.0
 44
0.0
 50
0.0
 51
0.0
 71
     0
 72
   100
 73
     1
 74
     0
 75
     0
 76
     0
 77
     0
 78
     0
  0
ENDTAB
  0
TABLE
  2
LTYPE
 70
     2
  0
LTYPE
  2
CONTINUOUS
 70
     0
  3
Solid line
 72
    65
 73
     0
 40
0.0
  0
LTYPE
  2
CENTER
 70
     0
  3
____ _ ____ _ ____ _ ____ _ ____ _ ____ _ ____ 
 72
    65
 73
     4
 40
2.0
 49
1.25
 49
-0.25
 49
0.25
 49
-0.25
  0
ENDTAB
  0
TABLE
  2
LAYER
 70
     6
  0
LAYER
  2
0
 70
     0
 62
     7
  6
CONTINUOUS
  0
LAYER
  2
3
 70
     0
 62
     2
  6
CONTINUOUS
  0
LAYER
  2
2
 70
     0
 62
     3
  6
CENTER
  0
LAYER
  2
1
 70
     0
 62
     4
  6
CONTINUOUS
  0
LAYER
  2
4
 70
     0
 62
     7
  6
CONTINUOUS
  0
LAYER
  2
DEFPOINTS
 70
     0
 62
     7
  6
CONTINUOUS
  0
ENDTAB
  0
TABLE
  2
STYLE
 70
     1
  0
STYLE
  2
STANDARD
 70
     0
 40
0.0
 41
1.0
 50
0.0
 71
     0
 42
180.0
  3
simplex.shx
  4
extfont.shx
  0
ENDTAB
  0
TABLE
  2
VIEW
 70
     0
  0
ENDTAB
  0
TABLE
  2
UCS
 70
     0
  0
ENDTAB
  0
TABLE
  2
APPID
 70
     1
  0
APPID
  2
ACAD
 70
     0
  0
ENDTAB
  0
TABLE
  2
DIMSTYLE
 70
     1
  0
DIMSTYLE
  2
IGA
 70
     0
  3

  4

  5

  6
OPEN
  7
OPEN
 40
2.0
 41
2.0
 42
0.5
 43
10.0
 44
1.0
 45
0.0
 46
0.0
 47
1.0
 48
1.0
140
3.0
141
0.0
142
0.0
143
0.03937
144
1.0
145
0.0
146
10.0
147
1.0
 71
     0
 72
     0
 73
     0
 74
     0
 75
     0
 76
     0
 77
     1
 78
     8
170
     0
171
     2
172
     0
173
     1
174
     0
175
     0
176
     0
177
     0
178
     0
  0
ENDTAB
  0
ENDSEC
  0
SECTION
  2
BLOCKS
  0
BLOCK
  8
0
  2
$MODEL_SPACE
 70
     0
 10
0.0
 20
0.0
 30
0.0
  3
$MODEL_SPACE
  1

  0
ENDBLK
  5
1B
  8
0
  0
BLOCK
 67
     1
  8
0
  2
$PAPER_SPACE
 70
     0
 10
0.0
 20
0.0
 30
0.0
  3
$PAPER_SPACE
  1

  0
ENDBLK
  5
18
 67
     1
  8
0
  0
BLOCK
  8
0
  2
_OPEN
 70
     0
 10
0.0
 20
0.0
 30
0.0
  3
_OPEN
  1

  0
LINE
  5
7B1A
  8
0
  6
BYBLOCK
 62
     0
 10
-1.0
 20
0.166667
 30
0.0
 11
0.0
 21
0.0
 31
0.0
  0
LINE
  5
7B1B
  8
0
  6
BYBLOCK
 62
     0
 10
0.0
 20
0.0
 30
0.0
 11
-1.0
 21
-0.166667
 31
0.0
  0
LINE
  5
7B1C
  8
0
  6
BYBLOCK
 62
     0
 10
0.0
 20
0.0
 30
0.0
 11
-1.0
 21
0.0
 31
0.0
  0
ENDBLK
  5
7B1D
  8
0
  0
BLOCK
  8
0
  2
*D1
 70
     1
 10
0.0
 20
0.0
 30
0.0
  3
*D1
  1

  0
LINE
  5
7EA3
  8
3
  6
CONTINUOUS
 62
     0
 10
2297.970734
 20
3581.1751354774851
 30
0.0
 11
2297.970734
 21
3237.6892324774849
 31
0.0
  0
LINE
  5
7EA4
  8
3
  6
CONTINUOUS
 62
     0
 10
2857.970734
 20
3504.4913404774852
 30
0.0
 11
2857.970734
 21
3237.6892324774849
 31
0.0
  0
LINE
  5
7EA5
  8
3
  6
CONTINUOUS
 62
     0
 10
2377.970734
 20
3277.6892324774849
 30
0.0
 11
2777.970734
 21
3277.6892324774849
 31
0.0
  0
INSERT
  5
7EA6
  8
3
  6
CONTINUOUS
 62
     0
  2
_OPEN
 10
2297.970734
 20
3277.6892324774849
 30
0.0
 41
80.0
 42
80.0
 43
80.0
 50
180.0
  0
INSERT
  5
7EA7
  8
3
  6
CONTINUOUS
 62
     0
  2
_OPEN
 10
2857.970734
 20
3277.6892324774849
 30
0.0
 41
80.0
 42
80.0
 43
80.0
  0
TEXT
  8
3
  40
120
  5
7F2E
  62
0
  72
0
  71
0
 10
2332.26
 20
3165.29
 30
0.000000
  1
560
  0
POINT
  5
7EA9
  8
DEFPOINTS
  6
CONTINUOUS
 62
     0
 10
2297.970734
 20
3601.1751354774851
 30
0.0
  0
POINT
  5
7EAA
  8
DEFPOINTS
  6
CONTINUOUS
 62
     0
 10
2857.970734
 20
3524.4913404774852
 30
0.0
  0
POINT
  5
7EAB
  8
DEFPOINTS
  6
CONTINUOUS
 62
     0
 10
2857.970734
 20
3277.6892324774849
 30
0.0
  0
ENDBLK
  5
7D57
  8
0
  0
BLOCK
  8
0
  2
*D2
 70
     1
 10
0.0
 20
0.0
 30
0.0
  3
*D2
  1

  0
LINE
  5
7EAC
  8
3
  6
CONTINUOUS
 62
     0
 10
2857.970734
 20
3504.4913404774852
 30
0.0
 11
2857.970734
 21
3237.6892324774849
 31
0.0
  0
LINE
  5
7EAD
  8
3
  6
CONTINUOUS
 62
     0
 10
4197.9707340000004
 20
3581.1751354774851
 30
0.0
 11
4197.9707340000004
 21
3237.6892324774849
 31
0.0
  0
LINE
  5
7EAE
  8
3
  6
CONTINUOUS
 62
     0
 10
2937.970734
 20
3277.6892324774849
 30
0.0
 11
4117.9707340000004
 21
3277.6892324774849
 31
0.0
  0
INSERT
  5
7EAF
  8
3
  6
CONTINUOUS
 62
     0
  2
_OPEN
 10
2857.970734
 20
3277.6892324774849
 30
0.0
 41
80.0
 42
80.0
 43
80.0
 50
180.0
  0
INSERT
  5
7EB0
  8
3
  6
CONTINUOUS
 62
     0
  2
_OPEN
 10
4197.9707340000004
 20
3277.6892324774849
 30
0.0
 41
80.0
 42
80.0
 43
80.0
  0
TEXT
  8
3
  40
120
  5
7F2F
  62
0
  72
0
  71
0
 10
3287.97
 20
3165.29
 30
0.000000
  1
1340
  0
POINT
  5
7EB2
  8
DEFPOINTS
  6
CONTINUOUS
 62
     0
 10
2857.970734
 20
3524.4913404774852
 30
0.0
  0
POINT
  5
7EB3
  8
DEFPOINTS
  6
CONTINUOUS
 62
     0
 10
4197.9707340000004
 20
3601.1751354774851
 30
0.0
  0
POINT
  5
7EB4
  8
DEFPOINTS
  6
CONTINUOUS
 62
     0
 10
4197.9707340000004
 20
3277.6892324774849
 30
0.0
  0
ENDBLK
  5
7D4C
  8
0
  0
BLOCK
  8
0
  2
*D3
 70
     1
 10
0.0
 20
0.0
 30
0.0
  3
*D3
  1

  0
LINE
  5
7EB5
  8
3
  6
CONTINUOUS
 62
     0
 10
3878.9707340000009
 20
5132.1751354774851
 30
0.0
 11
4599.4701789999999
 21
5132.1751354774851
 31
0.0
  0
LINE
  5
7EB6
  8
3
  6
CONTINUOUS
 62
     0
 10
3786.3071709999999
 20
4512.1751354774851
 30
0.0
 11
4599.4701789999999
 21
4512.1751354774851
 31
0.0
  0
LINE
  5
7EB7
  8
3
  6
CONTINUOUS
 62
     0
 10
4559.4701789999999
 20
5212.1751354774851
 30
0.0
 11
4559.4701789999999
 21
5292.1751354774851
 31
0.0
  0
LINE
  5
7EB8
  8
3
  6
CONTINUOUS
 62
     0
 10
4559.4701789999999
 20
4432.1751354774851
 30
0.0
 11
4559.4701789999999
 21
4352.1751354774851
 31
0.0
  0
LINE
  5
7EB9
  8
3
  6
CONTINUOUS
 62
     0
 10
4559.4701789999999
 20
5132.1751354774851
 30
0.0
 11
4559.4701789999999
 21
4512.1751354774851
 31
0.0
  0
INSERT
  5
7EBA
  8
3
  6
CONTINUOUS
 62
     0
  2
_OPEN
 10
4559.4701789999999
 20
5132.1751354774851
 30
0.0
 41
80.0
 42
80.0
 43
80.0
 50
270.0
  0
INSERT
  5
7EBB
  8
3
  6
CONTINUOUS
 62
     0
  2
_OPEN
 10
4559.4701789999999
 20
4512.1751354774851
 30
0.0
 41
80.0
 42
80.0
 43
80.0
 50
90.0
  0
TEXT
  8
3
  40
120
  5
7F30
  62
0
  72
0
  71
0
 10
4219.47
 20
4574.06
 30
0.000000
  1
620
  0
POINT
  5
7EBD
  8
DEFPOINTS
  6
CONTINUOUS
 62
     0
 10
3858.970734
 20
5132.1751354774851
 30
0.0
  0
POINT
  5
7EBE
  8
DEFPOINTS
  6
CONTINUOUS
 62
     0
 10
3766.3071709999999
 20
4512.1751354774851
 30
0.0
  0
POINT
  5
7EBF
  8
DEFPOINTS
  6
CONTINUOUS
 62
     0
 10
4559.4701789999999
 20
4512.1751354774851
 30
0.0
  0
ENDBLK
  5
7D41
  8
0
  0
BLOCK
  8
0
  2
*D4
 70
     1
 10
0.0
 20
0.0
 30
0.0
  3
*D4
  1

  0
LINE
  5
7EC0
  8
3
  6
CONTINUOUS
 62
     0
 10
3786.3071709999999
 20
4512.1751354774851
 30
0.0
 11
4599.470178999999
 21
4512.1751354774851
 31
0.0
  0
LINE
  5
7EC1
  8
3
  6
CONTINUOUS
 62
     0
 10
4217.9707340000004
 20
3692.1751354774851
 30
0.0
 11
4599.470178999999
 21
3692.1751354774851
 31
0.0
  0
LINE
  5
7EC2
  8
3
  6
CONTINUOUS
 62
     0
 10
4559.4701789999999
 20
4432.1751354774851
 30
0.0
 11
4559.4701789999999
 21
3772.1751354774851
 31
0.0
  0
INSERT
  5
7EC3
  8
3
  6
CONTINUOUS
 62
     0
  2
_OPEN
 10
4559.4701789999999
 20
4512.1751354774851
 30
0.0
 41
80.0
 42
80.0
 43
80.0
 50
90.0
  0
INSERT
  5
7EC4
  8
3
  6
CONTINUOUS
 62
     0
  2
_OPEN
 10
4559.4701789999999
 20
3692.1751354774851
 30
0.0
 41
80.0
 42
80.0
 43
80.0
 50
270.0
  0
TEXT
  8
3
  40
120
  5
7F31
  62
0
  72
0
  71
0
 10
4219.47
 20
3889.78
 30
0.000000
  1
820
  0
POINT
  5
7EC6
  8
DEFPOINTS
  6
CONTINUOUS
 62
     0
 10
3766.3071709999999
 20
4512.1751354774851
 30
0.0
  0
POINT
  5
7EC7
  8
DEFPOINTS
  6
CONTINUOUS
 62
     0
 10
4197.9707340000004
 20
3692.1751354774851
 30
0.0
  0
POINT
  5
7EC8
  8
DEFPOINTS
  6
CONTINUOUS
 62
     0
 10
4559.4701789999999
 20
3692.1751354774851
 30
0.0
  0
ENDBLK
  5
7D36
  8
0
  0
BLOCK
  8
0
  2
*D5
 70
     1
 10
0.0
 20
0.0
 30
0.0
  3
*D5
  1

  0
LINE
  5
7EC9
  8
3
  6
CONTINUOUS
 62
     0
 10
4217.9707340000004
 20
3692.1751354774851
 30
0.0
 11
4599.4701789999999
 21
3692.1751354774851
 31
0.0
  0
LINE
  5
7ECA
  8
3
  6
CONTINUOUS
 62
     0
 10
4217.9707340000004
 20
3601.1751354774851
 30
0.0
 11
4599.4701789999999
 21
3601.1751354774851
 31
0.0
  0
LINE
  5
7ECB
  8
3
  6
CONTINUOUS
 62
     0
 10
4559.4701789999999
 20
3772.1751354774851
 30
0.0
 11
4559.4701789999999
 21
3852.1751354774851
 31
0.0
  0
LINE
  5
7ECC
  8
3
  6
CONTINUOUS
 62
     0
 10
4559.4701789999999
 20
3521.1751354774851
 30
0.0
 11
4559.4701789999999
 21
3218.317992620342
 31
0.0
  0
LINE
  5
7ECD
  8
3
  6
CONTINUOUS
 62
     0
 10
4559.4701789999999
 20
3692.1751354774851
 30
0.0
 11
4559.4701789999999
 21
3601.1751354774851
 31
0.0
  0
INSERT
  5
7ECE
  8
3
  6
CONTINUOUS
 62
     0
  2
_OPEN
 10
4559.4701789999999
 20
3692.1751354774851
 30
0.0
 41
80.0
 42
80.0
 43
80.0
 50
270.0
  0
INSERT
  5
7ECF
  8
3
  6
CONTINUOUS
 62
     0
  2
_OPEN
 10
4559.4701789999999
 20
3601.1751354774851
 30
0.0
 41
80.0
 42
80.0
 43
80.0
 50
90.0
  0
TEXT
  8
3
  40
120
  5
7F32
  62
0
  72
0
  71
0
 10
4219.47
 20
3117.35
 30
0.000000
  1
91
  0
POINT
  5
7ED1
  8
DEFPOINTS
  6
CONTINUOUS
 62
     0
 10
4197.9707340000004
 20
3692.1751354774851
 30
0.0
  0
POINT
  5
7ED2
  8
DEFPOINTS
  6
CONTINUOUS
 62
     0
 10
4197.9707340000004
 20
3601.1751354774851
 30
0.0
  0
POINT
  5
7ED3
  8
DEFPOINTS
  6
CONTINUOUS
 62
     0
 10
4559.4701789999999
 20
3601.1751354774851
 30
0.0
  0
ENDBLK
  5
7D2B
  8
0
  0
BLOCK
  8
0
  2
*D6
 70
     1
 10
0.0
 20
0.0
 30
0.0
  3
*D6
  1

  0
LINE
  5
7ED4
  8
3
  6
CONTINUOUS
 62
     0
 10
3878.9707340000009
 20
5132.1751354774851
 30
0.0
 11
4896.3206650000011
 21
5132.1751354774851
 31
0.0
  0
LINE
  5
7ED5
  8
3
  6
CONTINUOUS
 62
     0
 10
4217.9707340000004
 20
3601.1751354774851
 30
0.0
 11
4896.3206650000011
 21
3601.1751354774851
 31
0.0
  0
LINE
  5
7ED6
  8
3
  6
CONTINUOUS
 62
     0
 10
4856.3206650000011
 20
5052.1751354774851
 30
0.0
 11
4856.3206650000011
 21
3681.1751354774842
 31
0.0
  0
INSERT
  5
7ED7
  8
3
  6
CONTINUOUS
 62
     0
  2
_OPEN
 10
4856.3206650000011
 20
5132.1751354774851
 30
0.0
 41
80.0
 42
80.0
 43
80.0
 50
90.0
  0
INSERT
  5
7ED8
  8
3
  6
CONTINUOUS
 62
     0
  2
_OPEN
 10
4856.3206650000011
 20
3601.1751354774851
 30
0.0
 41
80.0
 42
80.0
 43
80.0
 50
270.0
  0
TEXT
  8
3
  40
120
  5
7F33
  62
0
  72
0
  71
0
 10
4516.32
 20
4150.59
 30
0.000000
  1
1531
  0
POINT
  5
7EDA
  8
DEFPOINTS
  6
CONTINUOUS
 62
     0
 10
3858.970734
 20
5132.1751354774851
 30
0.0
  0
POINT
  5
7EDB
  8
DEFPOINTS
  6
CONTINUOUS
 62
     0
 10
4197.9707340000004
 20
3601.1751354774851
 30
0.0
  0
POINT
  5
7EDC
  8
DEFPOINTS
  6
CONTINUOUS
 62
     0
 10
4856.3206650000011
 20
3601.1751354774851
 30
0.0
  0
ENDBLK
  5
7D1E
  8
0
  0
BLOCK
  8
0
  2
*D7
 70
     1
 10
0.0
 20
0.0
 30
0.0
  3
*D7
  1

  0
LINE
  5
7EDD
  8
3
  6
CONTINUOUS
 62
     0
 10
2893.970734
 20
5152.1751354774842
 30
0.0
 11
2893.970734
 21
5364.3357694774841
 31
0.0
  0
LINE
  5
7EDE
  8
3
  6
CONTINUOUS
 62
     0
 10
3818.970734
 20
5152.1751354774842
 30
0.0
 11
3818.970734
 21
5364.3357694774841
 31
0.0
  0
LINE
  5
7EDF
  8
3
  6
CONTINUOUS
 62
     0
 10
2973.970734
 20
5324.335769477485
 30
0.0
 11
3738.970734
 21
5324.335769477485
 31
0.0
  0
INSERT
  5
7EE0
  8
3
  6
CONTINUOUS
 62
     0
  2
_OPEN
 10
2893.970734
 20
5324.335769477485
 30
0.0
 41
80.0
 42
80.0
 43
80.0
 50
180.0
  0
INSERT
  5
7EE1
  8
3
  6
CONTINUOUS
 62
     0
  2
_OPEN
 10
3818.970734
 20
5324.335769477485
 30
0.0
 41
80.0
 42
80.0
 43
80.0
  0
TEXT
  8
3
  40
120
  5
7F34
  62
0
  72
0
  71
0
 10
3072.70
 20
5211.94
 30
0.000000
  1
925
  0
POINT
  5
7EE3
  8
DEFPOINTS
  6
CONTINUOUS
 62
     0
 10
2893.970734
 20
5132.1751354774851
 30
0.0
  0
POINT
  5
7EE4
  8
DEFPOINTS
  6
CONTINUOUS
 62
     0
 10
3818.970734
 20
5132.1751354774851
 30
0.0
  0
POINT
  5
7EE5
  8
DEFPOINTS
  6
CONTINUOUS
 62
     0
 10
3818.970734
 20
5324.335769477485
 30
0.0
  0
ENDBLK
  5
7D13
  8
0
  0
BLOCK
  8
0
  2
*D8
 70
     1
 10
0.0
 20
0.0
 30
0.0
  3
*D8
  1

  0
LINE
  5
7EE6
  8
3
  6
CONTINUOUS
 62
     0
 10
2214.970734
 20
4532.1751354774851
 30
0.0
 11
2214.970734
 21
5631.212714477484
 31
0.0
  0
LINE
  5
7EE7
  8
3
  6
CONTINUOUS
 62
     0
 10
2857.970734
 20
5065.7424234774844
 30
0.0
 11
2857.970734
 21
5631.212714477484
 31
0.0
  0
LINE
  5
7EE8
  8
3
  6
CONTINUOUS
 62
     0
 10
2294.970734
 20
5591.212714477485
 30
0.0
 11
2777.970734
 21
5591.212714477485
 31
0.0
  0
INSERT
  5
7EE9
  8
3
  6
CONTINUOUS
 62
     0
  2
_OPEN
 10
2214.970734
 20
5591.212714477485
 30
0.0
 41
80.0
 42
80.0
 43
80.0
 50
180.0
  0
INSERT
  5
7EEA
  8
3
  6
CONTINUOUS
 62
     0
  2
_OPEN
 10
2857.970734
 20
5591.212714477485
 30
0.0
 41
80.0
 42
80.0
 43
80.0
  0
TEXT
  8
3
  40
120
  5
7F35
  62
0
  72
0
  71
0
 10
2343.69
 20
5478.81
 30
0.000000
  1
643
  0
POINT
  5
7EEC
  8
DEFPOINTS
  6
CONTINUOUS
 62
     0
 10
2214.970734
 20
4512.1751354774851
 30
0.0
  0
POINT
  5
7EED
  8
DEFPOINTS
  6
CONTINUOUS
 62
     0
 10
2857.970734
 20
5045.7424234774844
 30
0.0
  0
POINT
  5
7EEE
  8
DEFPOINTS
  6
CONTINUOUS
 62
     0
 10
2857.970734
 20
5591.212714477485
 30
0.0
  0
ENDBLK
  5
7DBB
  8
0
  0
BLOCK
  8
0
  2
*D9
 70
     1
 10
0.0
 20
0.0
 30
0.0
  3
*D9
  1

  0
LINE
  5
7EEF
  8
3
  6
CONTINUOUS
 62
     0
 10
2857.970734
 20
5065.7424234774844
 30
0.0
 11
2857.970734
 21
5631.212714477484
 31
0.0
  0
LINE
  5
7EF0
  8
3
  6
CONTINUOUS
 62
     0
 10
3818.970734
 20
5152.1751354774842
 30
0.0
 11
3818.970734
 21
5631.212714477484
 31
0.0
  0
LINE
  5
7EF1
  8
3
  6
CONTINUOUS
 62
     0
 10
2937.970734
 20
5591.212714477485
 30
0.0
 11
3738.970734
 21
5591.212714477485
 31
0.0
  0
INSERT
  5
7EF2
  8
3
  6
CONTINUOUS
 62
     0
  2
_OPEN
 10
2857.970734
 20
5591.212714477485
 30
0.0
 41
80.0
 42
80.0
 43
80.0
 50
180.0
  0
INSERT
  5
7EF3
  8
3
  6
CONTINUOUS
 62
     0
  2
_OPEN
 10
3818.970734
 20
5591.212714477485
 30
0.0
 41
80.0
 42
80.0
 43
80.0
  0
TEXT
  8
3
  40
120
  5
7F36
  62
0
  72
0
  71
0
 10
3098.47
 20
5478.81
 30
0.000000
  1
961
  0
POINT
  5
7EF5
  8
DEFPOINTS
  6
CONTINUOUS
 62
     0
 10
2857.970734
 20
5045.7424234774844
 30
0.0
  0
POINT
  5
7EF6
  8
DEFPOINTS
  6
CONTINUOUS
 62
     0
 10
3818.970734
 20
5132.1751354774851
 30
0.0
  0
POINT
  5
7EF7
  8
DEFPOINTS
  6
CONTINUOUS
 62
     0
 10
3818.970734
 20
5591.212714477485
 30
0.0
  0
ENDBLK
  5
7CFD
  8
0
  0
BLOCK
  8
0
  2
*D10
 70
     1
 10
0.0
 20
0.0
 30
0.0
  3
*D10
  1

  0
LINE
  5
7EF8
  8
3
  6
CONTINUOUS
 62
     0
 10
2297.970734
 20
7036.2980094774848
 30
0.0
 11
2297.970734
 21
6559.3841944774849
 31
0.0
  0
LINE
  5
7EF9
  8
3
  6
CONTINUOUS
 62
     0
 10
4197.9707340000004
 20
7036.2980094774848
 30
0.0
 11
4197.9707340000004
 21
6559.3841944774849
 31
0.0
  0
LINE
  5
7EFA
  8
3
  6
CONTINUOUS
 62
     0
 10
2377.970734
 20
6599.3841944774858
 30
0.0
 11
4117.9707340000004
 21
6599.3841944774858
 31
0.0
  0
INSERT
  5
7EFB
  8
3
  6
CONTINUOUS
 62
     0
  2
_OPEN
 10
2297.970734
 20
6599.3841944774858
 30
0.0
 41
80.0
 42
80.0
 43
80.0
 50
180.0
  0
INSERT
  5
7EFC
  8
3
  6
CONTINUOUS
 62
     0
  2
_OPEN
 10
4197.9707340000004
 20
6599.3841944774858
 30
0.0
 41
80.0
 42
80.0
 43
80.0
  0
TEXT
  8
3
  40
120
  5
7F37
  62
0
  72
0
  71
0
 10
2953.96
 20
6486.98
 30
0.000000
  1
1900
  0
POINT
  5
7EFE
  8
DEFPOINTS
  6
CONTINUOUS
 62
     0
 10
2297.970734
 20
7056.2980094774857
 30
0.0
  0
POINT
  5
7EFF
  8
DEFPOINTS
  6
CONTINUOUS
 62
     0
 10
4197.9707340000004
 20
7056.2980094774857
 30
0.0
  0
POINT
  5
7F00
  8
DEFPOINTS
  6
CONTINUOUS
 62
     0
 10
4197.9707340000004
 20
6599.3841944774858
 30
0.0
  0
ENDBLK
  5
7CF2
  8
0
  0
BLOCK
  8
0
  2
*D11
 70
     1
 10
0.0
 20
0.0
 30
0.0
  3
*D11
  1

  0
LINE
  5
7F01
  8
3
  6
CONTINUOUS
 62
     0
 10
4217.9707340000004
 20
8006.2980094774839
 30
0.0
 11
4605.4072070000011
 21
8006.2980094774839
 31
0.0
  0
LINE
  5
7F02
  8
3
  6
CONTINUOUS
 62
     0
 10
4217.9707340000004
 20
7056.2980094774857
 30
0.0
 11
4605.4072070000011
 21
7056.2980094774857
 31
0.0
  0
LINE
  5
7F03
  8
3
  6
CONTINUOUS
 62
     0
 10
4565.4072070000011
 20
7926.2980094774839
 30
0.0
 11
4565.4072070000011
 21
7136.2980094774848
 31
0.0
  0
INSERT
  5
7F04
  8
3
  6
CONTINUOUS
 62
     0
  2
_OPEN
 10
4565.4072070000011
 20
8006.2980094774839
 30
0.0
 41
80.0
 42
80.0
 43
80.0
 50
90.0
  0
INSERT
  5
7F05
  8
3
  6
CONTINUOUS
 62
     0
  2
_OPEN
 10
4565.4072070000011
 20
7056.2980094774857
 30
0.0
 41
80.0
 42
80.0
 43
80.0
 50
270.0
  0
TEXT
  8
3
  40
120
  5
7F38
  62
0
  72
0
  71
0
 10
4225.41
 20
7383.32
 30
0.000000
  1
950
  0
POINT
  5
7F07
  8
DEFPOINTS
  6
CONTINUOUS
 62
     0
 10
4197.9707340000004
 20
8006.2980094774839
 30
0.0
  0
POINT
  5
7F08
  8
DEFPOINTS
  6
CONTINUOUS
 62
     0
 10
4197.9707340000004
 20
7056.2980094774857
 30
0.0
  0
POINT
  5
7F09
  8
DEFPOINTS
  6
CONTINUOUS
 62
     0
 10
4565.4072070000011
 20
7056.2980094774857
 30
0.0
  0
ENDBLK
  5
7CE7
  8
0
  0
BLOCK
  8
0
  2
*D12
 70
     1
 10
0.0
 20
0.0
 30
0.0
  3
*D12
  1

  0
LINE
  5
7F0A
  8
3
  6
CONTINUOUS
 62
     0
 10
5868.7269536462818
 20
5152.1751354774842
 30
0.0
 11
5868.7269536462818
 21
5370.2667264774846
 31
0.0
  0
LINE
  5
7F0B
  8
3
  6
CONTINUOUS
 62
     0
 10
6538.7269536462818
 20
5152.1751354774842
 30
0.0
 11
6538.7269536462818
 21
5370.2667264774846
 31
0.0
  0
LINE
  5
7F0C
  8
3
  6
CONTINUOUS
 62
     0
 10
5948.7269536462818
 20
5330.2667264774846
 30
0.0
 11
6458.7269536462809
 21
5330.2667264774846
 31
0.0
  0
INSERT
  5
7F0D
  8
3
  6
CONTINUOUS
 62
     0
  2
_OPEN
 10
5868.7269536462818
 20
5330.2667264774846
 30
0.0
 41
80.0
 42
80.0
 43
80.0
 50
180.0
  0
INSERT
  5
7F0E
  8
3
  6
CONTINUOUS
 62
     0
  2
_OPEN
 10
6538.7269536462818
 20
5330.2667264774846
 30
0.0
 41
80.0
 42
80.0
 43
80.0
  0
TEXT
  8
3
  40
120
  5
7F39
  62
0
  72
0
  71
0
 10
5903.01
 20
5217.87
 30
0.000000
  1
670
  0
POINT
  5
7F10
  8
DEFPOINTS
  6
CONTINUOUS
 62
     0
 10
5868.7269536462818
 20
5132.1751354774851
 30
0.0
  0
POINT
  5
7F11
  8
DEFPOINTS
  6
CONTINUOUS
 62
     0
 10
6538.7269536462818
 20
5132.1751354774851
 30
0.0
  0
POINT
  5
7F12
  8
DEFPOINTS
  6
CONTINUOUS
 62
     0
 10
6538.7269536462818
 20
5330.2667264774846
 30
0.0
  0
ENDBLK
  5
7CDC
  8
0
  0
BLOCK
  8
0
  2
*D13
 70
     1
 10
0.0
 20
0.0
 30
0.0
  3
*D13
  1

  0
LINE
  5
7F13
  8
3
  6
CONTINUOUS
 62
     0
 10
5543.7269536462818
 20
4734.5751354774839
 30
0.0
 11
5543.7269536462818
 21
5667.3866694774852
 31
0.0
  0
LINE
  5
7F14
  8
3
  6
CONTINUOUS
 62
     0
 10
6203.7269536462818
 20
5576.2194864774838
 30
0.0
 11
6203.7269536462818
 21
5667.3866694774852
 31
0.0
  0
LINE
  5
7F15
  8
3
  6
CONTINUOUS
 62
     0
 10
5623.7269536462818
 20
5627.3866694774852
 30
0.0
 11
6123.7269536462818
 21
5627.3866694774852
 31
0.0
  0
INSERT
  5
7F16
  8
3
  6
CONTINUOUS
 62
     0
  2
_OPEN
 10
5543.7269536462818
 20
5627.3866694774852
 30
0.0
 41
80.0
 42
80.0
 43
80.0
 50
180.0
  0
INSERT
  5
7F17
  8
3
  6
CONTINUOUS
 62
     0
  2
_OPEN
 10
6203.7269536462818
 20
5627.3866694774852
 30
0.0
 41
80.0
 42
80.0
 43
80.0
  0
TEXT
  8
3
  40
120
  5
7F3A
  62
0
  72
0
  71
0
 10
5672.30
 20
5614.99
 30
0.000000
  1
MAX
  0
TEXT
  8
3
  40
120
  5
7F3B
  62
0
  72
0
  71
0
 10
5672.30
 20
5458.99
 30
0.000000
  1
720
  0
POINT
  5
7F19
  8
DEFPOINTS
  6
CONTINUOUS
 62
     0
 10
5543.7269536462818
 20
4714.5751354774848
 30
0.0
  0
POINT
  5
7F1A
  8
DEFPOINTS
  6
CONTINUOUS
 62
     0
 10
6203.7269536462818
 20
5556.2194864774838
 30
0.0
  0
POINT
  5
7F1B
  8
DEFPOINTS
  6
CONTINUOUS
 62
     0
 10
6203.7269536462818
 20
5627.3866694774852
 30
0.0
  0
ENDBLK
  5
7DAF
  8
0
  0
BLOCK
  8
0
  2
*D14
 70
     1
 10
0.0
 20
0.0
 30
0.0
  3
*D14
  1

  0
LINE
  5
7D7A
  8
0
  6
BYBLOCK
 62
     0
 10
6203.7269536462818
 20
5576.2194864774838
 30
0.0
 11
6203.7269536462818
 21
5667.3866694774852
 31
0.0
  0
LINE
  5
7D7B
  8
0
  6
BYBLOCK
 62
     0
 10
6621.7269536462818
 20
5022.1751354774851
 30
0.0
 11
6621.7269536462818
 21
5667.3866694774852
 31
0.0
  0
LINE
  5
7D7C
  8
0
  6
BYBLOCK
 62
     0
 10
6283.7269536462818
 20
5627.3866694774852
 30
0.0
 11
6541.7269536462818
 21
5627.3866694774852
 31
0.0
  0
TEXT
  5
7D7D
  8
3
 62
     0
 10
6269.8698107891378
 20
5689.1036583110536
 30
0.0
 40
120.0
  1
418
  0
INSERT
  5
7D7E
  8
0
  6
BYBLOCK
 62
     0
  2
_OPEN
 10
6203.7269536462818
 20
5627.3866694774852
 30
0.0
 41
80.0
 42
80.0
 43
80.0
 50
180.0
  0
INSERT
  5
7D7F
  8
0
  6
BYBLOCK
 62
     0
  2
_OPEN
 10
6621.7269536462818
 20
5627.3866694774852
 30
0.0
 41
80.0
 42
80.0
 43
80.0
  0
POINT
  5
7D80
  8
DEFPOINTS
  6
BYBLOCK
 62
     0
 10
6203.7269536462818
 20
5556.2194864774838
 30
0.0
  0
POINT
  5
7D81
  8
DEFPOINTS
  6
BYBLOCK
 62
     0
 10
6621.7269536462818
 20
5002.1751354774851
 30
0.0
  0
POINT
  5
7D82
  8
DEFPOINTS
  6
BYBLOCK
 62
     0
 10
6621.7269536462818
 20
5627.3866694774852
 30
0.0
  0
ENDBLK
  5
7D83
  8
0
  0
BLOCK
  8
0
  2
*D15
 70
     1
 10
0.0
 20
0.0
 30
0.0
  3
*D15
  1

  0
LINE
  5
7F1C
  8
3
  6
CONTINUOUS
 62
     0
 10
6641.7269536462827
 20
4962.1751354774851
 30
0.0
 11
6982.515468646282
 21
4962.1751354774851
 31
0.0
  0
LINE
  5
7F1D
  8
3
  6
CONTINUOUS
 62
     0
 10
6641.7269536462827
 20
4062.1751354774851
 30
0.0
 11
6982.515468646282
 21
4062.1751354774851
 31
0.0
  0
LINE
  5
7F1E
  8
3
  6
CONTINUOUS
 62
     0
 10
6942.5154686462811
 20
4882.1751354774851
 30
0.0
 11
6942.5154686462811
 21
4142.1751354774842
 31
0.0
  0
INSERT
  5
7F1F
  8
3
  6
CONTINUOUS
 62
     0
  2
_OPEN
 10
6942.5154686462811
 20
4962.1751354774851
 30
0.0
 41
80.0
 42
80.0
 43
80.0
 50
90.0
  0
INSERT
  5
7F20
  8
3
  6
CONTINUOUS
 62
     0
  2
_OPEN
 10
6942.5154686462811
 20
4062.1751354774851
 30
0.0
 41
80.0
 42
80.0
 43
80.0
 50
270.0
  0
TEXT
  8
3
  40
120
  5
7F3C
  62
0
  72
0
  71
0
 10
6602.52
 20
4329.69
 30
0.000000
  1
φ900
  0
POINT
  5
7F22
  8
DEFPOINTS
  6
CONTINUOUS
 62
     0
 10
6621.7269536462818
 20
4962.1751354774851
 30
0.0
  0
POINT
  5
7F23
  8
DEFPOINTS
  6
CONTINUOUS
 62
     0
 10
6621.7269536462818
 20
4062.1751354774851
 30
0.0
  0
POINT
  5
7F24
  8
DEFPOINTS
  6
CONTINUOUS
 62
     0
 10
6942.5154686462811
 20
4062.1751354774851
 30
0.0
  0
ENDBLK
  5
7DA4
  8
0
  0
BLOCK
  8
0
  2
*D16
 70
     1
 10
0.0
 20
0.0
 30
0.0
  3
*D16
  1

  0
LINE
  5
7D90
  8
0
  6
BYBLOCK
 62
     0
 10
5656.7269536462809
 20
3581.1751354774851
 30
0.0
 11
5656.7269536462809
 21
3272.6832334774849
 31
0.0
  0
LINE
  5
7D91
  8
0
  6
BYBLOCK
 62
     0
 10
6203.7269536462818
 20
3435.607546477484
 30
0.0
 11
6203.7269536462818
 21
3272.6832334774849
 31
0.0
  0
LINE
  5
7D92
  8
0
  6
BYBLOCK
 62
     0
 10
5736.7269536462818
 20
3312.683233477484
 30
0.0
 11
6123.7269536462818
 21
3312.683233477484
 31
0.0
  0
TEXT
  5
7D93
  8
3
 62
     0
 10
5775.9412393605671
 20
3351.2962358919972
 30
0.0
 40
120.0
  1
547
  0
INSERT
  5
7D94
  8
0
  6
BYBLOCK
 62
     0
  2
_OPEN
 10
5656.7269536462809
 20
3312.683233477484
 30
0.0
 41
80.0
 42
80.0
 43
80.0
 50
180.0
  0
INSERT
  5
7D95
  8
0
  6
BYBLOCK
 62
     0
  2
_OPEN
 10
6203.7269536462818
 20
3312.683233477484
 30
0.0
 41
80.0
 42
80.0
 43
80.0
  0
POINT
  5
7D96
  8
DEFPOINTS
  6
BYBLOCK
 62
     0
 10
5656.7269536462809
 20
3601.1751354774851
 30
0.0
  0
POINT
  5
7D97
  8
DEFPOINTS
  6
BYBLOCK
 62
     0
 10
6203.7269536462818
 20
3455.6075464774849
 30
0.0
  0
POINT
  5
7D98
  8
DEFPOINTS
  6
BYBLOCK
 62
     0
 10
6203.7269536462818
 20
3312.683233477484
 30
0.0
  0
ENDBLK
  5
7D99
  8
0
  0
BLOCK
  8
0
  2
*D17
 70
     1
 10
0.0
 20
0.0
 30
0.0
  3
*D17
  1

  0
LINE
  5
7D85
  8
0
  6
BYBLOCK
 62
     0
 10
6203.7269536462818
 20
3435.607546477484
 30
0.0
 11
6203.7269536462818
 21
3272.6832334774849
 31
0.0
  0
LINE
  5
7D86
  8
0
  6
BYBLOCK
 62
     0
 10
6606.7269536462818
 20
3581.1751354774851
 30
0.0
 11
6606.7269536462818
 21
3272.6832334774849
 31
0.0
  0
LINE
  5
7D87
  8
0
  6
BYBLOCK
 62
     0
 10
6283.7269536462818
 20
3312.683233477484
 30
0.0
 11
6526.7269536462809
 21
3312.683233477484
 31
0.0
  0
TEXT
  5
7D88
  8
3
 62
     0
 10
6250.9412393605671
 20
3365.4647629449969
 30
0.0
 40
120.0
  1
403
  0
INSERT
  5
7D89
  8
0
  6
BYBLOCK
 62
     0
  2
_OPEN
 10
6203.7269536462818
 20
3312.683233477484
 30
0.0
 41
80.0
 42
80.0
 43
80.0
 50
180.0
  0
INSERT
  5
7D8A
  8
0
  6
BYBLOCK
 62
     0
  2
_OPEN
 10
6606.7269536462818
 20
3312.683233477484
 30
0.0
 41
80.0
 42
80.0
 43
80.0
  0
POINT
  5
7D8B
  8
DEFPOINTS
  6
BYBLOCK
 62
     0
 10
6203.7269536462818
 20
3455.6075464774849
 30
0.0
  0
POINT
  5
7D8C
  8
DEFPOINTS
  6
BYBLOCK
 62
     0
 10
6606.7269536462818
 20
3601.1751354774851
 30
0.0
  0
POINT
  5
7D8D
  8
DEFPOINTS
  6
BYBLOCK
 62
     0
 10
6606.7269536462818
 20
3312.683233477484
 30
0.0
  0
ENDBLK
  5
7D8E
  8
0
  0
BLOCK
  8
0
  2
*D18
 70
     1
 10
0.0
 20
0.0
 30
0.0
  3
*D18
  1

  0
LINE
  5
7F25
  8
3
 62
     0
 10
2214.970734
 20
5651.212714477485
 30
0.0
 11
2214.970734
 21
5888.2833782603193
 31
0.0
  0
LINE
  5
7F26
  8
3
 62
     0
 10
4197.9707340000004
 20
3837.1751354774851
 30
0.0
 11
4197.9707340000004
 21
5888.2833782603193
 31
0.0
  0
LINE
  5
7F27
  8
3
 62
     0
 10
2294.970734
 20
5848.2833782603193
 30
0.0
 11
4117.9707340000004
 21
5848.2833782603193
 31
0.0
  0
INSERT
  5
7F28
  8
3
 62
     0
  2
_OPEN
 10
2214.970734
 20
5848.2833782603193
 30
0.0
 41
80.0
 42
80.0
 43
80.0
 50
180.0
  0
INSERT
  5
7F29
  8
3
 62
     0
  2
_OPEN
 10
4197.9707340000004
 20
5848.2833782603193
 30
0.0
 41
80.0
 42
80.0
 43
80.0
  0
TEXT
  8
3
  40
120
  5
7F3D
  62
0
  72
0
  71
0
 10
3008.76
 20
5735.88
 30
0.000000
  1
1983
  0
POINT
  5
7F2B
  8
DEFPOINTS
 62
     0
 10
2214.970734
 20
5631.212714477484
 30
0.0
  0
POINT
  5
7F2C
  8
DEFPOINTS
 62
     0
 10
4197.9707340000004
 20
3817.1751354774851
 30
0.0
  0
POINT
  5
7F2D
  8
DEFPOINTS
 62
     0
 10
4197.9707340000004
 20
5848.2833782603193
 30
0.0
  0
ENDBLK
  5
7DC7
  8
0
  0
ENDSEC
  0
SECTION
  2
ENTITIES
  0
LINE
  5
7A90
  8
1
  6
CONTINUOUS
 10
4197.9707340000004
 20
3601.1751354774851
 30
0.0
 11
2297.970734
 21
3601.1751354774851
 31
0.0
  0
LINE
  5
7A91
  8
1
  6
CONTINUOUS
 10
4197.9707340000004
 20
3666.1751354774851
 30
0.0
 11
2297.970734
 21
3666.1751354774851
 31
0.0
  0
LINE
  5
7A92
  8
1
  6
CONTINUOUS
 10
4038.5310629999999
 20
4167.0257934774854
 30
0.0
 11
2918.5310629999999
 21
4652.0257934774854
 31
0.0
  0
LINE
  5
7A93
  8
1
  6
CONTINUOUS
 10
4058.399938
 20
4212.9085554774838
 30
0.0
 11
2938.399938
 21
4697.9085554774847
 31
0.0
  0
ARC
  5
7A94
  8
1
  6
CONTINUOUS
 10
3977.9707340000009
 20
4027.1751354774842
 30
0.0
 40
202.40000000000001
 50
246.58566499999989
 51
66.585665000000006
  0
LINE
  5
7A95
  8
1
  6
CONTINUOUS
 10
4197.9707340000004
 20
3692.1751354774851
 30
0.0
 11
2297.970734
 21
3692.1751354774851
 31
0.0
  0
LINE
  5
7A96
  8
1
  6
CONTINUOUS
 10
4197.9707340000004
 20
3817.1751354774851
 30
0.0
 11
2297.970734
 21
3817.1751354774851
 31
0.0
  0
ARC
  5
7A97
  8
1
  6
CONTINUOUS
 10
3977.9707340000009
 20
4027.1751354774842
 30
0.0
 40
162.0
 50
324.972283
 51
215.02771699999991
  0
LINE
  5
7A98
  8
1
  6
CONTINUOUS
 10
4175.4707340000004
 20
3817.1751354774851
 30
0.0
 11
3780.470734
 21
3817.1751354774851
 31
0.0
  0
CIRCLE
  5
7A99
  8
1
  6
CONTINUOUS
 10
3977.9707340000009
 20
4027.1751354774842
 30
0.0
 40
152.40000000000001
  0
LINE
  5
7A9A
  8
2
  6
CENTER
 10
4135.3707340000001
 20
4027.1751354774842
 30
0.0
 11
3820.5707340000008
 21
4027.1751354774842
 31
0.0
  0
LINE
  5
7A9B
  8
1
  6
CONTINUOUS
 10
3917.4104050000001
 20
3887.3244774774862
 30
0.0
 11
2797.4104050000001
 21
4372.3244774774848
 31
0.0
  0
LINE
  5
7A9C
  8
1
  6
CONTINUOUS
 10
3897.5415299999991
 20
3841.4417154774842
 30
0.0
 11
2777.54153
 21
4326.4417154774846
 31
0.0
  0
ARC
  5
7A9D
  8
1
  6
CONTINUOUS
 10
2924.970734
 20
4579.1751354774851
 30
0.0
 40
844.0
 50
295.465599
 51
355.44684799999999
  0
ARC
  5
7A9E
  8
1
  6
CONTINUOUS
 10
2924.970734
 20
4445.1751354774851
 30
0.0
 40
710.0
 50
174.58515800000001
 51
242.19091900000001
  0
LINE
  5
7A9F
  8
2
  6
CENTER
 10
3977.9707340000009
 20
3869.775135477485
 30
0.0
 11
3977.9707340000009
 21
4184.5751354774839
 31
0.0
  0
LINE
  5
7AA0
  8
1
  6
CONTINUOUS
 10
2297.970734
 20
3666.1751354774851
 30
0.0
 11
2297.970734
 21
3601.1751354774851
 31
0.0
  0
LINE
  5
7AA1
  8
1
  6
CONTINUOUS
 10
2297.970734
 20
3817.1751354774851
 30
0.0
 11
2297.970734
 21
3692.1751354774851
 31
0.0
  0
LINE
  5
7AA2
  8
1
  6
CONTINUOUS
 10
3823.970734
 20
3885.1751354774851
 30
0.0
 11
3845.313067999999
 21
3934.191568477484
 31
0.0
  0
LINE
  5
7AA3
  8
1
  6
CONTINUOUS
 10
3823.970734
 20
3867.1751354774851
 30
0.0
 11
3823.970734
 21
3885.1751354774851
 31
0.0
  0
LINE
  5
7AA4
  8
1
  6
CONTINUOUS
 10
3790.4707340000009
 20
3867.1751354774851
 30
0.0
 11
3823.970734
 21
3867.1751354774851
 31
0.0
  0
LINE
  5
7AA5
  8
1
  6
CONTINUOUS
 10
3780.470734
 20
3817.1751354774851
 30
0.0
 11
3790.4707340000009
 21
3867.1751354774851
 31
0.0
  0
ARC
  5
7AA6
  8
1
  6
CONTINUOUS
 10
2857.970734
 20
4512.1751354774851
 30
0.0
 40
202.40000000000001
 50
66.585665000000006
 51
246.58566499999989
  0
ARC
  5
7AA7
  8
1
  6
CONTINUOUS
 10
2804.470734
 20
4458.6751354774851
 30
0.0
 40
589.5
 50
84.792963999999998
 51
174.7929639999999
  0
CIRCLE
  5
7AA8
  8
1
  6
CONTINUOUS
 10
2857.970734
 20
4512.1751354774851
 30
0.0
 40
450.0
  0
CIRCLE
  5
7AA9
  8
1
  6
CONTINUOUS
 10
2857.970734
 20
4512.1751354774851
 30
0.0
 40
490.0
  0
CIRCLE
  5
7AAA
  8
1
  6
CONTINUOUS
 10
2857.970734
 20
4512.1751354774851
 30
0.0
 40
152.40000000000001
  0
LINE
  5
7AAB
  8
2
  6
CENTER
 10
2076.5918809999998
 20
4512.1751354774851
 30
0.0
 11
3874.3340680000001
 21
4512.1751354774851
 31
0.0
  0
LINE
  5
7AAC
  8
1
  6
CONTINUOUS
 10
3766.3071709999999
 20
4512.1751354774851
 30
0.0
 11
3818.970734
 21
5132.1751354774851
 31
0.0
  0
LINE
  5
7AAD
  8
2
  6
CENTER
 10
2857.970734
 20
3524.4913404774852
 30
0.0
 11
2857.970734
 21
5108.4439594774858
 31
0.0
  0
LINE
  5
7AAE
  8
1
  6
CONTINUOUS
 10
3858.970734
 20
5132.1751354774851
 30
0.0
 11
2853.970734
 21
5132.1751354774851
 31
0.0
  0
LINE
  5
7AAF
  8
1
  6
CONTINUOUS
 10
3815.573085
 20
5092.175135477486
 30
0.0
 11
2893.970734
 21
5092.175135477486
 31
0.0
  0
ARC
  5
7AB0
  8
1
  6
CONTINUOUS
 10
2804.470734
 20
4565.6751354774851
 30
0.0
 40
482.5
 50
79.310168000000004
 51
83.633905999999996
  0
LINE
  5
7AB1
  8
1
  6
CONTINUOUS
 10
2893.970734
 20
5039.8017004774847
 30
0.0
 11
2893.970734
 21
5132.1751354774851
 31
0.0
  0
LINE
  5
7AB2
  8
1
  6
CONTINUOUS
 10
4197.9707340000004
 20
3666.1751354774851
 30
0.0
 11
4197.9707340000004
 21
3601.1751354774851
 31
0.0
  0
LINE
  5
7AB3
  8
1
  6
CONTINUOUS
 10
4197.9707340000004
 20
3817.1751354774851
 30
0.0
 11
4197.9707340000004
 21
3692.1751354774851
 31
0.0
  0
LINE
  5
7AB4
  8
1
  6
CONTINUOUS
 10
4131.9707340000014
 20
3867.1751354774851
 30
0.0
 11
4131.9707340000014
 21
3885.1751354774851
 31
0.0
  0
LINE
  5
7AB5
  8
1
  6
CONTINUOUS
 10
4131.9707340000014
 20
3885.1751354774851
 30
0.0
 11
4110.6283999999987
 21
3934.191568477484
 31
0.0
  0
LINE
  5
7AB6
  8
1
  6
CONTINUOUS
 10
4165.4707340000014
 20
3867.1751354774851
 30
0.0
 11
4175.4707340000004
 21
3817.1751354774851
 31
0.0
  0
LINE
  5
7AB7
  8
1
  6
CONTINUOUS
 10
4131.9707340000014
 20
3867.1751354774851
 30
0.0
 11
4165.4707340000014
 21
3867.1751354774851
 31
0.0
  0
LINE
  5
7AB8
  8
1
  6
CONTINUOUS
 10
4197.9707340000004
 20
8006.2980094774839
 30
0.0
 11
3307.970734
 21
8006.2980094774839
 31
0.0
  0
LINE
  5
7AB9
  8
1
  6
CONTINUOUS
 10
4139.9707340000014
 20
7588.7980094774848
 30
0.0
 11
3818.970734
 21
7588.7980094774848
 31
0.0
  0
LINE
  5
7ABA
  8
1
  6
CONTINUOUS
 10
3825.5707340000008
 20
6985.7980094774857
 30
0.0
 11
4130.3707340000001
 21
6985.7980094774857
 31
0.0
  0
LINE
  5
7ABB
  8
1
  6
CONTINUOUS
 10
4139.9707340000014
 20
7095.7980094774848
 30
0.0
 11
3815.970734
 21
7095.7980094774848
 31
0.0
  0
LINE
  5
7ABC
  8
1
  6
CONTINUOUS
 10
4180.3707340000001
 20
6943.2980094774857
 30
0.0
 11
2655.570733999999
 21
6943.2980094774857
 31
0.0
  0
LINE
  5
7ABD
  8
1
  6
CONTINUOUS
 10
4180.3707340000001
 20
7083.2980094774848
 30
0.0
 11
2655.570733999999
 21
7083.2980094774848
 31
0.0
  0
LINE
  5
7ABE
  8
1
  6
CONTINUOUS
 10
3825.5707340000008
 20
7060.7980094774857
 30
0.0
 11
4130.3707340000001
 21
7060.7980094774857
 31
0.0
  0
LINE
  5
7ABF
  8
1
  6
CONTINUOUS
 10
3818.970734
 20
7268.2980094774857
 30
0.0
 11
2214.970734
 21
7268.2980094774857
 31
0.0
  0
LINE
  5
7AC0
  8
1
  6
CONTINUOUS
 10
3818.970734
 20
7938.2980094774848
 30
0.0
 11
2214.970734
 21
7938.2980094774848
 31
0.0
  0
LINE
  5
7AC1
  8
1
  6
CONTINUOUS
 10
3347.970734
 20
8021.2980094774848
 30
0.0
 11
2367.970734
 21
8021.2980094774848
 31
0.0
  0
LINE
  5
7AC2
  8
1
  6
CONTINUOUS
 10
3010.3707340000001
 20
6985.7980094774857
 30
0.0
 11
2705.5707339999999
 21
6985.7980094774857
 31
0.0
  0
LINE
  5
7AC3
  8
1
  6
CONTINUOUS
 10
3010.3707340000001
 20
7060.7980094774857
 30
0.0
 11
2705.5707339999999
 21
7060.7980094774857
 31
0.0
  0
LINE
  5
7AC4
  8
1
  6
CONTINUOUS
 10
2214.970734
 20
7268.2980094774857
 30
0.0
 11
2214.970734
 21
7938.2980094774848
 31
0.0
  0
LINE
  5
7AC5
  8
1
  6
CONTINUOUS
 10
2297.970734
 20
7268.2980094774857
 30
0.0
 11
2297.970734
 21
7056.2980094774857
 31
0.0
  0
LINE
  5
7AC6
  8
1
  6
CONTINUOUS
 10
2705.5707339999999
 20
7056.2980094774857
 30
0.0
 11
2297.970734
 21
7056.2980094774857
 31
0.0
  0
LINE
  5
7AC7
  8
1
  6
CONTINUOUS
 10
2705.5707339999999
 20
7060.7980094774857
 30
0.0
 11
2705.5707339999999
 21
6985.7980094774857
 31
0.0
  0
LINE
  5
7AC8
  8
1
  6
CONTINUOUS
 10
2655.570733999999
 20
6943.2980094774857
 30
0.0
 11
2655.570733999999
 21
7083.2980094774848
 31
0.0
  0
LINE
  5
7AC9
  8
1
  6
CONTINUOUS
 10
2297.970734
 20
8006.2980094774839
 30
0.0
 11
2297.970734
 21
7938.2980094774848
 31
0.0
  0
LINE
  5
7ACA
  8
1
  6
CONTINUOUS
 10
2407.970734
 20
8021.2980094774848
 30
0.0
 11
2407.970734
 21
7938.2980094774848
 31
0.0
  0
LINE
  5
7ACB
  8
1
  6
CONTINUOUS
 10
2407.970734
 20
8006.2980094774839
 30
0.0
 11
2297.970734
 21
8006.2980094774839
 31
0.0
  0
LINE
  5
7ACC
  8
1
  6
CONTINUOUS
 10
2893.970734
 20
7938.2980094774848
 30
0.0
 11
3818.970734
 21
7268.2980094774857
 31
0.0
  0
LINE
  5
7ACD
  8
1
  6
CONTINUOUS
 10
2893.970734
 20
7268.2980094774857
 30
0.0
 11
3818.970734
 21
7938.2980094774848
 31
0.0
  0
LINE
  5
7ACE
  8
1
  6
CONTINUOUS
 10
2893.970734
 20
7268.2980094774857
 30
0.0
 11
2893.970734
 21
7938.2980094774848
 31
0.0
  0
LINE
  5
7ACF
  8
1
  6
CONTINUOUS
 10
3818.970734
 20
7268.2980094774857
 30
0.0
 11
3818.970734
 21
7938.2980094774848
 31
0.0
  0
LINE
  5
7AD0
  8
1
  6
CONTINUOUS
 10
3825.5707340000008
 20
7056.2980094774857
 30
0.0
 11
3010.3707340000001
 21
7056.2980094774857
 31
0.0
  0
LINE
  5
7AD1
  8
1
  6
CONTINUOUS
 10
2827.970734
 20
7268.2980094774857
 30
0.0
 11
2827.970734
 21
7060.7980094774857
 31
0.0
  0
LINE
  5
7AD2
  8
1
  6
CONTINUOUS
 10
2887.9707340000009
 20
7268.2980094774857
 30
0.0
 11
2887.9707340000009
 21
7060.7980094774857
 31
0.0
  0
LINE
  5
7AD3
  8
1
  6
CONTINUOUS
 10
3010.3707340000001
 20
7060.7980094774857
 30
0.0
 11
3010.3707340000001
 21
6985.7980094774857
 31
0.0
  0
LINE
  5
7AD4
  8
1
  6
CONTINUOUS
 10
3956.970734
 20
7060.7980094774857
 30
0.0
 11
3956.970734
 21
7095.7980094774848
 31
0.0
  0
LINE
  5
7AD5
  8
1
  6
CONTINUOUS
 10
3998.970734
 20
7060.7980094774857
 30
0.0
 11
3998.970734
 21
7095.7980094774848
 31
0.0
  0
LINE
  5
7AD6
  8
1
  6
CONTINUOUS
 10
3815.970734
 20
7095.7980094774848
 30
0.0
 11
3815.970734
 21
7268.2980094774857
 31
0.0
  0
LINE
  5
7AD7
  8
1
  6
CONTINUOUS
 10
3825.5707340000008
 20
7060.7980094774857
 30
0.0
 11
3825.5707340000008
 21
6985.7980094774857
 31
0.0
  0
LINE
  5
7AD8
  8
1
  6
CONTINUOUS
 10
3307.970734
 20
8021.2980094774848
 30
0.0
 11
3307.970734
 21
7938.2980094774848
 31
0.0
  0
LINE
  5
7AD9
  8
1
  6
CONTINUOUS
 10
4197.9707340000004
 20
8006.2980094774839
 30
0.0
 11
4197.9707340000004
 21
7056.2980094774857
 31
0.0
  0
LINE
  5
7ADA
  8
1
  6
CONTINUOUS
 10
4139.9707340000014
 20
7095.7980094774848
 30
0.0
 11
4139.9707340000014
 21
7588.7980094774848
 31
0.0
  0
LINE
  5
7ADB
  8
1
  6
CONTINUOUS
 10
4197.9707340000004
 20
7056.2980094774857
 30
0.0
 11
4130.3707340000001
 21
7056.2980094774857
 31
0.0
  0
LINE
  5
7ADC
  8
1
  6
CONTINUOUS
 10
4130.3707340000001
 20
7060.7980094774857
 30
0.0
 11
4130.3707340000001
 21
6985.7980094774857
 31
0.0
  0
LINE
  5
7ADD
  8
1
  6
CONTINUOUS
 10
4180.3707340000001
 20
6943.2980094774857
 30
0.0
 11
4180.3707340000001
 21
7083.2980094774848
 31
0.0
  0
LINE
  5
7ADF
  8
1
  6
CONTINUOUS
 10
5661.2269536462818
 20
4179.5751354774848
 30
0.0
 11
5661.2269536462818
 21
3874.775135477485
 31
0.0
  0
LINE
  5
7AE0
  8
1
  6
CONTINUOUS
 10
5683.7269536462809
 20
4714.5751354774848
 30
0.0
 11
5683.7269536462809
 21
3824.775135477485
 31
0.0
  0
LINE
  5
7AE1
  8
1
  6
CONTINUOUS
 10
5543.7269536462818
 20
4714.5751354774848
 30
0.0
 11
5543.7269536462818
 21
3824.775135477485
 31
0.0
  0
LINE
  5
7AE2
  8
1
  6
CONTINUOUS
 10
5586.2269536462809
 20
4179.5751354774848
 30
0.0
 11
5586.2269536462809
 21
3874.775135477485
 31
0.0
  0
LINE
  5
7AE3
  8
1
  6
CONTINUOUS
 10
5696.2269536462818
 20
4189.1751354774851
 30
0.0
 11
5696.2269536462818
 21
3817.1751354774851
 31
0.0
  0
LINE
  5
7AE4
  8
1
  6
CONTINUOUS
 10
5868.7269536462818
 20
5132.1751354774851
 30
0.0
 11
5868.7269536462818
 21
3817.1751354774851
 31
0.0
  0
LINE
  5
7AE5
  8
1
  6
CONTINUOUS
 10
6538.7269536462818
 20
5132.1751354774851
 30
0.0
 11
6538.7269536462818
 21
3817.1751354774851
 31
0.0
  0
LINE
  5
7AE6
  8
1
  6
CONTINUOUS
 10
5656.7269536462809
 20
3601.1751354774851
 30
0.0
 11
6606.7269536462818
 21
3601.1751354774851
 31
0.0
  0
LINE
  5
7AE7
  8
1
  6
CONTINUOUS
 10
5656.7269536462809
 20
3666.1751354774851
 30
0.0
 11
6606.7269536462818
 21
3666.1751354774851
 31
0.0
  0
LINE
  5
7AE8
  8
1
  6
CONTINUOUS
 10
5656.7269536462809
 20
3817.1751354774851
 30
0.0
 11
6606.7269536462818
 21
3817.1751354774851
 31
0.0
  0
LINE
  5
7AE9
  8
1
  6
CONTINUOUS
 10
5656.7269536462809
 20
3692.1751354774851
 30
0.0
 11
6606.7269536462818
 21
3692.1751354774851
 31
0.0
  0
LINE
  5
7AEA
  8
1
  6
CONTINUOUS
 10
5656.7269536462809
 20
3666.1751354774851
 30
0.0
 11
5656.7269536462809
 21
3601.1751354774851
 31
0.0
  0
LINE
  5
7AEB
  8
1
  6
CONTINUOUS
 10
5543.7269536462818
 20
3824.775135477485
 30
0.0
 11
5683.7269536462809
 21
3824.775135477485
 31
0.0
  0
LINE
  5
7AEC
  8
1
  6
CONTINUOUS
 10
5586.2269536462809
 20
3874.775135477485
 30
0.0
 11
5661.2269536462818
 21
3874.775135477485
 31
0.0
  0
LINE
  5
7AED
  8
1
  6
CONTINUOUS
 10
5696.2269536462818
 20
3867.1751354774851
 30
0.0
 11
5868.7269536462818
 21
3867.1751354774851
 31
0.0
  0
LINE
  5
7AEE
  8
1
  6
CONTINUOUS
 10
5656.7269536462809
 20
3817.1751354774851
 30
0.0
 11
5656.7269536462809
 21
3692.1751354774851
 31
0.0
  0
LINE
  5
7AEF
  8
1
  6
CONTINUOUS
 10
6606.7269536462818
 20
3666.1751354774851
 30
0.0
 11
6606.7269536462818
 21
3601.1751354774851
 31
0.0
  0
LINE
  5
7AF0
  8
1
  6
CONTINUOUS
 10
6606.7269536462818
 20
3817.1751354774851
 30
0.0
 11
6606.7269536462818
 21
3692.1751354774851
 31
0.0
  0
LINE
  5
7AF1
  8
1
  6
CONTINUOUS
 10
5828.7269536462809
 20
5132.1751354774851
 30
0.0
 11
6578.7269536462809
 21
5132.1751354774851
 31
0.0
  0
LINE
  5
7AF2
  8
1
  6
CONTINUOUS
 10
5868.7269536462818
 20
5092.175135477486
 30
0.0
 11
6538.7269536462818
 21
5092.175135477486
 31
0.0
  0
LINE
  5
7AF3
  8
1
  6
CONTINUOUS
 10
5661.2269536462818
 20
4664.5751354774848
 30
0.0
 11
5661.2269536462818
 21
4359.7751354774864
 31
0.0
  0
LINE
  5
7AF4
  8
1
  6
CONTINUOUS
 10
5543.7269536462818
 20
4714.5751354774848
 30
0.0
 11
5683.7269536462809
 21
4714.5751354774848
 31
0.0
  0
LINE
  5
7AF5
  8
1
  6
CONTINUOUS
 10
5586.2269536462809
 20
4179.5751354774848
 30
0.0
 11
5661.2269536462818
 21
4179.5751354774848
 31
0.0
  0
LINE
  5
7AF6
  8
1
  6
CONTINUOUS
 10
5586.2269536462809
 20
4359.7751354774864
 30
0.0
 11
5661.2269536462818
 21
4359.7751354774864
 31
0.0
  0
LINE
  5
7AF7
  8
1
  6
CONTINUOUS
 10
5586.2269536462809
 20
4664.5751354774848
 30
0.0
 11
5661.2269536462818
 21
4664.5751354774848
 31
0.0
  0
LINE
  5
7AF8
  8
1
  6
CONTINUOUS
 10
5661.2269536462818
 20
4006.1751354774851
 30
0.0
 11
5696.2269536462818
 21
4006.1751354774851
 31
0.0
  0
LINE
  5
7AF9
  8
1
  6
CONTINUOUS
 10
5661.2269536462818
 20
4048.1751354774842
 30
0.0
 11
5696.2269536462818
 21
4048.1751354774842
 31
0.0
  0
LINE
  5
7AFA
  8
1
  6
CONTINUOUS
 10
5661.2269536462818
 20
4482.1751354774851
 30
0.0
 11
5868.7269536462818
 21
4482.1751354774851
 31
0.0
  0
LINE
  5
7AFB
  8
1
  6
CONTINUOUS
 10
5661.2269536462818
 20
4542.1751354774851
 30
0.0
 11
5868.7269536462818
 21
4542.1751354774851
 31
0.0
  0
LINE
  5
7AFC
  8
1
  6
CONTINUOUS
 10
5696.2269536462818
 20
4189.1751354774851
 30
0.0
 11
5868.7269536462818
 21
4189.1751354774851
 31
0.0
  0
LINE
  5
7AFD
  8
1
  6
CONTINUOUS
 10
5586.2269536462809
 20
4664.5751354774848
 30
0.0
 11
5586.2269536462809
 21
4359.7751354774864
 31
0.0
  0
LINE
  5
7AFE
  8
1
  6
CONTINUOUS
 10
6621.7269536462818
 20
5002.1751354774851
 30
0.0
 11
6621.7269536462818
 21
4022.1751354774851
 31
0.0
  0
LINE
  5
7AFF
  8
1
  6
CONTINUOUS
 10
6538.7269536462818
 20
4062.1751354774851
 30
0.0
 11
6621.7269536462818
 21
4062.1751354774851
 31
0.0
  0
LINE
  5
7B00
  8
1
  6
CONTINUOUS
 10
6538.7269536462818
 20
4962.1751354774851
 30
0.0
 11
6621.7269536462818
 21
4962.1751354774851
 31
0.0
  0
DIMENSION
  5
7B3B
  8
3
  6
CONTINUOUS
  2
*D1
 10
2857.970734
 20
3277.6892324774849
 30
0.0
 11
2572.2564482857151
 21
3277.6892324774849
 31
0.0
 70
   128
 13
2297.970734
 23
3601.1751354774851
 33
0.0
 14
2857.970734
 24
3524.4913404774852
 34
0.0
1001
ACAD
1000
DSTYLE
1002
{
1070
   287
1070
     3
1070
   287
1070
     3
1070
    40
1040
40.0
1070
   143
1040
0.039
1070
   172
1070
     1
1070
   271
1070
     0
1070
   279
1070
     0
1070
   288
1070
     1
1002
}
  0
DIMENSION
  5
7B47
  8
3
  6
CONTINUOUS
  2
*D2
 10
4197.9707340000004
 20
3277.6892324774849
 30
0.0
 11
3527.9707340000009
 21
3377.6892324774849
 31
0.0
 70
     0
 13
2857.970734
 23
3524.4913404774852
 33
0.0
 14
4197.9707340000004
 24
3601.1751354774851
 34
0.0
1001
ACAD
1000
DSTYLE
1002
{
1070
   287
1070
     3
1070
   287
1070
     3
1070
    40
1040
40.0
1070
   143
1040
0.039
1070
   172
1070
     1
1070
   271
1070
     0
1070
   279
1070
     0
1070
   288
1070
     1
1002
}
  0
DIMENSION
  5
7B54
  8
3
  6
CONTINUOUS
  2
*D3
 10
4559.4701789999999
 20
4512.1751354774851
 30
0.0
 11
4559.4701789999999
 21
4786.4608497631998
 31
0.0
 70
   128
 13
3858.970734
 23
5132.1751354774851
 33
0.0
 14
3766.3071709999999
 24
4512.1751354774851
 34
0.0
 50
90.0
1001
ACAD
1000
DSTYLE
1002
{
1070
   287
1070
     3
1070
   287
1070
     3
1070
    40
1040
40.0
1070
   143
1040
0.039
1070
   172
1070
     1
1070
   271
1070
     0
1070
   279
1070
     0
1070
   288
1070
     1
1002
}
  0
DIMENSION
  5
7B60
  8
3
  6
CONTINUOUS
  2
*D4
 10
4559.4701789999999
 20
3692.1751354774851
 30
0.0
 11
4459.470178999999
 21
4102.175135477486
 31
0.0
 70
     0
 13
3766.3071709999999
 23
4512.1751354774851
 33
0.0
 14
4197.9707340000004
 24
3692.1751354774851
 34
0.0
 50
90.0
1001
ACAD
1000
DSTYLE
1002
{
1070
   287
1070
     3
1070
   287
1070
     3
1070
    40
1040
40.0
1070
   143
1040
0.039
1070
   172
1070
     1
1070
   271
1070
     0
1070
   279
1070
     0
1070
   288
1070
     1
1002
}
  0
DIMENSION
  5
7B70
  8
3
  6
CONTINUOUS
  2
*D5
 10
4559.4701789999999
 20
3601.1751354774851
 30
0.0
 11
4559.4701789999999
 21
3329.746564048914
 31
0.0
 70
   128
 13
4197.9707340000004
 23
3692.1751354774851
 33
0.0
 14
4197.9707340000004
 24
3601.1751354774851
 34
0.0
 50
90.0
1001
ACAD
1000
DSTYLE
1002
{
1070
   287
1070
     3
1070
   287
1070
     3
1070
    40
1040
40.0
1070
   143
1040
0.039
1070
   172
1070
     1
1070
   271
1070
     0
1070
   279
1070
     0
1070
   288
1070
     1
1002
}
  0
DIMENSION
  5
7B97
  8
3
  6
CONTINUOUS
  2
*D6
 10
4856.3206650000011
 20
3601.1751354774851
 30
0.0
 11
4856.3206650000011
 21
4362.9887704774846
 31
0.0
 70
   128
 13
3858.970734
 23
5132.1751354774851
 33
0.0
 14
4197.9707340000004
 24
3601.1751354774851
 34
0.0
 50
90.0
1001
ACAD
1000
DSTYLE
1002
{
1070
   287
1070
     3
1070
   287
1070
     3
1070
    40
1040
40.0
1070
   143
1040
0.039
1070
   172
1070
     1
1070
   271
1070
     0
1070
   279
1070
     0
1070
   288
1070
     1
1002
}
  0
DIMENSION
  5
7BA4
  8
3
  6
CONTINUOUS
  2
*D7
 10
3818.970734
 20
5324.335769477485
 30
0.0
 11
3312.6981689999998
 21
5324.335769477485
 31
0.0
 70
   128
 13
2893.970734
 23
5132.1751354774851
 33
0.0
 14
3818.970734
 24
5132.1751354774851
 34
0.0
1001
ACAD
1000
DSTYLE
1002
{
1070
   287
1070
     3
1070
   287
1070
     3
1070
    40
1040
40.0
1070
   143
1040
0.039
1070
   172
1070
     1
1070
   271
1070
     0
1070
   279
1070
     0
1070
   288
1070
     1
1002
}
  0
DIMENSION
  5
7BB1
  8
3
  6
CONTINUOUS
  2
*D8
 10
2857.970734
 20
5591.212714477485
 30
0.0
 11
2583.6850197142862
 21
5591.212714477485
 31
0.0
 70
   128
 13
2214.970734
 23
4512.1751354774851
 33
0.0
 14
2857.970734
 24
5045.7424234774844
 34
0.0
1001
ACAD
1000
DSTYLE
1002
{
1070
   287
1070
     3
1070
   287
1070
     3
1070
    40
1040
40.0
1070
   143
1040
0.039
1070
   172
1070
     1
1070
   271
1070
     0
1070
   279
1070
     0
1070
   288
1070
     1
1002
}
  0
DIMENSION
  5
7BBD
  8
3
  6
CONTINUOUS
  2
*D9
 10
3818.970734
 20
5591.212714477485
 30
0.0
 11
3338.470734
 21
5691.212714477485
 31
0.0
 70
     0
 13
2857.970734
 23
5045.7424234774844
 33
0.0
 14
3818.970734
 24
5132.1751354774851
 34
0.0
1001
ACAD
1000
DSTYLE
1002
{
1070
   287
1070
     3
1070
   287
1070
     3
1070
    40
1040
40.0
1070
   143
1040
0.039
1070
   172
1070
     1
1070
   271
1070
     0
1070
   279
1070
     0
1070
   288
1070
     1
1002
}
  0
DIMENSION
  5
7BCA
  8
3
  6
CONTINUOUS
  2
*D10
 10
4197.9707340000004
 20
6599.3841944774858
 30
0.0
 11
3193.957985999999
 21
6599.3841944774858
 31
0.0
 70
   128
 13
2297.970734
 23
7056.2980094774857
 33
0.0
 14
4197.9707340000004
 24
7056.2980094774857
 34
0.0
1001
ACAD
1000
DSTYLE
1002
{
1070
   287
1070
     3
1070
   287
1070
     3
1070
    40
1040
40.0
1070
   143
1040
0.039
1070
   172
1070
     1
1070
   271
1070
     0
1070
   279
1070
     0
1070
   288
1070
     1
1002
}
  0
DIMENSION
  5
7BD7
  8
3
  6
CONTINUOUS
  2
*D11
 10
4565.4072070000011
 20
7056.2980094774857
 30
0.0
 11
4565.4072070000002
 21
7595.7247604774839
 31
0.0
 70
   128
 13
4197.9707340000004
 23
8006.2980094774839
 33
0.0
 14
4197.9707340000004
 24
7056.2980094774857
 34
0.0
 50
90.0
1001
ACAD
1000
DSTYLE
1002
{
1070
   287
1070
     3
1070
   287
1070
     3
1070
    40
1040
40.0
1070
   143
1040
0.039
1070
   172
1070
     1
1070
   271
1070
     0
1070
   279
1070
     0
1070
   288
1070
     1
1002
}
  0
LINE
  5
7BD8
  8
2
  6
CENTER
 10
3902.0888579999992
 20
7603.2980094774857
 30
0.0
 11
2059.9891320000002
 21
7603.2980094774857
 31
0.0
  0
LINE
  5
7BD9
  8
2
  6
CENTER
 10
2857.970734
 20
6828.3175314774853
 30
0.0
 11
2857.970734
 21
8083.2094594774853
 31
0.0
  0
LINE
  5
7BDA
  8
2
  6
CENTER
 10
6203.7269536462818
 20
5352.6727464774849
 30
0.0
 11
6203.7269536462818
 21
3455.6075464774849
 31
0.0
  0
DIMENSION
  5
7BE7
  8
3
  6
CONTINUOUS
  2
*D12
 10
6538.7269536462818
 20
5330.2667264774846
 30
0.0
 11
6143.0126679319974
 21
5330.2667264774846
 31
0.0
 70
   128
 13
5868.7269536462818
 23
5132.1751354774851
 33
0.0
 14
6538.7269536462818
 24
5132.1751354774851
 34
0.0
1001
ACAD
1000
DSTYLE
1002
{
1070
   287
1070
     3
1070
   287
1070
     3
1070
    40
1040
40.0
1070
   143
1040
0.039
1070
   172
1070
     1
1070
   271
1070
     0
1070
   279
1070
     0
1070
   288
1070
     1
1002
}
  0
DIMENSION
  5
7BF5
  8
3
  6
CONTINUOUS
  2
*D13
 10
6203.7269536462818
 20
5627.3866694774852
 30
0.0
 11
5912.2983822177102
 21
5627.3866694774852
 31
0.0
 70
   128
  1
MAX\P720
 13
5543.7269536462818
 23
4714.5751354774848
 33
0.0
 14
6203.7269536462818
 24
5556.2194864774838
 34
0.0
1001
ACAD
1000
DSTYLE
1002
{
1070
   287
1070
     3
1070
   287
1070
     3
1070
    40
1040
40.0
1070
   143
1040
0.039
1070
   172
1070
     1
1070
   271
1070
     0
1070
   279
1070
     0
1070
   288
1070
     1
1002
}
  0
DIMENSION
  5
7C03
  8
3
  6
CONTINUOUS
  2
*D14
 10
6621.7269536462818
 20
5627.3866694774852
 30
0.0
 11
6412.7269536462818
 21
5749.1036583110536
 31
0.0
 70
   128
 13
6203.7269536462818
 23
5556.2194864774838
 33
0.0
 14
6621.7269536462818
 24
5002.1751354774851
 34
0.0
1001
ACAD
1000
DSTYLE
1002
{
1070
   288
1070
     1
1070
   172
1070
     1
1070
    40
1040
40.0
1070
   271
1070
     0
1070
   143
1040
0.039
1002
}
  0
DIMENSION
  5
7C10
  8
3
  6
CONTINUOUS
  2
*D15
 10
6942.5154686462811
 20
4062.1751354774851
 30
0.0
 11
6942.5154686462811
 21
4542.0871314774849
 31
0.0
 70
   128
 13
6621.7269536462818
 23
4962.1751354774851
 33
0.0
 14
6621.7269536462818
 24
4062.1751354774851
 34
0.0
 50
90.0
1001
ACAD
1000
DSTYLE
1002
{
1070
   287
1070
     3
1070
   287
1070
     3
1070
     3
1000
φ<>
1070
    40
1040
40.0
1070
   143
1040
0.039
1070
   172
1070
     1
1070
   271
1070
     0
1070
   279
1070
     0
1070
   288
1070
     1
1002
}
  0
DIMENSION
  5
7C36
  8
3
  6
CONTINUOUS
  2
*D16
 10
6203.7269536462818
 20
3312.683233477484
 30
0.0
 11
5930.2269536462818
 21
3411.2962358919981
 31
0.0
 70
   128
 13
5656.7269536462809
 23
3601.1751354774851
 33
0.0
 14
6203.7269536462818
 24
3455.6075464774849
 34
0.0
1001
ACAD
1000
DSTYLE
1002
{
1070
   288
1070
     1
1070
   172
1070
     1
1070
    40
1040
40.0
1070
   271
1070
     0
1070
   143
1040
0.039
1002
}
  0
DIMENSION
  5
7C44
  8
3
  6
CONTINUOUS
  2
*D17
 10
6606.7269536462818
 20
3312.683233477484
 30
0.0
 11
6405.2269536462809
 21
3425.4647629449969
 31
0.0
 70
   128
 13
6203.7269536462818
 23
3455.6075464774849
 33
0.0
 14
6606.7269536462818
 24
3601.1751354774851
 34
0.0
1001
ACAD
1000
DSTYLE
1002
{
1070
   288
1070
     1
1070
   172
1070
     1
1070
    40
1040
40.0
1070
   271
1070
     0
1070
   143
1040
0.039
1002
}
  0
LINE
  5
7C5B
  8
2
  6
CENTER
 10
5459.093746646281
 20
4512.1751354774851
 30
0.0
 11
6694.1387666462824
 21
4512.1751354774851
 31
0.0
  0
LINE
  5
7C5C
  8
4
  6
CONTINUOUS
 10
7400.0
 20
2000.0
 30
0.0
 11
7400.0
 21
1200.0
 31
0.0
  0
LINE
  5
7C5D
  8
4
  6
CONTINUOUS
 10
4600.0
 20
2000.0
 30
0.0
 11
4600.0
 21
1200.0
 31
0.0
  0
LINE
  5
7C5E
  8
4
  6
CONTINUOUS
 10
2600.0
 20
2000.0
 30
0.0
 11
2600.0
 21
1200.0
 31
0.0
  0
LINE
  5
7C61
  8
4
  6
CONTINUOUS
 10
2600.0
 20
1200.0
 30
0.0
 11
7400.0
 21
1200.0
 31
0.0
  0
LINE
  5
7C62
  8
4
  6
CONTINUOUS
 10
2600.0
 20
1600.0
 30
0.0
 11
7400.0
 21
1600.0
 31
0.0
  0
TEXT
  5
7C63
  8
4
  6
CONTINUOUS
 10
2754.0083232000002
 20
1726.1721031999989
 30
0.0
 40
200.0
  1
機器名称
  0
TEXT
  5
7C64
  8
4
  6
CONTINUOUS
 10
2745.032424
 20
1286.5806264
 30
0.0
 40
200.0
  1
機器型番
  0
TEXT
  5
7C65
  8
4
  6
CONTINUOUS
 10
4710.7149823999989
 20
1690.2870751999999
 30
0.0
 40
168.88888879999999
  1
ミツヤリミットロードファン
  0
TEXT
  5
7C66
  8
4
  6
CONTINUOUS
 10
4746.6179824000001
 20
1268.6383367999999
 30
0.0
 40
200.0
  1
LLE#5 1/2-4
  0
TEXT
  5
7C68
  8
4
  6
CONTINUOUS
 10
2897.7534104000001
 20
9533.7153655999991
 30
0.0
 40
216.0
  1
床置防振ベット
  0
TEXT
  5
7C69
  8
4
  6
CONTINUOUS
 10
1264.6703735999999
 20
10135.5239048
 30
0.0
 40
240.0
  1
ベルト駆動式片吸込両持排煙ファン
  0
LINE
  5
7C6A
  8
4
  6
CONTINUOUS
 10
1000.0
 20
9877.635016799999
 30
0.0
 11
7400.0
 21
9877.635016799999
 31
0.0
  0
LINE
  5
7C6B
  8
4
  6
CONTINUOUS
 10
1000.0
 20
10677.635016800001
 30
0.0
 11
7400.0
 21
10677.635016800001
 31
0.0
  0
LINE
  5
7C6C
  8
4
  6
CONTINUOUS
 10
2600.0
 20
2000.0
 30
0.0
 11
7400.0
 21
2000.0
 31
0.0
  0
LINE
  5
7C6D
  8
4
  6
CONTINUOUS
 10
1000.0
 20
10677.635016800001
 30
0.0
 11
1000.0
 21
9877.635016799999
 31
0.0
  0
TEXT
  5
7C6E
  8
4
  6
CONTINUOUS
 10
1154.3180815999999
 20
9529.2779104000001
 30
0.0
 40
216.0
  1
左回転上向
  0
TEXT
  5
7C6F
  8
4
  6
CONTINUOUS
 10
5875.8782375999999
 20
10824.244326399999
 30
0.0
 40
224.0
  1
No.
  0
TEXT
  5
7C70
  8
4
  6
CONTINUOUS
 10
5245.1842504000006
 20
9533.7153655999991
 30
0.0
 40
216.0
  1
縮尺：1/40
  0
LINE
  5
7C71
  8
4
  6
CONTINUOUS
 10
7400.0
 20
10677.635016800001
 30
0.0
 11
7400.0
 21
9877.635016799999
 31
0.0
  0
LINE
  5
7C73
  8
4
  6
CONTINUOUS
 10
5762.4696895999996
 20
10725.0543328
 30
0.0
 11
5762.4696895999996
 21
11146.609046400001
 31
0.0
  0
LINE
  5
7C74
  8
4
  6
CONTINUOUS
 10
5762.4696895999996
 20
11146.609046400001
 30
0.0
 11
7400.0
 21
11146.609046400001
 31
0.0
  0
LINE
  5
7C75
  8
4
  6
CONTINUOUS
 10
7400.0
 20
11146.609046400001
 30
0.0
 11
7400.0
 21
10725.0543328
 31
0.0
  0
LINE
  5
7C76
  8
4
  6
CONTINUOUS
 10
7400.0
 20
10725.0543328
 30
0.0
 11
5762.4696895999996
 21
10725.0543328
 31
0.0
  0
DIMENSION
  5
7DC8
  8
3
  2
*D18
 10
4197.9707340000004
 20
5848.2833782603193
 30
0.0
 11
3248.7550760476811
 21
5848.2833782603193
 31
0.0
 70
   128
 13
2214.970734
 23
5631.212714477484
 33
0.0
 14
4197.9707340000004
 24
3817.1751354774851
 34
0.0
1001
ACAD
1000
DSTYLE
1002
{
1070
   287
1070
     3
1070
   287
1070
     3
1070
    40
1040
40.0
1070
   143
1040
0.039
1070
   172
1070
     1
1070
   271
1070
     0
1070
   279
1070
     0
1070
   288
1070
     1
1002
}
  0
ENDSEC
  0
EOF
