  0
SECTION
  2
HEADER
  9
$ACADVER
  1
AC1009
  9
$INSBASE
 10
0.0
 20
0.0
 30
0.0
  9
$EXTMIN
 10
-1978.4011815999991
 20
-10442.77592
 30
0.0
  9
$EXTMAX
 10
4421.5988183999989
 20
-496.16687359999997
 30
0.0
  9
$LIMMIN
 10
0.0
 20
0.0
  9
$LIMMAX
 10
297.0
 20
210.0
  9
$ORTHOMODE
 70
     0
  9
$REGENMODE
 70
     1
  9
$FILLMODE
 70
     0
  9
$QTEXTMODE
 70
     0
  9
$MIRRTEXT
 70
     1
  9
$DRAGMODE
 70
     2
  9
$LTSCALE
 40
100.0
  9
$OSMODE
 70
    37
  9
$ATTMODE
 70
     1
  9
$TEXTSIZE
 40
180.0
  9
$TRACEWID
 40
0.05
  9
$TEXTSTYLE
  7
STANDARD
  9
$CLAYER
  8
3
  9
$CELTYPE
  6
BYLAYER
  9
$CECOLOR
 62
   256
  9
$DIMSCALE
 40
40.0
  9
$DIMASZ
 40
2.0
  9
$DIMEXO
 40
0.5
  9
$DIMDLI
 40
10.0
  9
$DIMRND
 40
0.0
  9
$DIMDLE
 40
0.0
  9
$DIMEXE
 40
1.0
  9
$DIMTP
 40
1.0
  9
$DIMTM
 40
1.0
  9
$DIMTXT
 40
3.0
  9
$DIMCEN
 40
0.0
  9
$DIMTSZ
 40
0.0
  9
$DIMTOL
 70
     0
  9
$DIMLIM
 70
     0
  9
$DIMTIH
 70
     0
  9
$DIMTOH
 70
     0
  9
$DIMSE1
 70
     0
  9
$DIMSE2
 70
     0
  9
$DIMTAD
 70
     1
  9
$DIMZIN
 70
     8
  9
$DIMBLK
  1

  9
$DIMASO
 70
     1
  9
$DIMSHO
 70
     1
  9
$DIMPOST
  1

  9
$DIMAPOST
  1

  9
$DIMALT
 70
     0
  9
$DIMALTD
 70
     2
  9
$DIMALTF
 40
0.039
  9
$DIMLFAC
 40
1.0
  9
$DIMTOFL
 70
     1
  9
$DIMTVP
 40
0.0
  9
$DIMTIX
 70
     0
  9
$DIMSOXD
 70
     0
  9
$DIMSAH
 70
     1
  9
$DIMBLK1
  1
OPEN
  9
$DIMBLK2
  1
OPEN
  9
$DIMSTYLE
  2
IGA
  9
$DIMCLRD
 70
     0
  9
$DIMCLRE
 70
     0
  9
$DIMCLRT
 70
     0
  9
$DIMTFAC
 40
10.0
  9
$DIMGAP
 40
1.0
  9
$LUNITS
 70
     2
  9
$LUPREC
 70
     3
  9
$SKETCHINC
 40
0.1
  9
$FILLETRAD
 40
50.0
  9
$AUNITS
 70
     0
  9
$AUPREC
 70
     0
  9
$MENU
  1
acad
  9
$ELEVATION
 40
0.0
  9
$PELEVATION
 40
0.0
  9
$THICKNESS
 40
0.0
  9
$LIMCHECK
 70
     0
  9
$BLIPMODE
 70
     0
  9
$CHAMFERA
 40
0.5
  9
$CHAMFERB
 40
0.5
  9
$SKPOLY
 70
     0
  9
$TDCREATE
 40
2450752.4010590268
  9
$TDUPDATE
 40
2454953.6858727541
  9
$TDINDWG
 40
0.0054723727
  9
$TDUSRTIMER
 40
0.0054723727
  9
$USRTIMER
 70
     1
  9
$ANGBASE
 50
0.0
  9
$ANGDIR
 70
     0
  9
$PDMODE
 70
     0
  9
$PDSIZE
 40
0.0
  9
$PLINEWID
 40
0.0
  9
$COORDS
 70
     1
  9
$SPLFRAME
 70
     0
  9
$SPLINETYPE
 70
     6
  9
$SPLINESEGS
 70
     8
  9
$ATTDIA
 70
     0
  9
$ATTREQ
 70
     1
  9
$HANDLING
 70
 10241
  9
$HANDSEED
  5
7F9A
  9
$SURFTAB1
 70
     6
  9
$SURFTAB2
 70
     6
  9
$SURFTYPE
 70
     6
  9
$SURFU
 70
     6
  9
$SURFV
 70
     6
  9
$UCSNAME
  2

  9
$UCSORG
 10
0.0
 20
0.0
 30
0.0
  9
$UCSXDIR
 10
1.0
 20
0.0
 30
0.0
  9
$UCSYDIR
 10
0.0
 20
1.0
 30
0.0
  9
$PUCSNAME
  2

  9
$PUCSORG
 10
0.0
 20
0.0
 30
0.0
  9
$PUCSXDIR
 10
1.0
 20
0.0
 30
0.0
  9
$PUCSYDIR
 10
0.0
 20
1.0
 30
0.0
  9
$USERI1
 70
     0
  9
$USERI2
 70
     0
  9
$USERI3
 70
     0
  9
$USERI4
 70
     0
  9
$USERI5
 70
     0
  9
$USERR1
 40
0.0
  9
$USERR2
 40
0.0
  9
$USERR3
 40
0.0
  9
$USERR4
 40
0.0
  9
$USERR5
 40
0.0
  9
$WORLDVIEW
 70
     1
  9
$SHADEDGE
 70
     3
  9
$SHADEDIF
 70
    70
  9
$TILEMODE
 70
     1
  9
$MAXACTVP
 70
    16
  9
$PLIMCHECK
 70
     0
  9
$PEXTMIN
 10
1.0000000000000000E+020
 20
1.0000000000000000E+020
 30
1.0000000000000000E+020
  9
$PEXTMAX
 10
-1.0000000000000000E+020
 20
-1.0000000000000000E+020
 30
-1.0000000000000000E+020
  9
$PLIMMIN
 10
0.0
 20
0.0
  9
$PLIMMAX
 10
12.0
 20
9.0
  9
$UNITMODE
 70
     0
  9
$VISRETAIN
 70
     0
  9
$PLINEGEN
 70
     0
  9
$PSLTSCALE
 70
     1
  0
ENDSEC
  0
SECTION
  2
TABLES
  0
TABLE
  2
VPORT
 70
     2
  0
VPORT
  2
*ACTIVE
 70
     0
 10
0.0
 20
0.0
 11
1.0
 21
1.0
 12
19444.387148540009
 22
-6120.8621917350638
 13
0.0
 23
0.0
 14
10.0
 24
10.0
 15
10.0
 25
10.0
 16
0.0
 26
0.0
 36
1.0
 17
0.0
 27
0.0
 37
0.0
 40
17335.265374346571
 41
3.1666666666666661
 42
50.0
 43
0.0
 44
0.0
 50
0.0
 51
0.0
 71
     0
 72
   100
 73
     1
 74
     0
 75
     0
 76
     0
 77
     0
 78
     0
  0
ENDTAB
  0
TABLE
  2
LTYPE
 70
     2
  0
LTYPE
  2
CONTINUOUS
 70
     0
  3
Solid line
 72
    65
 73
     0
 40
0.0
  0
LTYPE
  2
CENTER
 70
     0
  3
____ _ ____ _ ____ _ ____ _ ____ _ ____ _ ____ 
 72
    65
 73
     4
 40
2.0
 49
1.25
 49
-0.25
 49
0.25
 49
-0.25
  0
ENDTAB
  0
TABLE
  2
LAYER
 70
     6
  0
LAYER
  2
0
 70
     0
 62
     7
  6
CONTINUOUS
  0
LAYER
  2
3
 70
     0
 62
     2
  6
CONTINUOUS
  0
LAYER
  2
2
 70
     0
 62
     3
  6
CENTER
  0
LAYER
  2
1
 70
     0
 62
     4
  6
CONTINUOUS
  0
LAYER
  2
4
 70
     0
 62
     7
  6
CONTINUOUS
  0
LAYER
  2
DEFPOINTS
 70
     0
 62
     7
  6
CONTINUOUS
  0
ENDTAB
  0
TABLE
  2
STYLE
 70
     1
  0
STYLE
  2
STANDARD
 70
     0
 40
0.0
 41
1.0
 50
0.0
 71
     0
 42
180.0
  3
simplex.shx
  4
extfont.shx
  0
ENDTAB
  0
TABLE
  2
VIEW
 70
     0
  0
ENDTAB
  0
TABLE
  2
UCS
 70
     0
  0
ENDTAB
  0
TABLE
  2
APPID
 70
     1
  0
APPID
  2
ACAD
 70
     0
  0
ENDTAB
  0
TABLE
  2
DIMSTYLE
 70
     1
  0
DIMSTYLE
  2
IGA
 70
     0
  3

  4

  5

  6
OPEN
  7
OPEN
 40
2.0
 41
2.0
 42
0.5
 43
10.0
 44
1.0
 45
0.0
 46
0.0
 47
1.0
 48
1.0
140
3.0
141
0.0
142
0.0
143
0.03937
144
1.0
145
0.0
146
10.0
147
1.0
 71
     0
 72
     0
 73
     0
 74
     0
 75
     0
 76
     0
 77
     1
 78
     8
170
     0
171
     2
172
     0
173
     1
174
     0
175
     0
176
     0
177
     0
178
     0
  0
ENDTAB
  0
ENDSEC
  0
SECTION
  2
BLOCKS
  0
BLOCK
  8
0
  2
$MODEL_SPACE
 70
     0
 10
0.0
 20
0.0
 30
0.0
  3
$MODEL_SPACE
  1

  0
ENDBLK
  5
1B
  8
0
  0
BLOCK
 67
     1
  8
0
  2
$PAPER_SPACE
 70
     0
 10
0.0
 20
0.0
 30
0.0
  3
$PAPER_SPACE
  1

  0
ENDBLK
  5
18
 67
     1
  8
0
  0
BLOCK
  8
0
  2
_OPEN
 70
     0
 10
0.0
 20
0.0
 30
0.0
  3
_OPEN
  1

  0
LINE
  5
7AEA
  8
0
  6
BYBLOCK
 62
     0
 10
-1.0
 20
0.166667
 30
0.0
 11
0.0
 21
0.0
 31
0.0
  0
LINE
  5
7AEB
  8
0
  6
BYBLOCK
 62
     0
 10
0.0
 20
0.0
 30
0.0
 11
-1.0
 21
-0.166667
 31
0.0
  0
LINE
  5
7AEC
  8
0
  6
BYBLOCK
 62
     0
 10
0.0
 20
0.0
 30
0.0
 11
-1.0
 21
0.0
 31
0.0
  0
ENDBLK
  5
7AED
  8
0
  0
BLOCK
  8
0
  2
*D1
 70
     1
 10
0.0
 20
0.0
 30
0.0
  3
*D1
  1

  0
LINE
  5
7EFF
  8
3
  6
CONTINUOUS
 62
     0
 10
-368.84693200000032
 20
-8145.7485669022399
 30
0.0
 11
-368.84693200000032
 21
-8449.0290769255735
 31
0.0
  0
LINE
  5
7F00
  8
3
  6
CONTINUOUS
 62
     0
 10
191.15306799999959
 20
-8245.7410229022425
 30
0.0
 11
191.15306799999959
 21
-8449.0290769255735
 31
0.0
  0
LINE
  5
7F01
  8
3
  6
CONTINUOUS
 62
     0
 10
-448.84693200000032
 20
-8409.0290769255735
 30
0.0
 11
-528.84693200000027
 21
-8409.0290769255735
 31
0.0
  0
LINE
  5
7F02
  8
3
  6
CONTINUOUS
 62
     0
 10
271.15306799999962
 20
-8409.0290769255735
 30
0.0
 11
351.15306799999962
 21
-8409.0290769255735
 31
0.0
  0
LINE
  5
7F03
  8
3
  6
CONTINUOUS
 62
     0
 10
-368.84693200000032
 20
-8409.0290769255735
 30
0.0
 11
191.15306799999959
 21
-8409.0290769255735
 31
0.0
  0
INSERT
  5
7F04
  8
3
  6
CONTINUOUS
 62
     0
  2
_OPEN
 10
-368.84693200000032
 20
-8409.0290769255735
 30
0.0
 41
80.0
 42
80.0
 43
80.0
  0
INSERT
  5
7F05
  8
3
  6
CONTINUOUS
 62
     0
  2
_OPEN
 10
191.15306799999959
 20
-8409.0290769255735
 30
0.0
 41
80.0
 42
80.0
 43
80.0
 50
180.0
  0
TEXT
  8
3
  40
120
  5
7F8A
  62
0
  72
0
  71
0
 10
-334.561
 20
-8521.43
 30
0.000000
  1
560
  0
POINT
  5
7F07
  8
DEFPOINTS
  6
CONTINUOUS
 62
     0
 10
-368.84693200000032
 20
-8125.7485669022417
 30
0.0
  0
POINT
  5
7F08
  8
DEFPOINTS
  6
CONTINUOUS
 62
     0
 10
191.15306799999959
 20
-8225.7410229022407
 30
0.0
  0
POINT
  5
7F09
  8
DEFPOINTS
  6
CONTINUOUS
 62
     0
 10
191.15306799999959
 20
-8409.0290769255735
 30
0.0
  0
ENDBLK
  5
7DAA
  8
0
  0
BLOCK
  8
0
  2
*D2
 70
     1
 10
0.0
 20
0.0
 30
0.0
  3
*D2
  1

  0
LINE
  5
7F0A
  8
3
  6
CONTINUOUS
 62
     0
 10
191.15306799999959
 20
-8245.7410229022425
 30
0.0
 11
191.15306799999959
 21
-8446.1787064761411
 31
0.0
  0
LINE
  5
7F0B
  8
3
  6
CONTINUOUS
 62
     0
 10
1531.1530679999989
 20
-8145.7485669022399
 30
0.0
 11
1531.1530679999989
 21
-8446.1787064761411
 31
0.0
  0
LINE
  5
7F0C
  8
3
  6
CONTINUOUS
 62
     0
 10
271.15306799999962
 20
-8406.1787064761429
 30
0.0
 11
1451.1530679999989
 21
-8406.1787064761429
 31
0.0
  0
INSERT
  5
7F0D
  8
3
  6
CONTINUOUS
 62
     0
  2
_OPEN
 10
191.15306799999959
 20
-8406.1787064761429
 30
0.0
 41
80.0
 42
80.0
 43
80.0
 50
180.0
  0
INSERT
  5
7F0E
  8
3
  6
CONTINUOUS
 62
     0
  2
_OPEN
 10
1531.1530679999989
 20
-8406.1787064761429
 30
0.0
 41
80.0
 42
80.0
 43
80.0
  0
TEXT
  8
3
  40
120
  5
7F8B
  62
0
  72
0
  71
0
 10
621.153
 20
-8518.58
 30
0.000000
  1
1340
  0
POINT
  5
7F10
  8
DEFPOINTS
  6
CONTINUOUS
 62
     0
 10
191.15306799999959
 20
-8225.7410229022407
 30
0.0
  0
POINT
  5
7F11
  8
DEFPOINTS
  6
CONTINUOUS
 62
     0
 10
1531.1530679999989
 20
-8125.7485669022417
 30
0.0
  0
POINT
  5
7F12
  8
DEFPOINTS
  6
CONTINUOUS
 62
     0
 10
1531.1530679999989
 20
-8406.1787064761429
 30
0.0
  0
ENDBLK
  5
7D9F
  8
0
  0
BLOCK
  8
0
  2
*D3
 70
     1
 10
0.0
 20
0.0
 30
0.0
  3
*D3
  1

  0
LINE
  5
7F13
  8
3
  6
CONTINUOUS
 62
     0
 10
-448.84693200000032
 20
-6393.7485669022408
 30
0.0
 11
-724.90172800000164
 21
-6393.7485669022408
 31
0.0
  0
LINE
  5
7F14
  8
3
  6
CONTINUOUS
 62
     0
 10
-448.84693200000032
 20
-7318.7485669022399
 30
0.0
 11
-724.90172800000175
 21
-7318.7485669022399
 31
0.0
  0
LINE
  5
7F15
  8
3
  6
CONTINUOUS
 62
     0
 10
-684.90172800000175
 20
-6473.7485669022408
 30
0.0
 11
-684.90172800000175
 21
-7238.7485669022408
 31
0.0
  0
INSERT
  5
7F16
  8
3
  6
CONTINUOUS
 62
     0
  2
_OPEN
 10
-684.90172800000164
 20
-6393.7485669022408
 30
0.0
 41
80.0
 42
80.0
 43
80.0
 50
90.0
  0
INSERT
  5
7F17
  8
3
  6
CONTINUOUS
 62
     0
  2
_OPEN
 10
-684.90172800000175
 20
-7318.7485669022399
 30
0.0
 41
80.0
 42
80.0
 43
80.0
 50
270.0
  0
TEXT
  8
3
  40
120
  5
7F8C
  62
0
  72
0
  71
0
 10
-1024.90
 20
-7019.04
 30
0.000000
  1
925
  0
POINT
  5
7F19
  8
DEFPOINTS
  6
CONTINUOUS
 62
     0
 10
-428.84693200000032
 20
-6393.7485669022408
 30
0.0
  0
POINT
  5
7F1A
  8
DEFPOINTS
  6
CONTINUOUS
 62
     0
 10
-428.84693200000032
 20
-7318.7485669022399
 30
0.0
  0
POINT
  5
7F1B
  8
DEFPOINTS
  6
CONTINUOUS
 62
     0
 10
-684.90172800000175
 20
-7318.7485669022399
 30
0.0
  0
ENDBLK
  5
7D73
  8
0
  0
BLOCK
  8
0
  2
*D4
 70
     1
 10
0.0
 20
0.0
 30
0.0
  3
*D4
  1

  0
LINE
  5
7F1C
  8
3
  6
CONTINUOUS
 62
     0
 10
-448.84693200000032
 20
-6393.7485669022408
 30
0.0
 11
-1021.6375050000011
 21
-6393.7485669022408
 31
0.0
  0
LINE
  5
7F1D
  8
3
  6
CONTINUOUS
 62
     0
 10
-361.8716960000001
 20
-7354.7485669022408
 30
0.0
 11
-1021.6375050000011
 21
-7354.7485669022408
 31
0.0
  0
LINE
  5
7F1E
  8
3
  6
CONTINUOUS
 62
     0
 10
-981.63750500000174
 20
-6473.7485669022408
 30
0.0
 11
-981.63750500000174
 21
-7274.7485669022408
 31
0.0
  0
INSERT
  5
7F1F
  8
3
  6
CONTINUOUS
 62
     0
  2
_OPEN
 10
-981.63750500000151
 20
-6393.7485669022408
 30
0.0
 41
80.0
 42
80.0
 43
80.0
 50
90.0
  0
INSERT
  5
7F20
  8
3
  6
CONTINUOUS
 62
     0
  2
_OPEN
 10
-981.63750500000174
 20
-7354.7485669022408
 30
0.0
 41
80.0
 42
80.0
 43
80.0
 50
270.0
  0
TEXT
  8
3
  40
120
  5
7F8D
  62
0
  72
0
  71
0
 10
-1321.64
 20
-7040.99
 30
0.000000
  1
961
  0
POINT
  5
7F22
  8
DEFPOINTS
  6
CONTINUOUS
 62
     0
 10
-428.84693200000032
 20
-6393.7485669022408
 30
0.0
  0
POINT
  5
7F23
  8
DEFPOINTS
  6
CONTINUOUS
 62
     0
 10
-341.8716960000001
 20
-7354.7485669022408
 30
0.0
  0
POINT
  5
7F24
  8
DEFPOINTS
  6
CONTINUOUS
 62
     0
 10
-981.63750500000174
 20
-7354.7485669022408
 30
0.0
  0
ENDBLK
  5
7D68
  8
0
  0
BLOCK
  8
0
  2
*D5
 70
     1
 10
0.0
 20
0.0
 30
0.0
  3
*D5
  1

  0
LINE
  5
7F25
  8
3
  6
CONTINUOUS
 62
     0
 10
-361.8716960000001
 20
-7354.7485669022408
 30
0.0
 11
-1021.637505
 21
-7354.7485669022408
 31
0.0
  0
LINE
  5
7F26
  8
3
  6
CONTINUOUS
 62
     0
 10
-388.84693200000038
 20
-8034.7485669022408
 30
0.0
 11
-1021.637505
 21
-8034.7485669022408
 31
0.0
  0
LINE
  5
7F27
  8
3
  6
CONTINUOUS
 62
     0
 10
-981.63750500000037
 20
-7434.7485669022399
 30
0.0
 11
-981.6375050000006
 21
-7954.7485669022408
 31
0.0
  0
INSERT
  5
7F28
  8
3
  6
CONTINUOUS
 62
     0
  2
_OPEN
 10
-981.63750500000026
 20
-7354.7485669022408
 30
0.0
 41
80.0
 42
80.0
 43
80.0
 50
90.0
  0
INSERT
  5
7F29
  8
3
  6
CONTINUOUS
 62
     0
  2
_OPEN
 10
-981.6375050000006
 20
-8034.7485669022408
 30
0.0
 41
80.0
 42
80.0
 43
80.0
 50
270.0
  0
TEXT
  8
3
  40
120
  5
7F8E
  62
0
  72
0
  71
0
 10
-1321.64
 20
-7907.15
 30
0.000000
  1
680
  0
POINT
  5
7F2B
  8
DEFPOINTS
  6
CONTINUOUS
 62
     0
 10
-341.8716960000001
 20
-7354.7485669022408
 30
0.0
  0
POINT
  5
7F2C
  8
DEFPOINTS
  6
CONTINUOUS
 62
     0
 10
-368.84693200000032
 20
-8034.7485669022408
 30
0.0
  0
POINT
  5
7F2D
  8
DEFPOINTS
  6
CONTINUOUS
 62
     0
 10
-981.6375050000006
 20
-8034.7485669022408
 30
0.0
  0
ENDBLK
  5
7D5D
  8
0
  0
BLOCK
  8
0
  2
*D6
 70
     1
 10
0.0
 20
0.0
 30
0.0
  3
*D6
  1

  0
LINE
  5
7F2E
  8
3
  6
CONTINUOUS
 62
     0
 10
-388.84693200000038
 20
-8034.7485669022408
 30
0.0
 11
-1022.186177
 21
-8034.7485669022408
 31
0.0
  0
LINE
  5
7F2F
  8
3
  6
CONTINUOUS
 62
     0
 10
-388.84693200000038
 20
-8125.7485669022417
 30
0.0
 11
-1022.186177
 21
-8125.7485669022417
 31
0.0
  0
LINE
  5
7F30
  8
3
  6
CONTINUOUS
 62
     0
 10
-982.18617700000084
 20
-7954.7485669022408
 30
0.0
 11
-982.18617700000073
 21
-7874.7485669022408
 31
0.0
  0
LINE
  5
7F31
  8
3
  6
CONTINUOUS
 62
     0
 10
-982.18617700000084
 20
-8205.7485669022426
 30
0.0
 11
-982.18617700000095
 21
-8508.6057097593839
 31
0.0
  0
LINE
  5
7F32
  8
3
  6
CONTINUOUS
 62
     0
 10
-982.18617700000084
 20
-8034.7485669022408
 30
0.0
 11
-982.18617700000084
 21
-8125.7485669022417
 31
0.0
  0
INSERT
  5
7F33
  8
3
  6
CONTINUOUS
 62
     0
  2
_OPEN
 10
-982.18617700000084
 20
-8034.7485669022408
 30
0.0
 41
80.0
 42
80.0
 43
80.0
 50
270.0
  0
INSERT
  5
7F34
  8
3
  6
CONTINUOUS
 62
     0
  2
_OPEN
 10
-982.18617700000084
 20
-8125.7485669022417
 30
0.0
 41
80.0
 42
80.0
 43
80.0
 50
90.0
  0
TEXT
  8
3
  40
120
  5
7F8F
  62
0
  72
0
  71
0
 10
-1322.19
 20
-8609.58
 30
0.000000
  1
91
  0
POINT
  5
7F36
  8
DEFPOINTS
  6
CONTINUOUS
 62
     0
 10
-368.84693200000032
 20
-8034.7485669022408
 30
0.0
  0
POINT
  5
7F37
  8
DEFPOINTS
  6
CONTINUOUS
 62
     0
 10
-368.84693200000032
 20
-8125.7485669022417
 30
0.0
  0
POINT
  5
7F38
  8
DEFPOINTS
  6
CONTINUOUS
 62
     0
 10
-982.18617700000084
 20
-8125.7485669022417
 30
0.0
  0
ENDBLK
  5
7D52
  8
0
  0
BLOCK
  8
0
  2
*D7
 70
     1
 10
0.0
 20
0.0
 30
0.0
  3
*D7
  1

  0
LINE
  5
7F39
  8
3
  6
CONTINUOUS
 62
     0
 10
-448.84693200000032
 20
-6353.7485669022408
 30
0.0
 11
-1291.446375
 21
-6353.7485669022408
 31
0.0
  0
LINE
  5
7F3A
  8
3
  6
CONTINUOUS
 62
     0
 10
-388.84693200000038
 20
-8125.7485669022417
 30
0.0
 11
-1291.4463750000009
 21
-8125.7485669022417
 31
0.0
  0
LINE
  5
7F3B
  8
3
  6
CONTINUOUS
 62
     0
 10
-1251.446375
 20
-6433.7485669022417
 30
0.0
 11
-1251.4463750000009
 21
-8045.7485669022399
 31
0.0
  0
INSERT
  5
7F3C
  8
3
  6
CONTINUOUS
 62
     0
  2
_OPEN
 10
-1251.446375
 20
-6353.7485669022408
 30
0.0
 41
80.0
 42
80.0
 43
80.0
 50
90.0
  0
INSERT
  5
7F3D
  8
3
  6
CONTINUOUS
 62
     0
  2
_OPEN
 10
-1251.4463750000009
 20
-8125.7485669022417
 30
0.0
 41
80.0
 42
80.0
 43
80.0
 50
270.0
  0
TEXT
  8
3
  40
120
  5
7F90
  62
0
  72
0
  71
0
 10
-1591.45
 20
-7485.62
 30
0.000000
  1
1772
  0
POINT
  5
7F3F
  8
DEFPOINTS
  6
CONTINUOUS
 62
     0
 10
-428.84693200000032
 20
-6353.7485669022408
 30
0.0
  0
POINT
  5
7F40
  8
DEFPOINTS
  6
CONTINUOUS
 62
     0
 10
-368.84693200000032
 20
-8125.7485669022417
 30
0.0
  0
POINT
  5
7F41
  8
DEFPOINTS
  6
CONTINUOUS
 62
     0
 10
-1251.4463750000009
 20
-8125.7485669022417
 30
0.0
  0
ENDBLK
  5
7D45
  8
0
  0
BLOCK
  8
0
  2
*D8
 70
     1
 10
0.0
 20
0.0
 30
0.0
  3
*D8
  1

  0
LINE
  5
7F42
  8
3
  6
CONTINUOUS
 62
     0
 10
-428.84693200000032
 20
-6333.7485669022399
 30
0.0
 11
-428.84693200000032
 21
-6178.7488659022401
 31
0.0
  0
LINE
  5
7F43
  8
3
  6
CONTINUOUS
 62
     0
 10
191.15306799999959
 20
-6426.4121299022399
 30
0.0
 11
191.15306799999959
 21
-6178.7488659022401
 31
0.0
  0
LINE
  5
7F44
  8
3
  6
CONTINUOUS
 62
     0
 10
-348.84693200000032
 20
-6218.7488659022401
 30
0.0
 11
111.15306799999961
 21
-6218.7488659022401
 31
0.0
  0
INSERT
  5
7F45
  8
3
  6
CONTINUOUS
 62
     0
  2
_OPEN
 10
-428.84693200000032
 20
-6218.7488659022401
 30
0.0
 41
80.0
 42
80.0
 43
80.0
 50
180.0
  0
INSERT
  5
7F46
  8
3
  6
CONTINUOUS
 62
     0
  2
_OPEN
 10
191.15306799999959
 20
-6218.7488659022401
 30
0.0
 41
80.0
 42
80.0
 43
80.0
  0
TEXT
  8
3
  40
120
  5
7F91
  62
0
  72
0
  71
0
 10
-323.133
 20
-6331.15
 30
0.000000
  1
620
  0
POINT
  5
7F48
  8
DEFPOINTS
  6
CONTINUOUS
 62
     0
 10
-428.84693200000032
 20
-6353.7485669022408
 30
0.0
  0
POINT
  5
7F49
  8
DEFPOINTS
  6
CONTINUOUS
 62
     0
 10
191.15306799999959
 20
-6446.4121299022408
 30
0.0
  0
POINT
  5
7F4A
  8
DEFPOINTS
  6
CONTINUOUS
 62
     0
 10
191.15306799999959
 20
-6218.7488659022401
 30
0.0
  0
ENDBLK
  5
7D3A
  8
0
  0
BLOCK
  8
0
  2
*D9
 70
     1
 10
0.0
 20
0.0
 30
0.0
  3
*D9
  1

  0
LINE
  5
7F4B
  8
3
  6
CONTINUOUS
 62
     0
 10
191.15306799999959
 20
-6426.4121299022399
 30
0.0
 11
191.15306799999959
 21
-6178.7488659022401
 31
0.0
  0
LINE
  5
7F4C
  8
3
  6
CONTINUOUS
 62
     0
 10
968.15306799999962
 20
-7334.7485669022399
 30
0.0
 11
968.15306799999985
 21
-6178.7488659022401
 31
0.0
  0
LINE
  5
7F4D
  8
3
  6
CONTINUOUS
 62
     0
 10
271.15306799999962
 20
-6218.7488659022401
 30
0.0
 11
888.15306799999973
 21
-6218.7488659022401
 31
0.0
  0
INSERT
  5
7F4E
  8
3
  6
CONTINUOUS
 62
     0
  2
_OPEN
 10
191.15306799999959
 20
-6218.7488659022401
 30
0.0
 41
80.0
 42
80.0
 43
80.0
 50
180.0
  0
INSERT
  5
7F4F
  8
3
  6
CONTINUOUS
 62
     0
  2
_OPEN
 10
968.15306799999985
 20
-6218.7488659022401
 30
0.0
 41
80.0
 42
80.0
 43
80.0
  0
TEXT
  8
3
  40
120
  5
7F92
  62
0
  72
0
  71
0
 10
339.653
 20
-6331.15
 30
0.000000
  1
777
  0
POINT
  5
7F51
  8
DEFPOINTS
  6
CONTINUOUS
 62
     0
 10
191.15306799999959
 20
-6446.4121299022408
 30
0.0
  0
POINT
  5
7F52
  8
DEFPOINTS
  6
CONTINUOUS
 62
     0
 10
968.15306799999962
 20
-7354.7485669022408
 30
0.0
  0
POINT
  5
7F53
  8
DEFPOINTS
  6
CONTINUOUS
 62
     0
 10
968.15306799999985
 20
-6218.7488659022401
 30
0.0
  0
ENDBLK
  5
7D2F
  8
0
  0
BLOCK
  8
0
  2
*D10
 70
     1
 10
0.0
 20
0.0
 30
0.0
  3
*D10
  1

  0
LINE
  5
7F54
  8
3
  6
CONTINUOUS
 62
     0
 10
-368.84693200000032
 20
-4714.3712819022403
 30
0.0
 11
-368.84693200000038
 21
-5183.9772209022412
 31
0.0
  0
LINE
  5
7F55
  8
3
  6
CONTINUOUS
 62
     0
 10
1531.1530679999989
 20
-4714.3712819022403
 30
0.0
 11
1531.1530679999989
 21
-5183.9772209022412
 31
0.0
  0
LINE
  5
7F56
  8
3
  6
CONTINUOUS
 62
     0
 10
-288.84693200000038
 20
-5143.9772209022403
 30
0.0
 11
1451.1530679999989
 21
-5143.9772209022403
 31
0.0
  0
INSERT
  5
7F57
  8
3
  6
CONTINUOUS
 62
     0
  2
_OPEN
 10
-368.84693200000032
 20
-5143.9772209022403
 30
0.0
 41
80.0
 42
80.0
 43
80.0
 50
180.0
  0
INSERT
  5
7F58
  8
3
  6
CONTINUOUS
 62
     0
  2
_OPEN
 10
1531.1530679999989
 20
-5143.9772209022403
 30
0.0
 41
80.0
 42
80.0
 43
80.0
  0
TEXT
  8
3
  40
120
  5
7F93
  62
0
  72
0
  71
0
 10
327.434
 20
-5256.38
 30
0.000000
  1
1900
  0
POINT
  5
7F5A
  8
DEFPOINTS
  6
CONTINUOUS
 62
     0
 10
-368.84693200000032
 20
-4694.3712819022403
 30
0.0
  0
POINT
  5
7F5B
  8
DEFPOINTS
  6
CONTINUOUS
 62
     0
 10
1531.1530679999989
 20
-4694.3712819022403
 30
0.0
  0
POINT
  5
7F5C
  8
DEFPOINTS
  6
CONTINUOUS
 62
     0
 10
1531.1530679999989
 20
-5143.9772209022403
 30
0.0
  0
ENDBLK
  5
7D24
  8
0
  0
BLOCK
  8
0
  2
*D11
 70
     1
 10
0.0
 20
0.0
 30
0.0
  3
*D11
  1

  0
LINE
  5
7F5D
  8
3
  6
CONTINUOUS
 62
     0
 10
1551.1530679999989
 20
-3744.3712819022398
 30
0.0
 11
1981.2106940000001
 21
-3744.3712819022398
 31
0.0
  0
LINE
  5
7F5E
  8
3
  6
CONTINUOUS
 62
     0
 10
1551.1530679999989
 20
-4694.3712819022403
 30
0.0
 11
1981.2106940000001
 21
-4694.3712819022403
 31
0.0
  0
LINE
  5
7F5F
  8
3
  6
CONTINUOUS
 62
     0
 10
1941.2106940000001
 20
-3824.3712819022398
 30
0.0
 11
1941.2106940000001
 21
-4614.3712819022403
 31
0.0
  0
INSERT
  5
7F60
  8
3
  6
CONTINUOUS
 62
     0
  2
_OPEN
 10
1941.2106940000001
 20
-3744.3712819022398
 30
0.0
 41
80.0
 42
80.0
 43
80.0
 50
90.0
  0
INSERT
  5
7F61
  8
3
  6
CONTINUOUS
 62
     0
  2
_OPEN
 10
1941.2106940000001
 20
-4694.3712819022403
 30
0.0
 41
80.0
 42
80.0
 43
80.0
 50
270.0
  0
TEXT
  8
3
  40
120
  5
7F94
  62
0
  72
0
  71
0
 10
1601.21
 20
-4383.70
 30
0.000000
  1
950
  0
POINT
  5
7F63
  8
DEFPOINTS
  6
CONTINUOUS
 62
     0
 10
1531.1530679999989
 20
-3744.3712819022398
 30
0.0
  0
POINT
  5
7F64
  8
DEFPOINTS
  6
CONTINUOUS
 62
     0
 10
1531.1530679999989
 20
-4694.3712819022403
 30
0.0
  0
POINT
  5
7F65
  8
DEFPOINTS
  6
CONTINUOUS
 62
     0
 10
1941.2106940000001
 20
-4694.3712819022403
 30
0.0
  0
ENDBLK
  5
7D19
  8
0
  0
BLOCK
  8
0
  2
*D12
 70
     1
 10
0.0
 20
0.0
 30
0.0
  3
*D12
  1

  0
LINE
  5
7F66
  8
3
  6
CONTINUOUS
 62
     0
 10
3815.4710880597931
 20
-6904.7485669022408
 30
0.0
 11
4153.0418800597918
 21
-6904.7485669022408
 31
0.0
  0
LINE
  5
7F67
  8
3
  6
CONTINUOUS
 62
     0
 10
3815.4710880597931
 20
-7804.7485669022399
 30
0.0
 11
4153.0418800597918
 21
-7804.7485669022399
 31
0.0
  0
LINE
  5
7F68
  8
3
  6
CONTINUOUS
 62
     0
 10
4113.0418800597918
 20
-6984.7485669022399
 30
0.0
 11
4113.0418800597918
 21
-7724.7485669022408
 31
0.0
  0
INSERT
  5
7F69
  8
3
  6
CONTINUOUS
 62
     0
  2
_OPEN
 10
4113.0418800597918
 20
-6904.7485669022408
 30
0.0
 41
80.0
 42
80.0
 43
80.0
 50
90.0
  0
INSERT
  5
7F6A
  8
3
  6
CONTINUOUS
 62
     0
  2
_OPEN
 10
4113.0418800597918
 20
-7804.7485669022399
 30
0.0
 41
80.0
 42
80.0
 43
80.0
 50
270.0
  0
TEXT
  8
3
  40
120
  5
7F95
  62
0
  72
0
  71
0
 10
3773.04
 20
-7552.02
 30
0.000000
  1
φ900
  0
POINT
  5
7F6C
  8
DEFPOINTS
  6
CONTINUOUS
 62
     0
 10
3795.4710880597931
 20
-6904.7485669022408
 30
0.0
  0
POINT
  5
7F6D
  8
DEFPOINTS
  6
CONTINUOUS
 62
     0
 10
3795.4710880597931
 20
-7804.7485669022399
 30
0.0
  0
POINT
  5
7F6E
  8
DEFPOINTS
  6
CONTINUOUS
 62
     0
 10
4113.0418800597918
 20
-7804.7485669022399
 30
0.0
  0
ENDBLK
  5
7DF7
  8
0
  0
BLOCK
  8
0
  2
*D13
 70
     1
 10
0.0
 20
0.0
 30
0.0
  3
*D13
  1

  0
LINE
  5
7DE3
  8
0
  6
BYBLOCK
 62
     0
 10
2830.4710880597918
 20
-8145.7485669022399
 30
0.0
 11
2830.4710880597918
 21
-8456.5885739022433
 31
0.0
  0
LINE
  5
7DE4
  8
0
  6
BYBLOCK
 62
     0
 10
3377.4710880597918
 20
-8281.7995449022401
 30
0.0
 11
3377.4710880597918
 21
-8456.5885739022433
 31
0.0
  0
LINE
  5
7DE5
  8
0
  6
BYBLOCK
 62
     0
 10
2910.4710880597918
 20
-8416.5885739022415
 30
0.0
 11
3297.4710880597918
 21
-8416.5885739022415
 31
0.0
  0
TEXT
  5
7DE6
  8
3
 62
     0
 10
2949.685373774078
 20
-8391.6411510777434
 30
0.0
 40
120.0
  1
547
  0
INSERT
  5
7DE7
  8
0
  6
BYBLOCK
 62
     0
  2
_OPEN
 10
2830.4710880597918
 20
-8416.5885739022415
 30
0.0
 41
80.0
 42
80.0
 43
80.0
 50
180.0
  0
INSERT
  5
7DE8
  8
0
  6
BYBLOCK
 62
     0
  2
_OPEN
 10
3377.4710880597918
 20
-8416.5885739022415
 30
0.0
 41
80.0
 42
80.0
 43
80.0
  0
POINT
  5
7DE9
  8
DEFPOINTS
  6
BYBLOCK
 62
     0
 10
2830.4710880597918
 20
-8125.7485669022417
 30
0.0
  0
POINT
  5
7DEA
  8
DEFPOINTS
  6
BYBLOCK
 62
     0
 10
3377.4710880597918
 20
-8261.7995449022401
 30
0.0
  0
POINT
  5
7DEB
  8
DEFPOINTS
  6
BYBLOCK
 62
     0
 10
3377.4710880597918
 20
-8416.5885739022415
 30
0.0
  0
ENDBLK
  5
7DEC
  8
0
  0
BLOCK
  8
0
  2
*D14
 70
     1
 10
0.0
 20
0.0
 30
0.0
  3
*D14
  1

  0
LINE
  5
7DD8
  8
0
  6
BYBLOCK
 62
     0
 10
3377.4710880597918
 20
-8281.7995449022401
 30
0.0
 11
3377.4710880597918
 21
-8456.5885739022433
 31
0.0
  0
LINE
  5
7DD9
  8
0
  6
BYBLOCK
 62
     0
 10
3780.4710880597931
 20
-8145.7485669022399
 30
0.0
 11
3780.4710880597931
 21
-8456.5885739022433
 31
0.0
  0
LINE
  5
7DDA
  8
0
  6
BYBLOCK
 62
     0
 10
3457.4710880597918
 20
-8416.5885739022415
 30
0.0
 11
3700.4710880597931
 21
-8416.5885739022415
 31
0.0
  0
TEXT
  5
7DDB
  8
3
 62
     0
 10
3424.685373774078
 20
-8380.8947112413225
 30
0.0
 40
120.0
  1
403
  0
INSERT
  5
7DDC
  8
0
  6
BYBLOCK
 62
     0
  2
_OPEN
 10
3377.4710880597918
 20
-8416.5885739022415
 30
0.0
 41
80.0
 42
80.0
 43
80.0
 50
180.0
  0
INSERT
  5
7DDD
  8
0
  6
BYBLOCK
 62
     0
  2
_OPEN
 10
3780.4710880597931
 20
-8416.5885739022415
 30
0.0
 41
80.0
 42
80.0
 43
80.0
  0
POINT
  5
7DDE
  8
DEFPOINTS
  6
BYBLOCK
 62
     0
 10
3377.4710880597918
 20
-8261.7995449022401
 30
0.0
  0
POINT
  5
7DDF
  8
DEFPOINTS
  6
BYBLOCK
 62
     0
 10
3780.4710880597931
 20
-8125.7485669022417
 30
0.0
  0
POINT
  5
7DE0
  8
DEFPOINTS
  6
BYBLOCK
 62
     0
 10
3780.4710880597931
 20
-8416.5885739022415
 30
0.0
  0
ENDBLK
  5
7DE1
  8
0
  0
BLOCK
  8
0
  2
*D15
 70
     1
 10
0.0
 20
0.0
 30
0.0
  3
*D15
  1

  0
LINE
  5
7F6F
  8
3
  6
CONTINUOUS
 62
     0
 10
2717.4710880597918
 20
-7132.3485669022411
 30
0.0
 11
2717.4710880597918
 21
-5902.3620251631328
 31
0.0
  0
LINE
  5
7F70
  8
3
  6
CONTINUOUS
 62
     0
 10
3377.4710880597918
 20
-5999.2104381631334
 30
0.0
 11
3377.4710880597918
 21
-5902.3620251631328
 31
0.0
  0
LINE
  5
7F71
  8
3
  6
CONTINUOUS
 62
     0
 10
2797.4710880597918
 20
-5942.3620251631328
 30
0.0
 11
3297.4710880597918
 21
-5942.3620251631328
 31
0.0
  0
INSERT
  5
7F72
  8
3
  6
CONTINUOUS
 62
     0
  2
_OPEN
 10
2717.4710880597918
 20
-5942.3620251631328
 30
0.0
 41
80.0
 42
80.0
 43
80.0
 50
180.0
  0
INSERT
  5
7F73
  8
3
  6
CONTINUOUS
 62
     0
  2
_OPEN
 10
3377.4710880597918
 20
-5942.3620251631328
 30
0.0
 41
80.0
 42
80.0
 43
80.0
  0
TEXT
  8
3
  40
120
  5
7F96
  62
0
  72
0
  71
0
 10
2846.04
 20
-5954.76
 30
0.000000
  1
MAX
  0
TEXT
  8
3
  40
120
  5
7F97
  62
0
  72
0
  71
0
 10
2846.04
 20
-6110.76
 30
0.000000
  1
720
  0
POINT
  5
7F75
  8
DEFPOINTS
  6
CONTINUOUS
 62
     0
 10
2717.4710880597918
 20
-7152.3485669022402
 30
0.0
  0
POINT
  5
7F76
  8
DEFPOINTS
  6
CONTINUOUS
 62
     0
 10
3377.4710880597918
 20
-6019.2104381631316
 30
0.0
  0
POINT
  5
7F77
  8
DEFPOINTS
  6
CONTINUOUS
 62
     0
 10
3377.4710880597918
 20
-5942.3620251631328
 30
0.0
  0
ENDBLK
  5
7E18
  8
0
  0
BLOCK
  8
0
  2
*D16
 70
     1
 10
0.0
 20
0.0
 30
0.0
  3
*D16
  1

  0
LINE
  5
7E04
  8
0
  6
BYBLOCK
 62
     0
 10
3377.4710880597918
 20
-5999.2104381631334
 30
0.0
 11
3377.4710880597918
 21
-5896.8728301631309
 31
0.0
  0
LINE
  5
7E05
  8
0
  6
BYBLOCK
 62
     0
 10
3795.4710880597931
 20
-6844.7485669022408
 30
0.0
 11
3795.4710880597931
 21
-5896.8728301631309
 31
0.0
  0
LINE
  5
7E06
  8
0
  6
BYBLOCK
 62
     0
 10
3457.4710880597918
 20
-5936.8728301631309
 30
0.0
 11
3715.4710880597931
 21
-5936.8728301631309
 31
0.0
  0
TEXT
  5
7E07
  8
3
 62
     0
 10
3443.61394520265
 20
-5909.351297620371
 30
0.0
 40
120.0
  1
418
  0
INSERT
  5
7E08
  8
0
  6
BYBLOCK
 62
     0
  2
_OPEN
 10
3377.4710880597918
 20
-5936.8728301631309
 30
0.0
 41
80.0
 42
80.0
 43
80.0
 50
180.0
  0
INSERT
  5
7E09
  8
0
  6
BYBLOCK
 62
     0
  2
_OPEN
 10
3795.4710880597931
 20
-5936.8728301631309
 30
0.0
 41
80.0
 42
80.0
 43
80.0
  0
POINT
  5
7E0A
  8
DEFPOINTS
  6
BYBLOCK
 62
     0
 10
3377.4710880597918
 20
-6019.2104381631316
 30
0.0
  0
POINT
  5
7E0B
  8
DEFPOINTS
  6
BYBLOCK
 62
     0
 10
3795.4710880597931
 20
-6864.7485669022417
 30
0.0
  0
POINT
  5
7E0C
  8
DEFPOINTS
  6
BYBLOCK
 62
     0
 10
3795.4710880597931
 20
-5936.8728301631309
 30
0.0
  0
ENDBLK
  5
7E0D
  8
0
  0
BLOCK
  8
0
  2
*D17
 70
     1
 10
0.0
 20
0.0
 30
0.0
  3
*D17
  1

  0
LINE
  5
7F78
  8
3
  6
CONTINUOUS
 62
     0
 10
3042.4710880597918
 20
-6373.7485669022408
 30
0.0
 11
3042.4710880597918
 21
-6188.592746902239
 31
0.0
  0
LINE
  5
7F79
  8
3
  6
CONTINUOUS
 62
     0
 10
3712.4710880597931
 20
-6373.7485669022408
 30
0.0
 11
3712.4710880597931
 21
-6188.592746902239
 31
0.0
  0
LINE
  5
7F7A
  8
3
  6
CONTINUOUS
 62
     0
 10
3122.4710880597918
 20
-6228.592746902239
 30
0.0
 11
3632.4710880597931
 21
-6228.592746902239
 31
0.0
  0
INSERT
  5
7F7B
  8
3
  6
CONTINUOUS
 62
     0
  2
_OPEN
 10
3042.4710880597918
 20
-6228.592746902239
 30
0.0
 41
80.0
 42
80.0
 43
80.0
 50
180.0
  0
INSERT
  5
7F7C
  8
3
  6
CONTINUOUS
 62
     0
  2
_OPEN
 10
3712.4710880597931
 20
-6228.592746902239
 30
0.0
 41
80.0
 42
80.0
 43
80.0
  0
TEXT
  8
3
  40
120
  5
7F98
  62
0
  72
0
  71
0
 10
3076.76
 20
-6340.99
 30
0.000000
  1
670
  0
POINT
  5
7F7E
  8
DEFPOINTS
  6
CONTINUOUS
 62
     0
 10
3042.4710880597918
 20
-6393.7485669022408
 30
0.0
  0
POINT
  5
7F7F
  8
DEFPOINTS
  6
CONTINUOUS
 62
     0
 10
3712.4710880597931
 20
-6393.7485669022408
 30
0.0
  0
POINT
  5
7F80
  8
DEFPOINTS
  6
CONTINUOUS
 62
     0
 10
3712.4710880597931
 20
-6228.592746902239
 30
0.0
  0
ENDBLK
  5
7CD1
  8
0
  0
BLOCK
  8
0
  2
*D18
 70
     1
 10
0.0
 20
0.0
 30
0.0
  3
*D18
  1

  0
LINE
  5
7F81
  8
3
 62
     0
 10
-428.84693200000032
 20
-6333.7485669022399
 30
0.0
 11
-428.84693200000032
 21
-5951.3022871820431
 31
0.0
  0
LINE
  5
7F82
  8
3
 62
     0
 10
1531.1530679999989
 20
-7889.7485669022408
 30
0.0
 11
1531.1530680000001
 21
-5951.3022871820431
 31
0.0
  0
LINE
  5
7F83
  8
3
 62
     0
 10
-348.84693200000032
 20
-5991.3022871820431
 30
0.0
 11
1451.1530679999989
 21
-5991.3022871820431
 31
0.0
  0
INSERT
  5
7F84
  8
3
 62
     0
  2
_OPEN
 10
-428.84693200000032
 20
-5991.3022871820431
 30
0.0
 41
80.0
 42
80.0
 43
80.0
 50
180.0
  0
INSERT
  5
7F85
  8
3
 62
     0
  2
_OPEN
 10
1531.1530680000001
 20
-5991.3022871820431
 30
0.0
 41
80.0
 42
80.0
 43
80.0
  0
TEXT
  8
3
  40
120
  5
7F99
  62
0
  72
0
  71
0
 10
347.496
 20
-6103.70
 30
0.000000
  1
1960
  0
POINT
  5
7F87
  8
DEFPOINTS
 62
     0
 10
-428.84693200000032
 20
-6353.7485669022408
 30
0.0
  0
POINT
  5
7F88
  8
DEFPOINTS
 62
     0
 10
1531.1530679999989
 20
-7909.7485669022408
 30
0.0
  0
POINT
  5
7F89
  8
DEFPOINTS
 62
     0
 10
1531.1530680000001
 20
-5991.3022871820431
 30
0.0
  0
ENDBLK
  5
7E24
  8
0
  0
ENDSEC
  0
SECTION
  2
ENTITIES
  0
LINE
  5
7A78
  8
1
  6
CONTINUOUS
 10
1531.1530679999989
 20
-8125.7485669022417
 30
0.0
 11
-368.84693200000032
 21
-8125.7485669022417
 31
0.0
  0
LINE
  5
7A79
  8
1
  6
CONTINUOUS
 10
1531.1530679999989
 20
-8060.7485669022399
 30
0.0
 11
-368.84693200000032
 21
-8060.7485669022399
 31
0.0
  0
LINE
  5
7A7A
  8
1
  6
CONTINUOUS
 10
1251.5694149999999
 20
-7893.17955790224
 30
0.0
 11
131.56941499999991
 21
-7548.179557902241
 31
0.0
  0
LINE
  5
7A7B
  8
1
  6
CONTINUOUS
 10
1370.7367210000009
 20
-7506.3175759022406
 30
0.0
 11
250.7367210000011
 21
-7161.3175759022406
 31
0.0
  0
LINE
  5
7A7C
  8
1
  6
CONTINUOUS
 10
1356.0174389999991
 20
-7554.1019119022412
 30
0.0
 11
236.0174389999992
 21
-7209.1019119022421
 31
0.0
  0
LINE
  5
7A7D
  8
1
  6
CONTINUOUS
 10
1266.288697
 20
-7845.3952219022403
 30
0.0
 11
146.2886969999999
 21
-7500.3952219022394
 31
0.0
  0
LINE
  5
7A7E
  8
1
  6
CONTINUOUS
 10
1531.1530679999989
 20
-7909.7485669022408
 30
0.0
 11
-368.84693200000032
 21
-7909.7485669022408
 31
0.0
  0
LINE
  5
7A7F
  8
1
  6
CONTINUOUS
 10
1531.1530679999989
 20
-8034.7485669022408
 30
0.0
 11
-368.84693200000032
 21
-8034.7485669022408
 31
0.0
  0
ARC
  5
7A80
  8
1
  6
CONTINUOUS
 10
258.15306799999962
 20
-7287.7485669022408
 30
0.0
 40
710.0
 50
298.82976000000002
 51
354.58515799999998
  0
ARC
  5
7A81
  8
1
  6
CONTINUOUS
 10
124.15306799999961
 20
-7287.7485669022408
 30
0.0
 40
844.0
 50
355.44684799999999
 51
85.446848000000003
  0
CIRCLE
  5
7A82
  8
1
  6
CONTINUOUS
 10
191.15306799999959
 20
-7354.7485669022408
 30
0.0
 40
490.0
  0
CIRCLE
  5
7A83
  8
1
  6
CONTINUOUS
 10
191.15306799999959
 20
-7354.7485669022408
 30
0.0
 40
450.0
  0
ARC
  5
7A84
  8
1
  6
CONTINUOUS
 10
244.65306799999959
 20
-7408.2485669022408
 30
0.0
 40
589.5
 50
174.7929639999999
 51
238.29017099999999
  0
LINE
  5
7A85
  8
1
  6
CONTINUOUS
 10
-368.84693200000032
 20
-8060.7485669022399
 30
0.0
 11
-368.84693200000032
 21
-8125.7485669022417
 31
0.0
  0
LINE
  5
7A86
  8
1
  6
CONTINUOUS
 10
-368.84693200000032
 20
-7909.7485669022408
 30
0.0
 11
-368.84693200000032
 21
-8034.7485669022408
 31
0.0
  0
LINE
  5
7A87
  8
1
  6
CONTINUOUS
 10
-388.84693200000038
 20
-6397.1462159022421
 30
0.0
 11
-388.84693200000038
 21
-7318.7485669022399
 31
0.0
  0
LINE
  5
7A88
  8
1
  6
CONTINUOUS
 10
-428.84693200000032
 20
-6353.7485669022408
 30
0.0
 11
-428.84693200000032
 21
-7358.7485669022408
 31
0.0
  0
LINE
  5
7A89
  8
2
  6
CENTER
 10
3843.058034059793
 20
-7354.7485669022408
 30
0.0
 11
2616.1781130597942
 21
-7354.7485669022408
 31
0.0
  0
ARC
  5
7A8A
  8
1
  6
CONTINUOUS
 10
191.15306799999959
 20
-7354.7485669022408
 30
0.0
 40
202.40000000000001
 50
72.879299000000003
 51
252.879299
  0
CIRCLE
  5
7A8B
  8
1
  6
CONTINUOUS
 10
191.15306799999959
 20
-7354.7485669022408
 30
0.0
 40
152.40000000000001
  0
LINE
  5
7A8C
  8
1
  6
CONTINUOUS
 10
-336.47349699999899
 20
-7318.7485669022399
 30
0.0
 11
-428.84693200000032
 21
-7318.7485669022399
 31
0.0
  0
ARC
  5
7A8D
  8
1
  6
CONTINUOUS
 10
137.65306799999959
 20
-7408.2485669022408
 30
0.0
 40
482.5
 50
169.310168
 51
173.63390599999991
  0
LINE
  5
7A8E
  8
2
  6
CENTER
 10
191.15306799999959
 20
-8225.7410229022407
 30
0.0
 11
191.15306799999959
 21
-6374.6442259022397
 31
0.0
  0
LINE
  5
7A8F
  8
1
  6
CONTINUOUS
 10
191.15306799999959
 20
-6446.4121299022408
 30
0.0
 11
-428.84693200000032
 21
-6393.7485669022408
 31
0.0
  0
LINE
  5
7A90
  8
2
  6
CENTER
 10
1311.1530679999989
 20
-7857.1485669022413
 30
0.0
 11
1311.1530679999989
 21
-7542.3485669022411
 31
0.0
  0
ARC
  5
7A91
  8
1
  6
CONTINUOUS
 10
1311.1530679999989
 20
-7699.7485669022408
 30
0.0
 40
202.40000000000001
 50
252.879299
 51
72.879299000000003
  0
CIRCLE
  5
7A92
  8
1
  6
CONTINUOUS
 10
1311.1530679999989
 20
-7699.7485669022408
 30
0.0
 40
152.40000000000001
  0
ARC
  5
7A93
  8
1
  6
CONTINUOUS
 10
1311.1530679999989
 20
-7699.7485669022408
 30
0.0
 40
162.0
 50
324.972283
 51
215.02771699999991
  0
LINE
  5
7A94
  8
1
  6
CONTINUOUS
 10
1508.6530679999989
 20
-7909.7485669022408
 30
0.0
 11
1113.6530679999989
 21
-7909.7485669022408
 31
0.0
  0
LINE
  5
7A95
  8
1
  6
CONTINUOUS
 10
1113.6530679999989
 20
-7909.7485669022408
 30
0.0
 11
1123.6530679999989
 21
-7859.7485669022399
 31
0.0
  0
LINE
  5
7A96
  8
1
  6
CONTINUOUS
 10
1123.6530679999989
 20
-7859.7485669022399
 30
0.0
 11
1157.1530679999989
 21
-7859.7485669022399
 31
0.0
  0
LINE
  5
7A97
  8
1
  6
CONTINUOUS
 10
1157.1530679999989
 20
-7859.7485669022399
 30
0.0
 11
1157.1530679999989
 21
-7841.7485669022408
 31
0.0
  0
LINE
  5
7A98
  8
1
  6
CONTINUOUS
 10
1157.1530679999989
 20
-7841.7485669022408
 30
0.0
 11
1178.495402
 21
-7792.7321339022401
 31
0.0
  0
LINE
  5
7A99
  8
1
  6
CONTINUOUS
 10
1531.1530679999989
 20
-8060.7485669022399
 30
0.0
 11
1531.1530679999989
 21
-8125.7485669022417
 31
0.0
  0
LINE
  5
7A9A
  8
1
  6
CONTINUOUS
 10
1465.1530679999989
 20
-7859.7485669022399
 30
0.0
 11
1498.6530679999989
 21
-7859.7485669022399
 31
0.0
  0
LINE
  5
7A9B
  8
1
  6
CONTINUOUS
 10
1498.6530679999989
 20
-7859.7485669022399
 30
0.0
 11
1508.6530679999989
 21
-7909.7485669022408
 31
0.0
  0
LINE
  5
7A9C
  8
1
  6
CONTINUOUS
 10
1465.1530679999989
 20
-7841.7485669022408
 30
0.0
 11
1443.8107339999981
 21
-7792.7321339022401
 31
0.0
  0
LINE
  5
7A9D
  8
1
  6
CONTINUOUS
 10
1465.1530679999989
 20
-7859.7485669022399
 30
0.0
 11
1465.1530679999989
 21
-7841.7485669022408
 31
0.0
  0
LINE
  5
7A9E
  8
1
  6
CONTINUOUS
 10
1531.1530679999989
 20
-7909.7485669022408
 30
0.0
 11
1531.1530679999989
 21
-8034.7485669022408
 31
0.0
  0
LINE
  5
7A9F
  8
2
  6
CENTER
 10
1468.5530680000011
 20
-7699.7485669022408
 30
0.0
 11
1153.753068
 21
-7699.7485669022408
 31
0.0
  0
LINE
  5
7AA0
  8
1
  6
CONTINUOUS
 10
1513.5530680000011
 20
-4667.3712819022403
 30
0.0
 11
-11.24693200000001
 21
-4667.3712819022403
 31
0.0
  0
LINE
  5
7AA1
  8
1
  6
CONTINUOUS
 10
1513.5530680000011
 20
-4807.3712819022403
 30
0.0
 11
-11.24693200000001
 21
-4807.3712819022403
 31
0.0
  0
LINE
  5
7AA2
  8
1
  6
CONTINUOUS
 10
1158.7530679999991
 20
-4694.3712819022403
 30
0.0
 11
343.55306800000102
 21
-4694.3712819022403
 31
0.0
  0
LINE
  5
7AA3
  8
1
  6
CONTINUOUS
 10
968.15306799999962
 20
-3812.3712819022398
 30
0.0
 11
-428.84693200000032
 21
-3812.3712819022398
 31
0.0
  0
LINE
  5
7AA4
  8
1
  6
CONTINUOUS
 10
968.15306799999962
 20
-4482.3712819022403
 30
0.0
 11
-428.84693200000032
 21
-4482.3712819022403
 31
0.0
  0
LINE
  5
7AA5
  8
1
  6
CONTINUOUS
 10
1531.1530679999989
 20
-3744.3712819022398
 30
0.0
 11
641.15306799999962
 21
-3744.3712819022398
 31
0.0
  0
LINE
  5
7AA6
  8
1
  6
CONTINUOUS
 10
-388.84693200000038
 20
-4482.3712819022403
 30
0.0
 11
-388.84693200000038
 21
-3812.3712819022398
 31
0.0
  0
LINE
  5
7AA7
  8
1
  6
CONTINUOUS
 10
-428.84693200000032
 20
-4522.3712819022403
 30
0.0
 11
-428.84693200000032
 21
-3772.3712819022398
 31
0.0
  0
LINE
  5
7AA8
  8
1
  6
CONTINUOUS
 10
343.55306800000102
 20
-4689.8712819022412
 30
0.0
 11
38.753067999999978
 21
-4689.8712819022412
 31
0.0
  0
LINE
  5
7AA9
  8
1
  6
CONTINUOUS
 10
343.55306800000102
 20
-4764.8712819022403
 30
0.0
 11
38.753067999999978
 21
-4764.8712819022403
 31
0.0
  0
LINE
  5
7AAA
  8
1
  6
CONTINUOUS
 10
-11.24693200000001
 20
-4807.3712819022403
 30
0.0
 11
-11.24693200000001
 21
-4667.3712819022403
 31
0.0
  0
LINE
  5
7AAB
  8
1
  6
CONTINUOUS
 10
38.753067999999978
 20
-4689.8712819022412
 30
0.0
 11
38.753067999999978
 21
-4764.8712819022403
 31
0.0
  0
LINE
  5
7AAC
  8
1
  6
CONTINUOUS
 10
38.753067999999978
 20
-4694.3712819022403
 30
0.0
 11
-368.84693200000032
 21
-4694.3712819022403
 31
0.0
  0
LINE
  5
7AAD
  8
1
  6
CONTINUOUS
 10
-368.84693200000032
 20
-4482.3712819022403
 30
0.0
 11
-368.84693200000032
 21
-4694.3712819022403
 31
0.0
  0
LINE
  5
7AAE
  8
1
  6
CONTINUOUS
 10
343.55306800000102
 20
-4689.8712819022412
 30
0.0
 11
343.55306800000102
 21
-4764.8712819022403
 31
0.0
  0
LINE
  5
7AAF
  8
1
  6
CONTINUOUS
 10
221.15306799999959
 20
-4482.3712819022403
 30
0.0
 11
221.15306799999959
 21
-4689.8712819022412
 31
0.0
  0
LINE
  5
7AB0
  8
1
  6
CONTINUOUS
 10
161.15306799999959
 20
-4482.3712819022403
 30
0.0
 11
161.15306799999959
 21
-4689.8712819022412
 31
0.0
  0
LINE
  5
7AB1
  8
1
  6
CONTINUOUS
 10
681.15306799999962
 20
-3729.3712819022398
 30
0.0
 11
-298.84693200000032
 21
-3729.3712819022398
 31
0.0
  0
LINE
  5
7AB2
  8
1
  6
CONTINUOUS
 10
-258.84693200000032
 20
-3744.3712819022398
 30
0.0
 11
-368.84693200000032
 21
-3744.3712819022398
 31
0.0
  0
LINE
  5
7AB3
  8
1
  6
CONTINUOUS
 10
-258.84693200000032
 20
-3729.3712819022398
 30
0.0
 11
-258.84693200000032
 21
-3812.3712819022398
 31
0.0
  0
LINE
  5
7AB4
  8
1
  6
CONTINUOUS
 10
-368.84693200000032
 20
-3744.3712819022398
 30
0.0
 11
-368.84693200000032
 21
-3812.3712819022398
 31
0.0
  0
LINE
  5
7AB5
  8
1
  6
CONTINUOUS
 10
641.15306799999962
 20
-3729.3712819022398
 30
0.0
 11
641.15306799999962
 21
-3812.3712819022398
 31
0.0
  0
LINE
  5
7AB6
  8
1
  6
CONTINUOUS
 10
1473.1530679999989
 20
-4654.8712819022412
 30
0.0
 11
1473.1530679999989
 21
-4161.8712819022403
 31
0.0
  0
LINE
  5
7AB7
  8
1
  6
CONTINUOUS
 10
1149.1530679999989
 20
-4654.8712819022412
 30
0.0
 11
1149.1530679999989
 21
-4161.8712819022403
 31
0.0
  0
LINE
  5
7AB8
  8
1
  6
CONTINUOUS
 10
968.15306799999962
 20
-3812.3712819022398
 30
0.0
 11
968.15306799999962
 21
-4482.3712819022403
 31
0.0
  0
LINE
  5
7AB9
  8
1
  6
CONTINUOUS
 10
1531.1530679999989
 20
-3744.3712819022398
 30
0.0
 11
1531.1530679999989
 21
-4694.3712819022403
 31
0.0
  0
LINE
  5
7ABA
  8
1
  6
CONTINUOUS
 10
1158.7530679999991
 20
-4689.8712819022412
 30
0.0
 11
1463.5530680000011
 21
-4689.8712819022412
 31
0.0
  0
LINE
  5
7ABB
  8
1
  6
CONTINUOUS
 10
1473.1530679999989
 20
-4654.8712819022412
 30
0.0
 11
1149.1530679999989
 21
-4654.8712819022412
 31
0.0
  0
LINE
  5
7ABC
  8
1
  6
CONTINUOUS
 10
1158.7530679999991
 20
-4764.8712819022403
 30
0.0
 11
1463.5530680000011
 21
-4764.8712819022403
 31
0.0
  0
LINE
  5
7ABD
  8
1
  6
CONTINUOUS
 10
1158.7530679999991
 20
-4689.8712819022412
 30
0.0
 11
1158.7530679999991
 21
-4764.8712819022403
 31
0.0
  0
LINE
  5
7ABE
  8
1
  6
CONTINUOUS
 10
1332.1530679999989
 20
-4689.8712819022412
 30
0.0
 11
1332.1530679999989
 21
-4654.8712819022412
 31
0.0
  0
LINE
  5
7ABF
  8
1
  6
CONTINUOUS
 10
1290.1530679999989
 20
-4689.8712819022412
 30
0.0
 11
1290.1530679999989
 21
-4654.8712819022412
 31
0.0
  0
LINE
  5
7AC0
  8
1
  6
CONTINUOUS
 10
1513.5530680000011
 20
-4807.3712819022403
 30
0.0
 11
1513.5530680000011
 21
-4667.3712819022403
 31
0.0
  0
LINE
  5
7AC1
  8
1
  6
CONTINUOUS
 10
1463.5530680000011
 20
-4689.8712819022412
 30
0.0
 11
1463.5530680000011
 21
-4764.8712819022403
 31
0.0
  0
LINE
  5
7AC2
  8
1
  6
CONTINUOUS
 10
1531.1530679999989
 20
-4694.3712819022403
 30
0.0
 11
1463.5530680000011
 21
-4694.3712819022403
 31
0.0
  0
LINE
  5
7AC3
  8
1
  6
CONTINUOUS
 10
1473.1530679999989
 20
-4161.8712819022403
 30
0.0
 11
1149.1530679999989
 21
-4161.8712819022403
 31
0.0
  0
LINE
  5
7AC4
  8
1
  6
CONTINUOUS
 10
3712.4710880597931
 20
-6393.7485669022408
 30
0.0
 11
3712.4710880597931
 21
-7909.7485669022408
 31
0.0
  0
LINE
  5
7AC5
  8
1
  6
CONTINUOUS
 10
3042.4710880597918
 20
-6393.7485669022408
 30
0.0
 11
3042.4710880597918
 21
-7909.7485669022408
 31
0.0
  0
LINE
  5
7AC6
  8
1
  6
CONTINUOUS
 10
2869.9710880597918
 20
-7537.7485669022408
 30
0.0
 11
2869.9710880597918
 21
-7909.7485669022408
 31
0.0
  0
LINE
  5
7AC7
  8
1
  6
CONTINUOUS
 10
2759.9710880597918
 20
-7547.3485669022411
 30
0.0
 11
2759.9710880597918
 21
-7852.1485669022413
 31
0.0
  0
LINE
  5
7AC8
  8
1
  6
CONTINUOUS
 10
2717.4710880597918
 20
-7152.3485669022402
 30
0.0
 11
2717.4710880597918
 21
-7902.1485669022413
 31
0.0
  0
LINE
  5
7AC9
  8
1
  6
CONTINUOUS
 10
2857.4710880597918
 20
-7152.3485669022402
 30
0.0
 11
2857.4710880597918
 21
-7902.1485669022413
 31
0.0
  0
LINE
  5
7ACA
  8
1
  6
CONTINUOUS
 10
2834.9710880597918
 20
-7547.3485669022411
 30
0.0
 11
2834.9710880597918
 21
-7852.1485669022413
 31
0.0
  0
LINE
  5
7ACB
  8
1
  6
CONTINUOUS
 10
3795.4710880597931
 20
-6864.7485669022417
 30
0.0
 11
3795.4710880597931
 21
-7844.7485669022408
 31
0.0
  0
LINE
  5
7ACC
  8
1
  6
CONTINUOUS
 10
2830.4710880597918
 20
-8125.7485669022417
 30
0.0
 11
3780.4710880597931
 21
-8125.7485669022417
 31
0.0
  0
LINE
  5
7ACD
  8
1
  6
CONTINUOUS
 10
2830.4710880597918
 20
-8060.7485669022399
 30
0.0
 11
3780.4710880597931
 21
-8060.7485669022399
 31
0.0
  0
LINE
  5
7ACE
  8
1
  6
CONTINUOUS
 10
2830.4710880597918
 20
-8034.7485669022408
 30
0.0
 11
3780.4710880597931
 21
-8034.7485669022408
 31
0.0
  0
LINE
  5
7ACF
  8
1
  6
CONTINUOUS
 10
2830.4710880597918
 20
-7909.7485669022408
 30
0.0
 11
3780.4710880597931
 21
-7909.7485669022408
 31
0.0
  0
LINE
  5
7AD0
  8
1
  6
CONTINUOUS
 10
2830.4710880597918
 20
-8060.7485669022399
 30
0.0
 11
2830.4710880597918
 21
-8125.7485669022417
 31
0.0
  0
LINE
  5
7AD1
  8
1
  6
CONTINUOUS
 10
2830.4710880597918
 20
-7909.7485669022408
 30
0.0
 11
2830.4710880597918
 21
-8034.7485669022408
 31
0.0
  0
LINE
  5
7AD2
  8
1
  6
CONTINUOUS
 10
2869.9710880597918
 20
-7859.7485669022399
 30
0.0
 11
3042.4710880597918
 21
-7859.7485669022399
 31
0.0
  0
LINE
  5
7AD3
  8
1
  6
CONTINUOUS
 10
2759.9710880597918
 20
-7852.1485669022413
 30
0.0
 11
2834.9710880597918
 21
-7852.1485669022413
 31
0.0
  0
LINE
  5
7AD4
  8
1
  6
CONTINUOUS
 10
2717.4710880597918
 20
-7902.1485669022413
 30
0.0
 11
2857.4710880597918
 21
-7902.1485669022413
 31
0.0
  0
LINE
  5
7AD5
  8
1
  6
CONTINUOUS
 10
3780.4710880597931
 20
-8060.7485669022399
 30
0.0
 11
3780.4710880597931
 21
-8125.7485669022417
 31
0.0
  0
LINE
  5
7AD6
  8
1
  6
CONTINUOUS
 10
3780.4710880597931
 20
-7909.7485669022408
 30
0.0
 11
3780.4710880597931
 21
-8034.7485669022408
 31
0.0
  0
LINE
  5
7AD7
  8
1
  6
CONTINUOUS
 10
3712.4710880597931
 20
-7804.7485669022399
 30
0.0
 11
3795.4710880597931
 21
-7804.7485669022399
 31
0.0
  0
LINE
  5
7AD8
  8
1
  6
CONTINUOUS
 10
3042.4710880597918
 20
-6393.7485669022408
 30
0.0
 11
3712.4710880597931
 21
-7318.7485669022399
 31
0.0
  0
LINE
  5
7AD9
  8
1
  6
CONTINUOUS
 10
3712.4710880597931
 20
-6393.7485669022408
 30
0.0
 11
3042.4710880597918
 21
-7318.7485669022399
 31
0.0
  0
LINE
  5
7ADA
  8
1
  6
CONTINUOUS
 10
3042.4710880597918
 20
-7318.7485669022399
 30
0.0
 11
3712.4710880597931
 21
-7318.7485669022399
 31
0.0
  0
LINE
  5
7ADB
  8
1
  6
CONTINUOUS
 10
2759.9710880597918
 20
-7202.3485669022411
 30
0.0
 11
2759.9710880597918
 21
-7507.1485669022413
 31
0.0
  0
LINE
  5
7ADC
  8
1
  6
CONTINUOUS
 10
2869.9710880597918
 20
-7537.7485669022408
 30
0.0
 11
3042.4710880597918
 21
-7537.7485669022408
 31
0.0
  0
LINE
  5
7ADD
  8
1
  6
CONTINUOUS
 10
2834.9710880597918
 20
-7324.7485669022408
 30
0.0
 11
3042.4710880597918
 21
-7324.7485669022408
 31
0.0
  0
LINE
  5
7ADE
  8
1
  6
CONTINUOUS
 10
2834.9710880597918
 20
-7384.7485669022399
 30
0.0
 11
3042.4710880597918
 21
-7384.7485669022399
 31
0.0
  0
LINE
  5
7ADF
  8
1
  6
CONTINUOUS
 10
2834.9710880597918
 20
-7678.7485669022417
 30
0.0
 11
2869.9710880597918
 21
-7678.7485669022417
 31
0.0
  0
LINE
  5
7AE0
  8
1
  6
CONTINUOUS
 10
2834.9710880597918
 20
-7720.7485669022408
 30
0.0
 11
2869.9710880597918
 21
-7720.7485669022408
 31
0.0
  0
LINE
  5
7AE1
  8
1
  6
CONTINUOUS
 10
2759.9710880597918
 20
-7202.3485669022411
 30
0.0
 11
2834.9710880597918
 21
-7202.3485669022411
 31
0.0
  0
LINE
  5
7AE2
  8
1
  6
CONTINUOUS
 10
2759.9710880597918
 20
-7507.1485669022413
 30
0.0
 11
2834.9710880597918
 21
-7507.1485669022413
 31
0.0
  0
LINE
  5
7AE3
  8
1
  6
CONTINUOUS
 10
2759.9710880597918
 20
-7547.3485669022411
 30
0.0
 11
2834.9710880597918
 21
-7547.3485669022411
 31
0.0
  0
LINE
  5
7AE4
  8
1
  6
CONTINUOUS
 10
2717.4710880597918
 20
-7152.3485669022402
 30
0.0
 11
2857.4710880597918
 21
-7152.3485669022402
 31
0.0
  0
LINE
  5
7AE5
  8
1
  6
CONTINUOUS
 10
2834.9710880597918
 20
-7202.3485669022411
 30
0.0
 11
2834.9710880597918
 21
-7507.1485669022413
 31
0.0
  0
LINE
  5
7AE6
  8
1
  6
CONTINUOUS
 10
3042.4710880597918
 20
-6393.7485669022408
 30
0.0
 11
3712.4710880597931
 21
-6393.7485669022408
 31
0.0
  0
LINE
  5
7AE7
  8
1
  6
CONTINUOUS
 10
3712.4710880597931
 20
-6904.7485669022408
 30
0.0
 11
3795.4710880597931
 21
-6904.7485669022408
 31
0.0
  0
DIMENSION
  5
7AFD
  8
3
  6
CONTINUOUS
  2
*D1
 10
191.15306799999959
 20
-8409.0290769255735
 30
0.0
 11
-94.561217714286158
 21
-8409.0290769255735
 31
0.0
 70
   128
 13
-368.84693200000032
 23
-8125.7485669022417
 33
0.0
 14
191.15306799999959
 24
-8225.7410229022407
 34
0.0
1001
ACAD
1000
DSTYLE
1002
{
1070
   287
1070
     3
1070
   287
1070
     3
1070
    40
1040
40.0
1070
   143
1040
0.039
1070
   172
1070
     1
1070
   271
1070
     0
1070
   279
1070
     0
1070
   288
1070
     1
1002
}
  0
DIMENSION
  5
7B09
  8
3
  6
CONTINUOUS
  2
*D2
 10
1531.1530679999989
 20
-8406.1787064761429
 30
0.0
 11
861.15306799999951
 21
-8306.1787064761429
 31
0.0
 70
     0
 13
191.15306799999959
 23
-8225.7410229022407
 33
0.0
 14
1531.1530679999989
 24
-8125.7485669022417
 34
0.0
1001
ACAD
1000
DSTYLE
1002
{
1070
   287
1070
     3
1070
   287
1070
     3
1070
    40
1040
40.0
1070
   143
1040
0.039
1070
   172
1070
     1
1070
   271
1070
     0
1070
   279
1070
     0
1070
   288
1070
     1
1002
}
  0
DIMENSION
  5
7B16
  8
3
  6
CONTINUOUS
  2
*D3
 10
-684.90172800000175
 20
-7318.7485669022399
 30
0.0
 11
-684.90172800000073
 21
-6806.6364729022407
 31
0.0
 70
   128
 13
-428.84693200000032
 23
-6393.7485669022408
 33
0.0
 14
-428.84693200000032
 24
-7318.7485669022399
 34
0.0
 50
90.0
1001
ACAD
1000
DSTYLE
1002
{
1070
   287
1070
     3
1070
   287
1070
     3
1070
    40
1040
40.0
1070
   143
1040
0.039
1070
   172
1070
     1
1070
   271
1070
     0
1070
   279
1070
     0
1070
   288
1070
     1
1002
}
  0
DIMENSION
  5
7B23
  8
3
  6
CONTINUOUS
  2
*D4
 10
-981.63750500000174
 20
-7354.7485669022408
 30
0.0
 11
-981.6375050000006
 21
-6828.5931349022412
 31
0.0
 70
   128
 13
-428.84693200000032
 23
-6393.7485669022408
 33
0.0
 14
-341.8716960000001
 24
-7354.7485669022408
 34
0.0
 50
90.0
1001
ACAD
1000
DSTYLE
1002
{
1070
   287
1070
     3
1070
   287
1070
     3
1070
    40
1040
40.0
1070
   143
1040
0.039
1070
   172
1070
     1
1070
   271
1070
     0
1070
   279
1070
     0
1070
   288
1070
     1
1002
}
  0
DIMENSION
  5
7B2F
  8
3
  6
CONTINUOUS
  2
*D5
 10
-981.6375050000006
 20
-8034.7485669022408
 30
0.0
 11
-1081.637504999999
 21
-7694.7485669022408
 31
0.0
 70
     0
 13
-341.8716960000001
 23
-7354.7485669022408
 33
0.0
 14
-368.84693200000032
 24
-8034.7485669022408
 34
0.0
 50
90.0
1001
ACAD
1000
DSTYLE
1002
{
1070
   287
1070
     3
1070
   287
1070
     3
1070
    40
1040
40.0
1070
   143
1040
0.039
1070
   172
1070
     1
1070
   271
1070
     0
1070
   279
1070
     0
1070
   288
1070
     1
1002
}
  0
DIMENSION
  5
7B3F
  8
3
  6
CONTINUOUS
  2
*D6
 10
-982.18617700000084
 20
-8125.7485669022417
 30
0.0
 11
-982.18617699999959
 21
-8397.1771383308096
 31
0.0
 70
   128
 13
-368.84693200000032
 23
-8034.7485669022408
 33
0.0
 14
-368.84693200000032
 24
-8125.7485669022417
 34
0.0
 50
90.0
1001
ACAD
1000
DSTYLE
1002
{
1070
   287
1070
     3
1070
   287
1070
     3
1070
    40
1040
40.0
1070
   143
1040
0.039
1070
   172
1070
     1
1070
   271
1070
     0
1070
   279
1070
     0
1070
   288
1070
     1
1002
}
  0
DIMENSION
  5
7B4C
  8
3
  6
CONTINUOUS
  2
*D7
 10
-1251.4463750000009
 20
-8125.7485669022417
 30
0.0
 11
-1251.4463749999991
 21
-7273.2161449022406
 31
0.0
 70
   128
 13
-428.84693200000032
 23
-6353.7485669022408
 33
0.0
 14
-368.84693200000032
 24
-8125.7485669022417
 34
0.0
 50
90.0
1001
ACAD
1000
DSTYLE
1002
{
1070
   287
1070
     3
1070
   287
1070
     3
1070
    40
1040
40.0
1070
   143
1040
0.039
1070
   172
1070
     1
1070
   271
1070
     0
1070
   279
1070
     0
1070
   288
1070
     1
1002
}
  0
DIMENSION
  5
7B73
  8
3
  6
CONTINUOUS
  2
*D8
 10
191.15306799999959
 20
-6218.7488659022401
 30
0.0
 11
-83.132646285714713
 21
-6218.7488659022401
 31
0.0
 70
   128
 13
-428.84693200000032
 23
-6353.7485669022408
 33
0.0
 14
191.15306799999959
 24
-6446.4121299022408
 34
0.0
1001
ACAD
1000
DSTYLE
1002
{
1070
   287
1070
     3
1070
   287
1070
     3
1070
    40
1040
40.0
1070
   143
1040
0.039
1070
   172
1070
     1
1070
   271
1070
     0
1070
   279
1070
     0
1070
   288
1070
     1
1002
}
  0
DIMENSION
  5
7B7F
  8
3
  6
CONTINUOUS
  2
*D9
 10
968.15306799999985
 20
-6218.7488659022401
 30
0.0
 11
579.65306799999962
 21
-6118.7488659022401
 31
0.0
 70
     0
 13
191.15306799999959
 23
-6446.4121299022408
 33
0.0
 14
968.15306799999962
 24
-7354.7485669022408
 34
0.0
1001
ACAD
1000
DSTYLE
1002
{
1070
   287
1070
     3
1070
   287
1070
     3
1070
    40
1040
40.0
1070
   143
1040
0.039
1070
   172
1070
     1
1070
   271
1070
     0
1070
   279
1070
     0
1070
   288
1070
     1
1002
}
  0
DIMENSION
  5
7B8C
  8
3
  6
CONTINUOUS
  2
*D10
 10
1531.1530679999989
 20
-5143.9772209022403
 30
0.0
 11
567.43399299999874
 21
-5143.9772209022403
 31
0.0
 70
   128
 13
-368.84693200000032
 23
-4694.3712819022403
 33
0.0
 14
1531.1530679999989
 24
-4694.3712819022403
 34
0.0
1001
ACAD
1000
DSTYLE
1002
{
1070
   287
1070
     3
1070
   287
1070
     3
1070
    40
1040
40.0
1070
   143
1040
0.039
1070
   172
1070
     1
1070
   271
1070
     0
1070
   279
1070
     0
1070
   288
1070
     1
1002
}
  0
DIMENSION
  5
7B99
  8
3
  6
CONTINUOUS
  2
*D11
 10
1941.2106940000001
 20
-4694.3712819022403
 30
0.0
 11
1941.210694000001
 21
-4171.3013889022404
 31
0.0
 70
   128
 13
1531.1530679999989
 23
-3744.3712819022398
 33
0.0
 14
1531.1530679999989
 24
-4694.3712819022403
 34
0.0
 50
90.0
1001
ACAD
1000
DSTYLE
1002
{
1070
   287
1070
     3
1070
   287
1070
     3
1070
    40
1040
40.0
1070
   143
1040
0.039
1070
   172
1070
     1
1070
   271
1070
     0
1070
   279
1070
     0
1070
   288
1070
     1
1002
}
  0
LINE
  5
7B9A
  8
2
  6
CENTER
 10
1127.5111479999989
 20
-4147.3712819022403
 30
0.0
 11
-597.52873299999919
 21
-4147.3712819022403
 31
0.0
  0
LINE
  5
7B9B
  8
2
  6
CENTER
 10
191.15306799999959
 20
-4887.0783299022414
 30
0.0
 11
191.15306799999959
 21
-3626.10959990224
 31
0.0
  0
LINE
  5
7B9C
  8
2
  6
CENTER
 10
3377.4710880597918
 20
-6206.2444609022396
 30
0.0
 11
3377.4710880597918
 21
-8261.7995449022401
 31
0.0
  0
DIMENSION
  5
7BA9
  8
3
  6
CONTINUOUS
  2
*D12
 10
4113.0418800597918
 20
-7804.7485669022399
 30
0.0
 11
4113.0418800597927
 21
-7339.6183959022419
 31
0.0
 70
   128
 13
3795.4710880597931
 23
-6904.7485669022408
 33
0.0
 14
3795.4710880597931
 24
-7804.7485669022399
 34
0.0
 50
90.0
1001
ACAD
1000
DSTYLE
1002
{
1070
   287
1070
     3
1070
   287
1070
     3
1070
     3
1000
φ<>
1070
    40
1040
40.0
1070
   143
1040
0.039
1070
   172
1070
     1
1070
   271
1070
     0
1070
   279
1070
     0
1070
   288
1070
     1
1002
}
  0
DIMENSION
  5
7BB8
  8
3
  6
CONTINUOUS
  2
*D13
 10
3377.4710880597918
 20
-8416.5885739022415
 30
0.0
 11
3103.9710880597918
 21
-8331.6411510777452
 31
0.0
 70
   128
 13
2830.4710880597918
 23
-8125.7485669022417
 33
0.0
 14
3377.4710880597918
 24
-8261.7995449022401
 34
0.0
1001
ACAD
1000
DSTYLE
1002
{
1070
   288
1070
     1
1070
   172
1070
     1
1070
    40
1040
40.0
1070
   271
1070
     0
1070
   143
1040
0.039
1002
}
  0
DIMENSION
  5
7BC6
  8
3
  6
CONTINUOUS
  2
*D14
 10
3780.4710880597931
 20
-8416.5885739022415
 30
0.0
 11
3578.9710880597931
 21
-8320.8947112413225
 31
0.0
 70
   128
 13
3377.4710880597918
 23
-8261.7995449022401
 33
0.0
 14
3780.4710880597931
 24
-8125.7485669022417
 34
0.0
1001
ACAD
1000
DSTYLE
1002
{
1070
   288
1070
     1
1070
   172
1070
     1
1070
    40
1040
40.0
1070
   271
1070
     0
1070
   143
1040
0.039
1002
}
  0
DIMENSION
  5
7C12
  8
3
  6
CONTINUOUS
  2
*D15
 10
3377.4710880597918
 20
-5942.3620251631328
 30
0.0
 11
3086.0425166312202
 21
-5942.3620251631328
 31
0.0
 70
   128
  1
MAX\P720
 13
2717.4710880597918
 23
-7152.3485669022402
 33
0.0
 14
3377.4710880597918
 24
-6019.2104381631316
 34
0.0
1001
ACAD
1000
DSTYLE
1002
{
1070
   287
1070
     3
1070
   287
1070
     3
1070
    40
1040
40.0
1070
   143
1040
0.039
1070
   172
1070
     1
1070
   271
1070
     0
1070
   279
1070
     0
1070
   288
1070
     1
1002
}
  0
DIMENSION
  5
7C20
  8
3
  6
CONTINUOUS
  2
*D16
 10
3795.4710880597931
 20
-5936.8728301631309
 30
0.0
 11
3586.4710880597918
 21
-5849.351297620371
 31
0.0
 70
   128
 13
3377.4710880597918
 23
-6019.2104381631316
 33
0.0
 14
3795.4710880597931
 24
-6864.7485669022417
 34
0.0
1001
ACAD
1000
DSTYLE
1002
{
1070
   288
1070
     1
1070
   172
1070
     1
1070
    40
1040
40.0
1070
   271
1070
     0
1070
   143
1040
0.039
1002
}
  0
DIMENSION
  5
7C2D
  8
3
  6
CONTINUOUS
  2
*D17
 10
3712.4710880597931
 20
-6228.592746902239
 30
0.0
 11
3316.7568023455069
 21
-6228.592746902239
 31
0.0
 70
   128
 13
3042.4710880597918
 23
-6393.7485669022408
 33
0.0
 14
3712.4710880597931
 24
-6393.7485669022408
 34
0.0
1001
ACAD
1000
DSTYLE
1002
{
1070
   287
1070
     3
1070
   287
1070
     3
1070
    40
1040
40.0
1070
   143
1040
0.039
1070
   172
1070
     1
1070
   271
1070
     0
1070
   279
1070
     0
1070
   288
1070
     1
1002
}
  0
LINE
  5
7C45
  8
2
  6
CENTER
 10
1109.795632999999
 20
-7354.7485669022408
 30
0.0
 11
-433.3309809999991
 21
-7354.7485669022408
 31
0.0
  0
LINE
  5
7C46
  8
4
  6
CONTINUOUS
 10
4421.5988183999989
 20
-9642.77592
 30
0.0
 11
4421.5988183999989
 21
-10442.77592
 31
0.0
  0
LINE
  5
7C47
  8
4
  6
CONTINUOUS
 10
1621.5988184
 20
-9642.77592
 30
0.0
 11
1621.5988184
 21
-10442.77592
 31
0.0
  0
LINE
  5
7C48
  8
4
  6
CONTINUOUS
 10
-378.40118159999992
 20
-9642.77592
 30
0.0
 11
-378.40118159999992
 21
-10442.77592
 31
0.0
  0
LINE
  5
7C4B
  8
4
  6
CONTINUOUS
 10
-378.40118159999992
 20
-10442.77592
 30
0.0
 11
4421.5988183999989
 21
-10442.77592
 31
0.0
  0
LINE
  5
7C4C
  8
4
  6
CONTINUOUS
 10
-378.40118159999992
 20
-10042.775919999989
 30
0.0
 11
4421.5988183999989
 21
-10042.775919999989
 31
0.0
  0
TEXT
  5
7C4D
  8
4
  6
CONTINUOUS
 10
-224.39285760000001
 20
-9916.6038168000014
 30
0.0
 40
200.0
  1
機器名称
  0
TEXT
  5
7C4E
  8
4
  6
CONTINUOUS
 10
-233.36875760000001
 20
-10356.1952936
 30
0.0
 40
200.0
  1
機器型番
  0
TEXT
  5
7C4F
  8
4
  6
CONTINUOUS
 10
1732.3138008000001
 20
-9952.4888448000002
 30
0.0
 40
168.88888879999999
  1
ミツヤリミットロードファン
  0
TEXT
  5
7C50
  8
4
  6
CONTINUOUS
 10
1768.2168008000001
 20
-10374.137583199999
 30
0.0
 40
200.0
  1
LLE#5 1/2-4
  0
TEXT
  5
7C52
  8
4
  6
CONTINUOUS
 10
80.340315200000006
 20
-2109.0605544
 30
0.0
 40
216.0
  1
床置防振ベット
  0
TEXT
  5
7C53
  8
4
  6
CONTINUOUS
 10
-1713.730808
 20
-1507.2520159999999
 30
0.0
 40
240.0
  1
ベルト駆動式片吸込両持排煙ファン
  0
LINE
  5
7C54
  8
4
  6
CONTINUOUS
 10
-1978.4011815999991
 20
-1765.1409031999999
 30
0.0
 11
4421.5988183999989
 21
-1765.1409031999999
 31
0.0
  0
LINE
  5
7C55
  8
4
  6
CONTINUOUS
 10
-1978.4011815999991
 20
-965.14090320000003
 30
0.0
 11
4421.5988183999989
 21
-965.14090320000003
 31
0.0
  0
LINE
  5
7C56
  8
4
  6
CONTINUOUS
 10
-378.40118159999992
 20
-9642.77592
 30
0.0
 11
4421.5988183999989
 21
-9642.77592
 31
0.0
  0
LINE
  5
7C57
  8
4
  6
CONTINUOUS
 10
-1978.4011815999991
 20
-965.14090320000003
 30
0.0
 11
-1978.4011815999991
 21
-1765.1409031999999
 31
0.0
  0
TEXT
  5
7C58
  8
4
  6
CONTINUOUS
 10
-1663.0950135999999
 20
-2113.4980095999999
 30
0.0
 40
216.0
  1
左回転左横向
  0
TEXT
  5
7C59
  8
4
  6
CONTINUOUS
 10
2897.4770560000002
 20
-818.53159440000002
 30
0.0
 40
224.0
  1
No.
  0
TEXT
  5
7C5A
  8
4
  6
CONTINUOUS
 10
2266.7830696000001
 20
-2109.0605544
 30
0.0
 40
216.0
  1
縮尺：1/40
  0
LINE
  5
7C5B
  8
4
  6
CONTINUOUS
 10
4421.5988183999989
 20
-965.14090320000003
 30
0.0
 11
4421.5988183999989
 21
-1765.1409031999999
 31
0.0
  0
LINE
  5
7C5D
  8
4
  6
CONTINUOUS
 10
2784.0685088
 20
-917.72158720000004
 30
0.0
 11
2784.0685088
 21
-496.16687359999997
 31
0.0
  0
LINE
  5
7C5E
  8
4
  6
CONTINUOUS
 10
2784.0685088
 20
-496.16687359999997
 30
0.0
 11
4421.5988183999989
 21
-496.16687359999997
 31
0.0
  0
LINE
  5
7C5F
  8
4
  6
CONTINUOUS
 10
4421.5988183999989
 20
-496.16687359999997
 30
0.0
 11
4421.5988183999989
 21
-917.72158720000004
 31
0.0
  0
LINE
  5
7C60
  8
4
  6
CONTINUOUS
 10
4421.5988183999989
 20
-917.72158720000004
 30
0.0
 11
2784.0685088
 21
-917.72158720000004
 31
0.0
  0
DIMENSION
  5
7E25
  8
3
  2
*D18
 10
1531.1530680000001
 20
-5991.3022871820431
 30
0.0
 11
587.49562759949185
 21
-5991.3022871820431
 31
0.0
 70
   128
 13
-428.84693200000032
 23
-6353.7485669022408
 33
0.0
 14
1531.1530679999989
 24
-7909.7485669022408
 34
0.0
1001
ACAD
1000
DSTYLE
1002
{
1070
   287
1070
     3
1070
   287
1070
     3
1070
    40
1040
40.0
1070
   143
1040
0.039
1070
   172
1070
     1
1070
   271
1070
     0
1070
   279
1070
     0
1070
   288
1070
     1
1002
}
  0
ENDSEC
  0
EOF
