  0
SECTION
  2
HEADER
  9
$ACADVER
  1
AC1009
  9
$INSBASE
 10
0.0
 20
0.0
 30
0.0
  9
$EXTMIN
 10
1000.0
 20
1200.0
 30
0.0
  9
$EXTMAX
 10
7400.0
 20
11146.609046400001
 30
0.0
  9
$LIMMIN
 10
0.0
 20
0.0
  9
$LIMMAX
 10
297.0
 20
210.0
  9
$ORTHOMODE
 70
     0
  9
$REGENMODE
 70
     1
  9
$FILLMODE
 70
     0
  9
$QTEXTMODE
 70
     0
  9
$MIRRTEXT
 70
     1
  9
$DRAGMODE
 70
     2
  9
$LTSCALE
 40
100.0
  9
$OSMODE
 70
    37
  9
$ATTMODE
 70
     1
  9
$TEXTSIZE
 40
180.0
  9
$TRACEWID
 40
0.05
  9
$TEXTSTYLE
  7
STANDARD
  9
$CLAYER
  8
3
  9
$CELTYPE
  6
BYLAYER
  9
$CECOLOR
 62
   256
  9
$DIMSCALE
 40
40.0
  9
$DIMASZ
 40
2.0
  9
$DIMEXO
 40
0.5
  9
$DIMDLI
 40
10.0
  9
$DIMRND
 40
0.0
  9
$DIMDLE
 40
0.0
  9
$DIMEXE
 40
1.0
  9
$DIMTP
 40
1.0
  9
$DIMTM
 40
1.0
  9
$DIMTXT
 40
3.0
  9
$DIMCEN
 40
0.0
  9
$DIMTSZ
 40
0.0
  9
$DIMTOL
 70
     0
  9
$DIMLIM
 70
     0
  9
$DIMTIH
 70
     0
  9
$DIMTOH
 70
     0
  9
$DIMSE1
 70
     0
  9
$DIMSE2
 70
     0
  9
$DIMTAD
 70
     1
  9
$DIMZIN
 70
     8
  9
$DIMBLK
  1

  9
$DIMASO
 70
     1
  9
$DIMSHO
 70
     1
  9
$DIMPOST
  1

  9
$DIMAPOST
  1

  9
$DIMALT
 70
     0
  9
$DIMALTD
 70
     2
  9
$DIMALTF
 40
0.039
  9
$DIMLFAC
 40
1.0
  9
$DIMTOFL
 70
     1
  9
$DIMTVP
 40
0.0
  9
$DIMTIX
 70
     0
  9
$DIMSOXD
 70
     0
  9
$DIMSAH
 70
     1
  9
$DIMBLK1
  1
OPEN
  9
$DIMBLK2
  1
OPEN
  9
$DIMSTYLE
  2
IGA
  9
$DIMCLRD
 70
     0
  9
$DIMCLRE
 70
     0
  9
$DIMCLRT
 70
     0
  9
$DIMTFAC
 40
10.0
  9
$DIMGAP
 40
1.0
  9
$LUNITS
 70
     2
  9
$LUPREC
 70
     3
  9
$SKETCHINC
 40
0.1
  9
$FILLETRAD
 40
50.0
  9
$AUNITS
 70
     0
  9
$AUPREC
 70
     0
  9
$MENU
  1
acad
  9
$ELEVATION
 40
0.0
  9
$PELEVATION
 40
0.0
  9
$THICKNESS
 40
0.0
  9
$LIMCHECK
 70
     0
  9
$BLIPMODE
 70
     0
  9
$CHAMFERA
 40
0.5
  9
$CHAMFERB
 40
0.5
  9
$SKPOLY
 70
     0
  9
$TDCREATE
 40
2450752.3631076389
  9
$TDUPDATE
 40
2454953.6858168752
  9
$TDINDWG
 40
0.0066359491
  9
$TDUSRTIMER
 40
0.0066359491
  9
$USRTIMER
 70
     1
  9
$ANGBASE
 50
0.0
  9
$ANGDIR
 70
     0
  9
$PDMODE
 70
     0
  9
$PDSIZE
 40
0.0
  9
$PLINEWID
 40
0.0
  9
$COORDS
 70
     1
  9
$SPLFRAME
 70
     0
  9
$SPLINETYPE
 70
     6
  9
$SPLINESEGS
 70
     8
  9
$ATTDIA
 70
     0
  9
$ATTREQ
 70
     1
  9
$HANDLING
 70
 10241
  9
$HANDSEED
  5
7F51
  9
$SURFTAB1
 70
     6
  9
$SURFTAB2
 70
     6
  9
$SURFTYPE
 70
     6
  9
$SURFU
 70
     6
  9
$SURFV
 70
     6
  9
$UCSNAME
  2

  9
$UCSORG
 10
0.0
 20
0.0
 30
0.0
  9
$UCSXDIR
 10
1.0
 20
0.0
 30
0.0
  9
$UCSYDIR
 10
0.0
 20
1.0
 30
0.0
  9
$PUCSNAME
  2

  9
$PUCSORG
 10
0.0
 20
0.0
 30
0.0
  9
$PUCSXDIR
 10
1.0
 20
0.0
 30
0.0
  9
$PUCSYDIR
 10
0.0
 20
1.0
 30
0.0
  9
$USERI1
 70
     0
  9
$USERI2
 70
     0
  9
$USERI3
 70
     0
  9
$USERI4
 70
     0
  9
$USERI5
 70
     0
  9
$USERR1
 40
0.0
  9
$USERR2
 40
0.0
  9
$USERR3
 40
0.0
  9
$USERR4
 40
0.0
  9
$USERR5
 40
0.0
  9
$WORLDVIEW
 70
     1
  9
$SHADEDGE
 70
     3
  9
$SHADEDIF
 70
    70
  9
$TILEMODE
 70
     1
  9
$MAXACTVP
 70
    16
  9
$PLIMCHECK
 70
     0
  9
$PEXTMIN
 10
1.0000000000000000E+020
 20
1.0000000000000000E+020
 30
1.0000000000000000E+020
  9
$PEXTMAX
 10
-1.0000000000000000E+020
 20
-1.0000000000000000E+020
 30
-1.0000000000000000E+020
  9
$PLIMMIN
 10
0.0
 20
0.0
  9
$PLIMMAX
 10
12.0
 20
9.0
  9
$UNITMODE
 70
     0
  9
$VISRETAIN
 70
     0
  9
$PLINEGEN
 70
     0
  9
$PSLTSCALE
 70
     1
  0
ENDSEC
  0
SECTION
  2
TABLES
  0
TABLE
  2
VPORT
 70
     2
  0
VPORT
  2
*ACTIVE
 70
     0
 10
0.0
 20
0.0
 11
1.0
 21
1.0
 12
20581.54732345077
 22
5962.2132889112081
 13
0.0
 23
0.0
 14
10.0
 24
10.0
 15
10.0
 25
10.0
 16
0.0
 26
0.0
 36
1.0
 17
0.0
 27
0.0
 37
0.0
 40
15032.287517488599
 41
3.1666666666666661
 42
50.0
 43
0.0
 44
0.0
 50
0.0
 51
0.0
 71
     0
 72
   100
 73
     1
 74
     0
 75
     0
 76
     0
 77
     0
 78
     0
  0
ENDTAB
  0
TABLE
  2
LTYPE
 70
     2
  0
LTYPE
  2
CONTINUOUS
 70
     0
  3
Solid line
 72
    65
 73
     0
 40
0.0
  0
LTYPE
  2
CENTER
 70
     0
  3
____ _ ____ _ ____ _ ____ _ ____ _ ____ _ ____ 
 72
    65
 73
     4
 40
2.0
 49
1.25
 49
-0.25
 49
0.25
 49
-0.25
  0
ENDTAB
  0
TABLE
  2
LAYER
 70
     6
  0
LAYER
  2
0
 70
     0
 62
     7
  6
CONTINUOUS
  0
LAYER
  2
3
 70
     0
 62
     2
  6
CONTINUOUS
  0
LAYER
  2
2
 70
     0
 62
     3
  6
CENTER
  0
LAYER
  2
1
 70
     0
 62
     4
  6
CONTINUOUS
  0
LAYER
  2
4
 70
     0
 62
     7
  6
CONTINUOUS
  0
LAYER
  2
DEFPOINTS
 70
     0
 62
     7
  6
CONTINUOUS
  0
ENDTAB
  0
TABLE
  2
STYLE
 70
     1
  0
STYLE
  2
STANDARD
 70
     0
 40
0.0
 41
1.0
 50
0.0
 71
     0
 42
180.0
  3
simplex.shx
  4
extfont.shx
  0
ENDTAB
  0
TABLE
  2
VIEW
 70
     0
  0
ENDTAB
  0
TABLE
  2
UCS
 70
     0
  0
ENDTAB
  0
TABLE
  2
APPID
 70
     1
  0
APPID
  2
ACAD
 70
     0
  0
ENDTAB
  0
TABLE
  2
DIMSTYLE
 70
     1
  0
DIMSTYLE
  2
IGA
 70
     0
  3

  4

  5

  6
OPEN
  7
OPEN
 40
2.0
 41
2.0
 42
0.5
 43
10.0
 44
1.0
 45
0.0
 46
0.0
 47
1.0
 48
1.0
140
3.0
141
0.0
142
0.0
143
0.03937
144
1.0
145
0.0
146
10.0
147
1.0
 71
     0
 72
     0
 73
     0
 74
     0
 75
     0
 76
     0
 77
     1
 78
     8
170
     0
171
     2
172
     0
173
     1
174
     0
175
     0
176
     0
177
     0
178
     0
  0
ENDTAB
  0
ENDSEC
  0
SECTION
  2
BLOCKS
  0
BLOCK
  8
0
  2
$MODEL_SPACE
 70
     0
 10
0.0
 20
0.0
 30
0.0
  3
$MODEL_SPACE
  1

  0
ENDBLK
  5
1B
  8
0
  0
BLOCK
 67
     1
  8
0
  2
$PAPER_SPACE
 70
     0
 10
0.0
 20
0.0
 30
0.0
  3
$PAPER_SPACE
  1

  0
ENDBLK
  5
18
 67
     1
  8
0
  0
BLOCK
  8
0
  2
_OPEN
 70
     0
 10
0.0
 20
0.0
 30
0.0
  3
_OPEN
  1

  0
LINE
  5
7ADC
  8
0
  6
BYBLOCK
 62
     0
 10
-1.0
 20
0.166667
 30
0.0
 11
0.0
 21
0.0
 31
0.0
  0
LINE
  5
7ADD
  8
0
  6
BYBLOCK
 62
     0
 10
0.0
 20
0.0
 30
0.0
 11
-1.0
 21
-0.166667
 31
0.0
  0
LINE
  5
7ADE
  8
0
  6
BYBLOCK
 62
     0
 10
0.0
 20
0.0
 30
0.0
 11
-1.0
 21
0.0
 31
0.0
  0
ENDBLK
  5
7ADF
  8
0
  0
BLOCK
  8
0
  2
*D1
 70
     1
 10
0.0
 20
0.0
 30
0.0
  3
*D1
  1

  0
LINE
  5
7EB8
  8
3
  6
CONTINUOUS
 62
     0
 10
2528.816902383066
 20
3705.3198918274989
 30
0.0
 11
2528.816902383066
 21
3385.2895808274998
 31
0.0
  0
LINE
  5
7EB9
  8
3
  6
CONTINUOUS
 62
     0
 10
3088.8169023830669
 20
3613.7610188274998
 30
0.0
 11
3088.8169023830669
 21
3385.2895808274998
 31
0.0
  0
LINE
  5
7EBA
  8
3
  6
CONTINUOUS
 62
     0
 10
2608.816902383066
 20
3425.2895808274998
 30
0.0
 11
3008.8169023830669
 21
3425.2895808274998
 31
0.0
  0
INSERT
  5
7EBB
  8
3
  6
CONTINUOUS
 62
     0
  2
_OPEN
 10
2528.816902383066
 20
3425.2895808274998
 30
0.0
 41
80.0
 42
80.0
 43
80.0
 50
180.0
  0
INSERT
  5
7EBC
  8
3
  6
CONTINUOUS
 62
     0
  2
_OPEN
 10
3088.8169023830669
 20
3425.2895808274998
 30
0.0
 41
80.0
 42
80.0
 43
80.0
  0
TEXT
  8
3
  40
120
  5
7F41
  62
0
  72
0
  71
0
 10
2563.10
 20
3312.89
 30
0.000000
  1
560
  0
POINT
  5
7EBE
  8
DEFPOINTS
  6
CONTINUOUS
 62
     0
 10
2528.816902383066
 20
3725.3198918274989
 30
0.0
  0
POINT
  5
7EBF
  8
DEFPOINTS
  6
CONTINUOUS
 62
     0
 10
3088.8169023830669
 20
3633.7610188274998
 30
0.0
  0
POINT
  5
7EC0
  8
DEFPOINTS
  6
CONTINUOUS
 62
     0
 10
3088.8169023830669
 20
3425.2895808274998
 30
0.0
  0
ENDBLK
  5
7D54
  8
0
  0
BLOCK
  8
0
  2
*D2
 70
     1
 10
0.0
 20
0.0
 30
0.0
  3
*D2
  1

  0
LINE
  5
7EC1
  8
3
  6
CONTINUOUS
 62
     0
 10
3088.8169023830669
 20
3613.7610188274998
 30
0.0
 11
3088.8169023830669
 21
3385.2895808274998
 31
0.0
  0
LINE
  5
7EC2
  8
3
  6
CONTINUOUS
 62
     0
 10
4428.816902383066
 20
3705.3198918274989
 30
0.0
 11
4428.816902383066
 21
3385.2895808274998
 31
0.0
  0
LINE
  5
7EC3
  8
3
  6
CONTINUOUS
 62
     0
 10
3168.8169023830669
 20
3425.2895808274998
 30
0.0
 11
4348.816902383066
 21
3425.2895808274998
 31
0.0
  0
INSERT
  5
7EC4
  8
3
  6
CONTINUOUS
 62
     0
  2
_OPEN
 10
3088.8169023830669
 20
3425.2895808274998
 30
0.0
 41
80.0
 42
80.0
 43
80.0
 50
180.0
  0
INSERT
  5
7EC5
  8
3
  6
CONTINUOUS
 62
     0
  2
_OPEN
 10
4428.816902383066
 20
3425.2895808274998
 30
0.0
 41
80.0
 42
80.0
 43
80.0
  0
TEXT
  8
3
  40
120
  5
7F42
  62
0
  72
0
  71
0
 10
3518.82
 20
3312.89
 30
0.000000
  1
1340
  0
POINT
  5
7EC7
  8
DEFPOINTS
  6
CONTINUOUS
 62
     0
 10
3088.8169023830669
 20
3633.7610188274998
 30
0.0
  0
POINT
  5
7EC8
  8
DEFPOINTS
  6
CONTINUOUS
 62
     0
 10
4428.816902383066
 20
3725.3198918274989
 30
0.0
  0
POINT
  5
7EC9
  8
DEFPOINTS
  6
CONTINUOUS
 62
     0
 10
4428.816902383066
 20
3425.2895808274998
 30
0.0
  0
ENDBLK
  5
7D49
  8
0
  0
BLOCK
  8
0
  2
*D3
 70
     1
 10
0.0
 20
0.0
 30
0.0
  3
*D3
  1

  0
LINE
  5
7ECA
  8
3
  6
CONTINUOUS
 62
     0
 10
2448.816902383066
 20
4789.3198918274993
 30
0.0
 11
2198.3402053830659
 21
4789.3198918274993
 31
0.0
  0
LINE
  5
7ECB
  8
3
  6
CONTINUOUS
 62
     0
 10
2448.816902383066
 20
3864.3198918274989
 30
0.0
 11
2198.3402053830659
 21
3864.3198918274989
 31
0.0
  0
LINE
  5
7ECC
  8
3
  6
CONTINUOUS
 62
     0
 10
2238.3402053830659
 20
4709.3198918274993
 30
0.0
 11
2238.3402053830659
 21
3944.3198918274989
 31
0.0
  0
INSERT
  5
7ECD
  8
3
  6
CONTINUOUS
 62
     0
  2
_OPEN
 10
2238.3402053830659
 20
4789.3198918274993
 30
0.0
 41
80.0
 42
80.0
 43
80.0
 50
90.0
  0
INSERT
  5
7ECE
  8
3
  6
CONTINUOUS
 62
     0
  2
_OPEN
 10
2238.3402053830659
 20
3864.3198918274989
 30
0.0
 41
80.0
 42
80.0
 43
80.0
 50
270.0
  0
TEXT
  8
3
  40
120
  5
7F43
  62
0
  72
0
  71
0
 10
1898.34
 20
4153.53
 30
0.000000
  1
925
  0
POINT
  5
7ED0
  8
DEFPOINTS
  6
CONTINUOUS
 62
     0
 10
2468.8169023830669
 20
4789.3198918274993
 30
0.0
  0
POINT
  5
7ED1
  8
DEFPOINTS
  6
CONTINUOUS
 62
     0
 10
2468.8169023830669
 20
3864.3198918274989
 30
0.0
  0
POINT
  5
7ED2
  8
DEFPOINTS
  6
CONTINUOUS
 62
     0
 10
2238.3402053830659
 20
3864.3198918274989
 30
0.0
  0
ENDBLK
  5
7D3E
  8
0
  0
BLOCK
  8
0
  2
*D4
 70
     1
 10
0.0
 20
0.0
 30
0.0
  3
*D4
  1

  0
LINE
  5
7ED3
  8
3
  6
CONTINUOUS
 62
     0
 10
3068.8169023830669
 20
5468.3198918275002
 30
0.0
 11
1422.5187093830671
 21
5468.3198918275002
 31
0.0
  0
LINE
  5
7ED4
  8
3
  6
CONTINUOUS
 62
     0
 10
2508.8169023830669
 20
3725.3198918274989
 30
0.0
 11
1422.5187093830671
 21
3725.3198918274989
 31
0.0
  0
LINE
  5
7ED5
  8
3
  6
CONTINUOUS
 62
     0
 10
1462.5187093830671
 20
5388.3198918275002
 30
0.0
 11
1462.5187093830671
 21
3805.3198918274989
 31
0.0
  0
INSERT
  5
7ED6
  8
3
  6
CONTINUOUS
 62
     0
  2
_OPEN
 10
1462.5187093830671
 20
5468.3198918275002
 30
0.0
 41
80.0
 42
80.0
 43
80.0
 50
90.0
  0
INSERT
  5
7ED7
  8
3
  6
CONTINUOUS
 62
     0
  2
_OPEN
 10
1462.5187093830671
 20
3725.3198918274989
 30
0.0
 41
80.0
 42
80.0
 43
80.0
 50
270.0
  0
TEXT
  8
3
  40
120
  5
7F44
  62
0
  72
0
  71
0
 10
1122.52
 20
4318.03
 30
0.000000
  1
1743
  0
POINT
  5
7ED9
  8
DEFPOINTS
  6
CONTINUOUS
 62
     0
 10
3088.8169023830669
 20
5468.3198918275002
 30
0.0
  0
POINT
  5
7EDA
  8
DEFPOINTS
  6
CONTINUOUS
 62
     0
 10
2528.816902383066
 20
3725.3198918274989
 30
0.0
  0
POINT
  5
7EDB
  8
DEFPOINTS
  6
CONTINUOUS
 62
     0
 10
1462.5187093830671
 20
3725.3198918274989
 30
0.0
  0
ENDBLK
  5
7DAD
  8
0
  0
BLOCK
  8
0
  2
*D5
 70
     1
 10
0.0
 20
0.0
 30
0.0
  3
*D5
  1

  0
LINE
  5
7EDC
  8
3
  6
CONTINUOUS
 62
     0
 10
2468.8169023830669
 20
4849.3198918274993
 30
0.0
 11
2468.8169023830669
 21
5661.7685208274997
 31
0.0
  0
LINE
  5
7EDD
  8
3
  6
CONTINUOUS
 62
     0
 10
3088.8169023830669
 20
5485.8871798275004
 30
0.0
 11
3088.8169023830669
 21
5661.7685208274997
 31
0.0
  0
LINE
  5
7EDE
  8
3
  6
CONTINUOUS
 62
     0
 10
2548.816902383066
 20
5621.7685208275007
 30
0.0
 11
3008.8169023830669
 21
5621.7685208275007
 31
0.0
  0
INSERT
  5
7EDF
  8
3
  6
CONTINUOUS
 62
     0
  2
_OPEN
 10
2468.8169023830669
 20
5621.7685208275007
 30
0.0
 41
80.0
 42
80.0
 43
80.0
 50
180.0
  0
INSERT
  5
7EE0
  8
3
  6
CONTINUOUS
 62
     0
  2
_OPEN
 10
3088.8169023830669
 20
5621.7685208275007
 30
0.0
 41
80.0
 42
80.0
 43
80.0
  0
TEXT
  8
3
  40
120
  5
7F45
  62
0
  72
0
  71
0
 10
2574.53
 20
5509.37
 30
0.000000
  1
620
  0
POINT
  5
7EE2
  8
DEFPOINTS
  6
CONTINUOUS
 62
     0
 10
2468.8169023830669
 20
4829.3198918274993
 30
0.0
  0
POINT
  5
7EE3
  8
DEFPOINTS
  6
CONTINUOUS
 62
     0
 10
3088.8169023830669
 20
5465.8871798275004
 30
0.0
  0
POINT
  5
7EE4
  8
DEFPOINTS
  6
CONTINUOUS
 62
     0
 10
3088.8169023830669
 20
5621.7685208275007
 30
0.0
  0
ENDBLK
  5
7D28
  8
0
  0
BLOCK
  8
0
  2
*D6
 70
     1
 10
0.0
 20
0.0
 30
0.0
  3
*D6
  1

  0
LINE
  5
7EE5
  8
3
  6
CONTINUOUS
 62
     0
 10
3088.8169023830669
 20
5485.8871798275004
 30
0.0
 11
3088.8169023830669
 21
5661.7685208274997
 31
0.0
  0
LINE
  5
7EE6
  8
3
  6
CONTINUOUS
 62
     0
 10
3865.8169023830669
 20
4845.3198918274993
 30
0.0
 11
3865.8169023830669
 21
5661.7685208274997
 31
0.0
  0
LINE
  5
7EE7
  8
3
  6
CONTINUOUS
 62
     0
 10
3168.8169023830669
 20
5621.7685208275007
 30
0.0
 11
3785.8169023830669
 21
5621.7685208275007
 31
0.0
  0
INSERT
  5
7EE8
  8
3
  6
CONTINUOUS
 62
     0
  2
_OPEN
 10
3088.8169023830669
 20
5621.7685208275007
 30
0.0
 41
80.0
 42
80.0
 43
80.0
 50
180.0
  0
INSERT
  5
7EE9
  8
3
  6
CONTINUOUS
 62
     0
  2
_OPEN
 10
3865.8169023830669
 20
5621.7685208275007
 30
0.0
 41
80.0
 42
80.0
 43
80.0
  0
TEXT
  8
3
  40
120
  5
7F46
  62
0
  72
0
  71
0
 10
3237.32
 20
5509.37
 30
0.000000
  1
777
  0
POINT
  5
7EEB
  8
DEFPOINTS
  6
CONTINUOUS
 62
     0
 10
3088.8169023830669
 20
5465.8871798275004
 30
0.0
  0
POINT
  5
7EEC
  8
DEFPOINTS
  6
CONTINUOUS
 62
     0
 10
3865.8169023830669
 20
4825.3198918275002
 30
0.0
  0
POINT
  5
7EED
  8
DEFPOINTS
  6
CONTINUOUS
 62
     0
 10
3865.8169023830669
 20
5621.7685208275007
 30
0.0
  0
ENDBLK
  5
7DE0
  8
0
  0
BLOCK
  8
0
  2
*D7
 70
     1
 10
0.0
 20
0.0
 30
0.0
  3
*D7
  1

  0
LINE
  5
7EEE
  8
3
  6
CONTINUOUS
 62
     0
 10
2528.816902383066
 20
6871.5163745348618
 30
0.0
 11
2528.816902383066
 21
6408.0394225348609
 31
0.0
  0
LINE
  5
7EEF
  8
3
  6
CONTINUOUS
 62
     0
 10
4428.8169023830669
 20
6871.5163745348618
 30
0.0
 11
4428.8169023830669
 21
6408.0394225348609
 31
0.0
  0
LINE
  5
7EF0
  8
3
  6
CONTINUOUS
 62
     0
 10
2608.816902383066
 20
6448.03942253486
 30
0.0
 11
4348.8169023830669
 21
6448.03942253486
 31
0.0
  0
INSERT
  5
7EF1
  8
3
  6
CONTINUOUS
 62
     0
  2
_OPEN
 10
2528.816902383066
 20
6448.03942253486
 30
0.0
 41
80.0
 42
80.0
 43
80.0
 50
180.0
  0
INSERT
  5
7EF2
  8
3
  6
CONTINUOUS
 62
     0
  2
_OPEN
 10
4428.8169023830669
 20
6448.03942253486
 30
0.0
 41
80.0
 42
80.0
 43
80.0
  0
TEXT
  8
3
  40
120
  5
7F47
  62
0
  72
0
  71
0
 10
3198.82
 20
6335.64
 30
0.000000
  1
1900
  0
POINT
  5
7EF4
  8
DEFPOINTS
  6
CONTINUOUS
 62
     0
 10
2528.816902383066
 20
6891.5163745348618
 30
0.0
  0
POINT
  5
7EF5
  8
DEFPOINTS
  6
CONTINUOUS
 62
     0
 10
4428.8169023830669
 20
6891.5163745348618
 30
0.0
  0
POINT
  5
7EF6
  8
DEFPOINTS
  6
CONTINUOUS
 62
     0
 10
4428.8169023830669
 20
6448.03942253486
 30
0.0
  0
ENDBLK
  5
7D12
  8
0
  0
BLOCK
  8
0
  2
*D8
 70
     1
 10
0.0
 20
0.0
 30
0.0
  3
*D8
  1

  0
LINE
  5
7EF7
  8
3
  6
CONTINUOUS
 62
     0
 10
4448.8169023830669
 20
7841.5163745348618
 30
0.0
 11
4850.0118053830683
 21
7841.5163745348618
 31
0.0
  0
LINE
  5
7EF8
  8
3
  6
CONTINUOUS
 62
     0
 10
4448.8169023830669
 20
6891.5163745348618
 30
0.0
 11
4850.0118053830683
 21
6891.5163745348618
 31
0.0
  0
LINE
  5
7EF9
  8
3
  6
CONTINUOUS
 62
     0
 10
4810.0118053830683
 20
7761.5163745348618
 30
0.0
 11
4810.0118053830683
 21
6971.5163745348618
 31
0.0
  0
INSERT
  5
7EFA
  8
3
  6
CONTINUOUS
 62
     0
  2
_OPEN
 10
4810.0118053830683
 20
7841.5163745348618
 30
0.0
 41
80.0
 42
80.0
 43
80.0
 50
90.0
  0
INSERT
  5
7EFB
  8
3
  6
CONTINUOUS
 62
     0
  2
_OPEN
 10
4810.0118053830683
 20
6891.5163745348618
 30
0.0
 41
80.0
 42
80.0
 43
80.0
 50
270.0
  0
TEXT
  8
3
  40
120
  5
7F48
  62
0
  72
0
  71
0
 10
4470.01
 20
7181.78
 30
0.000000
  1
950
  0
POINT
  5
7EFD
  8
DEFPOINTS
  6
CONTINUOUS
 62
     0
 10
4428.8169023830669
 20
7841.5163745348618
 30
0.0
  0
POINT
  5
7EFE
  8
DEFPOINTS
  6
CONTINUOUS
 62
     0
 10
4428.8169023830669
 20
6891.5163745348618
 30
0.0
  0
POINT
  5
7EFF
  8
DEFPOINTS
  6
CONTINUOUS
 62
     0
 10
4810.0118053830683
 20
6891.5163745348618
 30
0.0
  0
ENDBLK
  5
7D07
  8
0
  0
BLOCK
  8
0
  2
*D9
 70
     1
 10
0.0
 20
0.0
 30
0.0
  3
*D9
  1

  0
LINE
  5
7D77
  8
0
  6
BYBLOCK
 62
     0
 10
5703.2054118929846
 20
3705.3198918274989
 30
0.0
 11
5703.2054118929846
 21
3407.8402218275
 31
0.0
  0
LINE
  5
7D78
  8
0
  6
BYBLOCK
 62
     0
 10
6250.2054118929836
 20
3598.9136838274999
 30
0.0
 11
6250.2054118929836
 21
3407.8402218275
 31
0.0
  0
LINE
  5
7D79
  8
0
  6
BYBLOCK
 62
     0
 10
5783.2054118929846
 20
3447.840221827501
 30
0.0
 11
6170.2054118929836
 21
3447.840221827501
 31
0.0
  0
TEXT
  5
7D7A
  8
3
 62
     0
 10
5849.8295798771378
 20
3474.7397109285812
 30
0.0
 40
120.0
  1
547
  0
INSERT
  5
7D7B
  8
0
  6
BYBLOCK
 62
     0
  2
_OPEN
 10
5703.2054118929846
 20
3447.840221827501
 30
0.0
 41
80.0
 42
80.0
 43
80.0
 50
180.0
  0
INSERT
  5
7D7C
  8
0
  6
BYBLOCK
 62
     0
  2
_OPEN
 10
6250.2054118929836
 20
3447.840221827501
 30
0.0
 41
80.0
 42
80.0
 43
80.0
  0
POINT
  5
7D7D
  8
DEFPOINTS
  6
BYBLOCK
 62
     0
 10
5703.2054118929846
 20
3725.3198918274989
 30
0.0
  0
POINT
  5
7D7E
  8
DEFPOINTS
  6
BYBLOCK
 62
     0
 10
6250.2054118929836
 20
3618.9136838274999
 30
0.0
  0
POINT
  5
7D7F
  8
DEFPOINTS
  6
BYBLOCK
 62
     0
 10
6250.2054118929836
 20
3447.840221827501
 30
0.0
  0
ENDBLK
  5
7D80
  8
0
  0
BLOCK
  8
0
  2
*D10
 70
     1
 10
0.0
 20
0.0
 30
0.0
  3
*D10
  1

  0
LINE
  5
7D82
  8
0
  6
BYBLOCK
 62
     0
 10
6250.2054118929836
 20
3598.9136838274999
 30
0.0
 11
6250.2054118929836
 21
3407.292960827499
 31
0.0
  0
LINE
  5
7D83
  8
0
  6
BYBLOCK
 62
     0
 10
6653.2054118929846
 20
3705.3198918274989
 30
0.0
 11
6653.2054118929846
 21
3407.292960827499
 31
0.0
  0
LINE
  5
7D84
  8
0
  6
BYBLOCK
 62
     0
 10
6330.2054118929836
 20
3447.2929608274999
 30
0.0
 11
6573.2054118929846
 21
3447.2929608274999
 31
0.0
  0
TEXT
  5
7D85
  8
3
 62
     0
 10
6311.8841836594029
 20
3489.632422838909
 30
0.0
 40
120.0
  1
403
  0
INSERT
  5
7D86
  8
0
  6
BYBLOCK
 62
     0
  2
_OPEN
 10
6250.2054118929836
 20
3447.2929608274999
 30
0.0
 41
80.0
 42
80.0
 43
80.0
 50
180.0
  0
INSERT
  5
7D87
  8
0
  6
BYBLOCK
 62
     0
  2
_OPEN
 10
6653.2054118929846
 20
3447.2929608274999
 30
0.0
 41
80.0
 42
80.0
 43
80.0
  0
POINT
  5
7D88
  8
DEFPOINTS
  6
BYBLOCK
 62
     0
 10
6250.2054118929836
 20
3618.9136838274999
 30
0.0
  0
POINT
  5
7D89
  8
DEFPOINTS
  6
BYBLOCK
 62
     0
 10
6653.2054118929846
 20
3725.3198918274989
 30
0.0
  0
POINT
  5
7D8A
  8
DEFPOINTS
  6
BYBLOCK
 62
     0
 10
6653.2054118929846
 20
3447.2929608274999
 30
0.0
  0
ENDBLK
  5
7D8B
  8
0
  0
BLOCK
  8
0
  2
*D11
 70
     1
 10
0.0
 20
0.0
 30
0.0
  3
*D11
  1

  0
LINE
  5
7F00
  8
3
  6
CONTINUOUS
 62
     0
 10
6688.2054118929836
 20
5275.3198918275002
 30
0.0
 11
7054.8997758929872
 21
5275.3198918275002
 31
0.0
  0
LINE
  5
7F01
  8
3
  6
CONTINUOUS
 62
     0
 10
6688.2054118929836
 20
4375.3198918275002
 30
0.0
 11
7054.8997758929872
 21
4375.3198918275002
 31
0.0
  0
LINE
  5
7F02
  8
3
  6
CONTINUOUS
 62
     0
 10
7014.8997758929863
 20
5195.3198918274993
 30
0.0
 11
7014.8997758929863
 21
4455.3198918274993
 31
0.0
  0
INSERT
  5
7F03
  8
3
  6
CONTINUOUS
 62
     0
  2
_OPEN
 10
7014.8997758929863
 20
5275.3198918275002
 30
0.0
 41
80.0
 42
80.0
 43
80.0
 50
90.0
  0
INSERT
  5
7F04
  8
3
  6
CONTINUOUS
 62
     0
  2
_OPEN
 10
7014.8997758929863
 20
4375.3198918275002
 30
0.0
 41
80.0
 42
80.0
 43
80.0
 50
270.0
  0
TEXT
  8
3
  40
120
  5
7F49
  62
0
  72
0
  71
0
 10
6674.90
 20
4561.14
 30
0.000000
  1
φ900
  0
POINT
  5
7F06
  8
DEFPOINTS
  6
CONTINUOUS
 62
     0
 10
6668.2054118929836
 20
5275.3198918275002
 30
0.0
  0
POINT
  5
7F07
  8
DEFPOINTS
  6
CONTINUOUS
 62
     0
 10
6668.2054118929836
 20
4375.3198918275002
 30
0.0
  0
POINT
  5
7F08
  8
DEFPOINTS
  6
CONTINUOUS
 62
     0
 10
7014.8997758929863
 20
4375.3198918275002
 30
0.0
  0
ENDBLK
  5
7DA1
  8
0
  0
BLOCK
  8
0
  2
*D12
 70
     1
 10
0.0
 20
0.0
 30
0.0
  3
*D12
  1

  0
LINE
  5
7F09
  8
3
  6
CONTINUOUS
 62
     0
 10
5590.2054118929836
 20
5047.7198918274999
 30
0.0
 11
5590.2054118929836
 21
5997.8673448275013
 31
0.0
  0
LINE
  5
7F0A
  8
3
  6
CONTINUOUS
 62
     0
 10
6250.2054118929836
 20
5860.2534748275011
 30
0.0
 11
6250.2054118929836
 21
5997.8673448275013
 31
0.0
  0
LINE
  5
7F0B
  8
3
  6
CONTINUOUS
 62
     0
 10
5670.2054118929836
 20
5957.8673448275013
 30
0.0
 11
6170.2054118929836
 21
5957.8673448275013
 31
0.0
  0
INSERT
  5
7F0C
  8
3
  6
CONTINUOUS
 62
     0
  2
_OPEN
 10
5590.2054118929836
 20
5957.8673448275013
 30
0.0
 41
80.0
 42
80.0
 43
80.0
 50
180.0
  0
INSERT
  5
7F0D
  8
3
  6
CONTINUOUS
 62
     0
  2
_OPEN
 10
6250.2054118929836
 20
5957.8673448275013
 30
0.0
 41
80.0
 42
80.0
 43
80.0
  0
TEXT
  8
3
  40
120
  5
7F4A
  62
0
  72
0
  71
0
 10
5718.78
 20
5945.47
 30
0.000000
  1
MAX
  0
TEXT
  8
3
  40
120
  5
7F4B
  62
0
  72
0
  71
0
 10
5718.78
 20
5789.47
 30
0.000000
  1
720
  0
POINT
  5
7F0F
  8
DEFPOINTS
  6
CONTINUOUS
 62
     0
 10
5590.2054118929836
 20
5027.7198918274999
 30
0.0
  0
POINT
  5
7F10
  8
DEFPOINTS
  6
CONTINUOUS
 62
     0
 10
6250.2054118929836
 20
5840.2534748275002
 30
0.0
  0
POINT
  5
7F11
  8
DEFPOINTS
  6
CONTINUOUS
 62
     0
 10
6250.2054118929836
 20
5957.8673448275013
 30
0.0
  0
ENDBLK
  5
7DD0
  8
0
  0
BLOCK
  8
0
  2
*D13
 70
     1
 10
0.0
 20
0.0
 30
0.0
  3
*D13
  1

  0
LINE
  5
7D8D
  8
0
  6
BYBLOCK
 62
     0
 10
6250.2054118929836
 20
5860.2534748275011
 30
0.0
 11
6250.2054118929836
 21
5998.9618688275013
 31
0.0
  0
LINE
  5
7D8E
  8
0
  6
BYBLOCK
 62
     0
 10
6668.2054118929836
 20
5335.3198918274993
 30
0.0
 11
6668.2054118929836
 21
5998.9618688275013
 31
0.0
  0
LINE
  5
7D8F
  8
0
  6
BYBLOCK
 62
     0
 10
6330.2054118929836
 20
5958.9618688275013
 30
0.0
 11
6588.2054118929836
 21
5958.9618688275013
 31
0.0
  0
TEXT
  5
7D90
  8
3
 62
     0
 10
6315.8602640225454
 20
6006.4965770411509
 30
0.0
 40
120.0
  1
418
  0
INSERT
  5
7D91
  8
0
  6
BYBLOCK
 62
     0
  2
_OPEN
 10
6250.2054118929836
 20
5958.9618688275013
 30
0.0
 41
80.0
 42
80.0
 43
80.0
 50
180.0
  0
INSERT
  5
7D92
  8
0
  6
BYBLOCK
 62
     0
  2
_OPEN
 10
6668.2054118929836
 20
5958.9618688275013
 30
0.0
 41
80.0
 42
80.0
 43
80.0
  0
POINT
  5
7D93
  8
DEFPOINTS
  6
BYBLOCK
 62
     0
 10
6250.2054118929836
 20
5840.2534748275002
 30
0.0
  0
POINT
  5
7D94
  8
DEFPOINTS
  6
BYBLOCK
 62
     0
 10
6668.2054118929836
 20
5315.3198918274993
 30
0.0
  0
POINT
  5
7D95
  8
DEFPOINTS
  6
BYBLOCK
 62
     0
 10
6668.2054118929836
 20
5958.9618688275013
 30
0.0
  0
ENDBLK
  5
7D96
  8
0
  0
BLOCK
  8
0
  2
*D14
 70
     1
 10
0.0
 20
0.0
 30
0.0
  3
*D14
  1

  0
LINE
  5
7F12
  8
3
  6
CONTINUOUS
 62
     0
 10
5915.2054118929836
 20
5488.3198918274993
 30
0.0
 11
5915.2054118929836
 21
5673.3174878275004
 31
0.0
  0
LINE
  5
7F13
  8
3
  6
CONTINUOUS
 62
     0
 10
6585.2054118929836
 20
5488.3198918274993
 30
0.0
 11
6585.2054118929836
 21
5673.3174878275004
 31
0.0
  0
LINE
  5
7F14
  8
3
  6
CONTINUOUS
 62
     0
 10
5995.2054118929836
 20
5633.3174878275004
 30
0.0
 11
6505.2054118929836
 21
5633.3174878275004
 31
0.0
  0
INSERT
  5
7F15
  8
3
  6
CONTINUOUS
 62
     0
  2
_OPEN
 10
5915.2054118929836
 20
5633.3174878275004
 30
0.0
 41
80.0
 42
80.0
 43
80.0
 50
180.0
  0
INSERT
  5
7F16
  8
3
  6
CONTINUOUS
 62
     0
  2
_OPEN
 10
6585.2054118929836
 20
5633.3174878275004
 30
0.0
 41
80.0
 42
80.0
 43
80.0
  0
TEXT
  8
3
  40
120
  5
7F4C
  62
0
  72
0
  71
0
 10
5949.49
 20
5520.92
 30
0.000000
  1
670
  0
POINT
  5
7F18
  8
DEFPOINTS
  6
CONTINUOUS
 62
     0
 10
5915.2054118929836
 20
5468.3198918275002
 30
0.0
  0
POINT
  5
7F19
  8
DEFPOINTS
  6
CONTINUOUS
 62
     0
 10
6585.2054118929836
 20
5468.3198918275002
 30
0.0
  0
POINT
  5
7F1A
  8
DEFPOINTS
  6
CONTINUOUS
 62
     0
 10
6585.2054118929836
 20
5633.3174878275004
 30
0.0
  0
ENDBLK
  5
7CBF
  8
0
  0
BLOCK
  8
0
  2
*D15
 70
     1
 10
0.0
 20
0.0
 30
0.0
  3
*D15
  1

  0
LINE
  5
7F1B
  8
3
  6
CONTINUOUS
 62
     0
 10
2448.816902383066
 20
3864.3198918274989
 30
0.0
 11
1932.557177383067
 21
3864.3198918274989
 31
0.0
  0
LINE
  5
7F1C
  8
3
  6
CONTINUOUS
 62
     0
 10
2535.7921373830659
 20
4825.3198918275002
 30
0.0
 11
1932.5571773830679
 21
4825.3198918275011
 31
0.0
  0
LINE
  5
7F1D
  8
3
  6
CONTINUOUS
 62
     0
 10
1972.557177383067
 20
3944.3198918274989
 30
0.0
 11
1972.5571773830679
 21
4745.3198918275002
 31
0.0
  0
INSERT
  5
7F1E
  8
3
  6
CONTINUOUS
 62
     0
  2
_OPEN
 10
1972.557177383067
 20
3864.3198918274989
 30
0.0
 41
80.0
 42
80.0
 43
80.0
 50
270.0
  0
INSERT
  5
7F1F
  8
3
  6
CONTINUOUS
 62
     0
  2
_OPEN
 10
1972.5571773830679
 20
4825.3198918275011
 30
0.0
 41
80.0
 42
80.0
 43
80.0
 50
90.0
  0
TEXT
  8
3
  40
120
  5
7F4D
  62
0
  72
0
  71
0
 10
1632.56
 20
4121.44
 30
0.000000
  1
961
  0
POINT
  5
7F21
  8
DEFPOINTS
  6
CONTINUOUS
 62
     0
 10
2468.8169023830669
 20
3864.3198918274989
 30
0.0
  0
POINT
  5
7F22
  8
DEFPOINTS
  6
CONTINUOUS
 62
     0
 10
2555.7921373830659
 20
4825.3198918275002
 30
0.0
  0
POINT
  5
7F23
  8
DEFPOINTS
  6
CONTINUOUS
 62
     0
 10
1972.5571773830679
 20
4825.3198918275011
 30
0.0
  0
ENDBLK
  5
7CB4
  8
0
  0
BLOCK
  8
0
  2
*D16
 70
     1
 10
0.0
 20
0.0
 30
0.0
  3
*D16
  1

  0
LINE
  5
7F24
  8
3
  6
CONTINUOUS
 62
     0
 10
3068.8169023830669
 20
5468.3198918275002
 30
0.0
 11
1693.271215383066
 21
5468.3198918275002
 31
0.0
  0
LINE
  5
7F25
  8
3
  6
CONTINUOUS
 62
     0
 10
2535.7921373830659
 20
4825.3198918275002
 30
0.0
 11
1693.271215383066
 21
4825.3198918275011
 31
0.0
  0
LINE
  5
7F26
  8
3
  6
CONTINUOUS
 62
     0
 10
1733.271215383066
 20
5548.3198918275002
 30
0.0
 11
1733.271215383066
 21
5628.3198918275011
 31
0.0
  0
LINE
  5
7F27
  8
3
  6
CONTINUOUS
 62
     0
 10
1733.271215383066
 20
4745.3198918275002
 30
0.0
 11
1733.271215383066
 21
4665.3198918275002
 31
0.0
  0
LINE
  5
7F28
  8
3
  6
CONTINUOUS
 62
     0
 10
1733.271215383066
 20
5468.3198918275002
 30
0.0
 11
1733.271215383066
 21
4825.3198918275011
 31
0.0
  0
INSERT
  5
7F29
  8
3
  6
CONTINUOUS
 62
     0
  2
_OPEN
 10
1733.271215383066
 20
5468.3198918275002
 30
0.0
 41
80.0
 42
80.0
 43
80.0
 50
270.0
  0
INSERT
  5
7F2A
  8
3
  6
CONTINUOUS
 62
     0
  2
_OPEN
 10
1733.271215383066
 20
4825.3198918275011
 30
0.0
 41
80.0
 42
80.0
 43
80.0
 50
90.0
  0
TEXT
  8
3
  40
120
  5
7F4E
  62
0
  72
0
  71
0
 10
1393.27
 20
4887.21
 30
0.000000
  1
643
  0
POINT
  5
7F2C
  8
DEFPOINTS
  6
CONTINUOUS
 62
     0
 10
3088.8169023830669
 20
5468.3198918275002
 30
0.0
  0
POINT
  5
7F2D
  8
DEFPOINTS
  6
CONTINUOUS
 62
     0
 10
2555.7921373830659
 20
4825.3198918275002
 30
0.0
  0
POINT
  5
7F2E
  8
DEFPOINTS
  6
CONTINUOUS
 62
     0
 10
1733.271215383066
 20
4825.3198918275011
 30
0.0
  0
ENDBLK
  5
7DB8
  8
0
  0
BLOCK
  8
0
  2
*D17
 70
     1
 10
0.0
 20
0.0
 30
0.0
  3
*D17
  1

  0
LINE
  5
7F2F
  8
3
  6
CONTINUOUS
 62
     0
 10
2535.7921373830659
 20
4825.3198918275002
 30
0.0
 11
1693.2712153830651
 21
4825.3198918275011
 31
0.0
  0
LINE
  5
7F30
  8
3
  6
CONTINUOUS
 62
     0
 10
2508.8169023830669
 20
3725.3198918274989
 30
0.0
 11
1693.2712153830651
 21
3725.3198918274989
 31
0.0
  0
LINE
  5
7F31
  8
3
  6
CONTINUOUS
 62
     0
 10
1733.2712153830651
 20
4745.3198918275002
 30
0.0
 11
1733.2712153830651
 21
3805.3198918274989
 31
0.0
  0
INSERT
  5
7F32
  8
3
  6
CONTINUOUS
 62
     0
  2
_OPEN
 10
1733.2712153830651
 20
4825.3198918275011
 30
0.0
 41
80.0
 42
80.0
 43
80.0
 50
90.0
  0
INSERT
  5
7F33
  8
3
  6
CONTINUOUS
 62
     0
  2
_OPEN
 10
1733.2712153830651
 20
3725.3198918274989
 30
0.0
 41
80.0
 42
80.0
 43
80.0
 50
270.0
  0
TEXT
  8
3
  40
120
  5
7F4F
  62
0
  72
0
  71
0
 10
1393.27
 20
4062.92
 30
0.000000
  1
1100
  0
POINT
  5
7F35
  8
DEFPOINTS
  6
CONTINUOUS
 62
     0
 10
2555.7921373830659
 20
4825.3198918275002
 30
0.0
  0
POINT
  5
7F36
  8
DEFPOINTS
  6
CONTINUOUS
 62
     0
 10
2528.816902383066
 20
3725.3198918274989
 30
0.0
  0
POINT
  5
7F37
  8
DEFPOINTS
  6
CONTINUOUS
 62
     0
 10
1733.2712153830651
 20
3725.3198918274989
 30
0.0
  0
ENDBLK
  5
7C9E
  8
0
  0
BLOCK
  8
0
  2
*D18
 70
     1
 10
0.0
 20
0.0
 30
0.0
  3
*D18
  1

  0
LINE
  5
7F38
  8
3
 62
     0
 10
2468.8169023830669
 20
4849.3198918274993
 30
0.0
 11
2468.8169023830669
 21
5912.8916279894765
 31
0.0
  0
LINE
  5
7F39
  8
3
 62
     0
 10
4428.816902383066
 20
3870.3198918274989
 30
0.0
 11
4428.816902383066
 21
5912.8916279894765
 31
0.0
  0
LINE
  5
7F3A
  8
3
 62
     0
 10
2548.816902383066
 20
5872.8916279894765
 30
0.0
 11
4348.816902383066
 21
5872.8916279894765
 31
0.0
  0
INSERT
  5
7F3B
  8
3
 62
     0
  2
_OPEN
 10
2468.8169023830669
 20
5872.8916279894765
 30
0.0
 41
80.0
 42
80.0
 43
80.0
 50
180.0
  0
INSERT
  5
7F3C
  8
3
 62
     0
  2
_OPEN
 10
4428.816902383066
 20
5872.8916279894765
 30
0.0
 41
80.0
 42
80.0
 43
80.0
  0
TEXT
  8
3
  40
120
  5
7F50
  62
0
  72
0
  71
0
 10
3252.62
 20
5760.49
 30
0.000000
  1
1960
  0
POINT
  5
7F3E
  8
DEFPOINTS
 62
     0
 10
2468.8169023830669
 20
4829.3198918274993
 30
0.0
  0
POINT
  5
7F3F
  8
DEFPOINTS
 62
     0
 10
4428.816902383066
 20
3850.3198918274989
 30
0.0
  0
POINT
  5
7F40
  8
DEFPOINTS
 62
     0
 10
4428.816902383066
 20
5872.8916279894765
 30
0.0
  0
ENDBLK
  5
7DC4
  8
0
  0
ENDSEC
  0
SECTION
  2
ENTITIES
  0
ARC
  5
7A71
  8
1
  6
CONTINUOUS
 10
3142.3169023830669
 20
4878.8198918274993
 30
0.0
 40
589.5
 50
95.207036000000002
 51
185.2070359999999
  0
LINE
  5
7A72
  8
2
  6
CENTER
 10
4208.8169023830651
 20
3902.9198918275001
 30
0.0
 11
4208.8169023830651
 21
4217.7198918274989
 31
0.0
  0
CIRCLE
  5
7A73
  8
1
  6
CONTINUOUS
 10
4208.8169023830651
 20
4060.3198918274989
 30
0.0
 40
152.40000000000001
  0
LINE
  5
7A74
  8
1
  6
CONTINUOUS
 10
4054.8169023830651
 20
3918.3198918274989
 30
0.0
 11
4076.159236383065
 21
3967.3363248275
 31
0.0
  0
LINE
  5
7A75
  8
1
  6
CONTINUOUS
 10
4362.8169023830651
 20
3918.3198918274989
 30
0.0
 11
4341.4745683830652
 21
3967.3363248275
 31
0.0
  0
ARC
  5
7A76
  8
1
  6
CONTINUOUS
 10
4208.8169023830651
 20
4060.3198918274989
 30
0.0
 40
162.0
 50
324.972283
 51
215.02771699999991
  0
LINE
  5
7A77
  8
1
  6
CONTINUOUS
 10
2508.8169023830669
 20
3867.7175408274989
 30
0.0
 11
2508.8169023830669
 21
4789.3198918274993
 31
0.0
  0
LINE
  5
7A78
  8
1
  6
CONTINUOUS
 10
2468.8169023830669
 20
3824.3198918274989
 30
0.0
 11
2468.8169023830669
 21
4829.3198918274993
 31
0.0
  0
ARC
  5
7A79
  8
1
  6
CONTINUOUS
 10
3021.8169023830669
 20
4758.3198918275002
 30
0.0
 40
844.0
 50
274.55315200000001
 51
4.553151999999999
  0
ARC
  5
7A7A
  8
1
  6
CONTINUOUS
 10
4208.8169023830651
 20
4060.3198918274989
 30
0.0
 40
202.40000000000001
 50
235.66552899999991
 51
55.665529000000006
  0
LINE
  5
7A7B
  8
1
  6
CONTINUOUS
 10
4094.6586553830662
 20
3893.1862488275001
 30
0.0
 11
2974.6586553830662
 21
4658.1862488275001
 31
0.0
  0
LINE
  5
7A7C
  8
1
  6
CONTINUOUS
 10
4122.8598033830649
 20
3934.4742038274999
 30
0.0
 11
3002.8598033830649
 21
4699.4742038274999
 31
0.0
  0
LINE
  5
7A7D
  8
1
  6
CONTINUOUS
 10
4428.816902383066
 20
3850.3198918274989
 30
0.0
 11
2528.816902383066
 21
3850.3198918274989
 31
0.0
  0
LINE
  5
7A7E
  8
1
  6
CONTINUOUS
 10
4428.816902383066
 20
3725.3198918274989
 30
0.0
 11
2528.816902383066
 21
3725.3198918274989
 31
0.0
  0
LINE
  5
7A7F
  8
1
  6
CONTINUOUS
 10
3088.8169023830669
 20
3916.9834548274998
 30
0.0
 11
2468.8169023830669
 21
3864.3198918274989
 31
0.0
  0
LINE
  5
7A80
  8
1
  6
CONTINUOUS
 10
2528.816902383066
 20
3850.3198918274989
 30
0.0
 11
2528.816902383066
 21
3725.3198918274989
 31
0.0
  0
LINE
  5
7A81
  8
1
  6
CONTINUOUS
 10
4406.316902383066
 20
3850.3198918274989
 30
0.0
 11
4011.3169023830651
 21
3850.3198918274989
 31
0.0
  0
LINE
  5
7A82
  8
1
  6
CONTINUOUS
 10
4011.3169023830651
 20
3850.3198918274989
 30
0.0
 11
4021.3169023830651
 21
3900.3198918275002
 31
0.0
  0
LINE
  5
7A83
  8
1
  6
CONTINUOUS
 10
4021.3169023830651
 20
3900.3198918275002
 30
0.0
 11
4054.8169023830651
 21
3900.3198918275002
 31
0.0
  0
LINE
  5
7A84
  8
1
  6
CONTINUOUS
 10
4054.8169023830651
 20
3900.3198918275002
 30
0.0
 11
4054.8169023830651
 21
3918.3198918274989
 31
0.0
  0
LINE
  5
7A85
  8
1
  6
CONTINUOUS
 10
4362.8169023830651
 20
3900.3198918275002
 30
0.0
 11
4396.3169023830651
 21
3900.3198918275002
 31
0.0
  0
LINE
  5
7A86
  8
1
  6
CONTINUOUS
 10
4396.3169023830651
 20
3900.3198918275002
 30
0.0
 11
4406.316902383066
 21
3850.3198918274989
 31
0.0
  0
LINE
  5
7A87
  8
1
  6
CONTINUOUS
 10
4362.8169023830651
 20
3900.3198918275002
 30
0.0
 11
4362.8169023830651
 21
3918.3198918274989
 31
0.0
  0
LINE
  5
7A88
  8
1
  6
CONTINUOUS
 10
4428.816902383066
 20
3850.3198918274989
 30
0.0
 11
4428.816902383066
 21
3725.3198918274989
 31
0.0
  0
ARC
  5
7A89
  8
1
  6
CONTINUOUS
 10
3155.8169023830669
 20
4758.3198918275002
 30
0.0
 40
710.0
 50
5.4148420000000002
 51
95.414842000000007
  0
LINE
  5
7A8A
  8
1
  6
CONTINUOUS
 10
4322.9751493830663
 20
4227.4535348274994
 30
0.0
 11
3202.9751493830659
 21
4992.4535348274994
 31
0.0
  0
LINE
  5
7A8B
  8
1
  6
CONTINUOUS
 10
4294.7740013830662
 20
4186.1655798274987
 30
0.0
 11
3174.7740013830662
 21
4951.1655798274996
 31
0.0
  0
LINE
  5
7A8C
  8
2
  6
CENTER
 10
3088.8169023830669
 20
7960.915712534862
 30
0.0
 11
3088.8169023830669
 21
6698.8751315348591
 31
0.0
  0
CIRCLE
  5
7A8D
  8
1
  6
CONTINUOUS
 10
3088.8169023830669
 20
4825.3198918275002
 30
0.0
 40
152.40000000000001
  0
CIRCLE
  5
7A8E
  8
1
  6
CONTINUOUS
 10
3088.8169023830669
 20
4825.3198918275002
 30
0.0
 40
490.0
  0
CIRCLE
  5
7A8F
  8
1
  6
CONTINUOUS
 10
3088.8169023830669
 20
4825.3198918275002
 30
0.0
 40
450.0
  0
ARC
  5
7A90
  8
1
  6
CONTINUOUS
 10
3035.3169023830669
 20
4878.8198918274993
 30
0.0
 40
482.5
 50
186.366094
 51
190.68983199999991
  0
ARC
  5
7A91
  8
1
  6
CONTINUOUS
 10
3088.8169023830669
 20
4825.3198918275002
 30
0.0
 40
202.40000000000001
 50
55.665529000000006
 51
235.66552899999991
  0
LINE
  5
7A92
  8
1
  6
CONTINUOUS
 10
2561.190337383066
 20
4789.3198918274993
 30
0.0
 11
2468.8169023830669
 21
4789.3198918274993
 31
0.0
  0
LINE
  5
7A93
  8
2
  6
CENTER
 10
6760.0716388929868
 20
4825.3198918275002
 30
0.0
 11
5509.3462328929854
 21
4825.3198918275002
 31
0.0
  0
LINE
  5
7A94
  8
2
  6
CENTER
 10
4366.2169023830656
 20
4060.3198918274989
 30
0.0
 11
4051.4169023830659
 21
4060.3198918274989
 31
0.0
  0
LINE
  5
7A95
  8
1
  6
CONTINUOUS
 10
4411.2169023830656
 20
6918.5163745348618
 30
0.0
 11
2886.416902383065
 21
6918.5163745348618
 31
0.0
  0
LINE
  5
7A96
  8
1
  6
CONTINUOUS
 10
4411.2169023830656
 20
6778.5163745348627
 30
0.0
 11
2886.416902383065
 21
6778.5163745348627
 31
0.0
  0
LINE
  5
7A97
  8
1
  6
CONTINUOUS
 10
4056.416902383065
 20
6891.5163745348618
 30
0.0
 11
3241.2169023830661
 21
6891.5163745348618
 31
0.0
  0
LINE
  5
7A98
  8
1
  6
CONTINUOUS
 10
3865.8169023830669
 20
7773.5163745348609
 30
0.0
 11
2468.8169023830669
 21
7773.5163745348609
 31
0.0
  0
LINE
  5
7A99
  8
1
  6
CONTINUOUS
 10
3865.8169023830669
 20
7103.5163745348618
 30
0.0
 11
2468.8169023830669
 21
7103.5163745348618
 31
0.0
  0
LINE
  5
7A9A
  8
1
  6
CONTINUOUS
 10
4428.8169023830669
 20
7841.5163745348618
 30
0.0
 11
3538.8169023830669
 21
7841.5163745348618
 31
0.0
  0
LINE
  5
7A9B
  8
1
  6
CONTINUOUS
 10
2508.8169023830669
 20
7103.5163745348618
 30
0.0
 11
2508.8169023830669
 21
7773.5163745348609
 31
0.0
  0
LINE
  5
7A9C
  8
1
  6
CONTINUOUS
 10
2468.8169023830669
 20
7063.5163745348618
 30
0.0
 11
2468.8169023830669
 21
7813.5163745348618
 31
0.0
  0
LINE
  5
7A9D
  8
1
  6
CONTINUOUS
 10
3241.2169023830661
 20
6896.0163745348627
 30
0.0
 11
2936.416902383065
 21
6896.0163745348627
 31
0.0
  0
LINE
  5
7A9E
  8
1
  6
CONTINUOUS
 10
3241.2169023830661
 20
6821.0163745348618
 30
0.0
 11
2936.416902383065
 21
6821.0163745348618
 31
0.0
  0
LINE
  5
7A9F
  8
1
  6
CONTINUOUS
 10
2886.416902383065
 20
6778.5163745348627
 30
0.0
 11
2886.416902383065
 21
6918.5163745348618
 31
0.0
  0
LINE
  5
7AA0
  8
1
  6
CONTINUOUS
 10
2936.416902383065
 20
6896.0163745348627
 30
0.0
 11
2936.416902383065
 21
6821.0163745348618
 31
0.0
  0
LINE
  5
7AA1
  8
1
  6
CONTINUOUS
 10
2936.416902383065
 20
6891.5163745348618
 30
0.0
 11
2528.816902383066
 21
6891.5163745348618
 31
0.0
  0
LINE
  5
7AA2
  8
1
  6
CONTINUOUS
 10
2528.816902383066
 20
7103.5163745348618
 30
0.0
 11
2528.816902383066
 21
6891.5163745348618
 31
0.0
  0
LINE
  5
7AA3
  8
1
  6
CONTINUOUS
 10
3241.2169023830661
 20
6896.0163745348627
 30
0.0
 11
3241.2169023830661
 21
6821.0163745348618
 31
0.0
  0
LINE
  5
7AA4
  8
1
  6
CONTINUOUS
 10
3118.8169023830669
 20
7103.5163745348618
 30
0.0
 11
3118.8169023830669
 21
6896.0163745348627
 31
0.0
  0
LINE
  5
7AA5
  8
1
  6
CONTINUOUS
 10
3058.8169023830669
 20
7103.5163745348618
 30
0.0
 11
3058.8169023830669
 21
6896.0163745348627
 31
0.0
  0
LINE
  5
7AA6
  8
1
  6
CONTINUOUS
 10
3578.8169023830669
 20
7856.5163745348609
 30
0.0
 11
2598.8169023830669
 21
7856.5163745348609
 31
0.0
  0
LINE
  5
7AA7
  8
1
  6
CONTINUOUS
 10
2638.8169023830669
 20
7841.5163745348618
 30
0.0
 11
2528.816902383066
 21
7841.5163745348618
 31
0.0
  0
LINE
  5
7AA8
  8
1
  6
CONTINUOUS
 10
2638.8169023830669
 20
7856.5163745348609
 30
0.0
 11
2638.8169023830669
 21
7773.5163745348609
 31
0.0
  0
LINE
  5
7AA9
  8
1
  6
CONTINUOUS
 10
2528.816902383066
 20
7841.5163745348618
 30
0.0
 11
2528.816902383066
 21
7773.5163745348609
 31
0.0
  0
LINE
  5
7AAA
  8
1
  6
CONTINUOUS
 10
3538.8169023830669
 20
7856.5163745348609
 30
0.0
 11
3538.8169023830669
 21
7773.5163745348609
 31
0.0
  0
LINE
  5
7AAB
  8
1
  6
CONTINUOUS
 10
4370.8169023830669
 20
6931.0163745348618
 30
0.0
 11
4370.8169023830669
 21
7424.0163745348618
 31
0.0
  0
LINE
  5
7AAC
  8
1
  6
CONTINUOUS
 10
4046.816902383066
 20
6931.0163745348618
 30
0.0
 11
4046.816902383066
 21
7424.0163745348618
 31
0.0
  0
LINE
  5
7AAD
  8
1
  6
CONTINUOUS
 10
3865.8169023830669
 20
7773.5163745348609
 30
0.0
 11
3865.8169023830669
 21
7103.5163745348618
 31
0.0
  0
LINE
  5
7AAE
  8
1
  6
CONTINUOUS
 10
4428.8169023830669
 20
7841.5163745348618
 30
0.0
 11
4428.8169023830669
 21
6891.5163745348618
 31
0.0
  0
LINE
  5
7AAF
  8
1
  6
CONTINUOUS
 10
4056.416902383065
 20
6896.0163745348627
 30
0.0
 11
4361.2169023830656
 21
6896.0163745348627
 31
0.0
  0
LINE
  5
7AB0
  8
1
  6
CONTINUOUS
 10
4370.8169023830669
 20
6931.0163745348618
 30
0.0
 11
4046.816902383066
 21
6931.0163745348618
 31
0.0
  0
LINE
  5
7AB1
  8
1
  6
CONTINUOUS
 10
4056.416902383065
 20
6821.0163745348618
 30
0.0
 11
4361.2169023830656
 21
6821.0163745348618
 31
0.0
  0
LINE
  5
7AB2
  8
1
  6
CONTINUOUS
 10
4056.416902383065
 20
6896.0163745348627
 30
0.0
 11
4056.416902383065
 21
6821.0163745348618
 31
0.0
  0
LINE
  5
7AB3
  8
1
  6
CONTINUOUS
 10
4229.816902383066
 20
6896.0163745348627
 30
0.0
 11
4229.816902383066
 21
6931.0163745348618
 31
0.0
  0
LINE
  5
7AB4
  8
1
  6
CONTINUOUS
 10
4187.8169023830669
 20
6896.0163745348627
 30
0.0
 11
4187.8169023830669
 21
6931.0163745348618
 31
0.0
  0
LINE
  5
7AB5
  8
1
  6
CONTINUOUS
 10
4411.2169023830656
 20
6778.5163745348627
 30
0.0
 11
4411.2169023830656
 21
6918.5163745348618
 31
0.0
  0
LINE
  5
7AB6
  8
1
  6
CONTINUOUS
 10
4361.2169023830656
 20
6896.0163745348627
 30
0.0
 11
4361.2169023830656
 21
6821.0163745348618
 31
0.0
  0
LINE
  5
7AB7
  8
1
  6
CONTINUOUS
 10
4428.8169023830669
 20
6891.5163745348618
 30
0.0
 11
4361.2169023830656
 21
6891.5163745348618
 31
0.0
  0
LINE
  5
7AB8
  8
1
  6
CONTINUOUS
 10
4370.8169023830669
 20
7424.0163745348618
 30
0.0
 11
4046.816902383066
 21
7424.0163745348618
 31
0.0
  0
LINE
  5
7AB9
  8
1
  6
CONTINUOUS
 10
6585.2054118929836
 20
4789.3198918274993
 30
0.0
 11
5915.2054118929836
 21
3864.3198918274989
 31
0.0
  0
LINE
  5
7ABA
  8
1
  6
CONTINUOUS
 10
5915.2054118929836
 20
4789.3198918274993
 30
0.0
 11
6585.2054118929836
 21
3864.3198918274989
 31
0.0
  0
LINE
  5
7ABB
  8
1
  6
CONTINUOUS
 10
6585.2054118929836
 20
5468.3198918275002
 30
0.0
 11
6585.2054118929836
 21
3850.3198918274989
 31
0.0
  0
LINE
  5
7ABC
  8
1
  6
CONTINUOUS
 10
5915.2054118929836
 20
5468.3198918275002
 30
0.0
 11
5915.2054118929836
 21
3850.3198918274989
 31
0.0
  0
LINE
  5
7ABD
  8
1
  6
CONTINUOUS
 10
5742.7054118929836
 20
4222.3198918274993
 30
0.0
 11
5742.7054118929836
 21
3850.3198918274989
 31
0.0
  0
LINE
  5
7ABE
  8
1
  6
CONTINUOUS
 10
5632.7054118929846
 20
4212.7198918274989
 30
0.0
 11
5632.7054118929846
 21
3907.9198918275001
 31
0.0
  0
LINE
  5
7ABF
  8
1
  6
CONTINUOUS
 10
5590.2054118929836
 20
5027.7198918274999
 30
0.0
 11
5590.2054118929836
 21
3857.9198918274992
 31
0.0
  0
LINE
  5
7AC0
  8
1
  6
CONTINUOUS
 10
5730.2054118929846
 20
5027.7198918274999
 30
0.0
 11
5730.2054118929846
 21
3857.9198918274992
 31
0.0
  0
LINE
  5
7AC1
  8
1
  6
CONTINUOUS
 10
5707.7054118929836
 20
4212.7198918274989
 30
0.0
 11
5707.7054118929836
 21
3907.9198918275001
 31
0.0
  0
LINE
  5
7AC2
  8
1
  6
CONTINUOUS
 10
5915.2054118929836
 20
3864.3198918274989
 30
0.0
 11
6585.2054118929836
 21
3864.3198918274989
 31
0.0
  0
LINE
  5
7AC3
  8
1
  6
CONTINUOUS
 10
5703.2054118929846
 20
3725.3198918274989
 30
0.0
 11
6653.2054118929846
 21
3725.3198918274989
 31
0.0
  0
LINE
  5
7AC4
  8
1
  6
CONTINUOUS
 10
5703.2054118929846
 20
3850.3198918274989
 30
0.0
 11
6653.2054118929846
 21
3850.3198918274989
 31
0.0
  0
LINE
  5
7AC5
  8
1
  6
CONTINUOUS
 10
5703.2054118929846
 20
3850.3198918274989
 30
0.0
 11
5703.2054118929846
 21
3725.3198918274989
 31
0.0
  0
LINE
  5
7AC6
  8
1
  6
CONTINUOUS
 10
5742.7054118929836
 20
3900.3198918275002
 30
0.0
 11
5915.2054118929836
 21
3900.3198918275002
 31
0.0
  0
LINE
  5
7AC7
  8
1
  6
CONTINUOUS
 10
5632.7054118929846
 20
3907.9198918275001
 30
0.0
 11
5707.7054118929836
 21
3907.9198918275001
 31
0.0
  0
LINE
  5
7AC8
  8
1
  6
CONTINUOUS
 10
5590.2054118929836
 20
3857.9198918274992
 30
0.0
 11
5730.2054118929846
 21
3857.9198918274992
 31
0.0
  0
LINE
  5
7AC9
  8
1
  6
CONTINUOUS
 10
6653.2054118929846
 20
3850.3198918274989
 30
0.0
 11
6653.2054118929846
 21
3725.3198918274989
 31
0.0
  0
LINE
  5
7ACA
  8
1
  6
CONTINUOUS
 10
5632.7054118929846
 20
4977.7198918274999
 30
0.0
 11
5632.7054118929846
 21
4672.9198918274997
 31
0.0
  0
LINE
  5
7ACB
  8
1
  6
CONTINUOUS
 10
5707.7054118929836
 20
4977.7198918274999
 30
0.0
 11
5707.7054118929836
 21
4672.9198918274997
 31
0.0
  0
LINE
  5
7ACC
  8
1
  6
CONTINUOUS
 10
6668.2054118929836
 20
5315.3198918274993
 30
0.0
 11
6668.2054118929836
 21
4335.3198918274993
 31
0.0
  0
LINE
  5
7ACD
  8
1
  6
CONTINUOUS
 10
5915.2054118929836
 20
4789.3198918274993
 30
0.0
 11
6585.2054118929836
 21
4789.3198918274993
 31
0.0
  0
LINE
  5
7ACE
  8
1
  6
CONTINUOUS
 10
5742.7054118929836
 20
4222.3198918274993
 30
0.0
 11
5915.2054118929836
 21
4222.3198918274993
 31
0.0
  0
LINE
  5
7ACF
  8
1
  6
CONTINUOUS
 10
5707.7054118929836
 20
4795.3198918274993
 30
0.0
 11
5915.2054118929836
 21
4795.3198918274993
 31
0.0
  0
LINE
  5
7AD0
  8
1
  6
CONTINUOUS
 10
5707.7054118929836
 20
4081.3198918274989
 30
0.0
 11
5742.7054118929836
 21
4081.3198918274989
 31
0.0
  0
LINE
  5
7AD1
  8
1
  6
CONTINUOUS
 10
5707.7054118929836
 20
4039.3198918274989
 30
0.0
 11
5742.7054118929836
 21
4039.3198918274989
 31
0.0
  0
LINE
  5
7AD2
  8
1
  6
CONTINUOUS
 10
5632.7054118929846
 20
4672.9198918274997
 30
0.0
 11
5707.7054118929836
 21
4672.9198918274997
 31
0.0
  0
LINE
  5
7AD3
  8
1
  6
CONTINUOUS
 10
5632.7054118929846
 20
4212.7198918274989
 30
0.0
 11
5707.7054118929836
 21
4212.7198918274989
 31
0.0
  0
LINE
  5
7AD4
  8
1
  6
CONTINUOUS
 10
6585.2054118929836
 20
4375.3198918275002
 30
0.0
 11
6668.2054118929836
 21
4375.3198918275002
 31
0.0
  0
LINE
  5
7AD5
  8
1
  6
CONTINUOUS
 10
5915.2054118929836
 20
5468.3198918275002
 30
0.0
 11
6585.2054118929836
 21
5468.3198918275002
 31
0.0
  0
LINE
  5
7AD6
  8
1
  6
CONTINUOUS
 10
5707.7054118929836
 20
4855.3198918274993
 30
0.0
 11
5915.2054118929836
 21
4855.3198918274993
 31
0.0
  0
LINE
  5
7AD7
  8
1
  6
CONTINUOUS
 10
5632.7054118929846
 20
4977.7198918274999
 30
0.0
 11
5707.7054118929836
 21
4977.7198918274999
 31
0.0
  0
LINE
  5
7AD8
  8
1
  6
CONTINUOUS
 10
5590.2054118929836
 20
5027.7198918274999
 30
0.0
 11
5730.2054118929846
 21
5027.7198918274999
 31
0.0
  0
LINE
  5
7AD9
  8
1
  6
CONTINUOUS
 10
6585.2054118929836
 20
5275.3198918275002
 30
0.0
 11
6668.2054118929836
 21
5275.3198918275002
 31
0.0
  0
DIMENSION
  5
7AEF
  8
3
  6
CONTINUOUS
  2
*D1
 10
3088.8169023830669
 20
3425.2895808274998
 30
0.0
 11
2803.1026166687811
 21
3425.2895808274998
 31
0.0
 70
   128
 13
2528.816902383066
 23
3725.3198918274989
 33
0.0
 14
3088.8169023830669
 24
3633.7610188274998
 34
0.0
1001
ACAD
1000
DSTYLE
1002
{
1070
   287
1070
     3
1070
   287
1070
     3
1070
    40
1040
40.0
1070
   143
1040
0.039
1070
   172
1070
     1
1070
   271
1070
     0
1070
   279
1070
     0
1070
   288
1070
     1
1002
}
  0
DIMENSION
  5
7AFB
  8
3
  6
CONTINUOUS
  2
*D2
 10
4428.816902383066
 20
3425.2895808274998
 30
0.0
 11
3758.816902383066
 21
3525.2895808274998
 31
0.0
 70
     0
 13
3088.8169023830669
 23
3633.7610188274998
 33
0.0
 14
4428.816902383066
 24
3725.3198918274989
 34
0.0
1001
ACAD
1000
DSTYLE
1002
{
1070
   287
1070
     3
1070
   287
1070
     3
1070
    40
1040
40.0
1070
   143
1040
0.039
1070
   172
1070
     1
1070
   271
1070
     0
1070
   279
1070
     0
1070
   288
1070
     1
1002
}
  0
DIMENSION
  5
7B08
  8
3
  6
CONTINUOUS
  2
*D3
 10
2238.3402053830659
 20
3864.3198918274989
 30
0.0
 11
2238.3402053830659
 21
4365.9340668274999
 31
0.0
 70
   128
 13
2468.8169023830669
 23
4789.3198918274993
 33
0.0
 14
2468.8169023830669
 24
3864.3198918274989
 34
0.0
 50
90.0
1001
ACAD
1000
DSTYLE
1002
{
1070
   287
1070
     3
1070
   287
1070
     3
1070
    40
1040
40.0
1070
   143
1040
0.039
1070
   172
1070
     1
1070
   271
1070
     0
1070
   279
1070
     0
1070
   288
1070
     1
1002
}
  0
DIMENSION
  5
7B2E
  8
3
  6
CONTINUOUS
  2
*D4
 10
1462.5187093830671
 20
3725.3198918274989
 30
0.0
 11
1462.5187093830659
 21
4530.4321208275014
 31
0.0
 70
   128
 13
3088.8169023830669
 23
5468.3198918275002
 33
0.0
 14
2528.816902383066
 24
3725.3198918274989
 34
0.0
 50
90.0
1001
ACAD
1000
DSTYLE
1002
{
1070
   287
1070
     3
1070
   287
1070
     3
1070
    40
1040
40.0
1070
   143
1040
0.039
1070
   172
1070
     1
1070
   271
1070
     0
1070
   279
1070
     0
1070
   288
1070
     1
1002
}
  0
DIMENSION
  5
7B3B
  8
3
  6
CONTINUOUS
  2
*D5
 10
3088.8169023830669
 20
5621.7685208275007
 30
0.0
 11
2814.5311880973532
 21
5621.7685208275007
 31
0.0
 70
   128
 13
2468.8169023830669
 23
4829.3198918274993
 33
0.0
 14
3088.8169023830669
 24
5465.8871798275004
 34
0.0
1001
ACAD
1000
DSTYLE
1002
{
1070
   287
1070
     3
1070
   287
1070
     3
1070
    40
1040
40.0
1070
   143
1040
0.039
1070
   172
1070
     1
1070
   271
1070
     0
1070
   279
1070
     0
1070
   288
1070
     1
1002
}
  0
DIMENSION
  5
7B47
  8
3
  6
CONTINUOUS
  2
*D6
 10
3865.8169023830669
 20
5621.7685208275007
 30
0.0
 11
3477.3169023830669
 21
5721.7685208275007
 31
0.0
 70
     0
 13
3088.8169023830669
 23
5465.8871798275004
 33
0.0
 14
3865.8169023830669
 24
4825.3198918275002
 34
0.0
1001
ACAD
1000
DSTYLE
1002
{
1070
   287
1070
     3
1070
   287
1070
     3
1070
    40
1040
40.0
1070
   143
1040
0.039
1070
   172
1070
     1
1070
   271
1070
     0
1070
   279
1070
     0
1070
   288
1070
     1
1002
}
  0
DIMENSION
  5
7B54
  8
3
  6
CONTINUOUS
  2
*D7
 10
4428.8169023830669
 20
6448.03942253486
 30
0.0
 11
3438.8207503830672
 21
6448.03942253486
 31
0.0
 70
   128
 13
2528.816902383066
 23
6891.5163745348618
 33
0.0
 14
4428.8169023830669
 24
6891.5163745348618
 34
0.0
1001
ACAD
1000
DSTYLE
1002
{
1070
   287
1070
     3
1070
   287
1070
     3
1070
    40
1040
40.0
1070
   143
1040
0.039
1070
   172
1070
     1
1070
   271
1070
     0
1070
   279
1070
     0
1070
   288
1070
     1
1002
}
  0
DIMENSION
  5
7B61
  8
3
  6
CONTINUOUS
  2
*D8
 10
4810.0118053830683
 20
6891.5163745348618
 30
0.0
 11
4810.0118053830674
 21
7394.1847765348612
 31
0.0
 70
   128
 13
4428.8169023830669
 23
7841.5163745348618
 33
0.0
 14
4428.8169023830669
 24
6891.5163745348618
 34
0.0
 50
90.0
1001
ACAD
1000
DSTYLE
1002
{
1070
   287
1070
     3
1070
   287
1070
     3
1070
    40
1040
40.0
1070
   143
1040
0.039
1070
   172
1070
     1
1070
   271
1070
     0
1070
   279
1070
     0
1070
   288
1070
     1
1002
}
  0
LINE
  5
7B62
  8
2
  6
CENTER
 10
4516.925568383067
 20
7366.5163745348618
 30
0.0
 11
2155.7383073830661
 21
7366.5163745348618
 31
0.0
  0
LINE
  5
7B63
  8
2
  6
CENTER
 10
3088.8169023830669
 20
5530.4432128274993
 30
0.0
 11
3088.8169023830669
 21
3633.7610188274998
 31
0.0
  0
LINE
  5
7B64
  8
2
  6
CENTER
 10
6250.2054118929836
 20
5644.8331188274997
 30
0.0
 11
6250.2054118929836
 21
3618.9136838274999
 31
0.0
  0
LINE
  5
7B65
  8
2
  6
CENTER
 10
3921.7605963830661
 20
4825.3198918275002
 30
0.0
 11
2358.7106043830659
 21
4825.3198918275002
 31
0.0
  0
DIMENSION
  5
7B74
  8
3
  6
CONTINUOUS
  2
*D9
 10
6250.2054118929836
 20
3447.840221827501
 30
0.0
 11
6004.1152941628534
 21
3534.7397109285812
 31
0.0
 70
   128
 13
5703.2054118929846
 23
3725.3198918274989
 33
0.0
 14
6250.2054118929836
 24
3618.9136838274999
 34
0.0
1001
ACAD
1000
DSTYLE
1002
{
1070
   288
1070
     1
1070
   172
1070
     1
1070
    40
1040
40.0
1070
   271
1070
     0
1070
   143
1040
0.039
1002
}
  0
DIMENSION
  5
7B82
  8
3
  6
CONTINUOUS
  2
*D10
 10
6653.2054118929846
 20
3447.2929608274999
 30
0.0
 11
6466.1698979451176
 21
3549.632422838909
 31
0.0
 70
   128
 13
6250.2054118929836
 23
3618.9136838274999
 33
0.0
 14
6653.2054118929846
 24
3725.3198918274989
 34
0.0
1001
ACAD
1000
DSTYLE
1002
{
1070
   288
1070
     1
1070
   172
1070
     1
1070
    40
1040
40.0
1070
   271
1070
     0
1070
   143
1040
0.039
1002
}
  0
DIMENSION
  5
7BA5
  8
3
  6
CONTINUOUS
  2
*D11
 10
7014.8997758929863
 20
4375.3198918275002
 30
0.0
 11
7014.8997758929854
 21
4773.5438668275001
 31
0.0
 70
   128
 13
6668.2054118929836
 23
5275.3198918275002
 33
0.0
 14
6668.2054118929836
 24
4375.3198918275002
 34
0.0
 50
90.0
1001
ACAD
1000
DSTYLE
1002
{
1070
   287
1070
     3
1070
   287
1070
     3
1070
     3
1000
φ<>
1070
    40
1040
40.0
1070
   143
1040
0.039
1070
   172
1070
     1
1070
   271
1070
     0
1070
   279
1070
     0
1070
   288
1070
     1
1002
}
  0
DIMENSION
  5
7BB2
  8
3
  6
CONTINUOUS
  2
*D12
 10
6250.2054118929836
 20
5957.8673448275013
 30
0.0
 11
5958.776840464413
 21
5957.8673448275013
 31
0.0
 70
   128
  1
MAX\P720
 13
5590.2054118929836
 23
5027.7198918274999
 33
0.0
 14
6250.2054118929836
 24
5840.2534748275002
 34
0.0
1001
ACAD
1000
DSTYLE
1002
{
1070
   287
1070
     3
1070
   287
1070
     3
1070
    40
1040
40.0
1070
   143
1040
0.039
1070
   172
1070
     1
1070
   271
1070
     0
1070
   279
1070
     0
1070
   288
1070
     1
1002
}
  0
DIMENSION
  5
7BC0
  8
3
  6
CONTINUOUS
  2
*D13
 10
6668.2054118929836
 20
5958.9618688275013
 30
0.0
 11
6458.7174068796894
 21
6066.4965770411509
 31
0.0
 70
   128
 13
6250.2054118929836
 23
5840.2534748275002
 33
0.0
 14
6668.2054118929836
 24
5315.3198918274993
 34
0.0
1001
ACAD
1000
DSTYLE
1002
{
1070
   288
1070
     1
1070
   172
1070
     1
1070
    40
1040
40.0
1070
   271
1070
     0
1070
   143
1040
0.039
1002
}
  0
DIMENSION
  5
7BCD
  8
3
  6
CONTINUOUS
  2
*D14
 10
6585.2054118929836
 20
5633.3174878275004
 30
0.0
 11
6189.4911261786992
 21
5633.3174878275004
 31
0.0
 70
   128
 13
5915.2054118929836
 23
5468.3198918275002
 33
0.0
 14
6585.2054118929836
 24
5468.3198918275002
 34
0.0
1001
ACAD
1000
DSTYLE
1002
{
1070
   287
1070
     3
1070
   287
1070
     3
1070
    40
1040
40.0
1070
   143
1040
0.039
1070
   172
1070
     1
1070
   271
1070
     0
1070
   279
1070
     0
1070
   288
1070
     1
1002
}
  0
LINE
  5
7BE4
  8
4
  6
CONTINUOUS
 10
7400.0
 20
2000.0
 30
0.0
 11
7400.0
 21
1200.0
 31
0.0
  0
LINE
  5
7BE5
  8
4
  6
CONTINUOUS
 10
4600.0
 20
2000.0
 30
0.0
 11
4600.0
 21
1200.0
 31
0.0
  0
LINE
  5
7BE6
  8
4
  6
CONTINUOUS
 10
2600.0
 20
2000.0
 30
0.0
 11
2600.0
 21
1200.0
 31
0.0
  0
LINE
  5
7BE9
  8
4
  6
CONTINUOUS
 10
2600.0
 20
1200.0
 30
0.0
 11
7400.0
 21
1200.0
 31
0.0
  0
LINE
  5
7BEA
  8
4
  6
CONTINUOUS
 10
2600.0
 20
1600.0
 30
0.0
 11
7400.0
 21
1600.0
 31
0.0
  0
TEXT
  5
7BEB
  8
4
  6
CONTINUOUS
 10
2754.0083232000002
 20
1726.1721031999989
 30
0.0
 40
200.0
  1
機器名称
  0
TEXT
  5
7BEC
  8
4
  6
CONTINUOUS
 10
2745.032424
 20
1286.5806264
 30
0.0
 40
200.0
  1
機器型番
  0
TEXT
  5
7BED
  8
4
  6
CONTINUOUS
 10
4710.7149823999989
 20
1690.2870751999999
 30
0.0
 40
168.88888879999999
  1
ミツヤリミットロードファン
  0
TEXT
  5
7BEE
  8
4
  6
CONTINUOUS
 10
4746.6179824000001
 20
1268.6383367999999
 30
0.0
 40
200.0
  1
LLE#5 1/2-4
  0
TEXT
  5
7BF0
  8
4
  6
CONTINUOUS
 10
3619.1430624
 20
9533.7153655999991
 30
0.0
 40
216.0
  1
床置ベット
  0
TEXT
  5
7BF1
  8
4
  6
CONTINUOUS
 10
1264.6703735999999
 20
10135.5239048
 30
0.0
 40
240.0
  1
ベルト駆動式片吸込両持排煙ファン
  0
LINE
  5
7BF2
  8
4
  6
CONTINUOUS
 10
1000.0
 20
9877.635016799999
 30
0.0
 11
7400.0
 21
9877.635016799999
 31
0.0
  0
LINE
  5
7BF3
  8
4
  6
CONTINUOUS
 10
1000.0
 20
10677.635016800001
 30
0.0
 11
7400.0
 21
10677.635016800001
 31
0.0
  0
LINE
  5
7BF4
  8
4
  6
CONTINUOUS
 10
2600.0
 20
2000.0
 30
0.0
 11
7400.0
 21
2000.0
 31
0.0
  0
LINE
  5
7BF5
  8
4
  6
CONTINUOUS
 10
1000.0
 20
10677.635016800001
 30
0.0
 11
1000.0
 21
9877.635016799999
 31
0.0
  0
TEXT
  5
7BF6
  8
4
  6
CONTINUOUS
 10
1667.538650205337
 20
9529.2779104000001
 30
0.0
 40
216.0
  1
右回転左横向
  0
TEXT
  5
7BF7
  8
4
  6
CONTINUOUS
 10
5875.8782375999999
 20
10824.244326399999
 30
0.0
 40
224.0
  1
No.
  0
TEXT
  5
7BF8
  8
4
  6
CONTINUOUS
 10
5245.1842504000006
 20
9533.7153655999991
 30
0.0
 40
216.0
  1
縮尺：1/40
  0
LINE
  5
7BF9
  8
4
  6
CONTINUOUS
 10
7400.0
 20
10677.635016800001
 30
0.0
 11
7400.0
 21
9877.635016799999
 31
0.0
  0
LINE
  5
7BFB
  8
4
  6
CONTINUOUS
 10
5762.4696895999996
 20
10725.0543328
 30
0.0
 11
5762.4696895999996
 21
11146.609046400001
 31
0.0
  0
LINE
  5
7BFC
  8
4
  6
CONTINUOUS
 10
5762.4696895999996
 20
11146.609046400001
 30
0.0
 11
7400.0
 21
11146.609046400001
 31
0.0
  0
LINE
  5
7BFD
  8
4
  6
CONTINUOUS
 10
7400.0
 20
11146.609046400001
 30
0.0
 11
7400.0
 21
10725.0543328
 31
0.0
  0
LINE
  5
7BFE
  8
4
  6
CONTINUOUS
 10
7400.0
 20
10725.0543328
 30
0.0
 11
5762.4696895999996
 21
10725.0543328
 31
0.0
  0
DIMENSION
  5
7C35
  8
3
  6
CONTINUOUS
  2
*D15
 10
1972.5571773830679
 20
4825.3198918275011
 30
0.0
 11
1972.5571773830659
 21
4333.8379918275004
 31
0.0
 70
   128
 13
2468.8169023830669
 23
3864.3198918274989
 33
0.0
 14
2555.7921373830659
 24
4825.3198918275002
 34
0.0
 50
90.0
1001
ACAD
1000
DSTYLE
1002
{
1070
   287
1070
     3
1070
   287
1070
     3
1070
    40
1040
40.0
1070
   143
1040
0.039
1070
   172
1070
     1
1070
   271
1070
     0
1070
   279
1070
     0
1070
   288
1070
     1
1002
}
  0
DIMENSION
  5
7C42
  8
3
  6
CONTINUOUS
  2
*D16
 10
1733.271215383066
 20
4825.3198918275011
 30
0.0
 11
1733.2712153830651
 21
5099.6056061132149
 31
0.0
 70
   128
 13
3088.8169023830669
 23
5468.3198918275002
 33
0.0
 14
2555.7921373830659
 24
4825.3198918275002
 34
0.0
 50
90.0
1001
ACAD
1000
DSTYLE
1002
{
1070
   287
1070
     3
1070
   287
1070
     3
1070
    40
1040
40.0
1070
   143
1040
0.039
1070
   172
1070
     1
1070
   271
1070
     0
1070
   279
1070
     0
1070
   288
1070
     1
1002
}
  0
DIMENSION
  5
7C4E
  8
3
  6
CONTINUOUS
  2
*D17
 10
1733.2712153830651
 20
3725.3198918274989
 30
0.0
 11
1633.2712153830639
 21
4275.3198918275002
 31
0.0
 70
     0
 13
2555.7921373830659
 23
4825.3198918275002
 33
0.0
 14
2528.816902383066
 24
3725.3198918274989
 34
0.0
 50
90.0
1001
ACAD
1000
DSTYLE
1002
{
1070
   287
1070
     3
1070
   287
1070
     3
1070
    40
1040
40.0
1070
   143
1040
0.039
1070
   172
1070
     1
1070
   271
1070
     0
1070
   279
1070
     0
1070
   288
1070
     1
1002
}
  0
DIMENSION
  5
7DC5
  8
3
  2
*D18
 10
4428.816902383066
 20
5872.8916279894765
 30
0.0
 11
3492.6249113345038
 21
5872.8916279894765
 31
0.0
 70
   128
 13
2468.8169023830669
 23
4829.3198918274993
 33
0.0
 14
4428.816902383066
 24
3850.3198918274989
 34
0.0
1001
ACAD
1000
DSTYLE
1002
{
1070
   287
1070
     3
1070
   287
1070
     3
1070
    40
1040
40.0
1070
   143
1040
0.039
1070
   172
1070
     1
1070
   271
1070
     0
1070
   279
1070
     0
1070
   288
1070
     1
1002
}
  0
ENDSEC
  0
EOF
