  0
SECTION
  2
HEADER
  9
$ACADVER
  1
AC1009
  9
$INSBASE
 10
0.0
 20
0.0
 30
0.0
  9
$EXTMIN
 10
1000.0
 20
1200.0
 30
0.0
  9
$EXTMAX
 10
7400.0
 20
11146.609046400001
 30
0.0
  9
$LIMMIN
 10
0.0
 20
0.0
  9
$LIMMAX
 10
297.0
 20
210.0
  9
$ORTHOMODE
 70
     0
  9
$REGENMODE
 70
     1
  9
$FILLMODE
 70
     0
  9
$QTEXTMODE
 70
     0
  9
$MIRRTEXT
 70
     1
  9
$DRAGMODE
 70
     2
  9
$LTSCALE
 40
100.0
  9
$OSMODE
 70
    37
  9
$ATTMODE
 70
     1
  9
$TEXTSIZE
 40
180.0
  9
$TRACEWID
 40
0.05
  9
$TEXTSTYLE
  7
STANDARD
  9
$CLAYER
  8
3
  9
$CELTYPE
  6
BYLAYER
  9
$CECOLOR
 62
   256
  9
$DIMSCALE
 40
40.0
  9
$DIMASZ
 40
2.0
  9
$DIMEXO
 40
0.5
  9
$DIMDLI
 40
10.0
  9
$DIMRND
 40
0.0
  9
$DIMDLE
 40
0.0
  9
$DIMEXE
 40
1.0
  9
$DIMTP
 40
1.0
  9
$DIMTM
 40
1.0
  9
$DIMTXT
 40
3.0
  9
$DIMCEN
 40
0.0
  9
$DIMTSZ
 40
0.0
  9
$DIMTOL
 70
     0
  9
$DIMLIM
 70
     0
  9
$DIMTIH
 70
     0
  9
$DIMTOH
 70
     0
  9
$DIMSE1
 70
     0
  9
$DIMSE2
 70
     0
  9
$DIMTAD
 70
     1
  9
$DIMZIN
 70
     8
  9
$DIMBLK
  1

  9
$DIMASO
 70
     1
  9
$DIMSHO
 70
     1
  9
$DIMPOST
  1

  9
$DIMAPOST
  1

  9
$DIMALT
 70
     0
  9
$DIMALTD
 70
     2
  9
$DIMALTF
 40
0.039
  9
$DIMLFAC
 40
1.0
  9
$DIMTOFL
 70
     1
  9
$DIMTVP
 40
0.0
  9
$DIMTIX
 70
     0
  9
$DIMSOXD
 70
     0
  9
$DIMSAH
 70
     1
  9
$DIMBLK1
  1
OPEN
  9
$DIMBLK2
  1
OPEN
  9
$DIMSTYLE
  2
IGA
  9
$DIMCLRD
 70
     0
  9
$DIMCLRE
 70
     0
  9
$DIMCLRT
 70
     0
  9
$DIMTFAC
 40
10.0
  9
$DIMGAP
 40
1.0
  9
$LUNITS
 70
     2
  9
$LUPREC
 70
     3
  9
$SKETCHINC
 40
0.1
  9
$FILLETRAD
 40
50.0
  9
$AUNITS
 70
     0
  9
$AUPREC
 70
     0
  9
$MENU
  1
acad
  9
$ELEVATION
 40
0.0
  9
$PELEVATION
 40
0.0
  9
$THICKNESS
 40
0.0
  9
$LIMCHECK
 70
     0
  9
$BLIPMODE
 70
     0
  9
$CHAMFERA
 40
0.5
  9
$CHAMFERB
 40
0.5
  9
$SKPOLY
 70
     0
  9
$TDCREATE
 40
2450752.3520144671
  9
$TDUPDATE
 40
2454953.6857673149
  9
$TDINDWG
 40
0.0074595486
  9
$TDUSRTIMER
 40
0.0074595486
  9
$USRTIMER
 70
     1
  9
$ANGBASE
 50
0.0
  9
$ANGDIR
 70
     0
  9
$PDMODE
 70
     0
  9
$PDSIZE
 40
0.0
  9
$PLINEWID
 40
0.0
  9
$COORDS
 70
     1
  9
$SPLFRAME
 70
     0
  9
$SPLINETYPE
 70
     6
  9
$SPLINESEGS
 70
     8
  9
$ATTDIA
 70
     0
  9
$ATTREQ
 70
     1
  9
$HANDLING
 70
 10241
  9
$HANDSEED
  5
7FC1
  9
$SURFTAB1
 70
     6
  9
$SURFTAB2
 70
     6
  9
$SURFTYPE
 70
     6
  9
$SURFU
 70
     6
  9
$SURFV
 70
     6
  9
$UCSNAME
  2

  9
$UCSORG
 10
0.0
 20
0.0
 30
0.0
  9
$UCSXDIR
 10
1.0
 20
0.0
 30
0.0
  9
$UCSYDIR
 10
0.0
 20
1.0
 30
0.0
  9
$PUCSNAME
  2

  9
$PUCSORG
 10
0.0
 20
0.0
 30
0.0
  9
$PUCSXDIR
 10
1.0
 20
0.0
 30
0.0
  9
$PUCSYDIR
 10
0.0
 20
1.0
 30
0.0
  9
$USERI1
 70
     0
  9
$USERI2
 70
     0
  9
$USERI3
 70
     0
  9
$USERI4
 70
     0
  9
$USERI5
 70
     0
  9
$USERR1
 40
0.0
  9
$USERR2
 40
0.0
  9
$USERR3
 40
0.0
  9
$USERR4
 40
0.0
  9
$USERR5
 40
0.0
  9
$WORLDVIEW
 70
     1
  9
$SHADEDGE
 70
     3
  9
$SHADEDIF
 70
    70
  9
$TILEMODE
 70
     1
  9
$MAXACTVP
 70
    16
  9
$PLIMCHECK
 70
     0
  9
$PEXTMIN
 10
1.0000000000000000E+020
 20
1.0000000000000000E+020
 30
1.0000000000000000E+020
  9
$PEXTMAX
 10
-1.0000000000000000E+020
 20
-1.0000000000000000E+020
 30
-1.0000000000000000E+020
  9
$PLIMMIN
 10
0.0
 20
0.0
  9
$PLIMMAX
 10
12.0
 20
9.0
  9
$UNITMODE
 70
     0
  9
$VISRETAIN
 70
     0
  9
$PLINEGEN
 70
     0
  9
$PSLTSCALE
 70
     1
  0
ENDSEC
  0
SECTION
  2
TABLES
  0
TABLE
  2
VPORT
 70
     2
  0
VPORT
  2
*ACTIVE
 70
     0
 10
0.0
 20
0.0
 11
1.0
 21
1.0
 12
16910.21507518681
 22
6221.8389837043669
 13
0.0
 23
0.0
 14
10.0
 24
10.0
 15
10.0
 25
10.0
 16
0.0
 26
0.0
 36
1.0
 17
0.0
 27
0.0
 37
0.0
 40
11487.963847120311
 41
3.1666666666666661
 42
50.0
 43
0.0
 44
0.0
 50
0.0
 51
0.0
 71
     0
 72
   100
 73
     1
 74
     0
 75
     0
 76
     0
 77
     0
 78
     0
  0
ENDTAB
  0
TABLE
  2
LTYPE
 70
     2
  0
LTYPE
  2
CONTINUOUS
 70
     0
  3
Solid line
 72
    65
 73
     0
 40
0.0
  0
LTYPE
  2
CENTER
 70
     0
  3
____ _ ____ _ ____ _ ____ _ ____ _ ____ _ ____ 
 72
    65
 73
     4
 40
2.0
 49
1.25
 49
-0.25
 49
0.25
 49
-0.25
  0
ENDTAB
  0
TABLE
  2
LAYER
 70
     6
  0
LAYER
  2
0
 70
     0
 62
     7
  6
CONTINUOUS
  0
LAYER
  2
3
 70
     0
 62
     2
  6
CONTINUOUS
  0
LAYER
  2
2
 70
     0
 62
     3
  6
CENTER
  0
LAYER
  2
1
 70
     0
 62
     4
  6
CONTINUOUS
  0
LAYER
  2
4
 70
     0
 62
     7
  6
CONTINUOUS
  0
LAYER
  2
DEFPOINTS
 70
     0
 62
     7
  6
CONTINUOUS
  0
ENDTAB
  0
TABLE
  2
STYLE
 70
     1
  0
STYLE
  2
STANDARD
 70
     0
 40
0.0
 41
1.0
 50
0.0
 71
     0
 42
180.0
  3
simplex.shx
  4
extfont.shx
  0
ENDTAB
  0
TABLE
  2
VIEW
 70
     0
  0
ENDTAB
  0
TABLE
  2
UCS
 70
     0
  0
ENDTAB
  0
TABLE
  2
APPID
 70
     1
  0
APPID
  2
ACAD
 70
     0
  0
ENDTAB
  0
TABLE
  2
DIMSTYLE
 70
     1
  0
DIMSTYLE
  2
IGA
 70
     0
  3

  4

  5

  6
OPEN
  7
OPEN
 40
2.0
 41
2.0
 42
0.5
 43
10.0
 44
1.0
 45
0.0
 46
0.0
 47
1.0
 48
1.0
140
3.0
141
0.0
142
0.0
143
0.03937
144
1.0
145
0.0
146
10.0
147
1.0
 71
     0
 72
     0
 73
     0
 74
     0
 75
     0
 76
     0
 77
     1
 78
     8
170
     0
171
     2
172
     0
173
     1
174
     0
175
     0
176
     0
177
     0
178
     0
  0
ENDTAB
  0
ENDSEC
  0
SECTION
  2
BLOCKS
  0
BLOCK
  8
0
  2
$MODEL_SPACE
 70
     0
 10
0.0
 20
0.0
 30
0.0
  3
$MODEL_SPACE
  1

  0
ENDBLK
  5
1B
  8
0
  0
BLOCK
 67
     1
  8
0
  2
$PAPER_SPACE
 70
     0
 10
0.0
 20
0.0
 30
0.0
  3
$PAPER_SPACE
  1

  0
ENDBLK
  5
18
 67
     1
  8
0
  0
BLOCK
  8
0
  2
_OPEN
 70
     0
 10
0.0
 20
0.0
 30
0.0
  3
_OPEN
  1

  0
LINE
  5
7ADA
  8
0
  6
BYBLOCK
 62
     0
 10
-1.0
 20
0.166667
 30
0.0
 11
0.0
 21
0.0
 31
0.0
  0
LINE
  5
7ADB
  8
0
  6
BYBLOCK
 62
     0
 10
0.0
 20
0.0
 30
0.0
 11
-1.0
 21
-0.166667
 31
0.0
  0
LINE
  5
7ADC
  8
0
  6
BYBLOCK
 62
     0
 10
0.0
 20
0.0
 30
0.0
 11
-1.0
 21
0.0
 31
0.0
  0
ENDBLK
  5
7ADD
  8
0
  0
BLOCK
  8
0
  2
*D1
 70
     1
 10
0.0
 20
0.0
 30
0.0
  3
*D1
  1

  0
LINE
  5
7F34
  8
3
  6
CONTINUOUS
 62
     0
 10
1695.1678501323579
 20
3515.7920771775148
 30
0.0
 11
1695.1678501323579
 21
3143.865063177514
 31
0.0
  0
LINE
  5
7F35
  8
3
  6
CONTINUOUS
 62
     0
 10
3035.1678501323581
 20
3380.081926177515
 30
0.0
 11
3035.1678501323581
 21
3143.865063177514
 31
0.0
  0
LINE
  5
7F36
  8
3
  6
CONTINUOUS
 62
     0
 10
1775.1678501323579
 20
3183.865063177514
 30
0.0
 11
2955.1678501323581
 21
3183.865063177514
 31
0.0
  0
INSERT
  5
7F37
  8
3
  6
CONTINUOUS
 62
     0
  2
_OPEN
 10
1695.1678501323579
 20
3183.865063177514
 30
0.0
 41
80.0
 42
80.0
 43
80.0
 50
180.0
  0
INSERT
  5
7F38
  8
3
  6
CONTINUOUS
 62
     0
  2
_OPEN
 10
3035.1678501323581
 20
3183.865063177514
 30
0.0
 41
80.0
 42
80.0
 43
80.0
  0
TEXT
  8
3
  40
120
  5
7FB2
  62
0
  72
0
  71
0
 10
2109.54
 20
3071.47
 30
0.000000
  1
1340
  0
POINT
  5
7F3A
  8
DEFPOINTS
  6
CONTINUOUS
 62
     0
 10
1695.1678501323579
 20
3535.7920771775148
 30
0.0
  0
POINT
  5
7F3B
  8
DEFPOINTS
  6
CONTINUOUS
 62
     0
 10
3035.1678501323581
 20
3400.081926177515
 30
0.0
  0
POINT
  5
7F3C
  8
DEFPOINTS
  6
CONTINUOUS
 62
     0
 10
3035.1678501323581
 20
3183.865063177514
 30
0.0
  0
ENDBLK
  5
7D0E
  8
0
  0
BLOCK
  8
0
  2
*D2
 70
     1
 10
0.0
 20
0.0
 30
0.0
  3
*D2
  1

  0
LINE
  5
7F3D
  8
3
  6
CONTINUOUS
 62
     0
 10
3035.1678501323581
 20
3380.081926177515
 30
0.0
 11
3035.1678501323581
 21
3142.633709177514
 31
0.0
  0
LINE
  5
7F3E
  8
3
  6
CONTINUOUS
 62
     0
 10
3595.1678501323581
 20
3515.7920771775148
 30
0.0
 11
3595.1678501323581
 21
3142.633709177514
 31
0.0
  0
LINE
  5
7F3F
  8
3
  6
CONTINUOUS
 62
     0
 10
3115.1678501323581
 20
3182.633709177514
 30
0.0
 11
3515.167850132359
 21
3182.633709177514
 31
0.0
  0
INSERT
  5
7F40
  8
3
  6
CONTINUOUS
 62
     0
  2
_OPEN
 10
3035.1678501323581
 20
3182.633709177514
 30
0.0
 41
80.0
 42
80.0
 43
80.0
 50
180.0
  0
INSERT
  5
7F41
  8
3
  6
CONTINUOUS
 62
     0
  2
_OPEN
 10
3595.1678501323581
 20
3182.633709177514
 30
0.0
 41
80.0
 42
80.0
 43
80.0
  0
TEXT
  8
3
  40
120
  5
7FB3
  62
0
  72
0
  71
0
 10
3080.88
 20
3070.23
 30
0.000000
  1
560
  0
POINT
  5
7F43
  8
DEFPOINTS
  6
CONTINUOUS
 62
     0
 10
3035.1678501323581
 20
3400.081926177515
 30
0.0
  0
POINT
  5
7F44
  8
DEFPOINTS
  6
CONTINUOUS
 62
     0
 10
3595.1678501323581
 20
3535.7920771775148
 30
0.0
  0
POINT
  5
7F45
  8
DEFPOINTS
  6
CONTINUOUS
 62
     0
 10
3595.1678501323581
 20
3182.633709177514
 30
0.0
  0
ENDBLK
  5
7D03
  8
0
  0
BLOCK
  8
0
  2
*D3
 70
     1
 10
0.0
 20
0.0
 30
0.0
  3
*D3
  1

  0
LINE
  5
7F46
  8
3
  6
CONTINUOUS
 62
     0
 10
2074.1678501323581
 20
4995.7920771775152
 30
0.0
 11
2074.1678501323581
 21
5253.6768861775154
 31
0.0
  0
LINE
  5
7F47
  8
3
  6
CONTINUOUS
 62
     0
 10
2999.167850132359
 20
4995.7920771775152
 30
0.0
 11
2999.167850132359
 21
5253.6768861775154
 31
0.0
  0
LINE
  5
7F48
  8
3
  6
CONTINUOUS
 62
     0
 10
2154.1678501323581
 20
5213.6768861775154
 30
0.0
 11
2919.167850132359
 21
5213.6768861775154
 31
0.0
  0
INSERT
  5
7F49
  8
3
  6
CONTINUOUS
 62
     0
  2
_OPEN
 10
2074.1678501323581
 20
5213.6768861775154
 30
0.0
 41
80.0
 42
80.0
 43
80.0
 50
180.0
  0
INSERT
  5
7F4A
  8
3
  6
CONTINUOUS
 62
     0
  2
_OPEN
 10
2999.167850132359
 20
5213.6768861775154
 30
0.0
 41
80.0
 42
80.0
 43
80.0
  0
TEXT
  8
3
  40
120
  5
7FB4
  62
0
  72
0
  71
0
 10
2283.01
 20
5101.28
 30
0.000000
  1
925
  0
POINT
  5
7F4C
  8
DEFPOINTS
  6
CONTINUOUS
 62
     0
 10
2074.1678501323581
 20
4975.7920771775161
 30
0.0
  0
POINT
  5
7F4D
  8
DEFPOINTS
  6
CONTINUOUS
 62
     0
 10
2999.167850132359
 20
4975.7920771775161
 30
0.0
  0
POINT
  5
7F4E
  8
DEFPOINTS
  6
CONTINUOUS
 62
     0
 10
2999.167850132359
 20
5213.6768861775154
 30
0.0
  0
ENDBLK
  5
7CF8
  8
0
  0
BLOCK
  8
0
  2
*D4
 70
     1
 10
0.0
 20
0.0
 30
0.0
  3
*D4
  1

  0
LINE
  5
7F4F
  8
3
  6
CONTINUOUS
 62
     0
 10
2074.1678501323581
 20
4995.7920771775152
 30
0.0
 11
2074.1678501323581
 21
5483.8809241775152
 31
0.0
  0
LINE
  5
7F50
  8
3
  6
CONTINUOUS
 62
     0
 10
3035.1678501323581
 20
4908.816841177515
 30
0.0
 11
3035.1678501323581
 21
5483.8809241775152
 31
0.0
  0
LINE
  5
7F51
  8
3
  6
CONTINUOUS
 62
     0
 10
2154.1678501323581
 20
5443.8809241775152
 30
0.0
 11
2955.1678501323581
 21
5443.8809241775152
 31
0.0
  0
INSERT
  5
7F52
  8
3
  6
CONTINUOUS
 62
     0
  2
_OPEN
 10
2074.1678501323581
 20
5443.8809241775152
 30
0.0
 41
80.0
 42
80.0
 43
80.0
 50
180.0
  0
INSERT
  5
7F53
  8
3
  6
CONTINUOUS
 62
     0
  2
_OPEN
 10
3035.1678501323581
 20
5443.8809241775152
 30
0.0
 41
80.0
 42
80.0
 43
80.0
  0
TEXT
  8
3
  40
120
  5
7FB5
  62
0
  72
0
  71
0
 10
2332.57
 20
5331.48
 30
0.000000
  1
961
  0
POINT
  5
7F55
  8
DEFPOINTS
  6
CONTINUOUS
 62
     0
 10
2074.1678501323581
 20
4975.7920771775161
 30
0.0
  0
POINT
  5
7F56
  8
DEFPOINTS
  6
CONTINUOUS
 62
     0
 10
3035.1678501323581
 20
4888.816841177515
 30
0.0
  0
POINT
  5
7F57
  8
DEFPOINTS
  6
CONTINUOUS
 62
     0
 10
3035.1678501323581
 20
5443.8809241775152
 30
0.0
  0
ENDBLK
  5
7CED
  8
0
  0
BLOCK
  8
0
  2
*D5
 70
     1
 10
0.0
 20
0.0
 30
0.0
  3
*D5
  1

  0
LINE
  5
7F58
  8
3
  6
CONTINUOUS
 62
     0
 10
3035.1678501323581
 20
4908.816841177515
 30
0.0
 11
3035.1678501323581
 21
5483.8809241775152
 31
0.0
  0
LINE
  5
7F59
  8
3
  6
CONTINUOUS
 62
     0
 10
3678.167850132359
 20
4375.7920771775152
 30
0.0
 11
3678.167850132359
 21
5483.8809241775152
 31
0.0
  0
LINE
  5
7F5A
  8
3
  6
CONTINUOUS
 62
     0
 10
3115.1678501323581
 20
5443.8809241775152
 30
0.0
 11
3598.1678501323581
 21
5443.8809241775152
 31
0.0
  0
INSERT
  5
7F5B
  8
3
  6
CONTINUOUS
 62
     0
  2
_OPEN
 10
3035.1678501323581
 20
5443.8809241775152
 30
0.0
 41
80.0
 42
80.0
 43
80.0
 50
180.0
  0
INSERT
  5
7F5C
  8
3
  6
CONTINUOUS
 62
     0
  2
_OPEN
 10
3678.167850132359
 20
5443.8809241775152
 30
0.0
 41
80.0
 42
80.0
 43
80.0
  0
TEXT
  8
3
  40
120
  5
7FB6
  62
0
  72
0
  71
0
 10
3116.67
 20
5331.48
 30
0.000000
  1
643
  0
POINT
  5
7F5E
  8
DEFPOINTS
  6
CONTINUOUS
 62
     0
 10
3035.1678501323581
 20
4888.816841177515
 30
0.0
  0
POINT
  5
7F5F
  8
DEFPOINTS
  6
CONTINUOUS
 62
     0
 10
3678.167850132359
 20
4355.7920771775152
 30
0.0
  0
POINT
  5
7F60
  8
DEFPOINTS
  6
CONTINUOUS
 62
     0
 10
3678.167850132359
 20
5443.8809241775152
 30
0.0
  0
ENDBLK
  5
7D93
  8
0
  0
BLOCK
  8
0
  2
*D6
 70
     1
 10
0.0
 20
0.0
 30
0.0
  3
*D6
  1

  0
LINE
  5
7F61
  8
3
  6
CONTINUOUS
 62
     0
 10
3059.1678501323581
 20
4975.7920771775161
 30
0.0
 11
4051.7273564518232
 21
4975.7920771775161
 31
0.0
  0
LINE
  5
7F62
  8
3
  6
CONTINUOUS
 62
     0
 10
3695.7351371323589
 20
4355.7920771775152
 30
0.0
 11
4051.7273564518232
 21
4355.7920771775152
 31
0.0
  0
LINE
  5
7F63
  8
3
  6
CONTINUOUS
 62
     0
 10
4011.7273564518241
 20
4895.7920771775152
 30
0.0
 11
4011.7273564518241
 21
4435.7920771775161
 31
0.0
  0
INSERT
  5
7F64
  8
3
  6
CONTINUOUS
 62
     0
  2
_OPEN
 10
4011.7273564518241
 20
4975.7920771775161
 30
0.0
 41
80.0
 42
80.0
 43
80.0
 50
90.0
  0
INSERT
  5
7F65
  8
3
  6
CONTINUOUS
 62
     0
  2
_OPEN
 10
4011.7273564518241
 20
4355.7920771775152
 30
0.0
 41
80.0
 42
80.0
 43
80.0
 50
270.0
  0
TEXT
  8
3
  40
120
  5
7FB7
  62
0
  72
0
  71
0
 10
3671.73
 20
4489.11
 30
0.000000
  1
620
  0
POINT
  5
7F67
  8
DEFPOINTS
  6
CONTINUOUS
 62
     0
 10
3039.1678501323581
 20
4975.7920771775161
 30
0.0
  0
POINT
  5
7F68
  8
DEFPOINTS
  6
CONTINUOUS
 62
     0
 10
3675.7351371323589
 20
4355.7920771775152
 30
0.0
  0
POINT
  5
7F69
  8
DEFPOINTS
  6
CONTINUOUS
 62
     0
 10
4011.7273564518241
 20
4355.7920771775152
 30
0.0
  0
ENDBLK
  5
7D7C
  8
0
  0
BLOCK
  8
0
  2
*D7
 70
     1
 10
0.0
 20
0.0
 30
0.0
  3
*D7
  1

  0
LINE
  5
7F6A
  8
3
  6
CONTINUOUS
 62
     0
 10
3695.7351371323589
 20
4355.7920771775152
 30
0.0
 11
4051.7273564518232
 21
4355.7920771775152
 31
0.0
  0
LINE
  5
7F6B
  8
3
  6
CONTINUOUS
 62
     0
 10
3615.1678501323581
 20
3535.7920771775148
 30
0.0
 11
4051.7273564518232
 21
3535.7920771775148
 31
0.0
  0
LINE
  5
7F6C
  8
3
  6
CONTINUOUS
 62
     0
 10
4011.7273564518232
 20
4275.7920771775152
 30
0.0
 11
4011.7273564518232
 21
3615.7920771775148
 31
0.0
  0
INSERT
  5
7F6D
  8
3
  6
CONTINUOUS
 62
     0
  2
_OPEN
 10
4011.7273564518232
 20
4355.7920771775152
 30
0.0
 41
80.0
 42
80.0
 43
80.0
 50
90.0
  0
INSERT
  5
7F6E
  8
3
  6
CONTINUOUS
 62
     0
  2
_OPEN
 10
4011.7273564518232
 20
3535.7920771775148
 30
0.0
 41
80.0
 42
80.0
 43
80.0
 50
270.0
  0
TEXT
  8
3
  40
120
  5
7FB8
  62
0
  72
0
  71
0
 10
3671.73
 20
3733.39
 30
0.000000
  1
820
  0
POINT
  5
7F70
  8
DEFPOINTS
  6
CONTINUOUS
 62
     0
 10
3675.7351371323589
 20
4355.7920771775152
 30
0.0
  0
POINT
  5
7F71
  8
DEFPOINTS
  6
CONTINUOUS
 62
     0
 10
3595.1678501323581
 20
3535.7920771775148
 30
0.0
  0
POINT
  5
7F72
  8
DEFPOINTS
  6
CONTINUOUS
 62
     0
 10
4011.7273564518232
 20
3535.7920771775148
 30
0.0
  0
ENDBLK
  5
7D87
  8
0
  0
BLOCK
  8
0
  2
*D8
 70
     1
 10
0.0
 20
0.0
 30
0.0
  3
*D8
  1

  0
LINE
  5
7F73
  8
3
  6
CONTINUOUS
 62
     0
 10
3059.1678501323581
 20
4975.7920771775161
 30
0.0
 11
4286.0803565476008
 21
4975.7920771775161
 31
0.0
  0
LINE
  5
7F74
  8
3
  6
CONTINUOUS
 62
     0
 10
3615.1678501323581
 20
3535.7920771775148
 30
0.0
 11
4286.0803565476008
 21
3535.7920771775148
 31
0.0
  0
LINE
  5
7F75
  8
3
  6
CONTINUOUS
 62
     0
 10
4246.0803565475999
 20
4895.7920771775152
 30
0.0
 11
4246.0803565475999
 21
3615.7920771775148
 31
0.0
  0
INSERT
  5
7F76
  8
3
  6
CONTINUOUS
 62
     0
  2
_OPEN
 10
4246.0803565475999
 20
4975.7920771775161
 30
0.0
 41
80.0
 42
80.0
 43
80.0
 50
90.0
  0
INSERT
  5
7F77
  8
3
  6
CONTINUOUS
 62
     0
  2
_OPEN
 10
4246.0803565475999
 20
3535.7920771775148
 30
0.0
 41
80.0
 42
80.0
 43
80.0
 50
270.0
  0
TEXT
  8
3
  40
120
  5
7FB9
  62
0
  72
0
  71
0
 10
3906.08
 20
4034.25
 30
0.000000
  1
1440
  0
POINT
  5
7F79
  8
DEFPOINTS
  6
CONTINUOUS
 62
     0
 10
3039.1678501323581
 20
4975.7920771775161
 30
0.0
  0
POINT
  5
7F7A
  8
DEFPOINTS
  6
CONTINUOUS
 62
     0
 10
3595.1678501323581
 20
3535.7920771775148
 30
0.0
  0
POINT
  5
7F7B
  8
DEFPOINTS
  6
CONTINUOUS
 62
     0
 10
4246.0803565475999
 20
3535.7920771775148
 30
0.0
  0
ENDBLK
  5
7D71
  8
0
  0
BLOCK
  8
0
  2
*D9
 70
     1
 10
0.0
 20
0.0
 30
0.0
  3
*D9
  1

  0
LINE
  5
7F7C
  8
3
  6
CONTINUOUS
 62
     0
 10
1695.1678501323579
 20
6733.0973313808836
 30
0.0
 11
1695.1678501323579
 21
6187.8514843808844
 31
0.0
  0
LINE
  5
7F7D
  8
3
  6
CONTINUOUS
 62
     0
 10
3595.1678501323581
 20
6733.0973313808836
 30
0.0
 11
3595.1678501323581
 21
6187.8514843808844
 31
0.0
  0
LINE
  5
7F7E
  8
3
  6
CONTINUOUS
 62
     0
 10
1775.1678501323579
 20
6227.8514843808844
 30
0.0
 11
3515.167850132359
 21
6227.8514843808844
 31
0.0
  0
INSERT
  5
7F7F
  8
3
  6
CONTINUOUS
 62
     0
  2
_OPEN
 10
1695.1678501323579
 20
6227.8514843808844
 30
0.0
 41
80.0
 42
80.0
 43
80.0
 50
180.0
  0
INSERT
  5
7F80
  8
3
  6
CONTINUOUS
 62
     0
  2
_OPEN
 10
3595.1678501323581
 20
6227.8514843808844
 30
0.0
 41
80.0
 42
80.0
 43
80.0
  0
TEXT
  8
3
  40
120
  5
7FBA
  62
0
  72
0
  71
0
 10
2401.95
 20
6115.45
 30
0.000000
  1
1900
  0
POINT
  5
7F82
  8
DEFPOINTS
  6
CONTINUOUS
 62
     0
 10
1695.1678501323579
 20
6753.0973313808836
 30
0.0
  0
POINT
  5
7F83
  8
DEFPOINTS
  6
CONTINUOUS
 62
     0
 10
3595.1678501323581
 20
6753.0973313808836
 30
0.0
  0
POINT
  5
7F84
  8
DEFPOINTS
  6
CONTINUOUS
 62
     0
 10
3595.1678501323581
 20
6227.8514843808844
 30
0.0
  0
ENDBLK
  5
7CB6
  8
0
  0
BLOCK
  8
0
  2
*D10
 70
     1
 10
0.0
 20
0.0
 30
0.0
  3
*D10
  1

  0
LINE
  5
7F85
  8
3
  6
CONTINUOUS
 62
     0
 10
3615.1678501323581
 20
7703.0973313808854
 30
0.0
 11
4094.444806132361
 21
7703.0973313808854
 31
0.0
  0
LINE
  5
7F86
  8
3
  6
CONTINUOUS
 62
     0
 10
3615.1678501323581
 20
6753.0973313808836
 30
0.0
 11
4094.444806132361
 21
6753.0973313808836
 31
0.0
  0
LINE
  5
7F87
  8
3
  6
CONTINUOUS
 62
     0
 10
4054.444806132361
 20
7623.0973313808836
 30
0.0
 11
4054.444806132361
 21
6833.0973313808836
 31
0.0
  0
INSERT
  5
7F88
  8
3
  6
CONTINUOUS
 62
     0
  2
_OPEN
 10
4054.444806132361
 20
7703.0973313808854
 30
0.0
 41
80.0
 42
80.0
 43
80.0
 50
90.0
  0
INSERT
  5
7F89
  8
3
  6
CONTINUOUS
 62
     0
  2
_OPEN
 10
4054.444806132361
 20
6753.0973313808836
 30
0.0
 41
80.0
 42
80.0
 43
80.0
 50
270.0
  0
TEXT
  8
3
  40
120
  5
7FBB
  62
0
  72
0
  71
0
 10
3714.44
 20
7050.15
 30
0.000000
  1
950
  0
POINT
  5
7F8B
  8
DEFPOINTS
  6
CONTINUOUS
 62
     0
 10
3595.1678501323581
 20
7703.0973313808854
 30
0.0
  0
POINT
  5
7F8C
  8
DEFPOINTS
  6
CONTINUOUS
 62
     0
 10
3595.1678501323581
 20
6753.0973313808836
 30
0.0
  0
POINT
  5
7F8D
  8
DEFPOINTS
  6
CONTINUOUS
 62
     0
 10
4054.444806132361
 20
6753.0973313808836
 30
0.0
  0
ENDBLK
  5
7CAB
  8
0
  0
BLOCK
  8
0
  2
*D11
 70
     1
 10
0.0
 20
0.0
 30
0.0
  3
*D11
  1

  0
LINE
  5
7F8E
  8
3
  6
CONTINUOUS
 62
     0
 10
5942.1917792372788
 20
4995.7920771775152
 30
0.0
 11
5942.1917792372788
 21
5138.5227751587081
 31
0.0
  0
LINE
  5
7F8F
  8
3
  6
CONTINUOUS
 62
     0
 10
6612.1917792372778
 20
4995.7920771775152
 30
0.0
 11
6612.1917792372778
 21
5138.5227751587081
 31
0.0
  0
LINE
  5
7F90
  8
3
  6
CONTINUOUS
 62
     0
 10
6022.1917792372778
 20
5098.5227751587081
 30
0.0
 11
6532.1917792372788
 21
5098.5227751587081
 31
0.0
  0
INSERT
  5
7F91
  8
3
  6
CONTINUOUS
 62
     0
  2
_OPEN
 10
5942.1917792372788
 20
5098.5227751587081
 30
0.0
 41
80.0
 42
80.0
 43
80.0
 50
180.0
  0
INSERT
  5
7F92
  8
3
  6
CONTINUOUS
 62
     0
  2
_OPEN
 10
6612.1917792372778
 20
5098.5227751587081
 30
0.0
 41
80.0
 42
80.0
 43
80.0
  0
TEXT
  8
3
  40
120
  5
7FBC
  62
0
  72
0
  71
0
 10
6027.20
 20
4986.12
 30
0.000000
  1
670
  0
POINT
  5
7F94
  8
DEFPOINTS
  6
CONTINUOUS
 62
     0
 10
5942.1917792372788
 20
4975.7920771775161
 30
0.0
  0
POINT
  5
7F95
  8
DEFPOINTS
  6
CONTINUOUS
 62
     0
 10
6612.1917792372778
 20
4975.7920771775161
 30
0.0
  0
POINT
  5
7F96
  8
DEFPOINTS
  6
CONTINUOUS
 62
     0
 10
6612.1917792372778
 20
5098.5227751587081
 30
0.0
  0
ENDBLK
  5
7DA9
  8
0
  0
BLOCK
  8
0
  2
*D12
 70
     1
 10
0.0
 20
0.0
 30
0.0
  3
*D12
  1

  0
LINE
  5
7F97
  8
3
  6
CONTINUOUS
 62
     0
 10
5617.1917792372788
 20
4578.192077177514
 30
0.0
 11
5617.1917792372788
 21
5409.0196781775139
 31
0.0
  0
LINE
  5
7F98
  8
3
  6
CONTINUOUS
 62
     0
 10
6277.1917792372788
 20
5323.3195751775147
 30
0.0
 11
6277.1917792372788
 21
5409.0196781775139
 31
0.0
  0
LINE
  5
7F99
  8
3
  6
CONTINUOUS
 62
     0
 10
5697.1917792372788
 20
5369.0196781775148
 30
0.0
 11
6197.1917792372788
 21
5369.0196781775148
 31
0.0
  0
INSERT
  5
7F9A
  8
3
  6
CONTINUOUS
 62
     0
  2
_OPEN
 10
5617.1917792372788
 20
5369.0196781775148
 30
0.0
 41
80.0
 42
80.0
 43
80.0
 50
180.0
  0
INSERT
  5
7F9B
  8
3
  6
CONTINUOUS
 62
     0
  2
_OPEN
 10
6277.1917792372788
 20
5369.0196781775148
 30
0.0
 41
80.0
 42
80.0
 43
80.0
  0
TEXT
  8
3
  40
120
  5
7FBD
  62
0
  72
0
  71
0
 10
5668.62
 20
5356.62
 30
0.000000
  1
MAX
  0
TEXT
  8
3
  40
120
  5
7FBE
  62
0
  72
0
  71
0
 10
5668.62
 20
5200.62
 30
0.000000
  1
720
  0
POINT
  5
7F9D
  8
DEFPOINTS
  6
CONTINUOUS
 62
     0
 10
5617.1917792372788
 20
4558.1920771775149
 30
0.0
  0
POINT
  5
7F9E
  8
DEFPOINTS
  6
CONTINUOUS
 62
     0
 10
6277.1917792372788
 20
5303.3195751775156
 30
0.0
  0
POINT
  5
7F9F
  8
DEFPOINTS
  6
CONTINUOUS
 62
     0
 10
6277.1917792372788
 20
5369.0196781775148
 30
0.0
  0
ENDBLK
  5
7D9E
  8
0
  0
BLOCK
  8
0
  2
*D13
 70
     1
 10
0.0
 20
0.0
 30
0.0
  3
*D13
  1

  0
LINE
  5
7D47
  8
0
  6
BYBLOCK
 62
     0
 10
6277.1917792372788
 20
5323.3195751775147
 30
0.0
 11
6277.1917792372788
 21
5409.0196781775139
 31
0.0
  0
LINE
  5
7D48
  8
0
  6
BYBLOCK
 62
     0
 10
6695.1917792372778
 20
4865.7920771775152
 30
0.0
 11
6695.1917792372778
 21
5409.0196781775139
 31
0.0
  0
LINE
  5
7D49
  8
0
  6
BYBLOCK
 62
     0
 10
6357.1917792372788
 20
5369.0196781775148
 30
0.0
 11
6615.1917792372778
 21
5369.0196781775148
 31
0.0
  0
TEXT
  5
7D4A
  8
3
 62
     0
 10
6351.1453111036844
 20
5418.6507795504695
 30
0.0
 40
120.0
  1
418
  0
INSERT
  5
7D4B
  8
0
  6
BYBLOCK
 62
     0
  2
_OPEN
 10
6277.1917792372788
 20
5369.0196781775148
 30
0.0
 41
80.0
 42
80.0
 43
80.0
 50
180.0
  0
INSERT
  5
7D4C
  8
0
  6
BYBLOCK
 62
     0
  2
_OPEN
 10
6695.1917792372778
 20
5369.0196781775148
 30
0.0
 41
80.0
 42
80.0
 43
80.0
  0
POINT
  5
7D4D
  8
DEFPOINTS
  6
BYBLOCK
 62
     0
 10
6277.1917792372788
 20
5303.3195751775156
 30
0.0
  0
POINT
  5
7D4E
  8
DEFPOINTS
  6
BYBLOCK
 62
     0
 10
6695.1917792372778
 20
4845.7920771775152
 30
0.0
  0
POINT
  5
7D4F
  8
DEFPOINTS
  6
BYBLOCK
 62
     0
 10
6695.1917792372778
 20
5369.0196781775148
 30
0.0
  0
ENDBLK
  5
7D50
  8
0
  0
BLOCK
  8
0
  2
*D14
 70
     1
 10
0.0
 20
0.0
 30
0.0
  3
*D14
  1

  0
LINE
  5
7FA0
  8
3
  6
CONTINUOUS
 62
     0
 10
6715.1917792372788
 20
4805.7920771775152
 30
0.0
 11
7102.928771237277
 21
4805.7920771775152
 31
0.0
  0
LINE
  5
7FA1
  8
3
  6
CONTINUOUS
 62
     0
 10
6715.1917792372788
 20
3905.7920771775148
 30
0.0
 11
7102.928771237277
 21
3905.7920771775148
 31
0.0
  0
LINE
  5
7FA2
  8
3
  6
CONTINUOUS
 62
     0
 10
7062.9287712372779
 20
4725.7920771775152
 30
0.0
 11
7062.9287712372779
 21
3985.7920771775148
 31
0.0
  0
INSERT
  5
7FA3
  8
3
  6
CONTINUOUS
 62
     0
  2
_OPEN
 10
7062.9287712372779
 20
4805.7920771775152
 30
0.0
 41
80.0
 42
80.0
 43
80.0
 50
90.0
  0
INSERT
  5
7FA4
  8
3
  6
CONTINUOUS
 62
     0
  2
_OPEN
 10
7062.9287712372779
 20
3905.7920771775148
 30
0.0
 41
80.0
 42
80.0
 43
80.0
 50
270.0
  0
TEXT
  8
3
  40
120
  5
7FBF
  62
0
  72
0
  71
0
 10
6722.93
 20
4129.34
 30
0.000000
  1
φ900
  0
POINT
  5
7FA6
  8
DEFPOINTS
  6
CONTINUOUS
 62
     0
 10
6695.1917792372778
 20
4805.7920771775152
 30
0.0
  0
POINT
  5
7FA7
  8
DEFPOINTS
  6
CONTINUOUS
 62
     0
 10
6695.1917792372778
 20
3905.7920771775148
 30
0.0
  0
POINT
  5
7FA8
  8
DEFPOINTS
  6
CONTINUOUS
 62
     0
 10
7062.9287712372779
 20
3905.7920771775148
 30
0.0
  0
ENDBLK
  5
7D5B
  8
0
  0
BLOCK
  8
0
  2
*D15
 70
     1
 10
0.0
 20
0.0
 30
0.0
  3
*D15
  1

  0
LINE
  5
7D3C
  8
0
  6
BYBLOCK
 62
     0
 10
5730.1917792372788
 20
3515.7920771775148
 30
0.0
 11
5730.1917792372788
 21
3211.9538761775138
 31
0.0
  0
LINE
  5
7D3D
  8
0
  6
BYBLOCK
 62
     0
 10
6277.1917792372788
 20
3386.6651491775142
 30
0.0
 11
6277.1917792372788
 21
3211.9538761775138
 31
0.0
  0
LINE
  5
7D3E
  8
0
  6
BYBLOCK
 62
     0
 10
5810.1917792372778
 20
3251.9538761775138
 30
0.0
 11
6197.1917792372788
 21
3251.9538761775138
 31
0.0
  0
TEXT
  5
7D3F
  8
3
 62
     0
 10
5864.1643306970473
 20
3284.085838868657
 30
0.0
 40
120.0
  1
547
  0
INSERT
  5
7D40
  8
0
  6
BYBLOCK
 62
     0
  2
_OPEN
 10
5730.1917792372788
 20
3251.9538761775138
 30
0.0
 41
80.0
 42
80.0
 43
80.0
 50
180.0
  0
INSERT
  5
7D41
  8
0
  6
BYBLOCK
 62
     0
  2
_OPEN
 10
6277.1917792372788
 20
3251.9538761775138
 30
0.0
 41
80.0
 42
80.0
 43
80.0
  0
POINT
  5
7D42
  8
DEFPOINTS
  6
BYBLOCK
 62
     0
 10
5730.1917792372788
 20
3535.7920771775148
 30
0.0
  0
POINT
  5
7D43
  8
DEFPOINTS
  6
BYBLOCK
 62
     0
 10
6277.1917792372788
 20
3406.6651491775151
 30
0.0
  0
POINT
  5
7D44
  8
DEFPOINTS
  6
BYBLOCK
 62
     0
 10
6277.1917792372788
 20
3251.9538761775138
 30
0.0
  0
ENDBLK
  5
7D45
  8
0
  0
BLOCK
  8
0
  2
*D16
 70
     1
 10
0.0
 20
0.0
 30
0.0
  3
*D16
  1

  0
LINE
  5
7D31
  8
0
  6
BYBLOCK
 62
     0
 10
6277.1917792372788
 20
3386.6651491775142
 30
0.0
 11
6277.1917792372788
 21
3211.3382141775151
 31
0.0
  0
LINE
  5
7D32
  8
0
  6
BYBLOCK
 62
     0
 10
6680.1917792372788
 20
3515.7920771775148
 30
0.0
 11
6680.1917792372788
 21
3211.3382141775151
 31
0.0
  0
LINE
  5
7D33
  8
0
  6
BYBLOCK
 62
     0
 10
6357.1917792372788
 20
3251.3382141775151
 30
0.0
 11
6600.1917792372788
 21
3251.3382141775151
 31
0.0
  0
TEXT
  5
7D34
  8
3
 62
     0
 10
6339.7167396751129
 20
3284.085838868657
 30
0.0
 40
120.0
  1
403
  0
INSERT
  5
7D35
  8
0
  6
BYBLOCK
 62
     0
  2
_OPEN
 10
6277.1917792372788
 20
3251.3382141775151
 30
0.0
 41
80.0
 42
80.0
 43
80.0
 50
180.0
  0
INSERT
  5
7D36
  8
0
  6
BYBLOCK
 62
     0
  2
_OPEN
 10
6680.1917792372788
 20
3251.3382141775151
 30
0.0
 41
80.0
 42
80.0
 43
80.0
  0
POINT
  5
7D37
  8
DEFPOINTS
  6
BYBLOCK
 62
     0
 10
6277.1917792372788
 20
3406.6651491775151
 30
0.0
  0
POINT
  5
7D38
  8
DEFPOINTS
  6
BYBLOCK
 62
     0
 10
6680.1917792372788
 20
3535.7920771775148
 30
0.0
  0
POINT
  5
7D39
  8
DEFPOINTS
  6
BYBLOCK
 62
     0
 10
6680.1917792372788
 20
3251.3382141775151
 30
0.0
  0
ENDBLK
  5
7D3A
  8
0
  0
BLOCK
  8
0
  2
*D17
 70
     1
 10
0.0
 20
0.0
 30
0.0
  3
*D17
  1

  0
LINE
  5
7FA9
  8
3
 62
     0
 10
3678.167850132359
 20
4395.7920771775152
 30
0.0
 11
3678.167850132359
 21
5737.9554080535709
 31
0.0
  0
LINE
  5
7FAA
  8
3
 62
     0
 10
1695.1678501323579
 20
3680.7920771775148
 30
0.0
 11
1695.1678501323579
 21
5737.9554080535709
 31
0.0
  0
LINE
  5
7FAB
  8
3
 62
     0
 10
3598.1678501323581
 20
5697.95540805357
 30
0.0
 11
1775.1678501323579
 21
5697.95540805357
 31
0.0
  0
INSERT
  5
7FAC
  8
3
 62
     0
  2
_OPEN
 10
3678.167850132359
 20
5697.95540805357
 30
0.0
 41
80.0
 42
80.0
 43
80.0
  0
INSERT
  5
7FAD
  8
3
 62
     0
  2
_OPEN
 10
1695.1678501323579
 20
5697.95540805357
 30
0.0
 41
80.0
 42
80.0
 43
80.0
 50
180.0
  0
TEXT
  8
3
  40
120
  5
7FC0
  62
0
  72
0
  71
0
 10
2566.64
 20
5585.56
 30
0.000000
  1
1983
  0
POINT
  5
7FAF
  8
DEFPOINTS
 62
     0
 10
3678.167850132359
 20
4375.7920771775152
 30
0.0
  0
POINT
  5
7FB0
  8
DEFPOINTS
 62
     0
 10
1695.1678501323579
 20
3660.7920771775148
 30
0.0
  0
POINT
  5
7FB1
  8
DEFPOINTS
 62
     0
 10
1695.1678501323579
 20
5697.95540805357
 30
0.0
  0
ENDBLK
  5
7DB5
  8
0
  0
ENDSEC
  0
SECTION
  2
ENTITIES
  0
LINE
  5
7A70
  8
1
  6
CONTINUOUS
 10
1975.728179132358
 20
3730.941419177514
 30
0.0
 11
3095.7281791323589
 21
4215.941419177514
 31
0.0
  0
LINE
  5
7A71
  8
1
  6
CONTINUOUS
 10
1995.5970541323579
 20
3685.0586571775161
 30
0.0
 11
3115.59705413236
 21
4170.0586571775157
 31
0.0
  0
ARC
  5
7A72
  8
1
  6
CONTINUOUS
 10
1915.1678501323579
 20
3870.7920771775148
 30
0.0
 40
202.40000000000001
 50
113.41433499999999
 51
293.41433499999988
  0
ARC
  5
7A73
  8
1
  6
CONTINUOUS
 10
2968.1678501323581
 20
4422.7920771775152
 30
0.0
 40
844.0
 50
184.5531519999999
 51
244.53440099999989
  0
ARC
  5
7A74
  8
1
  6
CONTINUOUS
 10
2968.1678501323581
 20
4288.7920771775143
 30
0.0
 40
710.0
 50
297.80908099999988
 51
5.4148420000000002
  0
ARC
  5
7A75
  8
1
  6
CONTINUOUS
 10
1915.1678501323579
 20
3870.7920771775148
 30
0.0
 40
162.0
 50
324.972283
 51
215.02771699999991
  0
LINE
  5
7A76
  8
1
  6
CONTINUOUS
 10
1761.1678501323579
 20
3728.7920771775148
 30
0.0
 11
1782.510184132359
 21
3777.808510177515
 31
0.0
  0
LINE
  5
7A77
  8
1
  6
CONTINUOUS
 10
2069.1678501323581
 20
3728.7920771775148
 30
0.0
 11
2047.8255161323591
 21
3777.808510177515
 31
0.0
  0
CIRCLE
  5
7A78
  8
1
  6
CONTINUOUS
 10
1915.1678501323579
 20
3870.7920771775148
 30
0.0
 40
152.40000000000001
  0
LINE
  5
7A79
  8
2
  6
CENTER
 10
1915.1678501323579
 20
3713.3920771775138
 30
0.0
 11
1915.1678501323579
 21
4028.192077177514
 31
0.0
  0
LINE
  5
7A7A
  8
1
  6
CONTINUOUS
 10
6612.1917792372778
 20
4975.7920771775161
 30
0.0
 11
6612.1917792372778
 21
3660.7920771775148
 31
0.0
  0
LINE
  5
7A7B
  8
1
  6
CONTINUOUS
 10
5942.1917792372788
 20
4975.7920771775161
 30
0.0
 11
5942.1917792372788
 21
3660.7920771775148
 31
0.0
  0
LINE
  5
7A7C
  8
1
  6
CONTINUOUS
 10
5769.6917792372788
 20
4032.7920771775148
 30
0.0
 11
5769.6917792372788
 21
3660.7920771775148
 31
0.0
  0
LINE
  5
7A7D
  8
1
  6
CONTINUOUS
 10
5659.6917792372778
 20
4023.192077177514
 30
0.0
 11
5659.6917792372778
 21
3718.3920771775151
 31
0.0
  0
LINE
  5
7A7E
  8
1
  6
CONTINUOUS
 10
5617.1917792372788
 20
4558.1920771775149
 30
0.0
 11
5617.1917792372788
 21
3668.3920771775138
 31
0.0
  0
LINE
  5
7A7F
  8
1
  6
CONTINUOUS
 10
5757.1917792372778
 20
4558.1920771775149
 30
0.0
 11
5757.1917792372778
 21
3668.3920771775138
 31
0.0
  0
LINE
  5
7A80
  8
1
  6
CONTINUOUS
 10
5734.6917792372778
 20
4023.192077177514
 30
0.0
 11
5734.6917792372778
 21
3718.3920771775151
 31
0.0
  0
LINE
  5
7A81
  8
1
  6
CONTINUOUS
 10
1695.1678501323579
 20
3535.7920771775148
 30
0.0
 11
3595.1678501323581
 21
3535.7920771775148
 31
0.0
  0
LINE
  5
7A82
  8
1
  6
CONTINUOUS
 10
1695.1678501323579
 20
3660.7920771775148
 30
0.0
 11
3595.1678501323581
 21
3660.7920771775148
 31
0.0
  0
LINE
  5
7A83
  8
1
  6
CONTINUOUS
 10
1717.6678501323579
 20
3660.7920771775148
 30
0.0
 11
2112.6678501323581
 21
3660.7920771775148
 31
0.0
  0
LINE
  5
7A84
  8
1
  6
CONTINUOUS
 10
1695.1678501323579
 20
3660.7920771775148
 30
0.0
 11
1695.1678501323579
 21
3535.7920771775148
 31
0.0
  0
LINE
  5
7A85
  8
1
  6
CONTINUOUS
 10
1761.1678501323579
 20
3710.7920771775148
 30
0.0
 11
1761.1678501323579
 21
3728.7920771775148
 31
0.0
  0
LINE
  5
7A86
  8
1
  6
CONTINUOUS
 10
1727.6678501323579
 20
3710.7920771775148
 30
0.0
 11
1717.6678501323579
 21
3660.7920771775148
 31
0.0
  0
LINE
  5
7A87
  8
1
  6
CONTINUOUS
 10
1761.1678501323579
 20
3710.7920771775148
 30
0.0
 11
1727.6678501323579
 21
3710.7920771775148
 31
0.0
  0
LINE
  5
7A88
  8
1
  6
CONTINUOUS
 10
2069.1678501323581
 20
3710.7920771775148
 30
0.0
 11
2069.1678501323581
 21
3728.7920771775148
 31
0.0
  0
LINE
  5
7A89
  8
1
  6
CONTINUOUS
 10
2102.667850132359
 20
3710.7920771775148
 30
0.0
 11
2069.1678501323581
 21
3710.7920771775148
 31
0.0
  0
LINE
  5
7A8A
  8
1
  6
CONTINUOUS
 10
2112.6678501323581
 20
3660.7920771775148
 30
0.0
 11
2102.667850132359
 21
3710.7920771775148
 31
0.0
  0
LINE
  5
7A8B
  8
1
  6
CONTINUOUS
 10
3595.1678501323581
 20
3660.7920771775148
 30
0.0
 11
3595.1678501323581
 21
3535.7920771775148
 31
0.0
  0
LINE
  5
7A8C
  8
1
  6
CONTINUOUS
 10
5730.1917792372788
 20
3535.7920771775148
 30
0.0
 11
6680.1917792372788
 21
3535.7920771775148
 31
0.0
  0
LINE
  5
7A8D
  8
1
  6
CONTINUOUS
 10
5730.1917792372788
 20
3660.7920771775148
 30
0.0
 11
6680.1917792372788
 21
3660.7920771775148
 31
0.0
  0
LINE
  5
7A8E
  8
1
  6
CONTINUOUS
 10
5730.1917792372788
 20
3660.7920771775148
 30
0.0
 11
5730.1917792372788
 21
3535.7920771775148
 31
0.0
  0
LINE
  5
7A8F
  8
1
  6
CONTINUOUS
 10
5769.6917792372788
 20
3710.7920771775148
 30
0.0
 11
5942.1917792372788
 21
3710.7920771775148
 31
0.0
  0
LINE
  5
7A90
  8
1
  6
CONTINUOUS
 10
5659.6917792372778
 20
3718.3920771775151
 30
0.0
 11
5734.6917792372778
 21
3718.3920771775151
 31
0.0
  0
LINE
  5
7A91
  8
1
  6
CONTINUOUS
 10
5617.1917792372788
 20
3668.3920771775138
 30
0.0
 11
5757.1917792372778
 21
3668.3920771775138
 31
0.0
  0
LINE
  5
7A92
  8
1
  6
CONTINUOUS
 10
6680.1917792372788
 20
3660.7920771775148
 30
0.0
 11
6680.1917792372788
 21
3535.7920771775148
 31
0.0
  0
ARC
  5
7A93
  8
1
  6
CONTINUOUS
 10
3088.6678501323581
 20
4302.2920771775152
 30
0.0
 40
589.5
 50
5.2070360000000004
 51
95.207036000000002
  0
LINE
  5
7A94
  8
1
  6
CONTINUOUS
 10
2074.1678501323581
 20
6965.0973313808854
 30
0.0
 11
3678.167850132359
 21
6965.0973313808854
 31
0.0
  0
LINE
  5
7A95
  8
1
  6
CONTINUOUS
 10
2074.1678501323581
 20
7635.0973313808854
 30
0.0
 11
3678.167850132359
 21
7635.0973313808854
 31
0.0
  0
LINE
  5
7A96
  8
1
  6
CONTINUOUS
 10
1854.607521132358
 20
4010.6427351775151
 30
0.0
 11
2974.6075211323582
 21
4495.6427351775137
 31
0.0
  0
LINE
  5
7A97
  8
1
  6
CONTINUOUS
 10
1834.7386461323581
 20
4056.5254971775139
 30
0.0
 11
2954.738646132359
 21
4541.5254971775148
 31
0.0
  0
LINE
  5
7A98
  8
1
  6
CONTINUOUS
 10
2034.1678501323579
 20
4975.7920771775161
 30
0.0
 11
3039.1678501323581
 21
4975.7920771775161
 31
0.0
  0
LINE
  5
7A99
  8
1
  6
CONTINUOUS
 10
2077.565499132359
 20
4935.7920771775161
 30
0.0
 11
2999.167850132359
 21
4935.7920771775161
 31
0.0
  0
LINE
  5
7A9A
  8
1
  6
CONTINUOUS
 10
2126.8314131323591
 20
4355.7920771775152
 30
0.0
 11
2074.1678501323581
 21
4975.7920771775161
 31
0.0
  0
LINE
  5
7A9B
  8
2
  6
CENTER
 10
1757.7678501323589
 20
3870.7920771775148
 30
0.0
 11
2072.5678501323591
 21
3870.7920771775148
 31
0.0
  0
CIRCLE
  5
7A9C
  8
1
  6
CONTINUOUS
 10
3035.1678501323581
 20
4355.7920771775152
 30
0.0
 40
450.0
  0
CIRCLE
  5
7A9D
  8
1
  6
CONTINUOUS
 10
3035.1678501323581
 20
4355.7920771775152
 30
0.0
 40
490.0
  0
ARC
  5
7A9E
  8
1
  6
CONTINUOUS
 10
3035.1678501323581
 20
4355.7920771775152
 30
0.0
 40
202.40000000000001
 50
293.41433499999988
 51
113.41433499999999
  0
CIRCLE
  5
7A9F
  8
1
  6
CONTINUOUS
 10
3035.1678501323581
 20
4355.7920771775152
 30
0.0
 40
152.40000000000001
  0
LINE
  5
7AA0
  8
2
  6
CENTER
 10
6782.1578732372782
 20
4355.7920771775152
 30
0.0
 11
5506.3166086714036
 21
4355.7920771775152
 31
0.0
  0
LINE
  5
7AA1
  8
2
  6
CENTER
 10
3035.1678501323581
 20
3400.081926177515
 30
0.0
 11
3035.1678501323581
 21
5032.3489581775139
 31
0.0
  0
ARC
  5
7AA2
  8
1
  6
CONTINUOUS
 10
3088.6678501323581
 20
4409.2920771775152
 30
0.0
 40
482.5
 50
96.36609399999999
 51
100.6898319999999
  0
LINE
  5
7AA3
  8
1
  6
CONTINUOUS
 10
2999.167850132359
 20
4883.4186421775148
 30
0.0
 11
2999.167850132359
 21
4975.7920771775161
 31
0.0
  0
LINE
  5
7AA4
  8
1
  6
CONTINUOUS
 10
2999.167850132359
 20
7635.0973313808854
 30
0.0
 11
2074.1678501323581
 21
6965.0973313808854
 31
0.0
  0
LINE
  5
7AA5
  8
1
  6
CONTINUOUS
 10
2999.167850132359
 20
6965.0973313808854
 30
0.0
 11
2074.1678501323581
 21
7635.0973313808854
 31
0.0
  0
LINE
  5
7AA6
  8
1
  6
CONTINUOUS
 10
1695.1678501323579
 20
7703.0973313808854
 30
0.0
 11
2585.1678501323581
 21
7703.0973313808854
 31
0.0
  0
LINE
  5
7AA7
  8
1
  6
CONTINUOUS
 10
2067.5678501323591
 20
6753.0973313808836
 30
0.0
 11
2882.767850132358
 21
6753.0973313808836
 31
0.0
  0
LINE
  5
7AA8
  8
1
  6
CONTINUOUS
 10
1712.7678501323589
 20
6640.0973313808854
 30
0.0
 11
3237.5678501323591
 21
6640.0973313808854
 31
0.0
  0
LINE
  5
7AA9
  8
1
  6
CONTINUOUS
 10
1712.7678501323589
 20
6780.0973313808836
 30
0.0
 11
3237.5678501323591
 21
6780.0973313808836
 31
0.0
  0
LINE
  5
7AAA
  8
1
  6
CONTINUOUS
 10
2074.1678501323581
 20
6965.0973313808854
 30
0.0
 11
2074.1678501323581
 21
7635.0973313808854
 31
0.0
  0
LINE
  5
7AAB
  8
1
  6
CONTINUOUS
 10
1695.1678501323579
 20
7703.0973313808854
 30
0.0
 11
1695.1678501323579
 21
6753.0973313808836
 31
0.0
  0
LINE
  5
7AAC
  8
1
  6
CONTINUOUS
 10
1753.1678501323579
 20
6792.5973313808836
 30
0.0
 11
1753.1678501323579
 21
7285.5973313808836
 31
0.0
  0
LINE
  5
7AAD
  8
1
  6
CONTINUOUS
 10
2067.5678501323591
 20
6682.5973313808836
 30
0.0
 11
1762.7678501323589
 21
6682.5973313808836
 31
0.0
  0
LINE
  5
7AAE
  8
1
  6
CONTINUOUS
 10
1753.1678501323579
 20
6792.5973313808836
 30
0.0
 11
2077.1678501323581
 21
6792.5973313808836
 31
0.0
  0
LINE
  5
7AAF
  8
1
  6
CONTINUOUS
 10
2067.5678501323591
 20
6757.5973313808854
 30
0.0
 11
1762.7678501323589
 21
6757.5973313808854
 31
0.0
  0
LINE
  5
7AB0
  8
1
  6
CONTINUOUS
 10
1695.1678501323579
 20
6753.0973313808836
 30
0.0
 11
1762.7678501323589
 21
6753.0973313808836
 31
0.0
  0
LINE
  5
7AB1
  8
1
  6
CONTINUOUS
 10
1762.7678501323589
 20
6757.5973313808854
 30
0.0
 11
1762.7678501323589
 21
6682.5973313808836
 31
0.0
  0
LINE
  5
7AB2
  8
1
  6
CONTINUOUS
 10
1712.7678501323589
 20
6640.0973313808854
 30
0.0
 11
1712.7678501323589
 21
6780.0973313808836
 31
0.0
  0
LINE
  5
7AB3
  8
1
  6
CONTINUOUS
 10
1936.1678501323579
 20
6757.5973313808854
 30
0.0
 11
1936.1678501323579
 21
6792.5973313808836
 31
0.0
  0
LINE
  5
7AB4
  8
1
  6
CONTINUOUS
 10
1894.1678501323579
 20
6757.5973313808854
 30
0.0
 11
1894.1678501323579
 21
6792.5973313808836
 31
0.0
  0
LINE
  5
7AB5
  8
1
  6
CONTINUOUS
 10
2077.1678501323581
 20
6792.5973313808836
 30
0.0
 11
2077.1678501323581
 21
6965.0973313808854
 31
0.0
  0
LINE
  5
7AB6
  8
1
  6
CONTINUOUS
 10
2067.5678501323591
 20
6757.5973313808854
 30
0.0
 11
2067.5678501323591
 21
6682.5973313808836
 31
0.0
  0
LINE
  5
7AB7
  8
1
  6
CONTINUOUS
 10
1753.1678501323579
 20
7285.5973313808836
 30
0.0
 11
2074.1678501323581
 21
7285.5973313808836
 31
0.0
  0
LINE
  5
7AB8
  8
1
  6
CONTINUOUS
 10
2999.167850132359
 20
6965.0973313808854
 30
0.0
 11
2999.167850132359
 21
7635.0973313808854
 31
0.0
  0
LINE
  5
7AB9
  8
1
  6
CONTINUOUS
 10
2882.767850132358
 20
6682.5973313808836
 30
0.0
 11
3187.5678501323582
 21
6682.5973313808836
 31
0.0
  0
LINE
  5
7ABA
  8
1
  6
CONTINUOUS
 10
2882.767850132358
 20
6757.5973313808854
 30
0.0
 11
3187.5678501323582
 21
6757.5973313808854
 31
0.0
  0
LINE
  5
7ABB
  8
1
  6
CONTINUOUS
 10
3005.1678501323581
 20
6965.0973313808854
 30
0.0
 11
3005.1678501323581
 21
6757.5973313808854
 31
0.0
  0
LINE
  5
7ABC
  8
1
  6
CONTINUOUS
 10
2882.767850132358
 20
6757.5973313808854
 30
0.0
 11
2882.767850132358
 21
6682.5973313808836
 31
0.0
  0
LINE
  5
7ABD
  8
1
  6
CONTINUOUS
 10
3595.1678501323581
 20
6965.0973313808854
 30
0.0
 11
3595.1678501323581
 21
6753.0973313808836
 31
0.0
  0
LINE
  5
7ABE
  8
1
  6
CONTINUOUS
 10
3065.1678501323581
 20
6965.0973313808854
 30
0.0
 11
3065.1678501323581
 21
6757.5973313808854
 31
0.0
  0
LINE
  5
7ABF
  8
1
  6
CONTINUOUS
 10
3187.5678501323582
 20
6753.0973313808836
 30
0.0
 11
3595.1678501323581
 21
6753.0973313808836
 31
0.0
  0
LINE
  5
7AC0
  8
1
  6
CONTINUOUS
 10
3187.5678501323582
 20
6757.5973313808854
 30
0.0
 11
3187.5678501323582
 21
6682.5973313808836
 31
0.0
  0
LINE
  5
7AC1
  8
1
  6
CONTINUOUS
 10
3237.5678501323591
 20
6640.0973313808854
 30
0.0
 11
3237.5678501323591
 21
6780.0973313808836
 31
0.0
  0
LINE
  5
7AC2
  8
1
  6
CONTINUOUS
 10
2545.1678501323581
 20
7718.0973313808854
 30
0.0
 11
3525.1678501323581
 21
7718.0973313808854
 31
0.0
  0
LINE
  5
7AC3
  8
1
  6
CONTINUOUS
 10
2585.1678501323581
 20
7718.0973313808854
 30
0.0
 11
2585.1678501323581
 21
7635.0973313808854
 31
0.0
  0
LINE
  5
7AC4
  8
1
  6
CONTINUOUS
 10
3595.1678501323581
 20
7703.0973313808854
 30
0.0
 11
3595.1678501323581
 21
7635.0973313808854
 31
0.0
  0
LINE
  5
7AC5
  8
1
  6
CONTINUOUS
 10
3485.1678501323581
 20
7718.0973313808854
 30
0.0
 11
3485.1678501323581
 21
7635.0973313808854
 31
0.0
  0
LINE
  5
7AC6
  8
1
  6
CONTINUOUS
 10
3485.1678501323581
 20
7703.0973313808854
 30
0.0
 11
3595.1678501323581
 21
7703.0973313808854
 31
0.0
  0
LINE
  5
7AC7
  8
1
  6
CONTINUOUS
 10
5942.1917792372788
 20
4935.7920771775161
 30
0.0
 11
6612.1917792372778
 21
4935.7920771775161
 31
0.0
  0
LINE
  5
7AC8
  8
1
  6
CONTINUOUS
 10
5902.1917792372788
 20
4975.7920771775161
 30
0.0
 11
6652.1917792372788
 21
4975.7920771775161
 31
0.0
  0
LINE
  5
7AC9
  8
1
  6
CONTINUOUS
 10
5659.6917792372778
 20
4508.1920771775149
 30
0.0
 11
5659.6917792372778
 21
4203.3920771775147
 31
0.0
  0
LINE
  5
7ACA
  8
1
  6
CONTINUOUS
 10
5769.6917792372788
 20
4032.7920771775148
 30
0.0
 11
5942.1917792372788
 21
4032.7920771775148
 31
0.0
  0
LINE
  5
7ACB
  8
1
  6
CONTINUOUS
 10
5734.6917792372778
 20
4385.7920771775152
 30
0.0
 11
5942.1917792372788
 21
4385.7920771775152
 31
0.0
  0
LINE
  5
7ACC
  8
1
  6
CONTINUOUS
 10
5734.6917792372778
 20
4325.7920771775152
 30
0.0
 11
5942.1917792372788
 21
4325.7920771775152
 31
0.0
  0
LINE
  5
7ACD
  8
1
  6
CONTINUOUS
 10
5734.6917792372778
 20
3891.7920771775148
 30
0.0
 11
5769.6917792372788
 21
3891.7920771775148
 31
0.0
  0
LINE
  5
7ACE
  8
1
  6
CONTINUOUS
 10
5734.6917792372778
 20
3849.7920771775148
 30
0.0
 11
5769.6917792372788
 21
3849.7920771775148
 31
0.0
  0
LINE
  5
7ACF
  8
1
  6
CONTINUOUS
 10
5659.6917792372778
 20
4508.1920771775149
 30
0.0
 11
5734.6917792372778
 21
4508.1920771775149
 31
0.0
  0
LINE
  5
7AD0
  8
1
  6
CONTINUOUS
 10
5659.6917792372778
 20
4203.3920771775147
 30
0.0
 11
5734.6917792372778
 21
4203.3920771775147
 31
0.0
  0
LINE
  5
7AD1
  8
1
  6
CONTINUOUS
 10
5659.6917792372778
 20
4023.192077177514
 30
0.0
 11
5734.6917792372778
 21
4023.192077177514
 31
0.0
  0
LINE
  5
7AD2
  8
1
  6
CONTINUOUS
 10
5617.1917792372788
 20
4558.1920771775149
 30
0.0
 11
5757.1917792372778
 21
4558.1920771775149
 31
0.0
  0
LINE
  5
7AD3
  8
1
  6
CONTINUOUS
 10
5734.6917792372778
 20
4508.1920771775149
 30
0.0
 11
5734.6917792372778
 21
4203.3920771775147
 31
0.0
  0
LINE
  5
7AD4
  8
1
  6
CONTINUOUS
 10
6695.1917792372778
 20
4845.7920771775152
 30
0.0
 11
6695.1917792372778
 21
3865.7920771775148
 31
0.0
  0
LINE
  5
7AD5
  8
1
  6
CONTINUOUS
 10
6612.1917792372778
 20
3905.7920771775148
 30
0.0
 11
6695.1917792372778
 21
3905.7920771775148
 31
0.0
  0
LINE
  5
7AD6
  8
1
  6
CONTINUOUS
 10
6612.1917792372778
 20
4805.7920771775152
 30
0.0
 11
6695.1917792372778
 21
4805.7920771775152
 31
0.0
  0
LINE
  5
7AD7
  8
1
  6
CONTINUOUS
 10
3678.167850132359
 20
6965.0973313808854
 30
0.0
 11
3678.167850132359
 21
7635.0973313808854
 31
0.0
  0
DIMENSION
  5
7AEB
  8
3
  6
CONTINUOUS
  2
*D1
 10
3035.1678501323581
 20
3183.865063177514
 30
0.0
 11
2349.5439591323589
 21
3183.865063177514
 31
0.0
 70
   128
 13
1695.1678501323579
 23
3535.7920771775148
 33
0.0
 14
3035.1678501323581
 24
3400.081926177515
 34
0.0
1001
ACAD
1000
DSTYLE
1002
{
1070
   287
1070
     3
1070
   287
1070
     3
1070
    40
1040
40.0
1070
   143
1040
0.039
1070
   172
1070
     1
1070
   271
1070
     0
1070
   279
1070
     0
1070
   288
1070
     1
1002
}
  0
DIMENSION
  5
7AF9
  8
3
  6
CONTINUOUS
  2
*D2
 10
3595.1678501323581
 20
3182.633709177514
 30
0.0
 11
3320.8821358466439
 21
3182.633709177514
 31
0.0
 70
   128
 13
3035.1678501323581
 23
3400.081926177515
 33
0.0
 14
3595.1678501323581
 24
3535.7920771775148
 34
0.0
1001
ACAD
1000
DSTYLE
1002
{
1070
   287
1070
     3
1070
   287
1070
     3
1070
    40
1040
40.0
1070
   143
1040
0.039
1070
   172
1070
     1
1070
   271
1070
     0
1070
   279
1070
     0
1070
   288
1070
     1
1002
}
  0
DIMENSION
  5
7B1C
  8
3
  6
CONTINUOUS
  2
*D3
 10
2999.167850132359
 20
5213.6768861775154
 30
0.0
 11
2523.0079061323599
 21
5213.6768861775154
 31
0.0
 70
   128
 13
2074.1678501323581
 23
4975.7920771775161
 33
0.0
 14
2999.167850132359
 24
4975.7920771775161
 34
0.0
1001
ACAD
1000
DSTYLE
1002
{
1070
   287
1070
     3
1070
   287
1070
     3
1070
    40
1040
40.0
1070
   143
1040
0.039
1070
   172
1070
     1
1070
   271
1070
     0
1070
   279
1070
     0
1070
   288
1070
     1
1002
}
  0
DIMENSION
  5
7B29
  8
3
  6
CONTINUOUS
  2
*D4
 10
3035.1678501323581
 20
5443.8809241775152
 30
0.0
 11
2572.569034132358
 21
5443.8809241775152
 31
0.0
 70
   128
 13
2074.1678501323581
 23
4975.7920771775161
 33
0.0
 14
3035.1678501323581
 24
4888.816841177515
 34
0.0
1001
ACAD
1000
DSTYLE
1002
{
1070
   287
1070
     3
1070
   287
1070
     3
1070
    40
1040
40.0
1070
   143
1040
0.039
1070
   172
1070
     1
1070
   271
1070
     0
1070
   279
1070
     0
1070
   288
1070
     1
1002
}
  0
DIMENSION
  5
7B35
  8
3
  6
CONTINUOUS
  2
*D5
 10
3678.167850132359
 20
5443.8809241775152
 30
0.0
 11
3356.667850132359
 21
5543.8809241775143
 31
0.0
 70
     0
 13
3035.1678501323581
 23
4888.816841177515
 33
0.0
 14
3678.167850132359
 24
4355.7920771775152
 34
0.0
1001
ACAD
1000
DSTYLE
1002
{
1070
   287
1070
     3
1070
   287
1070
     3
1070
    40
1040
40.0
1070
   143
1040
0.039
1070
   172
1070
     1
1070
   271
1070
     0
1070
   279
1070
     0
1070
   288
1070
     1
1002
}
  0
DIMENSION
  5
7B42
  8
3
  6
CONTINUOUS
  2
*D6
 10
4011.7273564518241
 20
4355.7920771775152
 30
0.0
 11
4011.7273564518232
 21
4701.5063628918006
 31
0.0
 70
   128
 13
3039.1678501323581
 23
4975.7920771775161
 33
0.0
 14
3675.7351371323589
 24
4355.7920771775152
 34
0.0
 50
90.0
1001
ACAD
1000
DSTYLE
1002
{
1070
   287
1070
     3
1070
   287
1070
     3
1070
    40
1040
40.0
1070
   143
1040
0.039
1070
   172
1070
     1
1070
   271
1070
     0
1070
   279
1070
     0
1070
   288
1070
     1
1002
}
  0
DIMENSION
  5
7B4E
  8
3
  6
CONTINUOUS
  2
*D7
 10
4011.7273564518232
 20
3535.7920771775148
 30
0.0
 11
3911.7273564518218
 21
3945.7920771775148
 31
0.0
 70
     0
 13
3675.7351371323589
 23
4355.7920771775152
 33
0.0
 14
3595.1678501323581
 24
3535.7920771775148
 34
0.0
 50
90.0
1001
ACAD
1000
DSTYLE
1002
{
1070
   287
1070
     3
1070
   287
1070
     3
1070
    40
1040
40.0
1070
   143
1040
0.039
1070
   172
1070
     1
1070
   271
1070
     0
1070
   279
1070
     0
1070
   288
1070
     1
1002
}
  0
DIMENSION
  5
7B5B
  8
3
  6
CONTINUOUS
  2
*D8
 10
4246.0803565475999
 20
3535.7920771775148
 30
0.0
 11
4246.0803565475999
 21
4246.6508649575926
 31
0.0
 70
   128
 13
3039.1678501323581
 23
4975.7920771775161
 33
0.0
 14
3595.1678501323581
 24
3535.7920771775148
 34
0.0
 50
90.0
1001
ACAD
1000
DSTYLE
1002
{
1070
   287
1070
     3
1070
   287
1070
     3
1070
    40
1040
40.0
1070
   143
1040
0.039
1070
   172
1070
     1
1070
   271
1070
     0
1070
   279
1070
     0
1070
   288
1070
     1
1002
}
  0
DIMENSION
  5
7B68
  8
3
  6
CONTINUOUS
  2
*D9
 10
3595.1678501323581
 20
6227.8514843808844
 30
0.0
 11
2641.9527761323588
 21
6227.8514843808844
 31
0.0
 70
   128
 13
1695.1678501323579
 23
6753.0973313808836
 33
0.0
 14
3595.1678501323581
 24
6753.0973313808836
 34
0.0
1001
ACAD
1000
DSTYLE
1002
{
1070
   287
1070
     3
1070
   287
1070
     3
1070
    40
1040
40.0
1070
   143
1040
0.039
1070
   172
1070
     1
1070
   271
1070
     0
1070
   279
1070
     0
1070
   288
1070
     1
1002
}
  0
DIMENSION
  5
7B75
  8
3
  6
CONTINUOUS
  2
*D10
 10
4054.444806132361
 20
6753.0973313808836
 30
0.0
 11
4054.4448061323601
 21
7262.554095380885
 31
0.0
 70
   128
 13
3595.1678501323581
 23
7703.0973313808854
 33
0.0
 14
3595.1678501323581
 24
6753.0973313808836
 34
0.0
 50
90.0
1001
ACAD
1000
DSTYLE
1002
{
1070
   287
1070
     3
1070
   287
1070
     3
1070
    40
1040
40.0
1070
   143
1040
0.039
1070
   172
1070
     1
1070
   271
1070
     0
1070
   279
1070
     0
1070
   288
1070
     1
1002
}
  0
LINE
  5
7B76
  8
2
  6
CENTER
 10
3795.8755281323588
 20
7300.0973313808836
 30
0.0
 11
1979.072748132359
 21
7300.0973313808836
 31
0.0
  0
LINE
  5
7B77
  8
2
  6
CENTER
 10
3035.1678501323581
 20
6461.7812673808849
 30
0.0
 11
3035.1678501323581
 21
7827.6074833808852
 31
0.0
  0
LINE
  5
7B78
  8
2
  6
CENTER
 10
6277.1917792372788
 20
5116.3694991775146
 30
0.0
 11
6277.1917792372788
 21
3406.6651491775151
 31
0.0
  0
DIMENSION
  5
7B85
  8
3
  6
CONTINUOUS
  2
*D11
 10
6612.1917792372778
 20
5098.5227751587081
 30
0.0
 11
6267.2005471567318
 21
5098.5227751587081
 31
0.0
 70
   128
 13
5942.1917792372788
 23
4975.7920771775161
 33
0.0
 14
6612.1917792372778
 24
4975.7920771775161
 34
0.0
1001
ACAD
1000
DSTYLE
1002
{
1070
   287
1070
     3
1070
   287
1070
     3
1070
    40
1040
40.0
1070
   143
1040
0.039
1070
   172
1070
     1
1070
   271
1070
     0
1070
   279
1070
     0
1070
   288
1070
     1
1002
}
  0
DIMENSION
  5
7B92
  8
3
  6
CONTINUOUS
  2
*D12
 10
6277.1917792372788
 20
5369.0196781775148
 30
0.0
 11
5908.6203506658512
 21
5369.0196781775148
 31
0.0
 70
   128
  1
MAX\P720
 13
5617.1917792372788
 23
4558.1920771775149
 33
0.0
 14
6277.1917792372788
 24
5303.3195751775156
 34
0.0
1001
ACAD
1000
DSTYLE
1002
{
1070
   287
1070
     3
1070
   287
1070
     3
1070
    40
1040
40.0
1070
   143
1040
0.039
1070
   172
1070
     1
1070
   271
1070
     0
1070
   279
1070
     0
1070
   288
1070
     1
1002
}
  0
DIMENSION
  5
7BA0
  8
3
  6
CONTINUOUS
  2
*D13
 10
6695.1917792372778
 20
5369.0196781775148
 30
0.0
 11
6494.0024539608276
 21
5478.6507795504704
 31
0.0
 70
   128
 13
6277.1917792372788
 23
5303.3195751775156
 33
0.0
 14
6695.1917792372778
 24
4845.7920771775152
 34
0.0
1001
ACAD
1000
DSTYLE
1002
{
1070
   288
1070
     1
1070
   172
1070
     1
1070
    40
1040
40.0
1070
   271
1070
     0
1070
   143
1040
0.039
1002
}
  0
DIMENSION
  5
7BC3
  8
3
  6
CONTINUOUS
  2
*D14
 10
7062.9287712372779
 20
3905.7920771775148
 30
0.0
 11
7062.928771237277
 21
4341.7368751775157
 31
0.0
 70
   128
 13
6695.1917792372778
 23
4805.7920771775152
 33
0.0
 14
6695.1917792372778
 24
3905.7920771775148
 34
0.0
 50
90.0
1001
ACAD
1000
DSTYLE
1002
{
1070
   287
1070
     3
1070
   287
1070
     3
1070
     3
1000
φ<>
1070
    40
1040
40.0
1070
   143
1040
0.039
1070
   172
1070
     1
1070
   271
1070
     0
1070
   279
1070
     0
1070
   288
1070
     1
1002
}
  0
DIMENSION
  5
7BD2
  8
3
  6
CONTINUOUS
  2
*D15
 10
6277.1917792372788
 20
3251.9538761775138
 30
0.0
 11
6018.450044982761
 21
3344.085838868657
 31
0.0
 70
   128
 13
5730.1917792372788
 23
3535.7920771775148
 33
0.0
 14
6277.1917792372788
 24
3406.6651491775151
 34
0.0
1001
ACAD
1000
DSTYLE
1002
{
1070
   288
1070
     1
1070
   172
1070
     1
1070
    40
1040
40.0
1070
   271
1070
     0
1070
   143
1040
0.039
1002
}
  0
DIMENSION
  5
7BE0
  8
3
  6
CONTINUOUS
  2
*D16
 10
6680.1917792372788
 20
3251.3382141775151
 30
0.0
 11
6494.0024539608276
 21
3344.085838868657
 31
0.0
 70
   128
 13
6277.1917792372788
 23
3406.6651491775151
 33
0.0
 14
6680.1917792372788
 24
3535.7920771775148
 34
0.0
1001
ACAD
1000
DSTYLE
1002
{
1070
   288
1070
     1
1070
   172
1070
     1
1070
    40
1040
40.0
1070
   271
1070
     0
1070
   143
1040
0.039
1002
}
  0
LINE
  5
7BF7
  8
2
  6
CENTER
 10
3964.3570421323589
 20
4355.7920771775152
 30
0.0
 11
2016.643365132358
 21
4355.7920771775152
 31
0.0
  0
LINE
  5
7BF8
  8
4
  6
CONTINUOUS
 10
7400.0
 20
2000.0
 30
0.0
 11
7400.0
 21
1200.0
 31
0.0
  0
LINE
  5
7BF9
  8
4
  6
CONTINUOUS
 10
4600.0
 20
2000.0
 30
0.0
 11
4600.0
 21
1200.0
 31
0.0
  0
LINE
  5
7BFA
  8
4
  6
CONTINUOUS
 10
2600.0
 20
2000.0
 30
0.0
 11
2600.0
 21
1200.0
 31
0.0
  0
LINE
  5
7BFD
  8
4
  6
CONTINUOUS
 10
2600.0
 20
1200.0
 30
0.0
 11
7400.0
 21
1200.0
 31
0.0
  0
LINE
  5
7BFE
  8
4
  6
CONTINUOUS
 10
2600.0
 20
1600.0
 30
0.0
 11
7400.0
 21
1600.0
 31
0.0
  0
TEXT
  5
7BFF
  8
4
  6
CONTINUOUS
 10
2754.0083232000002
 20
1726.1721031999989
 30
0.0
 40
200.0
  1
機器名称
  0
TEXT
  5
7C00
  8
4
  6
CONTINUOUS
 10
2745.032424
 20
1286.5806264
 30
0.0
 40
200.0
  1
機器型番
  0
TEXT
  5
7C01
  8
4
  6
CONTINUOUS
 10
4710.7149823999989
 20
1690.2870751999999
 30
0.0
 40
168.88888879999999
  1
ミツヤリミットロードファン
  0
TEXT
  5
7C02
  8
4
  6
CONTINUOUS
 10
4746.6179824000001
 20
1268.6383367999999
 30
0.0
 40
200.0
  1
LLE#5 1/2-4
  0
TEXT
  5
7C04
  8
4
  6
CONTINUOUS
 10
3619.1430624
 20
9533.7153655999991
 30
0.0
 40
216.0
  1
床置ベット
  0
TEXT
  5
7C05
  8
4
  6
CONTINUOUS
 10
1264.6703735999999
 20
10135.5239048
 30
0.0
 40
240.0
  1
ベルト駆動式片吸込両持排煙ファン
  0
LINE
  5
7C06
  8
4
  6
CONTINUOUS
 10
1000.0
 20
9877.635016799999
 30
0.0
 11
7400.0
 21
9877.635016799999
 31
0.0
  0
LINE
  5
7C07
  8
4
  6
CONTINUOUS
 10
1000.0
 20
10677.635016800001
 30
0.0
 11
7400.0
 21
10677.635016800001
 31
0.0
  0
LINE
  5
7C08
  8
4
  6
CONTINUOUS
 10
2600.0
 20
2000.0
 30
0.0
 11
7400.0
 21
2000.0
 31
0.0
  0
LINE
  5
7C09
  8
4
  6
CONTINUOUS
 10
1000.0
 20
10677.635016800001
 30
0.0
 11
1000.0
 21
9877.635016799999
 31
0.0
  0
TEXT
  5
7C0A
  8
4
  6
CONTINUOUS
 10
1875.7077336
 20
9529.2779104000001
 30
0.0
 40
216.0
  1
右回転上向
  0
TEXT
  5
7C0B
  8
4
  6
CONTINUOUS
 10
5875.8782375999999
 20
10824.244326399999
 30
0.0
 40
224.0
  1
No.
  0
TEXT
  5
7C0C
  8
4
  6
CONTINUOUS
 10
5245.1842504000006
 20
9533.7153655999991
 30
0.0
 40
216.0
  1
縮尺：1/40
  0
LINE
  5
7C0D
  8
4
  6
CONTINUOUS
 10
7400.0
 20
10677.635016800001
 30
0.0
 11
7400.0
 21
9877.635016799999
 31
0.0
  0
LINE
  5
7C0F
  8
4
  6
CONTINUOUS
 10
5762.4696895999996
 20
10725.0543328
 30
0.0
 11
5762.4696895999996
 21
11146.609046400001
 31
0.0
  0
LINE
  5
7C10
  8
4
  6
CONTINUOUS
 10
5762.4696895999996
 20
11146.609046400001
 30
0.0
 11
7400.0
 21
11146.609046400001
 31
0.0
  0
LINE
  5
7C11
  8
4
  6
CONTINUOUS
 10
7400.0
 20
11146.609046400001
 30
0.0
 11
7400.0
 21
10725.0543328
 31
0.0
  0
LINE
  5
7C12
  8
4
  6
CONTINUOUS
 10
7400.0
 20
10725.0543328
 30
0.0
 11
5762.4696895999996
 21
10725.0543328
 31
0.0
  0
DIMENSION
  5
7DB6
  8
3
  2
*D17
 10
1695.1678501323579
 20
5697.95540805357
 30
0.0
 11
2806.6419543652592
 21
5697.95540805357
 31
0.0
 70
   128
 13
3678.167850132359
 23
4375.7920771775152
 33
0.0
 14
1695.1678501323579
 24
3660.7920771775148
 34
0.0
1001
ACAD
1000
DSTYLE
1002
{
1070
   287
1070
     3
1070
   287
1070
     3
1070
    40
1040
40.0
1070
   143
1040
0.039
1070
   172
1070
     1
1070
   271
1070
     0
1070
   279
1070
     0
1070
   288
1070
     1
1002
}
  0
ENDSEC
  0
EOF
