  0
SECTION
  2
HEADER
  9
$ACADVER
  1
AC1009
  9
$INSBASE
 10
0.0
 20
0.0
 30
0.0
  9
$EXTMIN
 10
1000.0
 20
1200.0
 30
0.0
  9
$EXTMAX
 10
7400.0
 20
11146.609046400001
 30
0.0
  9
$LIMMIN
 10
0.0
 20
0.0
  9
$LIMMAX
 10
297.0
 20
210.0
  9
$ORTHOMODE
 70
     0
  9
$REGENMODE
 70
     1
  9
$FILLMODE
 70
     0
  9
$QTEXTMODE
 70
     0
  9
$MIRRTEXT
 70
     1
  9
$DRAGMODE
 70
     2
  9
$LTSCALE
 40
100.0
  9
$OSMODE
 70
    37
  9
$ATTMODE
 70
     1
  9
$TEXTSIZE
 40
180.0
  9
$TRACEWID
 40
0.05
  9
$TEXTSTYLE
  7
STANDARD
  9
$CLAYER
  8
3
  9
$CELTYPE
  6
BYLAYER
  9
$CECOLOR
 62
   256
  9
$DIMSCALE
 40
40.0
  9
$DIMASZ
 40
2.0
  9
$DIMEXO
 40
0.5
  9
$DIMDLI
 40
10.0
  9
$DIMRND
 40
0.0
  9
$DIMDLE
 40
0.0
  9
$DIMEXE
 40
1.0
  9
$DIMTP
 40
1.0
  9
$DIMTM
 40
1.0
  9
$DIMTXT
 40
3.0
  9
$DIMCEN
 40
0.0
  9
$DIMTSZ
 40
0.0
  9
$DIMTOL
 70
     0
  9
$DIMLIM
 70
     0
  9
$DIMTIH
 70
     0
  9
$DIMTOH
 70
     0
  9
$DIMSE1
 70
     0
  9
$DIMSE2
 70
     0
  9
$DIMTAD
 70
     1
  9
$DIMZIN
 70
     8
  9
$DIMBLK
  1

  9
$DIMASO
 70
     1
  9
$DIMSHO
 70
     1
  9
$DIMPOST
  1

  9
$DIMAPOST
  1

  9
$DIMALT
 70
     0
  9
$DIMALTD
 70
     2
  9
$DIMALTF
 40
0.039
  9
$DIMLFAC
 40
1.0
  9
$DIMTOFL
 70
     1
  9
$DIMTVP
 40
0.0
  9
$DIMTIX
 70
     0
  9
$DIMSOXD
 70
     0
  9
$DIMSAH
 70
     1
  9
$DIMBLK1
  1
OPEN
  9
$DIMBLK2
  1
OPEN
  9
$DIMSTYLE
  2
IGA
  9
$DIMCLRD
 70
     0
  9
$DIMCLRE
 70
     0
  9
$DIMCLRT
 70
     0
  9
$DIMTFAC
 40
10.0
  9
$DIMGAP
 40
1.0
  9
$LUNITS
 70
     2
  9
$LUPREC
 70
     3
  9
$SKETCHINC
 40
0.1
  9
$FILLETRAD
 40
50.0
  9
$AUNITS
 70
     0
  9
$AUPREC
 70
     0
  9
$MENU
  1
acad
  9
$ELEVATION
 40
0.0
  9
$PELEVATION
 40
0.0
  9
$THICKNESS
 40
0.0
  9
$LIMCHECK
 70
     0
  9
$BLIPMODE
 70
     0
  9
$CHAMFERA
 40
0.5
  9
$CHAMFERB
 40
0.5
  9
$SKPOLY
 70
     0
  9
$TDCREATE
 40
2450752.375237037
  9
$TDUPDATE
 40
2454953.6856629751
  9
$TDINDWG
 40
0.0060039931
  9
$TDUSRTIMER
 40
0.0060039931
  9
$USRTIMER
 70
     1
  9
$ANGBASE
 50
0.0
  9
$ANGDIR
 70
     0
  9
$PDMODE
 70
     0
  9
$PDSIZE
 40
0.0
  9
$PLINEWID
 40
0.0
  9
$COORDS
 70
     1
  9
$SPLFRAME
 70
     0
  9
$SPLINETYPE
 70
     6
  9
$SPLINESEGS
 70
     8
  9
$ATTDIA
 70
     0
  9
$ATTREQ
 70
     1
  9
$HANDLING
 70
 10241
  9
$HANDSEED
  5
7F94
  9
$SURFTAB1
 70
     6
  9
$SURFTAB2
 70
     6
  9
$SURFTYPE
 70
     6
  9
$SURFU
 70
     6
  9
$SURFV
 70
     6
  9
$UCSNAME
  2

  9
$UCSORG
 10
0.0
 20
0.0
 30
0.0
  9
$UCSXDIR
 10
1.0
 20
0.0
 30
0.0
  9
$UCSYDIR
 10
0.0
 20
1.0
 30
0.0
  9
$PUCSNAME
  2

  9
$PUCSORG
 10
0.0
 20
0.0
 30
0.0
  9
$PUCSXDIR
 10
1.0
 20
0.0
 30
0.0
  9
$PUCSYDIR
 10
0.0
 20
1.0
 30
0.0
  9
$USERI1
 70
     0
  9
$USERI2
 70
     0
  9
$USERI3
 70
     0
  9
$USERI4
 70
     0
  9
$USERI5
 70
     0
  9
$USERR1
 40
0.0
  9
$USERR2
 40
0.0
  9
$USERR3
 40
0.0
  9
$USERR4
 40
0.0
  9
$USERR5
 40
0.0
  9
$WORLDVIEW
 70
     1
  9
$SHADEDGE
 70
     3
  9
$SHADEDIF
 70
    70
  9
$TILEMODE
 70
     1
  9
$MAXACTVP
 70
    16
  9
$PLIMCHECK
 70
     0
  9
$PEXTMIN
 10
1.0000000000000000E+020
 20
1.0000000000000000E+020
 30
1.0000000000000000E+020
  9
$PEXTMAX
 10
-1.0000000000000000E+020
 20
-1.0000000000000000E+020
 30
-1.0000000000000000E+020
  9
$PLIMMIN
 10
0.0
 20
0.0
  9
$PLIMMAX
 10
12.0
 20
9.0
  9
$UNITMODE
 70
     0
  9
$VISRETAIN
 70
     0
  9
$PLINEGEN
 70
     0
  9
$PSLTSCALE
 70
     1
  0
ENDSEC
  0
SECTION
  2
TABLES
  0
TABLE
  2
VPORT
 70
     2
  0
VPORT
  2
*ACTIVE
 70
     0
 10
0.0
 20
0.0
 11
1.0
 21
1.0
 12
17064.2075024277
 22
5809.7684261029426
 13
0.0
 23
0.0
 14
10.0
 24
10.0
 15
10.0
 25
10.0
 16
0.0
 26
0.0
 36
1.0
 17
0.0
 27
0.0
 37
0.0
 40
13090.71600287265
 41
3.1666666666666661
 42
50.0
 43
0.0
 44
0.0
 50
0.0
 51
0.0
 71
     0
 72
   100
 73
     1
 74
     0
 75
     0
 76
     0
 77
     0
 78
     0
  0
ENDTAB
  0
TABLE
  2
LTYPE
 70
     2
  0
LTYPE
  2
CONTINUOUS
 70
     0
  3
Solid line
 72
    65
 73
     0
 40
0.0
  0
LTYPE
  2
CENTER
 70
     0
  3
____ _ ____ _ ____ _ ____ _ ____ _ ____ _ ____ 
 72
    65
 73
     4
 40
2.0
 49
1.25
 49
-0.25
 49
0.25
 49
-0.25
  0
ENDTAB
  0
TABLE
  2
LAYER
 70
     6
  0
LAYER
  2
0
 70
     0
 62
     7
  6
CONTINUOUS
  0
LAYER
  2
3
 70
     0
 62
     2
  6
CONTINUOUS
  0
LAYER
  2
2
 70
     0
 62
     3
  6
CENTER
  0
LAYER
  2
1
 70
     0
 62
     4
  6
CONTINUOUS
  0
LAYER
  2
4
 70
     0
 62
     7
  6
CONTINUOUS
  0
LAYER
  2
DEFPOINTS
 70
     0
 62
     7
  6
CONTINUOUS
  0
ENDTAB
  0
TABLE
  2
STYLE
 70
     1
  0
STYLE
  2
STANDARD
 70
     0
 40
0.0
 41
1.0
 50
0.0
 71
     0
 42
180.0
  3
simplex.shx
  4
extfont.shx
  0
ENDTAB
  0
TABLE
  2
VIEW
 70
     0
  0
ENDTAB
  0
TABLE
  2
UCS
 70
     0
  0
ENDTAB
  0
TABLE
  2
APPID
 70
     1
  0
APPID
  2
ACAD
 70
     0
  0
ENDTAB
  0
TABLE
  2
DIMSTYLE
 70
     1
  0
DIMSTYLE
  2
IGA
 70
     0
  3

  4

  5

  6
OPEN
  7
OPEN
 40
2.0
 41
2.0
 42
0.5
 43
10.0
 44
1.0
 45
0.0
 46
0.0
 47
1.0
 48
1.0
140
3.0
141
0.0
142
0.0
143
0.03937
144
1.0
145
0.0
146
10.0
147
1.0
 71
     0
 72
     0
 73
     0
 74
     0
 75
     0
 76
     0
 77
     1
 78
     8
170
     0
171
     2
172
     0
173
     1
174
     0
175
     0
176
     0
177
     0
178
     0
  0
ENDTAB
  0
ENDSEC
  0
SECTION
  2
BLOCKS
  0
BLOCK
  8
0
  2
$MODEL_SPACE
 70
     0
 10
0.0
 20
0.0
 30
0.0
  3
$MODEL_SPACE
  1

  0
ENDBLK
  5
1B
  8
0
  0
BLOCK
 67
     1
  8
0
  2
$PAPER_SPACE
 70
     0
 10
0.0
 20
0.0
 30
0.0
  3
$PAPER_SPACE
  1

  0
ENDBLK
  5
18
 67
     1
  8
0
  0
BLOCK
  8
0
  2
_OPEN
 70
     0
 10
0.0
 20
0.0
 30
0.0
  3
_OPEN
  1

  0
LINE
  5
7ADC
  8
0
  6
BYBLOCK
 62
     0
 10
-1.0
 20
0.166667
 30
0.0
 11
0.0
 21
0.0
 31
0.0
  0
LINE
  5
7ADD
  8
0
  6
BYBLOCK
 62
     0
 10
0.0
 20
0.0
 30
0.0
 11
-1.0
 21
-0.166667
 31
0.0
  0
LINE
  5
7ADE
  8
0
  6
BYBLOCK
 62
     0
 10
0.0
 20
0.0
 30
0.0
 11
-1.0
 21
0.0
 31
0.0
  0
ENDBLK
  5
7ADF
  8
0
  0
BLOCK
  8
0
  2
*D1
 70
     1
 10
0.0
 20
0.0
 30
0.0
  3
*D1
  1

  0
LINE
  5
7EFD
  8
3
  6
CONTINUOUS
 62
     0
 10
1488.440088316127
 20
3912.2094074954589
 30
0.0
 11
1488.440088316127
 21
3516.3638034954602
 31
0.0
  0
LINE
  5
7EFE
  8
3
  6
CONTINUOUS
 62
     0
 10
2828.440088316127
 20
3768.5644164954601
 30
0.0
 11
2828.440088316127
 21
3516.3638034954602
 31
0.0
  0
LINE
  5
7EFF
  8
3
  6
CONTINUOUS
 62
     0
 10
1568.440088316127
 20
3556.3638034954602
 30
0.0
 11
2748.440088316127
 21
3556.3638034954602
 31
0.0
  0
INSERT
  5
7F00
  8
3
  6
CONTINUOUS
 62
     0
  2
_OPEN
 10
1488.440088316127
 20
3556.3638034954602
 30
0.0
 41
80.0
 42
80.0
 43
80.0
 50
180.0
  0
INSERT
  5
7F01
  8
3
  6
CONTINUOUS
 62
     0
  2
_OPEN
 10
2828.440088316127
 20
3556.3638034954602
 30
0.0
 41
80.0
 42
80.0
 43
80.0
  0
TEXT
  8
3
  40
120
  5
7F84
  62
0
  72
0
  71
0
 10
1951.23
 20
3443.96
 30
0.000000
  1
1340
  0
POINT
  5
7F03
  8
DEFPOINTS
  6
CONTINUOUS
 62
     0
 10
1488.440088316127
 20
3932.2094074954589
 30
0.0
  0
POINT
  5
7F04
  8
DEFPOINTS
  6
CONTINUOUS
 62
     0
 10
2828.440088316127
 20
3788.5644164954601
 30
0.0
  0
POINT
  5
7F05
  8
DEFPOINTS
  6
CONTINUOUS
 62
     0
 10
2828.440088316127
 20
3556.3638034954602
 30
0.0
  0
ENDBLK
  5
7D45
  8
0
  0
BLOCK
  8
0
  2
*D2
 70
     1
 10
0.0
 20
0.0
 30
0.0
  3
*D2
  1

  0
LINE
  5
7F06
  8
3
  6
CONTINUOUS
 62
     0
 10
2828.440088316127
 20
3768.5644164954601
 30
0.0
 11
2828.440088316127
 21
3516.3638034954602
 31
0.0
  0
LINE
  5
7F07
  8
3
  6
CONTINUOUS
 62
     0
 10
3388.4400883161261
 20
3912.2094074954589
 30
0.0
 11
3388.4400883161261
 21
3516.3638034954602
 31
0.0
  0
LINE
  5
7F08
  8
3
  6
CONTINUOUS
 62
     0
 10
2908.4400883161261
 20
3556.3638034954602
 30
0.0
 11
3308.440088316127
 21
3556.3638034954602
 31
0.0
  0
INSERT
  5
7F09
  8
3
  6
CONTINUOUS
 62
     0
  2
_OPEN
 10
2828.440088316127
 20
3556.3638034954602
 30
0.0
 41
80.0
 42
80.0
 43
80.0
 50
180.0
  0
INSERT
  5
7F0A
  8
3
  6
CONTINUOUS
 62
     0
  2
_OPEN
 10
3388.4400883161261
 20
3556.3638034954602
 30
0.0
 41
80.0
 42
80.0
 43
80.0
  0
TEXT
  8
3
  40
120
  5
7F85
  62
0
  72
0
  71
0
 10
2874.15
 20
3443.96
 30
0.000000
  1
560
  0
POINT
  5
7F0C
  8
DEFPOINTS
  6
CONTINUOUS
 62
     0
 10
2828.440088316127
 20
3788.5644164954601
 30
0.0
  0
POINT
  5
7F0D
  8
DEFPOINTS
  6
CONTINUOUS
 62
     0
 10
3388.4400883161261
 20
3932.2094074954589
 30
0.0
  0
POINT
  5
7F0E
  8
DEFPOINTS
  6
CONTINUOUS
 62
     0
 10
3388.4400883161261
 20
3556.3638034954602
 30
0.0
  0
ENDBLK
  5
7D3A
  8
0
  0
BLOCK
  8
0
  2
*D3
 70
     1
 10
0.0
 20
0.0
 30
0.0
  3
*D3
  1

  0
LINE
  5
7F0F
  8
3
  6
CONTINUOUS
 62
     0
 10
3468.440088316127
 20
4996.2094074954593
 30
0.0
 11
3856.2498403161271
 21
4996.2094074954593
 31
0.0
  0
LINE
  5
7F10
  8
3
  6
CONTINUOUS
 62
     0
 10
3468.440088316127
 20
4071.2094074954589
 30
0.0
 11
3856.2498403161271
 21
4071.2094074954589
 31
0.0
  0
LINE
  5
7F11
  8
3
  6
CONTINUOUS
 62
     0
 10
3816.249840316128
 20
4916.2094074954593
 30
0.0
 11
3816.249840316128
 21
4151.2094074954603
 31
0.0
  0
INSERT
  5
7F12
  8
3
  6
CONTINUOUS
 62
     0
  2
_OPEN
 10
3816.249840316128
 20
4996.2094074954593
 30
0.0
 41
80.0
 42
80.0
 43
80.0
 50
90.0
  0
INSERT
  5
7F13
  8
3
  6
CONTINUOUS
 62
     0
  2
_OPEN
 10
3816.249840316128
 20
4071.2094074954589
 30
0.0
 41
80.0
 42
80.0
 43
80.0
 50
270.0
  0
TEXT
  8
3
  40
120
  5
7F86
  62
0
  72
0
  71
0
 10
3476.25
 20
4381.39
 30
0.000000
  1
925
  0
POINT
  5
7F15
  8
DEFPOINTS
  6
CONTINUOUS
 62
     0
 10
3448.440088316127
 20
4996.2094074954593
 30
0.0
  0
POINT
  5
7F16
  8
DEFPOINTS
  6
CONTINUOUS
 62
     0
 10
3448.440088316127
 20
4071.2094074954589
 30
0.0
  0
POINT
  5
7F17
  8
DEFPOINTS
  6
CONTINUOUS
 62
     0
 10
3816.249840316128
 20
4071.2094074954589
 30
0.0
  0
ENDBLK
  5
7D2F
  8
0
  0
BLOCK
  8
0
  2
*D4
 70
     1
 10
0.0
 20
0.0
 30
0.0
  3
*D4
  1

  0
LINE
  5
7F18
  8
3
  6
CONTINUOUS
 62
     0
 10
3468.440088316127
 20
4071.2094074954589
 30
0.0
 11
4087.8197878512392
 21
4071.2094074954589
 31
0.0
  0
LINE
  5
7F19
  8
3
  6
CONTINUOUS
 62
     0
 10
3381.4648533161271
 20
5032.2094074954593
 30
0.0
 11
4087.8197878512392
 21
5032.2094074954593
 31
0.0
  0
LINE
  5
7F1A
  8
3
  6
CONTINUOUS
 62
     0
 10
4047.8197878512378
 20
4151.2094074954603
 30
0.0
 11
4047.8197878512378
 21
4952.2094074954593
 31
0.0
  0
INSERT
  5
7F1B
  8
3
  6
CONTINUOUS
 62
     0
  2
_OPEN
 10
4047.8197878512378
 20
4071.2094074954589
 30
0.0
 41
80.0
 42
80.0
 43
80.0
 50
270.0
  0
INSERT
  5
7F1C
  8
3
  6
CONTINUOUS
 62
     0
  2
_OPEN
 10
4047.8197878512378
 20
5032.2094074954593
 30
0.0
 41
80.0
 42
80.0
 43
80.0
 50
90.0
  0
TEXT
  8
3
  40
120
  5
7F87
  62
0
  72
0
  71
0
 10
3707.82
 20
4415.70
 30
0.000000
  1
961
  0
POINT
  5
7F1E
  8
DEFPOINTS
  6
CONTINUOUS
 62
     0
 10
3448.440088316127
 20
4071.2094074954589
 30
0.0
  0
POINT
  5
7F1F
  8
DEFPOINTS
  6
CONTINUOUS
 62
     0
 10
3361.4648533161271
 20
5032.2094074954593
 30
0.0
  0
POINT
  5
7F20
  8
DEFPOINTS
  6
CONTINUOUS
 62
     0
 10
4047.8197878512378
 20
5032.2094074954593
 30
0.0
  0
ENDBLK
  5
7DF5
  8
0
  0
BLOCK
  8
0
  2
*D5
 70
     1
 10
0.0
 20
0.0
 30
0.0
  3
*D5
  1

  0
LINE
  5
7F21
  8
3
  6
CONTINUOUS
 62
     0
 10
2051.4400883161261
 20
5052.2094074954593
 30
0.0
 11
2051.4400883161261
 21
5844.5123124954598
 31
0.0
  0
LINE
  5
7F22
  8
3
  6
CONTINUOUS
 62
     0
 10
2828.440088316127
 20
5692.7766944954601
 30
0.0
 11
2828.440088316127
 21
5844.5123124954598
 31
0.0
  0
LINE
  5
7F23
  8
3
  6
CONTINUOUS
 62
     0
 10
2131.4400883161261
 20
5804.5123124954598
 30
0.0
 11
2748.440088316127
 21
5804.5123124954598
 31
0.0
  0
INSERT
  5
7F24
  8
3
  6
CONTINUOUS
 62
     0
  2
_OPEN
 10
2051.4400883161261
 20
5804.5123124954598
 30
0.0
 41
80.0
 42
80.0
 43
80.0
 50
180.0
  0
INSERT
  5
7F25
  8
3
  6
CONTINUOUS
 62
     0
  2
_OPEN
 10
2828.440088316127
 20
5804.5123124954598
 30
0.0
 41
80.0
 42
80.0
 43
80.0
  0
TEXT
  8
3
  40
120
  5
7F88
  62
0
  72
0
  71
0
 10
2190.70
 20
5692.11
 30
0.000000
  1
777
  0
POINT
  5
7F27
  8
DEFPOINTS
  6
CONTINUOUS
 62
     0
 10
2051.4400883161261
 20
5032.2094074954593
 30
0.0
  0
POINT
  5
7F28
  8
DEFPOINTS
  6
CONTINUOUS
 62
     0
 10
2828.440088316127
 20
5672.7766944954601
 30
0.0
  0
POINT
  5
7F29
  8
DEFPOINTS
  6
CONTINUOUS
 62
     0
 10
2828.440088316127
 20
5804.5123124954598
 30
0.0
  0
ENDBLK
  5
7E01
  8
0
  0
BLOCK
  8
0
  2
*D6
 70
     1
 10
0.0
 20
0.0
 30
0.0
  3
*D6
  1

  0
LINE
  5
7F2A
  8
3
  6
CONTINUOUS
 62
     0
 10
2828.440088316127
 20
5692.7766944954601
 30
0.0
 11
2828.440088316127
 21
5844.5123124954598
 31
0.0
  0
LINE
  5
7F2B
  8
3
  6
CONTINUOUS
 62
     0
 10
3448.440088316127
 20
5056.2094074954593
 30
0.0
 11
3448.440088316127
 21
5844.5123124954598
 31
0.0
  0
LINE
  5
7F2C
  8
3
  6
CONTINUOUS
 62
     0
 10
2908.4400883161261
 20
5804.5123124954598
 30
0.0
 11
3368.440088316127
 21
5804.5123124954598
 31
0.0
  0
INSERT
  5
7F2D
  8
3
  6
CONTINUOUS
 62
     0
  2
_OPEN
 10
2828.440088316127
 20
5804.5123124954598
 30
0.0
 41
80.0
 42
80.0
 43
80.0
 50
180.0
  0
INSERT
  5
7F2E
  8
3
  6
CONTINUOUS
 62
     0
  2
_OPEN
 10
3448.440088316127
 20
5804.5123124954598
 30
0.0
 41
80.0
 42
80.0
 43
80.0
  0
TEXT
  8
3
  40
120
  5
7F89
  62
0
  72
0
  71
0
 10
2898.44
 20
5692.11
 30
0.000000
  1
620
  0
POINT
  5
7F30
  8
DEFPOINTS
  6
CONTINUOUS
 62
     0
 10
2828.440088316127
 20
5672.7766944954601
 30
0.0
  0
POINT
  5
7F31
  8
DEFPOINTS
  6
CONTINUOUS
 62
     0
 10
3448.440088316127
 20
5036.2094074954593
 30
0.0
  0
POINT
  5
7F32
  8
DEFPOINTS
  6
CONTINUOUS
 62
     0
 10
3448.440088316127
 20
5804.5123124954598
 30
0.0
  0
ENDBLK
  5
7D0E
  8
0
  0
BLOCK
  8
0
  2
*D7
 70
     1
 10
0.0
 20
0.0
 30
0.0
  3
*D7
  1

  0
LINE
  5
7F33
  8
3
  6
CONTINUOUS
 62
     0
 10
1488.440088316127
 20
7407.6473099630693
 30
0.0
 11
1488.440088316127
 21
6961.4176039630693
 31
0.0
  0
LINE
  5
7F34
  8
3
  6
CONTINUOUS
 62
     0
 10
3388.4400883161261
 20
7407.6473099630693
 30
0.0
 11
3388.4400883161261
 21
6961.4176039630693
 31
0.0
  0
LINE
  5
7F35
  8
3
  6
CONTINUOUS
 62
     0
 10
1568.440088316127
 20
7001.4176039630693
 30
0.0
 11
3308.440088316127
 21
7001.4176039630693
 31
0.0
  0
INSERT
  5
7F36
  8
3
  6
CONTINUOUS
 62
     0
  2
_OPEN
 10
1488.440088316127
 20
7001.4176039630693
 30
0.0
 41
80.0
 42
80.0
 43
80.0
 50
180.0
  0
INSERT
  5
7F37
  8
3
  6
CONTINUOUS
 62
     0
  2
_OPEN
 10
3388.4400883161261
 20
7001.4176039630693
 30
0.0
 41
80.0
 42
80.0
 43
80.0
  0
TEXT
  8
3
  40
120
  5
7F8A
  62
0
  72
0
  71
0
 10
2190.70
 20
6889.02
 30
0.000000
  1
1900
  0
POINT
  5
7F39
  8
DEFPOINTS
  6
CONTINUOUS
 62
     0
 10
1488.440088316127
 20
7427.6473099630693
 30
0.0
  0
POINT
  5
7F3A
  8
DEFPOINTS
  6
CONTINUOUS
 62
     0
 10
3388.4400883161261
 20
7427.6473099630693
 30
0.0
  0
POINT
  5
7F3B
  8
DEFPOINTS
  6
CONTINUOUS
 62
     0
 10
3388.4400883161261
 20
7001.4176039630693
 30
0.0
  0
ENDBLK
  5
7D03
  8
0
  0
BLOCK
  8
0
  2
*D8
 70
     1
 10
0.0
 20
0.0
 30
0.0
  3
*D8
  1

  0
LINE
  5
7F3C
  8
3
  6
CONTINUOUS
 62
     0
 10
3408.440088316127
 20
8377.6473099630693
 30
0.0
 11
3857.4699033161278
 21
8377.6473099630693
 31
0.0
  0
LINE
  5
7F3D
  8
3
  6
CONTINUOUS
 62
     0
 10
3408.440088316127
 20
7427.6473099630693
 30
0.0
 11
3857.4699033161278
 21
7427.6473099630693
 31
0.0
  0
LINE
  5
7F3E
  8
3
  6
CONTINUOUS
 62
     0
 10
3817.4699033161278
 20
8297.6473099630693
 30
0.0
 11
3817.4699033161278
 21
7507.6473099630684
 31
0.0
  0
INSERT
  5
7F3F
  8
3
  6
CONTINUOUS
 62
     0
  2
_OPEN
 10
3817.4699033161278
 20
8377.6473099630693
 30
0.0
 41
80.0
 42
80.0
 43
80.0
 50
90.0
  0
INSERT
  5
7F40
  8
3
  6
CONTINUOUS
 62
     0
  2
_OPEN
 10
3817.4699033161278
 20
7427.6473099630693
 30
0.0
 41
80.0
 42
80.0
 43
80.0
 50
270.0
  0
TEXT
  8
3
  40
120
  5
7F8B
  62
0
  72
0
  71
0
 10
3477.47
 20
7698.29
 30
0.000000
  1
950
  0
POINT
  5
7F42
  8
DEFPOINTS
  6
CONTINUOUS
 62
     0
 10
3388.4400883161261
 20
8377.6473099630693
 30
0.0
  0
POINT
  5
7F43
  8
DEFPOINTS
  6
CONTINUOUS
 62
     0
 10
3388.4400883161261
 20
7427.6473099630693
 30
0.0
  0
POINT
  5
7F44
  8
DEFPOINTS
  6
CONTINUOUS
 62
     0
 10
3817.4699033161278
 20
7427.6473099630693
 30
0.0
  0
ENDBLK
  5
7CF8
  8
0
  0
BLOCK
  8
0
  2
*D9
 70
     1
 10
0.0
 20
0.0
 30
0.0
  3
*D9
  1

  0
LINE
  5
7D73
  8
0
  6
BYBLOCK
 62
     0
 10
5747.4068423240769
 20
3912.2094074954589
 30
0.0
 11
5747.4068423240769
 21
3609.131168495459
 31
0.0
  0
LINE
  5
7D74
  8
0
  6
BYBLOCK
 62
     0
 10
6294.406842324076
 20
3781.6936684954599
 30
0.0
 11
6294.406842324076
 21
3609.131168495459
 31
0.0
  0
LINE
  5
7D75
  8
0
  6
BYBLOCK
 62
     0
 10
5827.4068423240769
 20
3649.1311684954599
 30
0.0
 11
6214.406842324076
 21
3649.1311684954599
 31
0.0
  0
TEXT
  5
7D76
  8
3
 62
     0
 10
5883.8659644435274
 20
3679.9900221680732
 30
0.0
 40
120.0
  1
547
  0
INSERT
  5
7D77
  8
0
  6
BYBLOCK
 62
     0
  2
_OPEN
 10
5747.4068423240769
 20
3649.1311684954599
 30
0.0
 41
80.0
 42
80.0
 43
80.0
 50
180.0
  0
INSERT
  5
7D78
  8
0
  6
BYBLOCK
 62
     0
  2
_OPEN
 10
6294.406842324076
 20
3649.1311684954599
 30
0.0
 41
80.0
 42
80.0
 43
80.0
  0
POINT
  5
7D79
  8
DEFPOINTS
  6
BYBLOCK
 62
     0
 10
5747.4068423240769
 20
3932.2094074954589
 30
0.0
  0
POINT
  5
7D7A
  8
DEFPOINTS
  6
BYBLOCK
 62
     0
 10
6294.406842324076
 20
3801.6936684954599
 30
0.0
  0
POINT
  5
7D7B
  8
DEFPOINTS
  6
BYBLOCK
 62
     0
 10
6294.406842324076
 20
3649.1311684954599
 30
0.0
  0
ENDBLK
  5
7D7C
  8
0
  0
BLOCK
  8
0
  2
*D10
 70
     1
 10
0.0
 20
0.0
 30
0.0
  3
*D10
  1

  0
LINE
  5
7D7E
  8
0
  6
BYBLOCK
 62
     0
 10
6294.406842324076
 20
3781.6936684954599
 30
0.0
 11
6294.406842324076
 21
3607.916906495459
 31
0.0
  0
LINE
  5
7D7F
  8
0
  6
BYBLOCK
 62
     0
 10
6697.4068423240769
 20
3912.2094074954589
 30
0.0
 11
6697.4068423240769
 21
3607.916906495459
 31
0.0
  0
LINE
  5
7D80
  8
0
  6
BYBLOCK
 62
     0
 10
6374.406842324076
 20
3647.916906495459
 30
0.0
 11
6617.406842324076
 21
3647.916906495459
 31
0.0
  0
TEXT
  5
7D81
  8
3
 62
     0
 10
6353.102717284858
 20
3689.006357565439
 30
0.0
 40
120.0
  1
403
  0
INSERT
  5
7D82
  8
0
  6
BYBLOCK
 62
     0
  2
_OPEN
 10
6294.406842324076
 20
3647.916906495459
 30
0.0
 41
80.0
 42
80.0
 43
80.0
 50
180.0
  0
INSERT
  5
7D83
  8
0
  6
BYBLOCK
 62
     0
  2
_OPEN
 10
6697.4068423240769
 20
3647.916906495459
 30
0.0
 41
80.0
 42
80.0
 43
80.0
  0
POINT
  5
7D84
  8
DEFPOINTS
  6
BYBLOCK
 62
     0
 10
6294.406842324076
 20
3801.6936684954599
 30
0.0
  0
POINT
  5
7D85
  8
DEFPOINTS
  6
BYBLOCK
 62
     0
 10
6697.4068423240769
 20
3932.2094074954589
 30
0.0
  0
POINT
  5
7D86
  8
DEFPOINTS
  6
BYBLOCK
 62
     0
 10
6697.4068423240769
 20
3647.916906495459
 30
0.0
  0
ENDBLK
  5
7D87
  8
0
  0
BLOCK
  8
0
  2
*D11
 70
     1
 10
0.0
 20
0.0
 30
0.0
  3
*D11
  1

  0
LINE
  5
7F45
  8
3
  6
CONTINUOUS
 62
     0
 10
5959.4068423240769
 20
5695.2094074954593
 30
0.0
 11
5959.4068423240769
 21
5948.2704094954597
 31
0.0
  0
LINE
  5
7F46
  8
3
  6
CONTINUOUS
 62
     0
 10
6629.406842324076
 20
5695.2094074954593
 30
0.0
 11
6629.406842324076
 21
5948.2704094954597
 31
0.0
  0
LINE
  5
7F47
  8
3
  6
CONTINUOUS
 62
     0
 10
6039.406842324076
 20
5908.2704094954597
 30
0.0
 11
6549.406842324076
 21
5908.2704094954597
 31
0.0
  0
INSERT
  5
7F48
  8
3
  6
CONTINUOUS
 62
     0
  2
_OPEN
 10
5959.4068423240769
 20
5908.2704094954597
 30
0.0
 41
80.0
 42
80.0
 43
80.0
 50
180.0
  0
INSERT
  5
7F49
  8
3
  6
CONTINUOUS
 62
     0
  2
_OPEN
 10
6629.406842324076
 20
5908.2704094954597
 30
0.0
 41
80.0
 42
80.0
 43
80.0
  0
TEXT
  8
3
  40
120
  5
7F8C
  62
0
  72
0
  71
0
 10
5993.69
 20
5795.87
 30
0.000000
  1
670
  0
POINT
  5
7F4B
  8
DEFPOINTS
  6
CONTINUOUS
 62
     0
 10
5959.4068423240769
 20
5675.2094074954593
 30
0.0
  0
POINT
  5
7F4C
  8
DEFPOINTS
  6
CONTINUOUS
 62
     0
 10
6629.406842324076
 20
5675.2094074954593
 30
0.0
  0
POINT
  5
7F4D
  8
DEFPOINTS
  6
CONTINUOUS
 62
     0
 10
6629.406842324076
 20
5908.2704094954597
 30
0.0
  0
ENDBLK
  5
7CD3
  8
0
  0
BLOCK
  8
0
  2
*D12
 70
     1
 10
0.0
 20
0.0
 30
0.0
  3
*D12
  1

  0
LINE
  5
7F4E
  8
3
  6
CONTINUOUS
 62
     0
 10
5634.4068423240769
 20
5254.6094074954599
 30
0.0
 11
5634.4068423240769
 21
6216.7804244954596
 31
0.0
  0
LINE
  5
7F4F
  8
3
  6
CONTINUOUS
 62
     0
 10
6294.406842324076
 20
6141.2432214954597
 30
0.0
 11
6294.406842324076
 21
6216.7804244954596
 31
0.0
  0
LINE
  5
7F50
  8
3
  6
CONTINUOUS
 62
     0
 10
5714.4068423240769
 20
6176.7804244954596
 30
0.0
 11
6214.406842324076
 21
6176.7804244954596
 31
0.0
  0
INSERT
  5
7F51
  8
3
  6
CONTINUOUS
 62
     0
  2
_OPEN
 10
5634.4068423240769
 20
6176.7804244954596
 30
0.0
 41
80.0
 42
80.0
 43
80.0
 50
180.0
  0
INSERT
  5
7F52
  8
3
  6
CONTINUOUS
 62
     0
  2
_OPEN
 10
6294.406842324076
 20
6176.7804244954596
 30
0.0
 41
80.0
 42
80.0
 43
80.0
  0
TEXT
  8
3
  40
120
  5
7F8D
  62
0
  72
0
  71
0
 10
5685.84
 20
6164.38
 30
0.000000
  1
MAX
  0
TEXT
  8
3
  40
120
  5
7F8E
  62
0
  72
0
  71
0
 10
5685.84
 20
6008.38
 30
0.000000
  1
720
  0
POINT
  5
7F54
  8
DEFPOINTS
  6
CONTINUOUS
 62
     0
 10
5634.4068423240769
 20
5234.6094074954599
 30
0.0
  0
POINT
  5
7F55
  8
DEFPOINTS
  6
CONTINUOUS
 62
     0
 10
6294.406842324076
 20
6121.2432214954588
 30
0.0
  0
POINT
  5
7F56
  8
DEFPOINTS
  6
CONTINUOUS
 62
     0
 10
6294.406842324076
 20
6176.7804244954596
 30
0.0
  0
ENDBLK
  5
7D50
  8
0
  0
BLOCK
  8
0
  2
*D13
 70
     1
 10
0.0
 20
0.0
 30
0.0
  3
*D13
  1

  0
LINE
  5
7D89
  8
0
  6
BYBLOCK
 62
     0
 10
6294.406842324076
 20
6141.2432214954597
 30
0.0
 11
6294.406842324076
 21
6217.3875244954597
 31
0.0
  0
LINE
  5
7D8A
  8
0
  6
BYBLOCK
 62
     0
 10
6712.4068423240751
 20
5542.2094074954593
 30
0.0
 11
6712.4068423240751
 21
6217.3875244954597
 31
0.0
  0
LINE
  5
7D8B
  8
0
  6
BYBLOCK
 62
     0
 10
6374.406842324076
 20
6177.3875244954588
 30
0.0
 11
6632.406842324076
 21
6177.3875244954588
 31
0.0
  0
TEXT
  5
7D8C
  8
3
 62
     0
 10
6355.5075333147051
 20
6222.5970934769512
 30
0.0
 40
120.0
  1
418
  0
INSERT
  5
7D8D
  8
0
  6
BYBLOCK
 62
     0
  2
_OPEN
 10
6294.406842324076
 20
6177.3875244954588
 30
0.0
 41
80.0
 42
80.0
 43
80.0
 50
180.0
  0
INSERT
  5
7D8E
  8
0
  6
BYBLOCK
 62
     0
  2
_OPEN
 10
6712.4068423240751
 20
6177.3875244954588
 30
0.0
 41
80.0
 42
80.0
 43
80.0
  0
POINT
  5
7D8F
  8
DEFPOINTS
  6
BYBLOCK
 62
     0
 10
6294.406842324076
 20
6121.2432214954588
 30
0.0
  0
POINT
  5
7D90
  8
DEFPOINTS
  6
BYBLOCK
 62
     0
 10
6712.4068423240751
 20
5522.2094074954593
 30
0.0
  0
POINT
  5
7D91
  8
DEFPOINTS
  6
BYBLOCK
 62
     0
 10
6712.4068423240751
 20
6177.3875244954588
 30
0.0
  0
ENDBLK
  5
7D92
  8
0
  0
BLOCK
  8
0
  2
*D14
 70
     1
 10
0.0
 20
0.0
 30
0.0
  3
*D14
  1

  0
LINE
  5
7F57
  8
3
  6
CONTINUOUS
 62
     0
 10
6732.406842324076
 20
5482.2094074954593
 30
0.0
 11
7081.0440143240767
 21
5482.2094074954593
 31
0.0
  0
LINE
  5
7F58
  8
3
  6
CONTINUOUS
 62
     0
 10
6732.406842324076
 20
4582.2094074954593
 30
0.0
 11
7081.0440143240767
 21
4582.2094074954593
 31
0.0
  0
LINE
  5
7F59
  8
3
  6
CONTINUOUS
 62
     0
 10
7041.0440143240758
 20
5402.2094074954593
 30
0.0
 11
7041.0440143240758
 21
4662.2094074954593
 31
0.0
  0
INSERT
  5
7F5A
  8
3
  6
CONTINUOUS
 62
     0
  2
_OPEN
 10
7041.0440143240758
 20
5482.2094074954593
 30
0.0
 41
80.0
 42
80.0
 43
80.0
 50
90.0
  0
INSERT
  5
7F5B
  8
3
  6
CONTINUOUS
 62
     0
  2
_OPEN
 10
7041.0440143240758
 20
4582.2094074954593
 30
0.0
 41
80.0
 42
80.0
 43
80.0
 50
270.0
  0
TEXT
  8
3
  40
120
  5
7F8F
  62
0
  72
0
  71
0
 10
6701.04
 20
4841.52
 30
0.000000
  1
φ900
  0
POINT
  5
7F5D
  8
DEFPOINTS
  6
CONTINUOUS
 62
     0
 10
6712.4068423240751
 20
5482.2094074954593
 30
0.0
  0
POINT
  5
7F5E
  8
DEFPOINTS
  6
CONTINUOUS
 62
     0
 10
6712.4068423240751
 20
4582.2094074954593
 30
0.0
  0
POINT
  5
7F5F
  8
DEFPOINTS
  6
CONTINUOUS
 62
     0
 10
7041.0440143240758
 20
4582.2094074954593
 30
0.0
  0
ENDBLK
  5
7D9D
  8
0
  0
BLOCK
  8
0
  2
*D15
 70
     1
 10
0.0
 20
0.0
 30
0.0
  3
*D15
  1

  0
LINE
  5
7F60
  8
3
  6
CONTINUOUS
 62
     0
 10
2848.440088316127
 20
5675.2094074954593
 30
0.0
 11
4317.1625927590758
 21
5675.2094074954593
 31
0.0
  0
LINE
  5
7F61
  8
3
  6
CONTINUOUS
 62
     0
 10
3382.0073753161259
 20
5032.2094074954593
 30
0.0
 11
4317.1625927590758
 21
5032.2094074954593
 31
0.0
  0
LINE
  5
7F62
  8
3
  6
CONTINUOUS
 62
     0
 10
4277.1625927590758
 20
5595.2094074954603
 30
0.0
 11
4277.1625927590758
 21
5112.2094074954593
 31
0.0
  0
INSERT
  5
7F63
  8
3
  6
CONTINUOUS
 62
     0
  2
_OPEN
 10
4277.1625927590758
 20
5675.2094074954593
 30
0.0
 41
80.0
 42
80.0
 43
80.0
 50
90.0
  0
INSERT
  5
7F64
  8
3
  6
CONTINUOUS
 62
     0
  2
_OPEN
 10
4277.1625927590758
 20
5032.2094074954593
 30
0.0
 41
80.0
 42
80.0
 43
80.0
 50
270.0
  0
TEXT
  8
3
  40
120
  5
7F90
  62
0
  72
0
  71
0
 10
3937.16
 20
5188.52
 30
0.000000
  1
643
  0
POINT
  5
7F66
  8
DEFPOINTS
  6
CONTINUOUS
 62
     0
 10
2828.440088316127
 20
5675.2094074954593
 30
0.0
  0
POINT
  5
7F67
  8
DEFPOINTS
  6
CONTINUOUS
 62
     0
 10
3362.0073753161269
 20
5032.2094074954593
 30
0.0
  0
POINT
  5
7F68
  8
DEFPOINTS
  6
CONTINUOUS
 62
     0
 10
4277.1625927590758
 20
5032.2094074954593
 30
0.0
  0
ENDBLK
  5
7E0D
  8
0
  0
BLOCK
  8
0
  2
*D16
 70
     1
 10
0.0
 20
0.0
 30
0.0
  3
*D16
  1

  0
LINE
  5
7F69
  8
3
  6
CONTINUOUS
 62
     0
 10
3382.0073753161259
 20
5032.2094074954593
 30
0.0
 11
4317.162592759074
 21
5032.2094074954593
 31
0.0
  0
LINE
  5
7F6A
  8
3
  6
CONTINUOUS
 62
     0
 10
3408.440088316127
 20
3932.2094074954589
 30
0.0
 11
4317.162592759074
 21
3932.2094074954589
 31
0.0
  0
LINE
  5
7F6B
  8
3
  6
CONTINUOUS
 62
     0
 10
4277.1625927590749
 20
4952.2094074954593
 30
0.0
 11
4277.1625927590749
 21
4012.2094074954589
 31
0.0
  0
INSERT
  5
7F6C
  8
3
  6
CONTINUOUS
 62
     0
  2
_OPEN
 10
4277.1625927590749
 20
5032.2094074954593
 30
0.0
 41
80.0
 42
80.0
 43
80.0
 50
90.0
  0
INSERT
  5
7F6D
  8
3
  6
CONTINUOUS
 62
     0
  2
_OPEN
 10
4277.1625927590749
 20
3932.2094074954589
 30
0.0
 41
80.0
 42
80.0
 43
80.0
 50
270.0
  0
TEXT
  8
3
  40
120
  5
7F91
  62
0
  72
0
  71
0
 10
3937.16
 20
4269.81
 30
0.000000
  1
1100
  0
POINT
  5
7F6F
  8
DEFPOINTS
  6
CONTINUOUS
 62
     0
 10
3362.0073753161269
 20
5032.2094074954593
 30
0.0
  0
POINT
  5
7F70
  8
DEFPOINTS
  6
CONTINUOUS
 62
     0
 10
3388.4400883161261
 20
3932.2094074954589
 30
0.0
  0
POINT
  5
7F71
  8
DEFPOINTS
  6
CONTINUOUS
 62
     0
 10
4277.1625927590749
 20
3932.2094074954589
 30
0.0
  0
ENDBLK
  5
7DEA
  8
0
  0
BLOCK
  8
0
  2
*D17
 70
     1
 10
0.0
 20
0.0
 30
0.0
  3
*D17
  1

  0
LINE
  5
7F72
  8
3
  6
CONTINUOUS
 62
     0
 10
2848.440088316127
 20
5675.2094074954593
 30
0.0
 11
4577.2345165227371
 21
5675.2094074954593
 31
0.0
  0
LINE
  5
7F73
  8
3
  6
CONTINUOUS
 62
     0
 10
3408.440088316127
 20
3932.2094074954589
 30
0.0
 11
4577.2345165227371
 21
3932.2094074954589
 31
0.0
  0
LINE
  5
7F74
  8
3
  6
CONTINUOUS
 62
     0
 10
4537.2345165227371
 20
5595.2094074954603
 30
0.0
 11
4537.2345165227371
 21
4012.2094074954589
 31
0.0
  0
INSERT
  5
7F75
  8
3
  6
CONTINUOUS
 62
     0
  2
_OPEN
 10
4537.2345165227371
 20
5675.2094074954593
 30
0.0
 41
80.0
 42
80.0
 43
80.0
 50
90.0
  0
INSERT
  5
7F76
  8
3
  6
CONTINUOUS
 62
     0
  2
_OPEN
 10
4537.2345165227371
 20
3932.2094074954589
 30
0.0
 41
80.0
 42
80.0
 43
80.0
 50
270.0
  0
TEXT
  8
3
  40
120
  5
7F92
  62
0
  72
0
  71
0
 10
4197.23
 20
4585.18
 30
0.000000
  1
1743
  0
POINT
  5
7F78
  8
DEFPOINTS
  6
CONTINUOUS
 62
     0
 10
2828.440088316127
 20
5675.2094074954593
 30
0.0
  0
POINT
  5
7F79
  8
DEFPOINTS
  6
CONTINUOUS
 62
     0
 10
3388.4400883161261
 20
3932.2094074954589
 30
0.0
  0
POINT
  5
7F7A
  8
DEFPOINTS
  6
CONTINUOUS
 62
     0
 10
4537.2345165227371
 20
3932.2094074954589
 30
0.0
  0
ENDBLK
  5
7E18
  8
0
  0
BLOCK
  8
0
  2
*D18
 70
     1
 10
0.0
 20
0.0
 30
0.0
  3
*D18
  1

  0
LINE
  5
7F7B
  8
3
 62
     0
 10
3448.440088316127
 20
5056.2094074954593
 30
0.0
 11
3448.440088316127
 21
6089.19491005503
 31
0.0
  0
LINE
  5
7F7C
  8
3
 62
     0
 10
1488.440088316127
 20
4077.2094074954589
 30
0.0
 11
1488.440088316127
 21
6089.19491005503
 31
0.0
  0
LINE
  5
7F7D
  8
3
 62
     0
 10
3368.440088316127
 20
6049.19491005503
 30
0.0
 11
1568.440088316127
 21
6049.19491005503
 31
0.0
  0
INSERT
  5
7F7E
  8
3
 62
     0
  2
_OPEN
 10
3448.440088316127
 20
6049.19491005503
 30
0.0
 41
80.0
 42
80.0
 43
80.0
  0
INSERT
  5
7F7F
  8
3
 62
     0
  2
_OPEN
 10
1488.440088316127
 20
6049.19491005503
 30
0.0
 41
80.0
 42
80.0
 43
80.0
 50
180.0
  0
TEXT
  8
3
  40
120
  5
7F93
  62
0
  72
0
  71
0
 10
2238.59
 20
5936.79
 30
0.000000
  1
1960
  0
POINT
  5
7F81
  8
DEFPOINTS
 62
     0
 10
3448.440088316127
 20
5036.2094074954593
 30
0.0
  0
POINT
  5
7F82
  8
DEFPOINTS
 62
     0
 10
1488.440088316127
 20
4057.209407495458
 30
0.0
  0
POINT
  5
7F83
  8
DEFPOINTS
 62
     0
 10
1488.440088316127
 20
6049.19491005503
 30
0.0
  0
ENDBLK
  5
7E24
  8
0
  0
ENDSEC
  0
SECTION
  2
ENTITIES
  0
LINE
  5
7A71
  8
1
  6
CONTINUOUS
 10
1794.3971873161261
 20
4141.3637194954599
 30
0.0
 11
2914.3971873161258
 21
4906.3637194954599
 31
0.0
  0
LINE
  5
7A72
  8
1
  6
CONTINUOUS
 10
1822.5983353161259
 20
4100.0757644954601
 30
0.0
 11
2942.5983353161259
 21
4865.0757644954601
 31
0.0
  0
ARC
  5
7A73
  8
1
  6
CONTINUOUS
 10
1708.440088316127
 20
4267.2094074954593
 30
0.0
 40
202.40000000000001
 50
124.33447099999989
 51
304.33447099999989
  0
ARC
  5
7A74
  8
1
  6
CONTINUOUS
 10
2895.440088316127
 20
4965.2094074954603
 30
0.0
 40
844.0
 50
175.4468479999999
 51
265.44684799999987
  0
LINE
  5
7A75
  8
1
  6
CONTINUOUS
 10
3448.440088316127
 20
4031.2094074954589
 30
0.0
 11
3448.440088316127
 21
5036.2094074954593
 31
0.0
  0
LINE
  5
7A76
  8
1
  6
CONTINUOUS
 10
3408.440088316127
 20
4074.6070564954598
 30
0.0
 11
3408.440088316127
 21
4996.2094074954593
 31
0.0
  0
ARC
  5
7A77
  8
1
  6
CONTINUOUS
 10
1708.440088316127
 20
4267.2094074954593
 30
0.0
 40
162.0
 50
324.972283
 51
215.02771699999991
  0
LINE
  5
7A78
  8
1
  6
CONTINUOUS
 10
1554.440088316127
 20
4125.2094074954593
 30
0.0
 11
1575.782422316126
 21
4174.2258404954582
 31
0.0
  0
LINE
  5
7A79
  8
1
  6
CONTINUOUS
 10
1862.440088316127
 20
4125.2094074954593
 30
0.0
 11
1841.097754316128
 21
4174.2258404954582
 31
0.0
  0
CIRCLE
  5
7A7A
  8
1
  6
CONTINUOUS
 10
1708.440088316127
 20
4267.2094074954593
 30
0.0
 40
152.40000000000001
  0
LINE
  5
7A7B
  8
2
  6
CENTER
 10
1708.440088316127
 20
4109.8094074954588
 30
0.0
 11
1708.440088316127
 21
4424.609407495459
 31
0.0
  0
LINE
  5
7A7C
  8
1
  6
CONTINUOUS
 10
1488.440088316127
 20
3932.2094074954589
 30
0.0
 11
3388.4400883161261
 21
3932.2094074954589
 31
0.0
  0
LINE
  5
7A7D
  8
1
  6
CONTINUOUS
 10
1488.440088316127
 20
4057.209407495458
 30
0.0
 11
3388.4400883161261
 21
4057.209407495458
 31
0.0
  0
LINE
  5
7A7E
  8
1
  6
CONTINUOUS
 10
1510.940088316127
 20
4057.209407495458
 30
0.0
 11
1905.940088316127
 21
4057.209407495458
 31
0.0
  0
LINE
  5
7A7F
  8
1
  6
CONTINUOUS
 10
1488.440088316127
 20
4057.209407495458
 30
0.0
 11
1488.440088316127
 21
3932.2094074954589
 31
0.0
  0
LINE
  5
7A80
  8
1
  6
CONTINUOUS
 10
1554.440088316127
 20
4107.2094074954593
 30
0.0
 11
1554.440088316127
 21
4125.2094074954593
 31
0.0
  0
LINE
  5
7A81
  8
1
  6
CONTINUOUS
 10
1520.940088316127
 20
4107.2094074954593
 30
0.0
 11
1510.940088316127
 21
4057.209407495458
 31
0.0
  0
LINE
  5
7A82
  8
1
  6
CONTINUOUS
 10
1554.440088316127
 20
4107.2094074954593
 30
0.0
 11
1520.940088316127
 21
4107.2094074954593
 31
0.0
  0
LINE
  5
7A83
  8
1
  6
CONTINUOUS
 10
2828.440088316127
 20
4123.8729704954603
 30
0.0
 11
3448.440088316127
 21
4071.2094074954589
 31
0.0
  0
LINE
  5
7A84
  8
1
  6
CONTINUOUS
 10
1862.440088316127
 20
4107.2094074954593
 30
0.0
 11
1862.440088316127
 21
4125.2094074954593
 31
0.0
  0
LINE
  5
7A85
  8
1
  6
CONTINUOUS
 10
1895.940088316127
 20
4107.2094074954593
 30
0.0
 11
1862.440088316127
 21
4107.2094074954593
 31
0.0
  0
LINE
  5
7A86
  8
1
  6
CONTINUOUS
 10
1905.940088316127
 20
4057.209407495458
 30
0.0
 11
1895.940088316127
 21
4107.2094074954593
 31
0.0
  0
LINE
  5
7A87
  8
1
  6
CONTINUOUS
 10
3388.4400883161261
 20
4057.209407495458
 30
0.0
 11
3388.4400883161261
 21
3932.2094074954589
 31
0.0
  0
LINE
  5
7A88
  8
1
  6
CONTINUOUS
 10
1622.4829893161259
 20
4393.0550954954588
 30
0.0
 11
2742.4829893161268
 21
5158.0550954954588
 31
0.0
  0
LINE
  5
7A89
  8
1
  6
CONTINUOUS
 10
1594.2818413161269
 20
4434.3430504954586
 30
0.0
 11
2714.2818413161272
 21
5199.3430504954604
 31
0.0
  0
LINE
  5
7A8A
  8
1
  6
CONTINUOUS
 10
1488.440088316127
 20
8377.6473099630693
 30
0.0
 11
2378.440088316127
 21
8377.6473099630693
 31
0.0
  0
LINE
  5
7A8B
  8
1
  6
CONTINUOUS
 10
1546.440088316127
 20
7960.1473099630693
 30
0.0
 11
1870.440088316127
 21
7960.1473099630693
 31
0.0
  0
LINE
  5
7A8C
  8
1
  6
CONTINUOUS
 10
1860.840088316126
 20
7357.1473099630693
 30
0.0
 11
1556.0400883161269
 21
7357.1473099630693
 31
0.0
  0
LINE
  5
7A8D
  8
1
  6
CONTINUOUS
 10
1546.440088316127
 20
7467.1473099630693
 30
0.0
 11
1870.440088316127
 21
7467.1473099630693
 31
0.0
  0
LINE
  5
7A8E
  8
1
  6
CONTINUOUS
 10
1506.0400883161269
 20
7314.6473099630703
 30
0.0
 11
3030.8400883161262
 21
7314.6473099630703
 31
0.0
  0
LINE
  5
7A8F
  8
1
  6
CONTINUOUS
 10
1506.0400883161269
 20
7454.6473099630693
 30
0.0
 11
3030.8400883161262
 21
7454.6473099630693
 31
0.0
  0
LINE
  5
7A90
  8
1
  6
CONTINUOUS
 10
1860.840088316126
 20
7432.1473099630693
 30
0.0
 11
1556.0400883161269
 21
7432.1473099630693
 31
0.0
  0
LINE
  5
7A91
  8
2
  6
CENTER
 10
1551.0400883161269
 20
4267.2094074954593
 30
0.0
 11
1865.840088316126
 21
4267.2094074954593
 31
0.0
  0
LINE
  5
7A92
  8
1
  6
CONTINUOUS
 10
1488.440088316127
 20
8377.6473099630693
 30
0.0
 11
1488.440088316127
 21
7427.6473099630693
 31
0.0
  0
LINE
  5
7A93
  8
1
  6
CONTINUOUS
 10
1546.440088316127
 20
7467.1473099630693
 30
0.0
 11
1546.440088316127
 21
7960.1473099630693
 31
0.0
  0
LINE
  5
7A94
  8
1
  6
CONTINUOUS
 10
1488.440088316127
 20
7427.6473099630693
 30
0.0
 11
1556.0400883161269
 21
7427.6473099630693
 31
0.0
  0
LINE
  5
7A95
  8
1
  6
CONTINUOUS
 10
1556.0400883161269
 20
7432.1473099630693
 30
0.0
 11
1556.0400883161269
 21
7357.1473099630693
 31
0.0
  0
LINE
  5
7A96
  8
1
  6
CONTINUOUS
 10
1506.0400883161269
 20
7314.6473099630703
 30
0.0
 11
1506.0400883161269
 21
7454.6473099630693
 31
0.0
  0
ARC
  5
7A97
  8
1
  6
CONTINUOUS
 10
2828.440088316127
 20
5032.2094074954593
 30
0.0
 40
202.40000000000001
 50
304.33447099999989
 51
124.33447099999989
  0
ARC
  5
7A98
  8
1
  6
CONTINUOUS
 10
2774.940088316127
 20
5085.7094074954603
 30
0.0
 40
589.5
 50
354.79296399999998
 51
84.792963999999998
  0
CIRCLE
  5
7A99
  8
1
  6
CONTINUOUS
 10
2828.440088316127
 20
5032.2094074954593
 30
0.0
 40
450.0
  0
CIRCLE
  5
7A9A
  8
1
  6
CONTINUOUS
 10
2828.440088316127
 20
5032.2094074954593
 30
0.0
 40
490.0
  0
CIRCLE
  5
7A9B
  8
1
  6
CONTINUOUS
 10
2828.440088316127
 20
5032.2094074954593
 30
0.0
 40
152.40000000000001
  0
LINE
  5
7A9C
  8
2
  6
CENTER
 10
1925.7302563161261
 20
5032.2094074954593
 30
0.0
 11
3521.7843893161271
 21
5032.2094074954593
 31
0.0
  0
LINE
  5
7A9D
  8
2
  6
CENTER
 10
2828.440088316127
 20
8576.0823039630704
 30
0.0
 11
2828.440088316127
 21
7122.1833159630687
 31
0.0
  0
ARC
  5
7A9E
  8
1
  6
CONTINUOUS
 10
2761.440088316127
 20
4965.2094074954603
 30
0.0
 40
710.0
 50
84.585157999999979
 51
174.58515800000001
  0
ARC
  5
7A9F
  8
1
  6
CONTINUOUS
 10
2881.940088316127
 20
5085.7094074954603
 30
0.0
 40
482.5
 50
349.31016799999998
 51
353.63390600000002
  0
LINE
  5
7AA0
  8
1
  6
CONTINUOUS
 10
3356.066653316127
 20
4996.2094074954593
 30
0.0
 11
3448.440088316127
 21
4996.2094074954593
 31
0.0
  0
LINE
  5
7AA1
  8
1
  6
CONTINUOUS
 10
2051.4400883161261
 20
7639.6473099630703
 30
0.0
 11
3448.440088316127
 21
7639.6473099630703
 31
0.0
  0
LINE
  5
7AA2
  8
1
  6
CONTINUOUS
 10
2051.4400883161261
 20
8309.6473099630693
 30
0.0
 11
3448.440088316127
 21
8309.6473099630693
 31
0.0
  0
LINE
  5
7AA3
  8
1
  6
CONTINUOUS
 10
2338.440088316127
 20
8392.6473099630693
 30
0.0
 11
3318.440088316127
 21
8392.6473099630693
 31
0.0
  0
LINE
  5
7AA4
  8
1
  6
CONTINUOUS
 10
2676.0400883161269
 20
7357.1473099630693
 30
0.0
 11
2980.8400883161262
 21
7357.1473099630693
 31
0.0
  0
LINE
  5
7AA5
  8
1
  6
CONTINUOUS
 10
2676.0400883161269
 20
7432.1473099630693
 30
0.0
 11
2980.8400883161262
 21
7432.1473099630693
 31
0.0
  0
LINE
  5
7AA6
  8
1
  6
CONTINUOUS
 10
2051.4400883161261
 20
8309.6473099630693
 30
0.0
 11
2051.4400883161261
 21
7639.6473099630703
 31
0.0
  0
LINE
  5
7AA7
  8
1
  6
CONTINUOUS
 10
1870.440088316127
 20
7467.1473099630693
 30
0.0
 11
1870.440088316127
 21
7960.1473099630693
 31
0.0
  0
LINE
  5
7AA8
  8
1
  6
CONTINUOUS
 10
1860.840088316126
 20
7427.6473099630693
 30
0.0
 11
2676.0400883161269
 21
7427.6473099630693
 31
0.0
  0
LINE
  5
7AA9
  8
1
  6
CONTINUOUS
 10
1729.440088316127
 20
7432.1473099630693
 30
0.0
 11
1729.440088316127
 21
7467.1473099630693
 31
0.0
  0
LINE
  5
7AAA
  8
1
  6
CONTINUOUS
 10
1687.440088316127
 20
7432.1473099630693
 30
0.0
 11
1687.440088316127
 21
7467.1473099630693
 31
0.0
  0
LINE
  5
7AAB
  8
1
  6
CONTINUOUS
 10
1860.840088316126
 20
7432.1473099630693
 30
0.0
 11
1860.840088316126
 21
7357.1473099630693
 31
0.0
  0
LINE
  5
7AAC
  8
1
  6
CONTINUOUS
 10
2858.440088316127
 20
7639.6473099630703
 30
0.0
 11
2858.440088316127
 21
7432.1473099630693
 31
0.0
  0
LINE
  5
7AAD
  8
1
  6
CONTINUOUS
 10
2798.440088316127
 20
7639.6473099630703
 30
0.0
 11
2798.440088316127
 21
7432.1473099630693
 31
0.0
  0
LINE
  5
7AAE
  8
1
  6
CONTINUOUS
 10
2676.0400883161269
 20
7432.1473099630693
 30
0.0
 11
2676.0400883161269
 21
7357.1473099630693
 31
0.0
  0
LINE
  5
7AAF
  8
1
  6
CONTINUOUS
 10
2378.440088316127
 20
8392.6473099630693
 30
0.0
 11
2378.440088316127
 21
8309.6473099630693
 31
0.0
  0
LINE
  5
7AB0
  8
1
  6
CONTINUOUS
 10
3448.440088316127
 20
7599.6473099630693
 30
0.0
 11
3448.440088316127
 21
8349.6473099630693
 31
0.0
  0
LINE
  5
7AB1
  8
1
  6
CONTINUOUS
 10
3408.440088316127
 20
7639.6473099630703
 30
0.0
 11
3408.440088316127
 21
8309.6473099630693
 31
0.0
  0
LINE
  5
7AB2
  8
1
  6
CONTINUOUS
 10
3388.4400883161261
 20
7639.6473099630703
 30
0.0
 11
3388.4400883161261
 21
7427.6473099630693
 31
0.0
  0
LINE
  5
7AB3
  8
1
  6
CONTINUOUS
 10
2980.8400883161262
 20
7427.6473099630693
 30
0.0
 11
3388.4400883161261
 21
7427.6473099630693
 31
0.0
  0
LINE
  5
7AB4
  8
1
  6
CONTINUOUS
 10
2980.8400883161262
 20
7432.1473099630693
 30
0.0
 11
2980.8400883161262
 21
7357.1473099630693
 31
0.0
  0
LINE
  5
7AB5
  8
1
  6
CONTINUOUS
 10
3030.8400883161262
 20
7314.6473099630703
 30
0.0
 11
3030.8400883161262
 21
7454.6473099630693
 31
0.0
  0
LINE
  5
7AB6
  8
1
  6
CONTINUOUS
 10
3388.4400883161261
 20
8377.6473099630693
 30
0.0
 11
3388.4400883161261
 21
8309.6473099630693
 31
0.0
  0
LINE
  5
7AB7
  8
1
  6
CONTINUOUS
 10
3278.440088316127
 20
8392.6473099630693
 30
0.0
 11
3278.440088316127
 21
8309.6473099630693
 31
0.0
  0
LINE
  5
7AB8
  8
1
  6
CONTINUOUS
 10
3278.440088316127
 20
8377.6473099630693
 30
0.0
 11
3388.4400883161261
 21
8377.6473099630693
 31
0.0
  0
LINE
  5
7AB9
  8
1
  6
CONTINUOUS
 10
6629.406842324076
 20
4996.2094074954593
 30
0.0
 11
5959.4068423240769
 21
4071.2094074954589
 31
0.0
  0
LINE
  5
7ABA
  8
1
  6
CONTINUOUS
 10
5959.4068423240769
 20
4996.2094074954593
 30
0.0
 11
6629.406842324076
 21
4071.2094074954589
 31
0.0
  0
LINE
  5
7ABB
  8
1
  6
CONTINUOUS
 10
6629.406842324076
 20
5675.2094074954593
 30
0.0
 11
6629.406842324076
 21
4057.209407495458
 31
0.0
  0
LINE
  5
7ABC
  8
1
  6
CONTINUOUS
 10
5959.4068423240769
 20
5675.2094074954593
 30
0.0
 11
5959.4068423240769
 21
4057.209407495458
 31
0.0
  0
LINE
  5
7ABD
  8
1
  6
CONTINUOUS
 10
5786.9068423240769
 20
4429.2094074954593
 30
0.0
 11
5786.9068423240769
 21
4057.209407495458
 31
0.0
  0
LINE
  5
7ABE
  8
1
  6
CONTINUOUS
 10
5676.906842324076
 20
4419.609407495459
 30
0.0
 11
5676.906842324076
 21
4114.8094074954588
 31
0.0
  0
LINE
  5
7ABF
  8
1
  6
CONTINUOUS
 10
5634.4068423240769
 20
5234.6094074954599
 30
0.0
 11
5634.4068423240769
 21
4064.8094074954588
 31
0.0
  0
LINE
  5
7AC0
  8
1
  6
CONTINUOUS
 10
5774.4068423240769
 20
5234.6094074954599
 30
0.0
 11
5774.4068423240769
 21
4064.8094074954588
 31
0.0
  0
LINE
  5
7AC1
  8
1
  6
CONTINUOUS
 10
5751.9068423240769
 20
4419.609407495459
 30
0.0
 11
5751.9068423240769
 21
4114.8094074954588
 31
0.0
  0
LINE
  5
7AC2
  8
1
  6
CONTINUOUS
 10
5959.4068423240769
 20
4071.2094074954589
 30
0.0
 11
6629.406842324076
 21
4071.2094074954589
 31
0.0
  0
LINE
  5
7AC3
  8
1
  6
CONTINUOUS
 10
5747.4068423240769
 20
3932.2094074954589
 30
0.0
 11
6697.4068423240769
 21
3932.2094074954589
 31
0.0
  0
LINE
  5
7AC4
  8
1
  6
CONTINUOUS
 10
5747.4068423240769
 20
4057.209407495458
 30
0.0
 11
6697.4068423240769
 21
4057.209407495458
 31
0.0
  0
LINE
  5
7AC5
  8
1
  6
CONTINUOUS
 10
5747.4068423240769
 20
4057.209407495458
 30
0.0
 11
5747.4068423240769
 21
3932.2094074954589
 31
0.0
  0
LINE
  5
7AC6
  8
1
  6
CONTINUOUS
 10
5786.9068423240769
 20
4107.2094074954593
 30
0.0
 11
5959.4068423240769
 21
4107.2094074954593
 31
0.0
  0
LINE
  5
7AC7
  8
1
  6
CONTINUOUS
 10
5676.906842324076
 20
4114.8094074954588
 30
0.0
 11
5751.9068423240769
 21
4114.8094074954588
 31
0.0
  0
LINE
  5
7AC8
  8
1
  6
CONTINUOUS
 10
5634.4068423240769
 20
4064.8094074954588
 30
0.0
 11
5774.4068423240769
 21
4064.8094074954588
 31
0.0
  0
LINE
  5
7AC9
  8
1
  6
CONTINUOUS
 10
6697.4068423240769
 20
4057.209407495458
 30
0.0
 11
6697.4068423240769
 21
3932.2094074954589
 31
0.0
  0
LINE
  5
7ACA
  8
1
  6
CONTINUOUS
 10
5676.906842324076
 20
5184.6094074954599
 30
0.0
 11
5676.906842324076
 21
4879.8094074954597
 31
0.0
  0
LINE
  5
7ACB
  8
1
  6
CONTINUOUS
 10
5751.9068423240769
 20
5184.6094074954599
 30
0.0
 11
5751.9068423240769
 21
4879.8094074954597
 31
0.0
  0
LINE
  5
7ACC
  8
1
  6
CONTINUOUS
 10
6712.4068423240751
 20
5522.2094074954593
 30
0.0
 11
6712.4068423240751
 21
4542.2094074954593
 31
0.0
  0
LINE
  5
7ACD
  8
1
  6
CONTINUOUS
 10
5959.4068423240769
 20
4996.2094074954593
 30
0.0
 11
6629.406842324076
 21
4996.2094074954593
 31
0.0
  0
LINE
  5
7ACE
  8
1
  6
CONTINUOUS
 10
5786.9068423240769
 20
4429.2094074954593
 30
0.0
 11
5959.4068423240769
 21
4429.2094074954593
 31
0.0
  0
LINE
  5
7ACF
  8
1
  6
CONTINUOUS
 10
5751.9068423240769
 20
5002.2094074954603
 30
0.0
 11
5959.4068423240769
 21
5002.2094074954603
 31
0.0
  0
LINE
  5
7AD0
  8
1
  6
CONTINUOUS
 10
5751.9068423240769
 20
4288.2094074954593
 30
0.0
 11
5786.9068423240769
 21
4288.2094074954593
 31
0.0
  0
LINE
  5
7AD1
  8
1
  6
CONTINUOUS
 10
5751.9068423240769
 20
4246.2094074954593
 30
0.0
 11
5786.9068423240769
 21
4246.2094074954593
 31
0.0
  0
LINE
  5
7AD2
  8
1
  6
CONTINUOUS
 10
5676.906842324076
 20
4879.8094074954597
 30
0.0
 11
5751.9068423240769
 21
4879.8094074954597
 31
0.0
  0
LINE
  5
7AD3
  8
1
  6
CONTINUOUS
 10
5676.906842324076
 20
4419.609407495459
 30
0.0
 11
5751.9068423240769
 21
4419.609407495459
 31
0.0
  0
LINE
  5
7AD4
  8
1
  6
CONTINUOUS
 10
6629.406842324076
 20
4582.2094074954593
 30
0.0
 11
6712.4068423240751
 21
4582.2094074954593
 31
0.0
  0
LINE
  5
7AD5
  8
1
  6
CONTINUOUS
 10
5959.4068423240769
 20
5675.2094074954593
 30
0.0
 11
6629.406842324076
 21
5675.2094074954593
 31
0.0
  0
LINE
  5
7AD6
  8
1
  6
CONTINUOUS
 10
5751.9068423240769
 20
5062.2094074954593
 30
0.0
 11
5959.4068423240769
 21
5062.2094074954593
 31
0.0
  0
LINE
  5
7AD7
  8
1
  6
CONTINUOUS
 10
5676.906842324076
 20
5184.6094074954599
 30
0.0
 11
5751.9068423240769
 21
5184.6094074954599
 31
0.0
  0
LINE
  5
7AD8
  8
1
  6
CONTINUOUS
 10
5634.4068423240769
 20
5234.6094074954599
 30
0.0
 11
5774.4068423240769
 21
5234.6094074954599
 31
0.0
  0
LINE
  5
7AD9
  8
1
  6
CONTINUOUS
 10
6629.406842324076
 20
5482.2094074954593
 30
0.0
 11
6712.4068423240751
 21
5482.2094074954593
 31
0.0
  0
DIMENSION
  5
7AED
  8
3
  6
CONTINUOUS
  2
*D1
 10
2828.440088316127
 20
3556.3638034954602
 30
0.0
 11
2191.2301003161269
 21
3556.3638034954602
 31
0.0
 70
   128
 13
1488.440088316127
 23
3932.2094074954589
 33
0.0
 14
2828.440088316127
 24
3788.5644164954601
 34
0.0
1001
ACAD
1000
DSTYLE
1002
{
1070
   287
1070
     3
1070
   287
1070
     3
1070
    40
1040
40.0
1070
   143
1040
0.039
1070
   172
1070
     1
1070
   271
1070
     0
1070
   279
1070
     0
1070
   288
1070
     1
1002
}
  0
DIMENSION
  5
7AFB
  8
3
  6
CONTINUOUS
  2
*D2
 10
3388.4400883161261
 20
3556.3638034954602
 30
0.0
 11
3114.1543740304119
 21
3556.3638034954602
 31
0.0
 70
   128
 13
2828.440088316127
 23
3788.5644164954601
 33
0.0
 14
3388.4400883161261
 24
3932.2094074954589
 34
0.0
1001
ACAD
1000
DSTYLE
1002
{
1070
   287
1070
     3
1070
   287
1070
     3
1070
    40
1040
40.0
1070
   143
1040
0.039
1070
   172
1070
     1
1070
   271
1070
     0
1070
   279
1070
     0
1070
   288
1070
     1
1002
}
  0
DIMENSION
  5
7B1E
  8
3
  6
CONTINUOUS
  2
*D3
 10
3816.249840316128
 20
4071.2094074954589
 30
0.0
 11
3816.2498403161271
 21
4593.7888154954599
 31
0.0
 70
   128
 13
3448.440088316127
 23
4996.2094074954593
 33
0.0
 14
3448.440088316127
 24
4071.2094074954589
 34
0.0
 50
90.0
1001
ACAD
1000
DSTYLE
1002
{
1070
   287
1070
     3
1070
   287
1070
     3
1070
    40
1040
40.0
1070
   143
1040
0.039
1070
   172
1070
     1
1070
   271
1070
     0
1070
   279
1070
     0
1070
   288
1070
     1
1002
}
  0
DIMENSION
  5
7B2B
  8
3
  6
CONTINUOUS
  2
*D4
 10
4047.8197878512378
 20
5032.2094074954593
 30
0.0
 11
4047.8197878512378
 21
4628.0970930980939
 31
0.0
 70
   128
 13
3448.440088316127
 23
4071.2094074954589
 33
0.0
 14
3361.4648533161271
 24
5032.2094074954593
 34
0.0
 50
90.0
1001
ACAD
1000
DSTYLE
1002
{
1070
   287
1070
     3
1070
   287
1070
     3
1070
    40
1040
40.0
1070
   143
1040
0.039
1070
   172
1070
     1
1070
   271
1070
     0
1070
   279
1070
     0
1070
   288
1070
     1
1002
}
  0
DIMENSION
  5
7B51
  8
3
  6
CONTINUOUS
  2
*D5
 10
2828.440088316127
 20
5804.5123124954598
 30
0.0
 11
2430.704923316127
 21
5804.5123124954598
 31
0.0
 70
   128
 13
2051.4400883161261
 23
5032.2094074954593
 33
0.0
 14
2828.440088316127
 24
5672.7766944954601
 34
0.0
1001
ACAD
1000
DSTYLE
1002
{
1070
   287
1070
     3
1070
   287
1070
     3
1070
    40
1040
40.0
1070
   143
1040
0.039
1070
   172
1070
     1
1070
   271
1070
     0
1070
   279
1070
     0
1070
   288
1070
     1
1002
}
  0
DIMENSION
  5
7B5D
  8
3
  6
CONTINUOUS
  2
*D6
 10
3448.440088316127
 20
5804.5123124954598
 30
0.0
 11
3138.4400883161261
 21
5904.5123124954598
 31
0.0
 70
     0
 13
2828.440088316127
 23
5672.7766944954601
 33
0.0
 14
3448.440088316127
 24
5036.2094074954593
 34
0.0
1001
ACAD
1000
DSTYLE
1002
{
1070
   287
1070
     3
1070
   287
1070
     3
1070
    40
1040
40.0
1070
   143
1040
0.039
1070
   172
1070
     1
1070
   271
1070
     0
1070
   279
1070
     0
1070
   288
1070
     1
1002
}
  0
DIMENSION
  5
7B6A
  8
3
  6
CONTINUOUS
  2
*D7
 10
3388.4400883161261
 20
7001.4176039630693
 30
0.0
 11
2430.704923316127
 21
7001.4176039630693
 31
0.0
 70
   128
 13
1488.440088316127
 23
7427.6473099630693
 33
0.0
 14
3388.4400883161261
 24
7427.6473099630693
 34
0.0
1001
ACAD
1000
DSTYLE
1002
{
1070
   287
1070
     3
1070
   287
1070
     3
1070
    40
1040
40.0
1070
   143
1040
0.039
1070
   172
1070
     1
1070
   271
1070
     0
1070
   279
1070
     0
1070
   288
1070
     1
1002
}
  0
DIMENSION
  5
7B77
  8
3
  6
CONTINUOUS
  2
*D8
 10
3817.4699033161278
 20
7427.6473099630693
 30
0.0
 11
3817.469903316126
 21
7910.6901049630696
 31
0.0
 70
   128
 13
3388.4400883161261
 23
8377.6473099630693
 33
0.0
 14
3388.4400883161261
 24
7427.6473099630693
 34
0.0
 50
90.0
1001
ACAD
1000
DSTYLE
1002
{
1070
   287
1070
     3
1070
   287
1070
     3
1070
    40
1040
40.0
1070
   143
1040
0.039
1070
   172
1070
     1
1070
   271
1070
     0
1070
   279
1070
     0
1070
   288
1070
     1
1002
}
  0
LINE
  5
7B78
  8
2
  6
CENTER
 10
1959.8036463161261
 20
7974.6473099630693
 30
0.0
 11
3530.3423883161258
 21
7974.6473099630693
 31
0.0
  0
LINE
  5
7B79
  8
2
  6
CENTER
 10
6294.406842324076
 20
5923.3665334954603
 30
0.0
 11
6294.406842324076
 21
3801.6936684954599
 31
0.0
  0
DIMENSION
  5
7B89
  8
3
  6
CONTINUOUS
  2
*D9
 10
6294.406842324076
 20
3649.1311684954599
 30
0.0
 11
6038.1516787292421
 21
3739.9900221680732
 31
0.0
 70
   128
 13
5747.4068423240769
 23
3932.2094074954589
 33
0.0
 14
6294.406842324076
 24
3801.6936684954599
 34
0.0
1001
ACAD
1000
DSTYLE
1002
{
1070
   288
1070
     1
1070
   172
1070
     1
1070
    40
1040
40.0
1070
   271
1070
     0
1070
   143
1040
0.039
1002
}
  0
DIMENSION
  5
7B97
  8
3
  6
CONTINUOUS
  2
*D10
 10
6697.4068423240769
 20
3647.916906495459
 30
0.0
 11
6507.3884315705718
 21
3749.006357565439
 31
0.0
 70
   128
 13
6294.406842324076
 23
3801.6936684954599
 33
0.0
 14
6697.4068423240769
 24
3932.2094074954589
 34
0.0
1001
ACAD
1000
DSTYLE
1002
{
1070
   288
1070
     1
1070
   172
1070
     1
1070
    40
1040
40.0
1070
   271
1070
     0
1070
   143
1040
0.039
1002
}
  0
DIMENSION
  5
7BBA
  8
3
  6
CONTINUOUS
  2
*D11
 10
6629.406842324076
 20
5908.2704094954597
 30
0.0
 11
6233.6925566097916
 21
5908.2704094954597
 31
0.0
 70
   128
 13
5959.4068423240769
 23
5675.2094074954593
 33
0.0
 14
6629.406842324076
 24
5675.2094074954593
 34
0.0
1001
ACAD
1000
DSTYLE
1002
{
1070
   287
1070
     3
1070
   287
1070
     3
1070
    40
1040
40.0
1070
   143
1040
0.039
1070
   172
1070
     1
1070
   271
1070
     0
1070
   279
1070
     0
1070
   288
1070
     1
1002
}
  0
DIMENSION
  5
7BC7
  8
3
  6
CONTINUOUS
  2
*D12
 10
6294.406842324076
 20
6176.7804244954596
 30
0.0
 11
5925.8354137526494
 21
6176.7804244954596
 31
0.0
 70
   128
  1
MAX\P720
 13
5634.4068423240769
 23
5234.6094074954599
 33
0.0
 14
6294.406842324076
 24
6121.2432214954588
 34
0.0
1001
ACAD
1000
DSTYLE
1002
{
1070
   287
1070
     3
1070
   287
1070
     3
1070
    40
1040
40.0
1070
   143
1040
0.039
1070
   172
1070
     1
1070
   271
1070
     0
1070
   279
1070
     0
1070
   288
1070
     1
1002
}
  0
DIMENSION
  5
7BD5
  8
3
  6
CONTINUOUS
  2
*D13
 10
6712.4068423240751
 20
6177.3875244954588
 30
0.0
 11
6498.3646761718492
 21
6282.5970934769502
 31
0.0
 70
   128
 13
6294.406842324076
 23
6121.2432214954588
 33
0.0
 14
6712.4068423240751
 24
5522.2094074954593
 34
0.0
1001
ACAD
1000
DSTYLE
1002
{
1070
   288
1070
     1
1070
   172
1070
     1
1070
    40
1040
40.0
1070
   271
1070
     0
1070
   143
1040
0.039
1002
}
  0
DIMENSION
  5
7BF8
  8
3
  6
CONTINUOUS
  2
*D14
 10
7041.0440143240758
 20
4582.2094074954593
 30
0.0
 11
7041.0440143240758
 21
5053.9204164954599
 31
0.0
 70
   128
 13
6712.4068423240751
 23
5482.2094074954593
 33
0.0
 14
6712.4068423240751
 24
4582.2094074954593
 34
0.0
 50
90.0
1001
ACAD
1000
DSTYLE
1002
{
1070
   287
1070
     3
1070
   287
1070
     3
1070
     3
1000
φ<>
1070
    40
1040
40.0
1070
   143
1040
0.039
1070
   172
1070
     1
1070
   271
1070
     0
1070
   279
1070
     0
1070
   288
1070
     1
1002
}
  0
LINE
  5
7BF9
  8
2
  6
CENTER
 10
5555.9235463240766
 20
5032.2094074954593
 30
0.0
 11
6787.948309324076
 21
5032.2094074954593
 31
0.0
  0
LINE
  5
7BFA
  8
4
  6
CONTINUOUS
 10
7400.0
 20
2000.0
 30
0.0
 11
7400.0
 21
1200.0
 31
0.0
  0
LINE
  5
7BFB
  8
4
  6
CONTINUOUS
 10
4600.0
 20
2000.0
 30
0.0
 11
4600.0
 21
1200.0
 31
0.0
  0
LINE
  5
7BFC
  8
4
  6
CONTINUOUS
 10
2600.0
 20
2000.0
 30
0.0
 11
2600.0
 21
1200.0
 31
0.0
  0
LINE
  5
7BFF
  8
4
  6
CONTINUOUS
 10
2600.0
 20
1200.0
 30
0.0
 11
7400.0
 21
1200.0
 31
0.0
  0
LINE
  5
7C00
  8
4
  6
CONTINUOUS
 10
2600.0
 20
1600.0
 30
0.0
 11
7400.0
 21
1600.0
 31
0.0
  0
TEXT
  5
7C01
  8
4
  6
CONTINUOUS
 10
2754.0083232000002
 20
1726.1721031999989
 30
0.0
 40
200.0
  1
機器名称
  0
TEXT
  5
7C02
  8
4
  6
CONTINUOUS
 10
2745.032424
 20
1286.5806264
 30
0.0
 40
200.0
  1
機器型番
  0
TEXT
  5
7C03
  8
4
  6
CONTINUOUS
 10
4710.7149823999989
 20
1690.2870751999999
 30
0.0
 40
168.88888879999999
  1
ミツヤリミットロードファン
  0
TEXT
  5
7C04
  8
4
  6
CONTINUOUS
 10
4746.6179824000001
 20
1268.6383367999999
 30
0.0
 40
200.0
  1
LLE#5 1/2-4
  0
TEXT
  5
7C06
  8
4
  6
CONTINUOUS
 10
3619.1430624
 20
9533.7153655999991
 30
0.0
 40
216.0
  1
床置ベット
  0
TEXT
  5
7C07
  8
4
  6
CONTINUOUS
 10
1264.6703735999999
 20
10135.5239048
 30
0.0
 40
240.0
  1
ベルト駆動式片吸込両持排煙ファン
  0
LINE
  5
7C08
  8
4
  6
CONTINUOUS
 10
1000.0
 20
9877.635016799999
 30
0.0
 11
7400.0
 21
9877.635016799999
 31
0.0
  0
LINE
  5
7C09
  8
4
  6
CONTINUOUS
 10
1000.0
 20
10677.635016800001
 30
0.0
 11
7400.0
 21
10677.635016800001
 31
0.0
  0
LINE
  5
7C0A
  8
4
  6
CONTINUOUS
 10
2600.0
 20
2000.0
 30
0.0
 11
7400.0
 21
2000.0
 31
0.0
  0
LINE
  5
7C0B
  8
4
  6
CONTINUOUS
 10
1000.0
 20
10677.635016800001
 30
0.0
 11
1000.0
 21
9877.635016799999
 31
0.0
  0
TEXT
  5
7C0C
  8
4
  6
CONTINUOUS
 10
1875.7077336
 20
9529.2779104000001
 30
0.0
 40
216.0
  1
左回転右横向
  0
TEXT
  5
7C0D
  8
4
  6
CONTINUOUS
 10
5875.8782375999999
 20
10824.244326399999
 30
0.0
 40
224.0
  1
No.
  0
TEXT
  5
7C0E
  8
4
  6
CONTINUOUS
 10
5245.1842504000006
 20
9533.7153655999991
 30
0.0
 40
216.0
  1
縮尺：1/40
  0
LINE
  5
7C0F
  8
4
  6
CONTINUOUS
 10
7400.0
 20
10677.635016800001
 30
0.0
 11
7400.0
 21
9877.635016799999
 31
0.0
  0
LINE
  5
7C11
  8
4
  6
CONTINUOUS
 10
5762.4696895999996
 20
10725.0543328
 30
0.0
 11
5762.4696895999996
 21
11146.609046400001
 31
0.0
  0
LINE
  5
7C12
  8
4
  6
CONTINUOUS
 10
5762.4696895999996
 20
11146.609046400001
 30
0.0
 11
7400.0
 21
11146.609046400001
 31
0.0
  0
LINE
  5
7C13
  8
4
  6
CONTINUOUS
 10
7400.0
 20
11146.609046400001
 30
0.0
 11
7400.0
 21
10725.0543328
 31
0.0
  0
LINE
  5
7C14
  8
4
  6
CONTINUOUS
 10
7400.0
 20
10725.0543328
 30
0.0
 11
5762.4696895999996
 21
10725.0543328
 31
0.0
  0
LINE
  5
7C19
  8
2
  6
CENTER
 10
2828.440088316127
 20
5827.9341334954597
 30
0.0
 11
2828.440088316127
 21
3788.5644164954601
 31
0.0
  0
DIMENSION
  5
7C2C
  8
3
  6
CONTINUOUS
  2
*D15
 10
4277.1625927590758
 20
5032.2094074954593
 30
0.0
 11
4277.1625927590749
 21
5400.9236932097447
 31
0.0
 70
   128
 13
2828.440088316127
 23
5675.2094074954593
 33
0.0
 14
3362.0073753161269
 24
5032.2094074954593
 34
0.0
 50
90.0
1001
ACAD
1000
DSTYLE
1002
{
1070
   287
1070
     3
1070
   287
1070
     3
1070
    40
1040
40.0
1070
   143
1040
0.039
1070
   172
1070
     1
1070
   271
1070
     0
1070
   279
1070
     0
1070
   288
1070
     1
1002
}
  0
DIMENSION
  5
7C38
  8
3
  6
CONTINUOUS
  2
*D16
 10
4277.1625927590749
 20
3932.2094074954589
 30
0.0
 11
4177.162592759073
 21
4482.2094074954603
 31
0.0
 70
     0
 13
3362.0073753161269
 23
5032.2094074954593
 33
0.0
 14
3388.4400883161261
 24
3932.2094074954589
 34
0.0
 50
90.0
1001
ACAD
1000
DSTYLE
1002
{
1070
   287
1070
     3
1070
   287
1070
     3
1070
    40
1040
40.0
1070
   143
1040
0.039
1070
   172
1070
     1
1070
   271
1070
     0
1070
   279
1070
     0
1070
   288
1070
     1
1002
}
  0
DIMENSION
  5
7C45
  8
3
  6
CONTINUOUS
  2
*D17
 10
4537.2345165227371
 20
3932.2094074954589
 30
0.0
 11
4537.2345165227362
 21
4797.5825494954561
 31
0.0
 70
   128
 13
2828.440088316127
 23
5675.2094074954593
 33
0.0
 14
3388.4400883161261
 24
3932.2094074954589
 34
0.0
 50
90.0
1001
ACAD
1000
DSTYLE
1002
{
1070
   287
1070
     3
1070
   287
1070
     3
1070
    40
1040
40.0
1070
   143
1040
0.039
1070
   172
1070
     1
1070
   271
1070
     0
1070
   279
1070
     0
1070
   288
1070
     1
1002
}
  0
DIMENSION
  5
7E25
  8
3
  2
*D18
 10
1488.440088316127
 20
6049.19491005503
 30
0.0
 11
2478.5893427689948
 21
6049.19491005503
 31
0.0
 70
   128
 13
3448.440088316127
 23
5036.2094074954593
 33
0.0
 14
1488.440088316127
 24
4057.209407495458
 34
0.0
1001
ACAD
1000
DSTYLE
1002
{
1070
   287
1070
     3
1070
   287
1070
     3
1070
    40
1040
40.0
1070
   143
1040
0.039
1070
   172
1070
     1
1070
   271
1070
     0
1070
   279
1070
     0
1070
   288
1070
     1
1002
}
  0
ENDSEC
  0
EOF
