  0
SECTION
  2
HEADER
  9
$ACADVER
  1
AC1009
  9
$INSBASE
 10
0.0
 20
0.0
 30
0.0
  9
$EXTMIN
 10
1000.0
 20
1200.0
 30
0.0
  9
$EXTMAX
 10
7400.0
 20
11146.609046400001
 30
0.0
  9
$LIMMIN
 10
0.0
 20
0.0
  9
$LIMMAX
 10
297.0
 20
210.0
  9
$ORTHOMODE
 70
     0
  9
$REGENMODE
 70
     1
  9
$FILLMODE
 70
     0
  9
$QTEXTMODE
 70
     0
  9
$MIRRTEXT
 70
     1
  9
$DRAGMODE
 70
     2
  9
$LTSCALE
 40
100.0
  9
$OSMODE
 70
    37
  9
$ATTMODE
 70
     1
  9
$TEXTSIZE
 40
180.0
  9
$TRACEWID
 40
0.05
  9
$TEXTSTYLE
  7
STANDARD
  9
$CLAYER
  8
3
  9
$CELTYPE
  6
BYLAYER
  9
$CECOLOR
 62
   256
  9
$DIMSCALE
 40
40.0
  9
$DIMASZ
 40
2.0
  9
$DIMEXO
 40
0.5
  9
$DIMDLI
 40
10.0
  9
$DIMRND
 40
0.0
  9
$DIMDLE
 40
0.0
  9
$DIMEXE
 40
1.0
  9
$DIMTP
 40
1.0
  9
$DIMTM
 40
1.0
  9
$DIMTXT
 40
3.0
  9
$DIMCEN
 40
0.0
  9
$DIMTSZ
 40
0.0
  9
$DIMTOL
 70
     0
  9
$DIMLIM
 70
     0
  9
$DIMTIH
 70
     0
  9
$DIMTOH
 70
     0
  9
$DIMSE1
 70
     0
  9
$DIMSE2
 70
     0
  9
$DIMTAD
 70
     1
  9
$DIMZIN
 70
     8
  9
$DIMBLK
  1

  9
$DIMASO
 70
     1
  9
$DIMSHO
 70
     1
  9
$DIMPOST
  1

  9
$DIMAPOST
  1

  9
$DIMALT
 70
     0
  9
$DIMALTD
 70
     2
  9
$DIMALTF
 40
0.039
  9
$DIMLFAC
 40
1.0
  9
$DIMTOFL
 70
     1
  9
$DIMTVP
 40
0.0
  9
$DIMTIX
 70
     0
  9
$DIMSOXD
 70
     0
  9
$DIMSAH
 70
     1
  9
$DIMBLK1
  1
OPEN
  9
$DIMBLK2
  1
OPEN
  9
$DIMSTYLE
  2
IGA
  9
$DIMCLRD
 70
     0
  9
$DIMCLRE
 70
     0
  9
$DIMCLRT
 70
     0
  9
$DIMTFAC
 40
10.0
  9
$DIMGAP
 40
1.0
  9
$LUNITS
 70
     2
  9
$LUPREC
 70
     3
  9
$SKETCHINC
 40
0.1
  9
$FILLETRAD
 40
50.0
  9
$AUNITS
 70
     0
  9
$AUPREC
 70
     0
  9
$MENU
  1
acad
  9
$ELEVATION
 40
0.0
  9
$PELEVATION
 40
0.0
  9
$THICKNESS
 40
0.0
  9
$LIMCHECK
 70
     0
  9
$BLIPMODE
 70
     0
  9
$CHAMFERA
 40
0.5
  9
$CHAMFERB
 40
0.5
  9
$SKPOLY
 70
     0
  9
$TDCREATE
 40
2450752.340423611
  9
$TDUPDATE
 40
2454953.6856130548
  9
$TDINDWG
 40
0.0066777894
  9
$TDUSRTIMER
 40
0.0066777894
  9
$USRTIMER
 70
     1
  9
$ANGBASE
 50
0.0
  9
$ANGDIR
 70
     0
  9
$PDMODE
 70
     0
  9
$PDSIZE
 40
0.0
  9
$PLINEWID
 40
0.0
  9
$COORDS
 70
     1
  9
$SPLFRAME
 70
     0
  9
$SPLINETYPE
 70
     6
  9
$SPLINESEGS
 70
     8
  9
$ATTDIA
 70
     0
  9
$ATTREQ
 70
     1
  9
$HANDLING
 70
 10241
  9
$HANDSEED
  5
7EE1
  9
$SURFTAB1
 70
     6
  9
$SURFTAB2
 70
     6
  9
$SURFTYPE
 70
     6
  9
$SURFU
 70
     6
  9
$SURFV
 70
     6
  9
$UCSNAME
  2

  9
$UCSORG
 10
0.0
 20
0.0
 30
0.0
  9
$UCSXDIR
 10
1.0
 20
0.0
 30
0.0
  9
$UCSYDIR
 10
0.0
 20
1.0
 30
0.0
  9
$PUCSNAME
  2

  9
$PUCSORG
 10
0.0
 20
0.0
 30
0.0
  9
$PUCSXDIR
 10
1.0
 20
0.0
 30
0.0
  9
$PUCSYDIR
 10
0.0
 20
1.0
 30
0.0
  9
$USERI1
 70
     0
  9
$USERI2
 70
     0
  9
$USERI3
 70
     0
  9
$USERI4
 70
     0
  9
$USERI5
 70
     0
  9
$USERR1
 40
0.0
  9
$USERR2
 40
0.0
  9
$USERR3
 40
0.0
  9
$USERR4
 40
0.0
  9
$USERR5
 40
0.0
  9
$WORLDVIEW
 70
     1
  9
$SHADEDGE
 70
     3
  9
$SHADEDIF
 70
    70
  9
$TILEMODE
 70
     1
  9
$MAXACTVP
 70
    16
  9
$PLIMCHECK
 70
     0
  9
$PEXTMIN
 10
1.0000000000000000E+020
 20
1.0000000000000000E+020
 30
1.0000000000000000E+020
  9
$PEXTMAX
 10
-1.0000000000000000E+020
 20
-1.0000000000000000E+020
 30
-1.0000000000000000E+020
  9
$PLIMMIN
 10
0.0
 20
0.0
  9
$PLIMMAX
 10
12.0
 20
9.0
  9
$UNITMODE
 70
     0
  9
$VISRETAIN
 70
     0
  9
$PLINEGEN
 70
     0
  9
$PSLTSCALE
 70
     1
  0
ENDSEC
  0
SECTION
  2
TABLES
  0
TABLE
  2
VPORT
 70
     2
  0
VPORT
  2
*ACTIVE
 70
     0
 10
0.0
 20
0.0
 11
1.0
 21
1.0
 12
20728.453670997758
 22
5019.3271985509527
 13
0.0
 23
0.0
 14
10.0
 24
10.0
 15
10.0
 25
10.0
 16
0.0
 26
0.0
 36
1.0
 17
0.0
 27
0.0
 37
0.0
 40
13674.378593428
 41
3.1666666666666661
 42
50.0
 43
0.0
 44
0.0
 50
0.0
 51
0.0
 71
     0
 72
   100
 73
     1
 74
     0
 75
     0
 76
     0
 77
     0
 78
     0
  0
ENDTAB
  0
TABLE
  2
LTYPE
 70
     2
  0
LTYPE
  2
CONTINUOUS
 70
     0
  3
Solid line
 72
    65
 73
     0
 40
0.0
  0
LTYPE
  2
CENTER
 70
     0
  3
____ _ ____ _ ____ _ ____ _ ____ _ ____ _ ____ 
 72
    65
 73
     4
 40
2.0
 49
1.25
 49
-0.25
 49
0.25
 49
-0.25
  0
ENDTAB
  0
TABLE
  2
LAYER
 70
     6
  0
LAYER
  2
0
 70
     0
 62
     7
  6
CONTINUOUS
  0
LAYER
  2
3
 70
     0
 62
     2
  6
CONTINUOUS
  0
LAYER
  2
2
 70
     0
 62
     3
  6
CENTER
  0
LAYER
  2
1
 70
     0
 62
     4
  6
CONTINUOUS
  0
LAYER
  2
4
 70
     0
 62
     7
  6
CONTINUOUS
  0
LAYER
  2
DEFPOINTS
 70
     0
 62
     7
  6
CONTINUOUS
  0
ENDTAB
  0
TABLE
  2
STYLE
 70
     1
  0
STYLE
  2
STANDARD
 70
     0
 40
0.0
 41
1.0
 50
0.0
 71
     0
 42
180.0
  3
simplex.shx
  4
extfont.shx
  0
ENDTAB
  0
TABLE
  2
VIEW
 70
     0
  0
ENDTAB
  0
TABLE
  2
UCS
 70
     0
  0
ENDTAB
  0
TABLE
  2
APPID
 70
     1
  0
APPID
  2
ACAD
 70
     0
  0
ENDTAB
  0
TABLE
  2
DIMSTYLE
 70
     1
  0
DIMSTYLE
  2
IGA
 70
     0
  3

  4

  5

  6
OPEN
  7
OPEN
 40
2.0
 41
2.0
 42
0.5
 43
10.0
 44
1.0
 45
0.0
 46
0.0
 47
1.0
 48
1.0
140
3.0
141
0.0
142
0.0
143
0.03937
144
1.0
145
0.0
146
10.0
147
1.0
 71
     0
 72
     0
 73
     0
 74
     0
 75
     0
 76
     0
 77
     1
 78
     8
170
     0
171
     2
172
     0
173
     1
174
     0
175
     0
176
     0
177
     0
178
     0
  0
ENDTAB
  0
ENDSEC
  0
SECTION
  2
BLOCKS
  0
BLOCK
  8
0
  2
$MODEL_SPACE
 70
     0
 10
0.0
 20
0.0
 30
0.0
  3
$MODEL_SPACE
  1

  0
ENDBLK
  5
1B
  8
0
  0
BLOCK
 67
     1
  8
0
  2
$PAPER_SPACE
 70
     0
 10
0.0
 20
0.0
 30
0.0
  3
$PAPER_SPACE
  1

  0
ENDBLK
  5
18
 67
     1
  8
0
  0
BLOCK
  8
0
  2
_OPEN
 70
     0
 10
0.0
 20
0.0
 30
0.0
  3
_OPEN
  1

  0
LINE
  5
7ADA
  8
0
  6
BYBLOCK
 62
     0
 10
-1.0
 20
0.166667
 30
0.0
 11
0.0
 21
0.0
 31
0.0
  0
LINE
  5
7ADB
  8
0
  6
BYBLOCK
 62
     0
 10
0.0
 20
0.0
 30
0.0
 11
-1.0
 21
-0.166667
 31
0.0
  0
LINE
  5
7ADC
  8
0
  6
BYBLOCK
 62
     0
 10
0.0
 20
0.0
 30
0.0
 11
-1.0
 21
0.0
 31
0.0
  0
ENDBLK
  5
7ADD
  8
0
  0
BLOCK
  8
0
  2
*D1
 70
     1
 10
0.0
 20
0.0
 30
0.0
  3
*D1
  1

  0
LINE
  5
7E52
  8
3
  6
CONTINUOUS
 62
     0
 10
1737.600190409697
 20
3665.5387082384741
 30
0.0
 11
1737.600190409697
 21
3361.6530012384728
 31
0.0
  0
LINE
  5
7E53
  8
3
  6
CONTINUOUS
 62
     0
 10
2297.600190409697
 20
3602.0271812384731
 30
0.0
 11
2297.600190409697
 21
3361.6530012384728
 31
0.0
  0
LINE
  5
7E54
  8
3
  6
CONTINUOUS
 62
     0
 10
1817.600190409697
 20
3401.6530012384728
 30
0.0
 11
2217.600190409697
 21
3401.6530012384728
 31
0.0
  0
INSERT
  5
7E55
  8
3
  6
CONTINUOUS
 62
     0
  2
_OPEN
 10
1737.600190409697
 20
3401.6530012384728
 30
0.0
 41
80.0
 42
80.0
 43
80.0
 50
180.0
  0
INSERT
  5
7E56
  8
3
  6
CONTINUOUS
 62
     0
  2
_OPEN
 10
2297.600190409697
 20
3401.6530012384728
 30
0.0
 41
80.0
 42
80.0
 43
80.0
  0
TEXT
  8
3
  40
120
  5
7ED2
  62
0
  72
0
  71
0
 10
1771.89
 20
3289.25
 30
0.000000
  1
560
  0
POINT
  5
7E58
  8
DEFPOINTS
  6
CONTINUOUS
 62
     0
 10
1737.600190409697
 20
3685.5387082384741
 30
0.0
  0
POINT
  5
7E59
  8
DEFPOINTS
  6
CONTINUOUS
 62
     0
 10
2297.600190409697
 20
3622.027181238474
 30
0.0
  0
POINT
  5
7E5A
  8
DEFPOINTS
  6
CONTINUOUS
 62
     0
 10
2297.600190409697
 20
3401.6530012384728
 30
0.0
  0
ENDBLK
  5
7D07
  8
0
  0
BLOCK
  8
0
  2
*D2
 70
     1
 10
0.0
 20
0.0
 30
0.0
  3
*D2
  1

  0
LINE
  5
7E5B
  8
3
  6
CONTINUOUS
 62
     0
 10
2297.600190409697
 20
3602.0271812384731
 30
0.0
 11
2297.600190409697
 21
3361.6530012384728
 31
0.0
  0
LINE
  5
7E5C
  8
3
  6
CONTINUOUS
 62
     0
 10
3637.600190409697
 20
3665.5387082384741
 30
0.0
 11
3637.600190409697
 21
3361.6530012384728
 31
0.0
  0
LINE
  5
7E5D
  8
3
  6
CONTINUOUS
 62
     0
 10
2377.600190409697
 20
3401.6530012384728
 30
0.0
 11
3557.600190409697
 21
3401.6530012384728
 31
0.0
  0
INSERT
  5
7E5E
  8
3
  6
CONTINUOUS
 62
     0
  2
_OPEN
 10
2297.600190409697
 20
3401.6530012384728
 30
0.0
 41
80.0
 42
80.0
 43
80.0
 50
180.0
  0
INSERT
  5
7E5F
  8
3
  6
CONTINUOUS
 62
     0
  2
_OPEN
 10
3637.600190409697
 20
3401.6530012384728
 30
0.0
 41
80.0
 42
80.0
 43
80.0
  0
TEXT
  8
3
  40
120
  5
7ED3
  62
0
  72
0
  71
0
 10
2727.60
 20
3289.25
 30
0.000000
  1
1340
  0
POINT
  5
7E61
  8
DEFPOINTS
  6
CONTINUOUS
 62
     0
 10
2297.600190409697
 20
3622.027181238474
 30
0.0
  0
POINT
  5
7E62
  8
DEFPOINTS
  6
CONTINUOUS
 62
     0
 10
3637.600190409697
 20
3685.5387082384741
 30
0.0
  0
POINT
  5
7E63
  8
DEFPOINTS
  6
CONTINUOUS
 62
     0
 10
3637.600190409697
 20
3401.6530012384728
 30
0.0
  0
ENDBLK
  5
7CFC
  8
0
  0
BLOCK
  8
0
  2
*D3
 70
     1
 10
0.0
 20
0.0
 30
0.0
  3
*D3
  1

  0
LINE
  5
7E64
  8
3
  6
CONTINUOUS
 62
     0
 10
3318.600190409697
 20
5125.538708238475
 30
0.0
 11
3956.5751784096979
 21
5125.538708238475
 31
0.0
  0
LINE
  5
7E65
  8
3
  6
CONTINUOUS
 62
     0
 10
3225.9366274096969
 20
4505.5387082384741
 30
0.0
 11
3956.5751784096979
 21
4505.5387082384741
 31
0.0
  0
LINE
  5
7E66
  8
3
  6
CONTINUOUS
 62
     0
 10
3916.5751784096979
 20
5205.538708238475
 30
0.0
 11
3916.5751784096979
 21
5285.538708238475
 31
0.0
  0
LINE
  5
7E67
  8
3
  6
CONTINUOUS
 62
     0
 10
3916.5751784096969
 20
4425.538708238475
 30
0.0
 11
3916.5751784096969
 21
4345.538708238475
 31
0.0
  0
LINE
  5
7E68
  8
3
  6
CONTINUOUS
 62
     0
 10
3916.5751784096979
 20
5125.538708238475
 30
0.0
 11
3916.5751784096969
 21
4505.5387082384741
 31
0.0
  0
INSERT
  5
7E69
  8
3
  6
CONTINUOUS
 62
     0
  2
_OPEN
 10
3916.5751784096979
 20
5125.538708238475
 30
0.0
 41
80.0
 42
80.0
 43
80.0
 50
270.0
  0
INSERT
  5
7E6A
  8
3
  6
CONTINUOUS
 62
     0
  2
_OPEN
 10
3916.5751784096969
 20
4505.5387082384741
 30
0.0
 41
80.0
 42
80.0
 43
80.0
 50
90.0
  0
TEXT
  8
3
  40
120
  5
7ED4
  62
0
  72
0
  71
0
 10
3576.58
 20
4567.42
 30
0.000000
  1
620
  0
POINT
  5
7E6C
  8
DEFPOINTS
  6
CONTINUOUS
 62
     0
 10
3298.600190409697
 20
5125.538708238475
 30
0.0
  0
POINT
  5
7E6D
  8
DEFPOINTS
  6
CONTINUOUS
 62
     0
 10
3205.9366274096969
 20
4505.5387082384741
 30
0.0
  0
POINT
  5
7E6E
  8
DEFPOINTS
  6
CONTINUOUS
 62
     0
 10
3916.5751784096969
 20
4505.5387082384741
 30
0.0
  0
ENDBLK
  5
7CF1
  8
0
  0
BLOCK
  8
0
  2
*D4
 70
     1
 10
0.0
 20
0.0
 30
0.0
  3
*D4
  1

  0
LINE
  5
7E6F
  8
3
  6
CONTINUOUS
 62
     0
 10
3225.9366274096969
 20
4505.5387082384741
 30
0.0
 11
3956.5751784096969
 21
4505.5387082384741
 31
0.0
  0
LINE
  5
7E70
  8
3
  6
CONTINUOUS
 62
     0
 10
3657.600190409697
 20
3685.5387082384741
 30
0.0
 11
3956.5751784096969
 21
3685.5387082384741
 31
0.0
  0
LINE
  5
7E71
  8
3
  6
CONTINUOUS
 62
     0
 10
3916.5751784096969
 20
4425.538708238475
 30
0.0
 11
3916.5751784096969
 21
3765.5387082384741
 31
0.0
  0
INSERT
  5
7E72
  8
3
  6
CONTINUOUS
 62
     0
  2
_OPEN
 10
3916.5751784096969
 20
4505.5387082384741
 30
0.0
 41
80.0
 42
80.0
 43
80.0
 50
90.0
  0
INSERT
  5
7E73
  8
3
  6
CONTINUOUS
 62
     0
  2
_OPEN
 10
3916.5751784096969
 20
3685.5387082384741
 30
0.0
 41
80.0
 42
80.0
 43
80.0
 50
270.0
  0
TEXT
  8
3
  40
120
  5
7ED5
  62
0
  72
0
  71
0
 10
3576.58
 20
3883.14
 30
0.000000
  1
820
  0
POINT
  5
7E75
  8
DEFPOINTS
  6
CONTINUOUS
 62
     0
 10
3205.9366274096969
 20
4505.5387082384741
 30
0.0
  0
POINT
  5
7E76
  8
DEFPOINTS
  6
CONTINUOUS
 62
     0
 10
3637.600190409697
 20
3685.5387082384741
 30
0.0
  0
POINT
  5
7E77
  8
DEFPOINTS
  6
CONTINUOUS
 62
     0
 10
3916.5751784096969
 20
3685.5387082384741
 30
0.0
  0
ENDBLK
  5
7CE6
  8
0
  0
BLOCK
  8
0
  2
*D5
 70
     1
 10
0.0
 20
0.0
 30
0.0
  3
*D5
  1

  0
LINE
  5
7E78
  8
3
  6
CONTINUOUS
 62
     0
 10
2333.600190409697
 20
5145.5387082384759
 30
0.0
 11
2333.600190409697
 21
5456.6040672384734
 31
0.0
  0
LINE
  5
7E79
  8
3
  6
CONTINUOUS
 62
     0
 10
3258.600190409697
 20
5145.5387082384759
 30
0.0
 11
3258.600190409697
 21
5456.6040672384734
 31
0.0
  0
LINE
  5
7E7A
  8
3
  6
CONTINUOUS
 62
     0
 10
2413.600190409697
 20
5416.6040672384734
 30
0.0
 11
3178.600190409697
 21
5416.6040672384734
 31
0.0
  0
INSERT
  5
7E7B
  8
3
  6
CONTINUOUS
 62
     0
  2
_OPEN
 10
2333.600190409697
 20
5416.6040672384734
 30
0.0
 41
80.0
 42
80.0
 43
80.0
 50
180.0
  0
INSERT
  5
7E7C
  8
3
  6
CONTINUOUS
 62
     0
  2
_OPEN
 10
3258.600190409697
 20
5416.6040672384734
 30
0.0
 41
80.0
 42
80.0
 43
80.0
  0
TEXT
  8
3
  40
120
  5
7ED6
  62
0
  72
0
  71
0
 10
2547.68
 20
5304.20
 30
0.000000
  1
925
  0
POINT
  5
7E7E
  8
DEFPOINTS
  6
CONTINUOUS
 62
     0
 10
2333.600190409697
 20
5125.538708238475
 30
0.0
  0
POINT
  5
7E7F
  8
DEFPOINTS
  6
CONTINUOUS
 62
     0
 10
3258.600190409697
 20
5125.538708238475
 30
0.0
  0
POINT
  5
7E80
  8
DEFPOINTS
  6
CONTINUOUS
 62
     0
 10
3258.600190409697
 20
5416.6040672384734
 30
0.0
  0
ENDBLK
  5
7CDB
  8
0
  0
BLOCK
  8
0
  2
*D6
 70
     1
 10
0.0
 20
0.0
 30
0.0
  3
*D6
  1

  0
LINE
  5
7E81
  8
3
  6
CONTINUOUS
 62
     0
 10
3258.600190409697
 20
5145.5387082384759
 30
0.0
 11
3258.600190409697
 21
5698.6412742384737
 31
0.0
  0
LINE
  5
7E82
  8
3
  6
CONTINUOUS
 62
     0
 10
2297.600190409697
 20
5058.5634732384733
 30
0.0
 11
2297.600190409697
 21
5698.6412742384737
 31
0.0
  0
LINE
  5
7E83
  8
3
  6
CONTINUOUS
 62
     0
 10
3178.600190409697
 20
5658.6412742384737
 30
0.0
 11
2377.600190409697
 21
5658.6412742384737
 31
0.0
  0
INSERT
  5
7E84
  8
3
  6
CONTINUOUS
 62
     0
  2
_OPEN
 10
3258.600190409697
 20
5658.6412742384737
 30
0.0
 41
80.0
 42
80.0
 43
80.0
  0
INSERT
  5
7E85
  8
3
  6
CONTINUOUS
 62
     0
  2
_OPEN
 10
2297.600190409697
 20
5658.6412742384737
 30
0.0
 41
80.0
 42
80.0
 43
80.0
 50
180.0
  0
TEXT
  8
3
  40
120
  5
7ED7
  62
0
  72
0
  71
0
 10
2536.67
 20
5546.24
 30
0.000000
  1
961
  0
POINT
  5
7E87
  8
DEFPOINTS
  6
CONTINUOUS
 62
     0
 10
3258.600190409697
 20
5125.538708238475
 30
0.0
  0
POINT
  5
7E88
  8
DEFPOINTS
  6
CONTINUOUS
 62
     0
 10
2297.600190409697
 20
5038.5634732384742
 30
0.0
  0
POINT
  5
7E89
  8
DEFPOINTS
  6
CONTINUOUS
 62
     0
 10
2297.600190409697
 20
5658.6412742384737
 30
0.0
  0
ENDBLK
  5
7CD0
  8
0
  0
BLOCK
  8
0
  2
*D7
 70
     1
 10
0.0
 20
0.0
 30
0.0
  3
*D7
  1

  0
LINE
  5
7E8A
  8
3
  6
CONTINUOUS
 62
     0
 10
2297.600190409697
 20
5058.5634732384733
 30
0.0
 11
2297.600190409697
 21
5698.6412742384737
 31
0.0
  0
LINE
  5
7E8B
  8
3
  6
CONTINUOUS
 62
     0
 10
1654.600190409697
 20
4525.538708238475
 30
0.0
 11
1654.600190409697
 21
5698.6412742384737
 31
0.0
  0
LINE
  5
7E8C
  8
3
  6
CONTINUOUS
 62
     0
 10
2217.600190409697
 20
5658.6412742384737
 30
0.0
 11
1734.600190409697
 21
5658.6412742384737
 31
0.0
  0
INSERT
  5
7E8D
  8
3
  6
CONTINUOUS
 62
     0
  2
_OPEN
 10
2297.600190409697
 20
5658.6412742384737
 30
0.0
 41
80.0
 42
80.0
 43
80.0
  0
INSERT
  5
7E8E
  8
3
  6
CONTINUOUS
 62
     0
  2
_OPEN
 10
1654.600190409697
 20
5658.6412742384737
 30
0.0
 41
80.0
 42
80.0
 43
80.0
 50
180.0
  0
TEXT
  8
3
  40
120
  5
7ED8
  62
0
  72
0
  71
0
 10
1736.10
 20
5546.24
 30
0.000000
  1
643
  0
POINT
  5
7E90
  8
DEFPOINTS
  6
CONTINUOUS
 62
     0
 10
2297.600190409697
 20
5038.5634732384742
 30
0.0
  0
POINT
  5
7E91
  8
DEFPOINTS
  6
CONTINUOUS
 62
     0
 10
1654.600190409697
 20
4505.5387082384741
 30
0.0
  0
POINT
  5
7E92
  8
DEFPOINTS
  6
CONTINUOUS
 62
     0
 10
1654.600190409697
 20
5658.6412742384737
 30
0.0
  0
ENDBLK
  5
7D60
  8
0
  0
BLOCK
  8
0
  2
*D8
 70
     1
 10
0.0
 20
0.0
 30
0.0
  3
*D8
  1

  0
LINE
  5
7E93
  8
3
  6
CONTINUOUS
 62
     0
 10
3318.600190409697
 20
5125.538708238475
 30
0.0
 11
4281.4758914096974
 21
5125.538708238475
 31
0.0
  0
LINE
  5
7E94
  8
3
  6
CONTINUOUS
 62
     0
 10
3657.600190409697
 20
3685.5387082384741
 30
0.0
 11
4281.4758914096974
 21
3685.5387082384741
 31
0.0
  0
LINE
  5
7E95
  8
3
  6
CONTINUOUS
 62
     0
 10
4241.4758914096974
 20
5045.538708238475
 30
0.0
 11
4241.4758914096974
 21
3765.5387082384741
 31
0.0
  0
INSERT
  5
7E96
  8
3
  6
CONTINUOUS
 62
     0
  2
_OPEN
 10
4241.4758914096974
 20
5125.538708238475
 30
0.0
 41
80.0
 42
80.0
 43
80.0
 50
90.0
  0
INSERT
  5
7E97
  8
3
  6
CONTINUOUS
 62
     0
  2
_OPEN
 10
4241.4758914096974
 20
3685.5387082384741
 30
0.0
 41
80.0
 42
80.0
 43
80.0
 50
270.0
  0
TEXT
  8
3
  40
120
  5
7ED9
  62
0
  72
0
  71
0
 10
3901.48
 20
4241.01
 30
0.000000
  1
1440
  0
POINT
  5
7E99
  8
DEFPOINTS
  6
CONTINUOUS
 62
     0
 10
3298.600190409697
 20
5125.538708238475
 30
0.0
  0
POINT
  5
7E9A
  8
DEFPOINTS
  6
CONTINUOUS
 62
     0
 10
3637.600190409697
 20
3685.5387082384741
 30
0.0
  0
POINT
  5
7E9B
  8
DEFPOINTS
  6
CONTINUOUS
 62
     0
 10
4241.4758914096974
 20
3685.5387082384741
 30
0.0
  0
ENDBLK
  5
7CBA
  8
0
  0
BLOCK
  8
0
  2
*D9
 70
     1
 10
0.0
 20
0.0
 30
0.0
  3
*D9
  1

  0
LINE
  5
7E9C
  8
3
  6
CONTINUOUS
 62
     0
 10
1737.600190409697
 20
7286.4358397910428
 30
0.0
 11
1737.600190409697
 21
6746.6749747910444
 31
0.0
  0
LINE
  5
7E9D
  8
3
  6
CONTINUOUS
 62
     0
 10
3637.600190409697
 20
7286.4358397910428
 30
0.0
 11
3637.600190409697
 21
6746.6749747910444
 31
0.0
  0
LINE
  5
7E9E
  8
3
  6
CONTINUOUS
 62
     0
 10
1817.600190409697
 20
6786.6749747910426
 30
0.0
 11
3557.600190409697
 21
6786.6749747910426
 31
0.0
  0
INSERT
  5
7E9F
  8
3
  6
CONTINUOUS
 62
     0
  2
_OPEN
 10
1737.600190409697
 20
6786.6749747910426
 30
0.0
 41
80.0
 42
80.0
 43
80.0
 50
180.0
  0
INSERT
  5
7EA0
  8
3
  6
CONTINUOUS
 62
     0
  2
_OPEN
 10
3637.600190409697
 20
6786.6749747910426
 30
0.0
 41
80.0
 42
80.0
 43
80.0
  0
TEXT
  8
3
  40
120
  5
7EDA
  62
0
  72
0
  71
0
 10
2393.49
 20
6674.27
 30
0.000000
  1
1900
  0
POINT
  5
7EA2
  8
DEFPOINTS
  6
CONTINUOUS
 62
     0
 10
1737.600190409697
 20
7306.4358397910437
 30
0.0
  0
POINT
  5
7EA3
  8
DEFPOINTS
  6
CONTINUOUS
 62
     0
 10
3637.600190409697
 20
7306.4358397910437
 30
0.0
  0
POINT
  5
7EA4
  8
DEFPOINTS
  6
CONTINUOUS
 62
     0
 10
3637.600190409697
 20
6786.6749747910426
 30
0.0
  0
ENDBLK
  5
7CAF
  8
0
  0
BLOCK
  8
0
  2
*D10
 70
     1
 10
0.0
 20
0.0
 30
0.0
  3
*D10
  1

  0
LINE
  5
7EA5
  8
3
  6
CONTINUOUS
 62
     0
 10
3657.600190409697
 20
8256.4358397910437
 30
0.0
 11
4072.2177914096978
 21
8256.4358397910437
 31
0.0
  0
LINE
  5
7EA6
  8
3
  6
CONTINUOUS
 62
     0
 10
3657.600190409697
 20
7306.4358397910437
 30
0.0
 11
4072.2177914096978
 21
7306.4358397910437
 31
0.0
  0
LINE
  5
7EA7
  8
3
  6
CONTINUOUS
 62
     0
 10
4032.2177914096978
 20
8176.4358397910428
 30
0.0
 11
4032.2177914096978
 21
7386.4358397910437
 31
0.0
  0
INSERT
  5
7EA8
  8
3
  6
CONTINUOUS
 62
     0
  2
_OPEN
 10
4032.2177914096978
 20
8256.4358397910437
 30
0.0
 41
80.0
 42
80.0
 43
80.0
 50
90.0
  0
INSERT
  5
7EA9
  8
3
  6
CONTINUOUS
 62
     0
  2
_OPEN
 10
4032.2177914096978
 20
7306.4358397910437
 30
0.0
 41
80.0
 42
80.0
 43
80.0
 50
270.0
  0
TEXT
  8
3
  40
120
  5
7EDB
  62
0
  72
0
  71
0
 10
3692.22
 20
7548.47
 30
0.000000
  1
950
  0
POINT
  5
7EAB
  8
DEFPOINTS
  6
CONTINUOUS
 62
     0
 10
3637.600190409697
 20
8256.4358397910437
 30
0.0
  0
POINT
  5
7EAC
  8
DEFPOINTS
  6
CONTINUOUS
 62
     0
 10
3637.600190409697
 20
7306.4358397910437
 30
0.0
  0
POINT
  5
7EAD
  8
DEFPOINTS
  6
CONTINUOUS
 62
     0
 10
4032.2177914096978
 20
7306.4358397910437
 30
0.0
  0
ENDBLK
  5
7CA4
  8
0
  0
BLOCK
  8
0
  2
*D11
 70
     1
 10
0.0
 20
0.0
 30
0.0
  3
*D11
  1

  0
LINE
  5
7EAE
  8
3
  6
CONTINUOUS
 62
     0
 10
5581.9846913900446
 20
5145.5387082384759
 30
0.0
 11
5581.9846913900446
 21
5379.0591172384729
 31
0.0
  0
LINE
  5
7EAF
  8
3
  6
CONTINUOUS
 62
     0
 10
6251.9846913900446
 20
5145.5387082384759
 30
0.0
 11
6251.9846913900446
 21
5379.0591172384729
 31
0.0
  0
LINE
  5
7EB0
  8
3
  6
CONTINUOUS
 62
     0
 10
5661.9846913900456
 20
5339.0591172384729
 30
0.0
 11
6171.9846913900446
 21
5339.0591172384729
 31
0.0
  0
INSERT
  5
7EB1
  8
3
  6
CONTINUOUS
 62
     0
  2
_OPEN
 10
5581.9846913900446
 20
5339.0591172384729
 30
0.0
 41
80.0
 42
80.0
 43
80.0
 50
180.0
  0
INSERT
  5
7EB2
  8
3
  6
CONTINUOUS
 62
     0
  2
_OPEN
 10
6251.9846913900446
 20
5339.0591172384729
 30
0.0
 41
80.0
 42
80.0
 43
80.0
  0
TEXT
  8
3
  40
120
  5
7EDC
  62
0
  72
0
  71
0
 10
5616.27
 20
5226.66
 30
0.000000
  1
670
  0
POINT
  5
7EB4
  8
DEFPOINTS
  6
CONTINUOUS
 62
     0
 10
5581.9846913900446
 20
5125.538708238475
 30
0.0
  0
POINT
  5
7EB5
  8
DEFPOINTS
  6
CONTINUOUS
 62
     0
 10
6251.9846913900446
 20
5125.538708238475
 30
0.0
  0
POINT
  5
7EB6
  8
DEFPOINTS
  6
CONTINUOUS
 62
     0
 10
6251.9846913900446
 20
5339.0591172384729
 30
0.0
  0
ENDBLK
  5
7C99
  8
0
  0
BLOCK
  8
0
  2
*D12
 70
     1
 10
0.0
 20
0.0
 30
0.0
  3
*D12
  1

  0
LINE
  5
7EB7
  8
3
  6
CONTINUOUS
 62
     0
 10
5256.9846913900446
 20
4727.9387082384737
 30
0.0
 11
5256.9846913900446
 21
5653.092234468575
 31
0.0
  0
LINE
  5
7EB8
  8
3
  6
CONTINUOUS
 62
     0
 10
5916.9846913900446
 20
5522.7449972384729
 30
0.0
 11
5916.9846913900446
 21
5653.092234468575
 31
0.0
  0
LINE
  5
7EB9
  8
3
  6
CONTINUOUS
 62
     0
 10
5336.9846913900456
 20
5613.092234468575
 30
0.0
 11
5836.9846913900456
 21
5613.092234468575
 31
0.0
  0
INSERT
  5
7EBA
  8
3
  6
CONTINUOUS
 62
     0
  2
_OPEN
 10
5256.9846913900446
 20
5613.092234468575
 30
0.0
 41
80.0
 42
80.0
 43
80.0
 50
180.0
  0
INSERT
  5
7EBB
  8
3
  6
CONTINUOUS
 62
     0
  2
_OPEN
 10
5916.9846913900446
 20
5613.092234468575
 30
0.0
 41
80.0
 42
80.0
 43
80.0
  0
TEXT
  8
3
  40
120
  5
7EDD
  62
0
  72
0
  71
0
 10
5308.41
 20
5600.69
 30
0.000000
  1
MAX
  0
TEXT
  8
3
  40
120
  5
7EDE
  62
0
  72
0
  71
0
 10
5308.41
 20
5444.69
 30
0.000000
  1
720
  0
POINT
  5
7EBD
  8
DEFPOINTS
  6
CONTINUOUS
 62
     0
 10
5256.9846913900446
 20
4707.9387082384746
 30
0.0
  0
POINT
  5
7EBE
  8
DEFPOINTS
  6
CONTINUOUS
 62
     0
 10
5916.9846913900446
 20
5502.744997238472
 30
0.0
  0
POINT
  5
7EBF
  8
DEFPOINTS
  6
CONTINUOUS
 62
     0
 10
5916.9846913900446
 20
5613.092234468575
 30
0.0
  0
ENDBLK
  5
7D54
  8
0
  0
BLOCK
  8
0
  2
*D13
 70
     1
 10
0.0
 20
0.0
 30
0.0
  3
*D13
  1

  0
LINE
  5
7D40
  8
0
  6
BYBLOCK
 62
     0
 10
5916.9846913900446
 20
5522.7449972384729
 30
0.0
 11
5916.9846913900446
 21
5653.6394964685742
 31
0.0
  0
LINE
  5
7D41
  8
0
  6
BYBLOCK
 62
     0
 10
6334.9846913900456
 20
5015.538708238475
 30
0.0
 11
6334.9846913900456
 21
5653.6394964685742
 31
0.0
  0
LINE
  5
7D42
  8
0
  6
BYBLOCK
 62
     0
 10
5996.9846913900446
 20
5613.6394964685742
 30
0.0
 11
6254.9846913900446
 21
5613.6394964685742
 31
0.0
  0
TEXT
  5
7D43
  8
3
 62
     0
 10
5975.0180360335808
 20
5667.2419170352223
 30
0.0
 40
120.0
  1
418
  0
INSERT
  5
7D44
  8
0
  6
BYBLOCK
 62
     0
  2
_OPEN
 10
5916.9846913900446
 20
5613.6394964685742
 30
0.0
 41
80.0
 42
80.0
 43
80.0
 50
180.0
  0
INSERT
  5
7D45
  8
0
  6
BYBLOCK
 62
     0
  2
_OPEN
 10
6334.9846913900456
 20
5613.6394964685742
 30
0.0
 41
80.0
 42
80.0
 43
80.0
  0
POINT
  5
7D46
  8
DEFPOINTS
  6
BYBLOCK
 62
     0
 10
5916.9846913900446
 20
5502.744997238472
 30
0.0
  0
POINT
  5
7D47
  8
DEFPOINTS
  6
BYBLOCK
 62
     0
 10
6334.9846913900456
 20
4995.538708238475
 30
0.0
  0
POINT
  5
7D48
  8
DEFPOINTS
  6
BYBLOCK
 62
     0
 10
6334.9846913900456
 20
5613.6394964685742
 30
0.0
  0
ENDBLK
  5
7D49
  8
0
  0
BLOCK
  8
0
  2
*D14
 70
     1
 10
0.0
 20
0.0
 30
0.0
  3
*D14
  1

  0
LINE
  5
7EC0
  8
3
  6
CONTINUOUS
 62
     0
 10
6354.9846913900456
 20
4955.538708238475
 30
0.0
 11
6727.9454683900449
 21
4955.538708238475
 31
0.0
  0
LINE
  5
7EC1
  8
3
  6
CONTINUOUS
 62
     0
 10
6354.9846913900456
 20
4055.5387082384741
 30
0.0
 11
6727.9454683900449
 21
4055.5387082384741
 31
0.0
  0
LINE
  5
7EC2
  8
3
  6
CONTINUOUS
 62
     0
 10
6687.9454683900449
 20
4875.538708238475
 30
0.0
 11
6687.9454683900449
 21
4135.5387082384732
 31
0.0
  0
INSERT
  5
7EC3
  8
3
  6
CONTINUOUS
 62
     0
  2
_OPEN
 10
6687.9454683900449
 20
4955.538708238475
 30
0.0
 41
80.0
 42
80.0
 43
80.0
 50
90.0
  0
INSERT
  5
7EC4
  8
3
  6
CONTINUOUS
 62
     0
  2
_OPEN
 10
6687.9454683900449
 20
4055.5387082384741
 30
0.0
 41
80.0
 42
80.0
 43
80.0
 50
270.0
  0
TEXT
  8
3
  40
120
  5
7EDF
  62
0
  72
0
  71
0
 10
6347.95
 20
4285.58
 30
0.000000
  1
φ900
  0
POINT
  5
7EC6
  8
DEFPOINTS
  6
CONTINUOUS
 62
     0
 10
6334.9846913900456
 20
4955.538708238475
 30
0.0
  0
POINT
  5
7EC7
  8
DEFPOINTS
  6
CONTINUOUS
 62
     0
 10
6334.9846913900456
 20
4055.5387082384741
 30
0.0
  0
POINT
  5
7EC8
  8
DEFPOINTS
  6
CONTINUOUS
 62
     0
 10
6687.9454683900449
 20
4055.5387082384741
 30
0.0
  0
ENDBLK
  5
7D3E
  8
0
  0
BLOCK
  8
0
  2
*D15
 70
     1
 10
0.0
 20
0.0
 30
0.0
  3
*D15
  1

  0
LINE
  5
7D2A
  8
0
  6
BYBLOCK
 62
     0
 10
5369.9846913900456
 20
3665.5387082384741
 30
0.0
 11
5369.9846913900456
 21
3372.6688002384749
 31
0.0
  0
LINE
  5
7D2B
  8
0
  6
BYBLOCK
 62
     0
 10
5916.9846913900446
 20
3586.2929342384732
 30
0.0
 11
5916.9846913900446
 21
3372.6688002384749
 31
0.0
  0
LINE
  5
7D2C
  8
0
  6
BYBLOCK
 62
     0
 10
5449.9846913900456
 20
3412.668800238474
 30
0.0
 11
5836.9846913900456
 21
3412.668800238474
 31
0.0
  0
TEXT
  5
7D2D
  8
3
 62
     0
 10
5520.9406535599437
 20
3455.5476349465748
 30
0.0
 40
120.0
  1
547
  0
INSERT
  5
7D2E
  8
0
  6
BYBLOCK
 62
     0
  2
_OPEN
 10
5369.9846913900456
 20
3412.668800238474
 30
0.0
 41
80.0
 42
80.0
 43
80.0
 50
180.0
  0
INSERT
  5
7D2F
  8
0
  6
BYBLOCK
 62
     0
  2
_OPEN
 10
5916.9846913900446
 20
3412.668800238474
 30
0.0
 41
80.0
 42
80.0
 43
80.0
  0
POINT
  5
7D30
  8
DEFPOINTS
  6
BYBLOCK
 62
     0
 10
5369.9846913900456
 20
3685.5387082384741
 30
0.0
  0
POINT
  5
7D31
  8
DEFPOINTS
  6
BYBLOCK
 62
     0
 10
5916.9846913900446
 20
3606.2929342384732
 30
0.0
  0
POINT
  5
7D32
  8
DEFPOINTS
  6
BYBLOCK
 62
     0
 10
5916.9846913900446
 20
3412.668800238474
 30
0.0
  0
ENDBLK
  5
7D33
  8
0
  0
BLOCK
  8
0
  2
*D16
 70
     1
 10
0.0
 20
0.0
 30
0.0
  3
*D16
  1

  0
LINE
  5
7D6D
  8
0
  6
BYBLOCK
 62
     0
 10
5916.9846913900446
 20
3586.2929342384732
 30
0.0
 11
5916.9846913900446
 21
3372.121538238473
 31
0.0
  0
LINE
  5
7D6E
  8
0
  6
BYBLOCK
 62
     0
 10
6319.9846913900456
 20
3665.5387082384741
 30
0.0
 11
6319.9846913900456
 21
3372.121538238473
 31
0.0
  0
LINE
  5
7D6F
  8
0
  6
BYBLOCK
 62
     0
 10
5996.9846913900446
 20
3412.121538238473
 30
0.0
 11
6239.9846913900446
 21
3412.121538238473
 31
0.0
  0
TEXT
  5
7D70
  8
3
 62
     0
 10
5985.1820728638286
 20
3466.3350324032799
 30
0.0
 40
120.0
  1
403
  0
INSERT
  5
7D71
  8
0
  6
BYBLOCK
 62
     0
  2
_OPEN
 10
5916.9846913900446
 20
3412.121538238473
 30
0.0
 41
80.0
 42
80.0
 43
80.0
 50
180.0
  0
INSERT
  5
7D72
  8
0
  6
BYBLOCK
 62
     0
  2
_OPEN
 10
6319.9846913900456
 20
3412.121538238473
 30
0.0
 41
80.0
 42
80.0
 43
80.0
  0
POINT
  5
7D73
  8
DEFPOINTS
  6
BYBLOCK
 62
     0
 10
5916.9846913900446
 20
3606.2929342384732
 30
0.0
  0
POINT
  5
7D74
  8
DEFPOINTS
  6
BYBLOCK
 62
     0
 10
6319.9846913900456
 20
3685.5387082384741
 30
0.0
  0
POINT
  5
7D75
  8
DEFPOINTS
  6
BYBLOCK
 62
     0
 10
6319.9846913900456
 20
3412.121538238473
 30
0.0
  0
ENDBLK
  5
7D76
  8
0
  0
BLOCK
  8
0
  2
*D17
 70
     1
 10
0.0
 20
0.0
 30
0.0
  3
*D17
  1

  0
LINE
  5
7EC9
  8
3
 62
     0
 10
1654.600190409697
 20
4545.538708238475
 30
0.0
 11
1654.600190409697
 21
5928.7763597090052
 31
0.0
  0
LINE
  5
7ECA
  8
3
 62
     0
 10
3637.600190409697
 20
3830.5387082384741
 30
0.0
 11
3637.600190409697
 21
5928.7763597090052
 31
0.0
  0
LINE
  5
7ECB
  8
3
 62
     0
 10
1734.600190409697
 20
5888.7763597090052
 30
0.0
 11
3557.600190409697
 21
5888.7763597090052
 31
0.0
  0
INSERT
  5
7ECC
  8
3
 62
     0
  2
_OPEN
 10
1654.600190409697
 20
5888.7763597090052
 30
0.0
 41
80.0
 42
80.0
 43
80.0
 50
180.0
  0
INSERT
  5
7ECD
  8
3
 62
     0
  2
_OPEN
 10
3637.600190409697
 20
5888.7763597090052
 30
0.0
 41
80.0
 42
80.0
 43
80.0
  0
TEXT
  8
3
  40
120
  5
7EE0
  62
0
  72
0
  71
0
 10
2660.57
 20
5776.38
 30
0.000000
  1
1983
  0
POINT
  5
7ECF
  8
DEFPOINTS
 62
     0
 10
1654.600190409697
 20
4525.538708238475
 30
0.0
  0
POINT
  5
7ED0
  8
DEFPOINTS
 62
     0
 10
3637.600190409697
 20
3810.5387082384741
 30
0.0
  0
POINT
  5
7ED1
  8
DEFPOINTS
 62
     0
 10
3637.600190409697
 20
5888.7763597090052
 30
0.0
  0
ENDBLK
  5
7D82
  8
0
  0
ENDSEC
  0
SECTION
  2
ENTITIES
  0
LINE
  5
7A70
  8
2
  6
CENTER
 10
3575.0001904096971
 20
4020.5387082384741
 30
0.0
 11
3260.2001904096969
 21
4020.5387082384741
 31
0.0
  0
LINE
  5
7A71
  8
1
  6
CONTINUOUS
 10
3265.2001904096969
 20
7310.9358397910437
 30
0.0
 11
3570.0001904096971
 21
7310.9358397910437
 31
0.0
  0
LINE
  5
7A72
  8
1
  6
CONTINUOUS
 10
3620.0001904096971
 20
7333.4358397910428
 30
0.0
 11
2095.2001904096969
 21
7333.4358397910428
 31
0.0
  0
LINE
  5
7A73
  8
1
  6
CONTINUOUS
 10
3620.0001904096971
 20
7193.4358397910437
 30
0.0
 11
2095.2001904096969
 21
7193.4358397910437
 31
0.0
  0
CIRCLE
  5
7A74
  8
1
  6
CONTINUOUS
 10
3417.600190409697
 20
4020.5387082384741
 30
0.0
 40
152.40000000000001
  0
LINE
  5
7A75
  8
1
  6
CONTINUOUS
 10
3615.100190409697
 20
3810.5387082384741
 30
0.0
 11
3220.100190409697
 21
3810.5387082384741
 31
0.0
  0
LINE
  5
7A76
  8
1
  6
CONTINUOUS
 10
3579.600190409697
 20
7345.9358397910428
 30
0.0
 11
3255.600190409697
 21
7345.9358397910428
 31
0.0
  0
LINE
  5
7A77
  8
1
  6
CONTINUOUS
 10
3265.2001904096969
 20
7235.9358397910437
 30
0.0
 11
3570.0001904096971
 21
7235.9358397910437
 31
0.0
  0
LINE
  5
7A78
  8
1
  6
CONTINUOUS
 10
3579.600190409697
 20
7838.9358397910437
 30
0.0
 11
3258.600190409697
 21
7838.9358397910437
 31
0.0
  0
ARC
  5
7A79
  8
1
  6
CONTINUOUS
 10
3417.600190409697
 20
4020.5387082384741
 30
0.0
 40
162.0
 50
324.972283
 51
215.02771699999991
  0
LINE
  5
7A7A
  8
1
  6
CONTINUOUS
 10
3637.600190409697
 20
8256.4358397910437
 30
0.0
 11
2747.600190409697
 21
8256.4358397910437
 31
0.0
  0
LINE
  5
7A7B
  8
1
  6
CONTINUOUS
 10
3637.600190409697
 20
3810.5387082384741
 30
0.0
 11
1737.600190409697
 21
3810.5387082384741
 31
0.0
  0
LINE
  5
7A7C
  8
1
  6
CONTINUOUS
 10
3637.600190409697
 20
3685.5387082384741
 30
0.0
 11
1737.600190409697
 21
3685.5387082384741
 31
0.0
  0
ARC
  5
7A7D
  8
1
  6
CONTINUOUS
 10
3417.600190409697
 20
4020.5387082384741
 30
0.0
 40
202.40000000000001
 50
246.58566499999989
 51
66.585665000000006
  0
LINE
  5
7A7E
  8
1
  6
CONTINUOUS
 10
3498.0293944096979
 20
4206.2721282384728
 30
0.0
 11
2378.029394409697
 21
4691.2721282384728
 31
0.0
  0
LINE
  5
7A7F
  8
1
  6
CONTINUOUS
 10
3478.1605194096969
 20
4160.3893662384726
 30
0.0
 11
2358.1605194096969
 21
4645.3893662384744
 31
0.0
  0
LINE
  5
7A80
  8
2
  6
CENTER
 10
3417.600190409697
 20
3863.1387082384731
 30
0.0
 11
3417.600190409697
 21
4177.9387082384737
 31
0.0
  0
LINE
  5
7A81
  8
1
  6
CONTINUOUS
 10
3263.600190409697
 20
3878.5387082384741
 30
0.0
 11
3284.942524409696
 21
3927.555141238473
 31
0.0
  0
ARC
  5
7A82
  8
1
  6
CONTINUOUS
 10
2364.600190409697
 20
4438.538708238475
 30
0.0
 40
710.0
 50
174.58515800000001
 51
242.19091900000001
  0
ARC
  5
7A83
  8
1
  6
CONTINUOUS
 10
2364.600190409697
 20
4572.5387082384741
 30
0.0
 40
844.0
 50
295.465599
 51
355.44684799999999
  0
LINE
  5
7A84
  8
1
  6
CONTINUOUS
 10
3337.170986409697
 20
3834.8052882384732
 30
0.0
 11
2217.170986409697
 21
4319.8052882384736
 31
0.0
  0
LINE
  5
7A85
  8
1
  6
CONTINUOUS
 10
3357.0398614096971
 20
3880.6880502384729
 30
0.0
 11
2237.039861409698
 21
4365.6880502384729
 31
0.0
  0
LINE
  5
7A86
  8
1
  6
CONTINUOUS
 10
1737.600190409697
 20
3810.5387082384741
 30
0.0
 11
1737.600190409697
 21
3685.5387082384741
 31
0.0
  0
LINE
  5
7A87
  8
1
  6
CONTINUOUS
 10
3220.100190409697
 20
3810.5387082384741
 30
0.0
 11
3230.100190409697
 21
3860.5387082384741
 31
0.0
  0
LINE
  5
7A88
  8
1
  6
CONTINUOUS
 10
3230.100190409697
 20
3860.5387082384741
 30
0.0
 11
3263.600190409697
 21
3860.5387082384741
 31
0.0
  0
LINE
  5
7A89
  8
1
  6
CONTINUOUS
 10
3263.600190409697
 20
3860.5387082384741
 30
0.0
 11
3263.600190409697
 21
3878.5387082384741
 31
0.0
  0
LINE
  5
7A8A
  8
2
  6
CENTER
 10
1600.5346084096959
 20
4505.5387082384741
 30
0.0
 11
3511.821977409697
 21
4505.5387082384741
 31
0.0
  0
CIRCLE
  5
7A8B
  8
1
  6
CONTINUOUS
 10
2297.600190409697
 20
4505.5387082384741
 30
0.0
 40
152.40000000000001
  0
CIRCLE
  5
7A8C
  8
1
  6
CONTINUOUS
 10
2297.600190409697
 20
4505.5387082384741
 30
0.0
 40
490.0
  0
CIRCLE
  5
7A8D
  8
1
  6
CONTINUOUS
 10
2297.600190409697
 20
4505.5387082384741
 30
0.0
 40
450.0
  0
ARC
  5
7A8E
  8
1
  6
CONTINUOUS
 10
2244.100190409697
 20
4452.0387082384741
 30
0.0
 40
589.5
 50
84.792963999999998
 51
174.7929639999999
  0
ARC
  5
7A8F
  8
1
  6
CONTINUOUS
 10
2297.600190409697
 20
4505.5387082384741
 30
0.0
 40
202.40000000000001
 50
66.585665000000006
 51
246.58566499999989
  0
LINE
  5
7A90
  8
1
  6
CONTINUOUS
 10
3205.9366274096969
 20
4505.5387082384741
 30
0.0
 11
3258.600190409697
 21
5125.538708238475
 31
0.0
  0
LINE
  5
7A91
  8
2
  6
CENTER
 10
2297.600190409697
 20
3622.027181238474
 30
0.0
 11
2297.600190409697
 21
5095.3519372384726
 31
0.0
  0
LINE
  5
7A92
  8
1
  6
CONTINUOUS
 10
3255.202541409697
 20
5085.538708238475
 30
0.0
 11
2333.600190409697
 21
5085.538708238475
 31
0.0
  0
LINE
  5
7A93
  8
1
  6
CONTINUOUS
 10
3298.600190409697
 20
5125.538708238475
 30
0.0
 11
2293.600190409697
 21
5125.538708238475
 31
0.0
  0
LINE
  5
7A94
  8
1
  6
CONTINUOUS
 10
2333.600190409697
 20
5033.1652732384728
 30
0.0
 11
2333.600190409697
 21
5125.538708238475
 31
0.0
  0
ARC
  5
7A95
  8
1
  6
CONTINUOUS
 10
2244.100190409697
 20
4559.038708238475
 30
0.0
 40
482.5
 50
79.310168000000004
 51
83.633905999999996
  0
LINE
  5
7A96
  8
1
  6
CONTINUOUS
 10
2450.0001904096971
 20
7310.9358397910437
 30
0.0
 11
2145.2001904096969
 21
7310.9358397910437
 31
0.0
  0
LINE
  5
7A97
  8
1
  6
CONTINUOUS
 10
2450.0001904096971
 20
7235.9358397910437
 30
0.0
 11
2145.2001904096969
 21
7235.9358397910437
 31
0.0
  0
LINE
  5
7A98
  8
1
  6
CONTINUOUS
 10
2787.600190409697
 20
8271.4358397910437
 30
0.0
 11
1807.600190409697
 21
8271.4358397910437
 31
0.0
  0
LINE
  5
7A99
  8
1
  6
CONTINUOUS
 10
3258.600190409697
 20
8188.4358397910428
 30
0.0
 11
1654.600190409697
 21
8188.4358397910428
 31
0.0
  0
LINE
  5
7A9A
  8
1
  6
CONTINUOUS
 10
3258.600190409697
 20
7518.4358397910437
 30
0.0
 11
1654.600190409697
 21
7518.4358397910437
 31
0.0
  0
LINE
  5
7A9B
  8
1
  6
CONTINUOUS
 10
1654.600190409697
 20
7518.4358397910437
 30
0.0
 11
1654.600190409697
 21
8188.4358397910428
 31
0.0
  0
LINE
  5
7A9C
  8
1
  6
CONTINUOUS
 10
2095.2001904096969
 20
7193.4358397910437
 30
0.0
 11
2095.2001904096969
 21
7333.4358397910428
 31
0.0
  0
LINE
  5
7A9D
  8
1
  6
CONTINUOUS
 10
2145.2001904096969
 20
7310.9358397910437
 30
0.0
 11
2145.2001904096969
 21
7235.9358397910437
 31
0.0
  0
LINE
  5
7A9E
  8
1
  6
CONTINUOUS
 10
2145.2001904096969
 20
7306.4358397910437
 30
0.0
 11
1737.600190409697
 21
7306.4358397910437
 31
0.0
  0
LINE
  5
7A9F
  8
1
  6
CONTINUOUS
 10
1737.600190409697
 20
7518.4358397910437
 30
0.0
 11
1737.600190409697
 21
7306.4358397910437
 31
0.0
  0
LINE
  5
7AA0
  8
1
  6
CONTINUOUS
 10
1847.600190409697
 20
8256.4358397910437
 30
0.0
 11
1737.600190409697
 21
8256.4358397910437
 31
0.0
  0
LINE
  5
7AA1
  8
1
  6
CONTINUOUS
 10
1847.600190409697
 20
8271.4358397910437
 30
0.0
 11
1847.600190409697
 21
8188.4358397910428
 31
0.0
  0
LINE
  5
7AA2
  8
1
  6
CONTINUOUS
 10
1737.600190409697
 20
8256.4358397910437
 30
0.0
 11
1737.600190409697
 21
8188.4358397910428
 31
0.0
  0
LINE
  5
7AA3
  8
1
  6
CONTINUOUS
 10
3258.600190409697
 20
7518.4358397910437
 30
0.0
 11
3258.600190409697
 21
8188.4358397910428
 31
0.0
  0
LINE
  5
7AA4
  8
1
  6
CONTINUOUS
 10
2333.600190409697
 20
7518.4358397910437
 30
0.0
 11
2333.600190409697
 21
8188.4358397910428
 31
0.0
  0
LINE
  5
7AA5
  8
1
  6
CONTINUOUS
 10
2333.600190409697
 20
7518.4358397910437
 30
0.0
 11
3258.600190409697
 21
8188.4358397910428
 31
0.0
  0
LINE
  5
7AA6
  8
1
  6
CONTINUOUS
 10
2333.600190409697
 20
8188.4358397910428
 30
0.0
 11
3258.600190409697
 21
7518.4358397910437
 31
0.0
  0
LINE
  5
7AA7
  8
1
  6
CONTINUOUS
 10
3265.2001904096969
 20
7306.4358397910437
 30
0.0
 11
2450.0001904096971
 21
7306.4358397910437
 31
0.0
  0
LINE
  5
7AA8
  8
1
  6
CONTINUOUS
 10
2450.0001904096971
 20
7310.9358397910437
 30
0.0
 11
2450.0001904096971
 21
7235.9358397910437
 31
0.0
  0
LINE
  5
7AA9
  8
1
  6
CONTINUOUS
 10
2327.600190409697
 20
7518.4358397910437
 30
0.0
 11
2327.600190409697
 21
7310.9358397910437
 31
0.0
  0
LINE
  5
7AAA
  8
1
  6
CONTINUOUS
 10
2267.600190409697
 20
7518.4358397910437
 30
0.0
 11
2267.600190409697
 21
7310.9358397910437
 31
0.0
  0
LINE
  5
7AAB
  8
1
  6
CONTINUOUS
 10
3265.2001904096969
 20
7310.9358397910437
 30
0.0
 11
3265.2001904096969
 21
7235.9358397910437
 31
0.0
  0
LINE
  5
7AAC
  8
1
  6
CONTINUOUS
 10
3255.600190409697
 20
7345.9358397910428
 30
0.0
 11
3255.600190409697
 21
7518.4358397910437
 31
0.0
  0
LINE
  5
7AAD
  8
1
  6
CONTINUOUS
 10
3438.600190409697
 20
7310.9358397910437
 30
0.0
 11
3438.600190409697
 21
7345.9358397910428
 31
0.0
  0
LINE
  5
7AAE
  8
1
  6
CONTINUOUS
 10
3396.6001904096979
 20
7310.9358397910437
 30
0.0
 11
3396.6001904096979
 21
7345.9358397910428
 31
0.0
  0
LINE
  5
7AAF
  8
1
  6
CONTINUOUS
 10
2747.600190409697
 20
8271.4358397910437
 30
0.0
 11
2747.600190409697
 21
8188.4358397910428
 31
0.0
  0
LINE
  5
7AB0
  8
1
  6
CONTINUOUS
 10
3571.600190409697
 20
3878.5387082384741
 30
0.0
 11
3550.257856409698
 21
3927.555141238473
 31
0.0
  0
LINE
  5
7AB1
  8
1
  6
CONTINUOUS
 10
3571.600190409697
 20
3860.5387082384741
 30
0.0
 11
3605.100190409697
 21
3860.5387082384741
 31
0.0
  0
LINE
  5
7AB2
  8
1
  6
CONTINUOUS
 10
3605.100190409697
 20
3860.5387082384741
 30
0.0
 11
3615.100190409697
 21
3810.5387082384741
 31
0.0
  0
LINE
  5
7AB3
  8
1
  6
CONTINUOUS
 10
3571.600190409697
 20
3860.5387082384741
 30
0.0
 11
3571.600190409697
 21
3878.5387082384741
 31
0.0
  0
LINE
  5
7AB4
  8
1
  6
CONTINUOUS
 10
3637.600190409697
 20
3810.5387082384741
 30
0.0
 11
3637.600190409697
 21
3685.5387082384741
 31
0.0
  0
LINE
  5
7AB5
  8
1
  6
CONTINUOUS
 10
3579.600190409697
 20
7345.9358397910428
 30
0.0
 11
3579.600190409697
 21
7838.9358397910437
 31
0.0
  0
LINE
  5
7AB6
  8
1
  6
CONTINUOUS
 10
3637.600190409697
 20
8256.4358397910437
 30
0.0
 11
3637.600190409697
 21
7306.4358397910437
 31
0.0
  0
LINE
  5
7AB7
  8
1
  6
CONTINUOUS
 10
3620.0001904096971
 20
7193.4358397910437
 30
0.0
 11
3620.0001904096971
 21
7333.4358397910428
 31
0.0
  0
LINE
  5
7AB8
  8
1
  6
CONTINUOUS
 10
3570.0001904096971
 20
7310.9358397910437
 30
0.0
 11
3570.0001904096971
 21
7235.9358397910437
 31
0.0
  0
LINE
  5
7AB9
  8
1
  6
CONTINUOUS
 10
3637.600190409697
 20
7306.4358397910437
 30
0.0
 11
3570.0001904096971
 21
7306.4358397910437
 31
0.0
  0
LINE
  5
7ABA
  8
1
  6
CONTINUOUS
 10
6251.9846913900446
 20
5125.538708238475
 30
0.0
 11
6251.9846913900446
 21
3810.5387082384741
 31
0.0
  0
LINE
  5
7ABB
  8
1
  6
CONTINUOUS
 10
5581.9846913900446
 20
5125.538708238475
 30
0.0
 11
5581.9846913900446
 21
3810.5387082384741
 31
0.0
  0
LINE
  5
7ABC
  8
1
  6
CONTINUOUS
 10
5409.4846913900446
 20
4182.5387082384741
 30
0.0
 11
5409.4846913900446
 21
3810.5387082384741
 31
0.0
  0
LINE
  5
7ABD
  8
1
  6
CONTINUOUS
 10
5299.4846913900456
 20
4172.9387082384737
 30
0.0
 11
5299.4846913900456
 21
3868.138708238474
 31
0.0
  0
LINE
  5
7ABE
  8
1
  6
CONTINUOUS
 10
5256.9846913900446
 20
4707.9387082384746
 30
0.0
 11
5256.9846913900446
 21
3818.1387082384731
 31
0.0
  0
LINE
  5
7ABF
  8
1
  6
CONTINUOUS
 10
5396.9846913900446
 20
4707.9387082384746
 30
0.0
 11
5396.9846913900446
 21
3818.1387082384731
 31
0.0
  0
LINE
  5
7AC0
  8
1
  6
CONTINUOUS
 10
5374.4846913900456
 20
4172.9387082384737
 30
0.0
 11
5374.4846913900456
 21
3868.138708238474
 31
0.0
  0
LINE
  5
7AC1
  8
1
  6
CONTINUOUS
 10
5369.9846913900456
 20
3685.5387082384741
 30
0.0
 11
6319.9846913900456
 21
3685.5387082384741
 31
0.0
  0
LINE
  5
7AC2
  8
1
  6
CONTINUOUS
 10
5369.9846913900456
 20
3810.5387082384741
 30
0.0
 11
6319.9846913900456
 21
3810.5387082384741
 31
0.0
  0
LINE
  5
7AC3
  8
1
  6
CONTINUOUS
 10
5369.9846913900456
 20
3810.5387082384741
 30
0.0
 11
5369.9846913900456
 21
3685.5387082384741
 31
0.0
  0
LINE
  5
7AC4
  8
1
  6
CONTINUOUS
 10
5409.4846913900446
 20
3860.5387082384741
 30
0.0
 11
5581.9846913900446
 21
3860.5387082384741
 31
0.0
  0
LINE
  5
7AC5
  8
1
  6
CONTINUOUS
 10
5299.4846913900456
 20
3868.138708238474
 30
0.0
 11
5374.4846913900456
 21
3868.138708238474
 31
0.0
  0
LINE
  5
7AC6
  8
1
  6
CONTINUOUS
 10
5256.9846913900446
 20
3818.1387082384731
 30
0.0
 11
5396.9846913900446
 21
3818.1387082384731
 31
0.0
  0
LINE
  5
7AC7
  8
1
  6
CONTINUOUS
 10
6319.9846913900456
 20
3810.5387082384741
 30
0.0
 11
6319.9846913900456
 21
3685.5387082384741
 31
0.0
  0
LINE
  5
7AC8
  8
1
  6
CONTINUOUS
 10
5581.9846913900446
 20
5085.538708238475
 30
0.0
 11
6251.9846913900446
 21
5085.538708238475
 31
0.0
  0
LINE
  5
7AC9
  8
1
  6
CONTINUOUS
 10
5541.9846913900446
 20
5125.538708238475
 30
0.0
 11
6291.9846913900446
 21
5125.538708238475
 31
0.0
  0
LINE
  5
7ACA
  8
1
  6
CONTINUOUS
 10
5299.4846913900456
 20
4657.9387082384737
 30
0.0
 11
5299.4846913900456
 21
4353.1387082384736
 31
0.0
  0
LINE
  5
7ACB
  8
1
  6
CONTINUOUS
 10
5409.4846913900446
 20
4182.5387082384741
 30
0.0
 11
5581.9846913900446
 21
4182.5387082384741
 31
0.0
  0
LINE
  5
7ACC
  8
1
  6
CONTINUOUS
 10
5374.4846913900456
 20
4535.538708238475
 30
0.0
 11
5581.9846913900446
 21
4535.538708238475
 31
0.0
  0
LINE
  5
7ACD
  8
1
  6
CONTINUOUS
 10
5374.4846913900456
 20
4475.538708238475
 30
0.0
 11
5581.9846913900446
 21
4475.538708238475
 31
0.0
  0
LINE
  5
7ACE
  8
1
  6
CONTINUOUS
 10
5374.4846913900456
 20
4041.5387082384741
 30
0.0
 11
5409.4846913900446
 21
4041.5387082384741
 31
0.0
  0
LINE
  5
7ACF
  8
1
  6
CONTINUOUS
 10
5374.4846913900456
 20
3999.5387082384741
 30
0.0
 11
5409.4846913900446
 21
3999.5387082384741
 31
0.0
  0
LINE
  5
7AD0
  8
1
  6
CONTINUOUS
 10
5299.4846913900456
 20
4657.9387082384737
 30
0.0
 11
5374.4846913900456
 21
4657.9387082384737
 31
0.0
  0
LINE
  5
7AD1
  8
1
  6
CONTINUOUS
 10
5299.4846913900456
 20
4353.1387082384736
 30
0.0
 11
5374.4846913900456
 21
4353.1387082384736
 31
0.0
  0
LINE
  5
7AD2
  8
1
  6
CONTINUOUS
 10
5299.4846913900456
 20
4172.9387082384737
 30
0.0
 11
5374.4846913900456
 21
4172.9387082384737
 31
0.0
  0
LINE
  5
7AD3
  8
1
  6
CONTINUOUS
 10
5256.9846913900446
 20
4707.9387082384746
 30
0.0
 11
5396.9846913900446
 21
4707.9387082384746
 31
0.0
  0
LINE
  5
7AD4
  8
1
  6
CONTINUOUS
 10
5374.4846913900456
 20
4657.9387082384737
 30
0.0
 11
5374.4846913900456
 21
4353.1387082384736
 31
0.0
  0
LINE
  5
7AD5
  8
1
  6
CONTINUOUS
 10
6334.9846913900456
 20
4995.538708238475
 30
0.0
 11
6334.9846913900456
 21
4015.5387082384741
 31
0.0
  0
LINE
  5
7AD6
  8
1
  6
CONTINUOUS
 10
6251.9846913900446
 20
4055.5387082384741
 30
0.0
 11
6334.9846913900456
 21
4055.5387082384741
 31
0.0
  0
LINE
  5
7AD7
  8
1
  6
CONTINUOUS
 10
6251.9846913900446
 20
4955.538708238475
 30
0.0
 11
6334.9846913900456
 21
4955.538708238475
 31
0.0
  0
DIMENSION
  5
7AED
  8
3
  6
CONTINUOUS
  2
*D1
 10
2297.600190409697
 20
3401.6530012384728
 30
0.0
 11
2011.885904695411
 21
3401.6530012384728
 31
0.0
 70
   128
 13
1737.600190409697
 23
3685.5387082384741
 33
0.0
 14
2297.600190409697
 24
3622.027181238474
 34
0.0
1001
ACAD
1000
DSTYLE
1002
{
1070
   287
1070
     3
1070
   287
1070
     3
1070
    40
1040
40.0
1070
   143
1040
0.039
1070
   172
1070
     1
1070
   271
1070
     0
1070
   279
1070
     0
1070
   288
1070
     1
1002
}
  0
DIMENSION
  5
7AF9
  8
3
  6
CONTINUOUS
  2
*D2
 10
3637.600190409697
 20
3401.6530012384728
 30
0.0
 11
2967.600190409697
 21
3501.6530012384742
 31
0.0
 70
     0
 13
2297.600190409697
 23
3622.027181238474
 33
0.0
 14
3637.600190409697
 24
3685.5387082384741
 34
0.0
1001
ACAD
1000
DSTYLE
1002
{
1070
   287
1070
     3
1070
   287
1070
     3
1070
    40
1040
40.0
1070
   143
1040
0.039
1070
   172
1070
     1
1070
   271
1070
     0
1070
   279
1070
     0
1070
   288
1070
     1
1002
}
  0
DIMENSION
  5
7B06
  8
3
  6
CONTINUOUS
  2
*D3
 10
3916.5751784096969
 20
4505.5387082384741
 30
0.0
 11
3916.5751784096969
 21
4779.8244225241888
 31
0.0
 70
   128
 13
3298.600190409697
 23
5125.538708238475
 33
0.0
 14
3205.9366274096969
 24
4505.5387082384741
 34
0.0
 50
90.0
1001
ACAD
1000
DSTYLE
1002
{
1070
   287
1070
     3
1070
   287
1070
     3
1070
    40
1040
40.0
1070
   143
1040
0.039
1070
   172
1070
     1
1070
   271
1070
     0
1070
   279
1070
     0
1070
   288
1070
     1
1002
}
  0
DIMENSION
  5
7B12
  8
3
  6
CONTINUOUS
  2
*D4
 10
3916.5751784096969
 20
3685.5387082384741
 30
0.0
 11
3816.5751784096969
 21
4095.538708238475
 31
0.0
 70
     0
 13
3205.9366274096969
 23
4505.5387082384741
 33
0.0
 14
3637.600190409697
 24
3685.5387082384741
 34
0.0
 50
90.0
1001
ACAD
1000
DSTYLE
1002
{
1070
   287
1070
     3
1070
   287
1070
     3
1070
    40
1040
40.0
1070
   143
1040
0.039
1070
   172
1070
     1
1070
   271
1070
     0
1070
   279
1070
     0
1070
   288
1070
     1
1002
}
  0
DIMENSION
  5
7B1F
  8
3
  6
CONTINUOUS
  2
*D5
 10
3258.600190409697
 20
5416.6040672384734
 30
0.0
 11
2787.6829394096958
 21
5416.6040672384734
 31
0.0
 70
   128
 13
2333.600190409697
 23
5125.538708238475
 33
0.0
 14
3258.600190409697
 24
5125.538708238475
 34
0.0
1001
ACAD
1000
DSTYLE
1002
{
1070
   287
1070
     3
1070
   287
1070
     3
1070
    40
1040
40.0
1070
   143
1040
0.039
1070
   172
1070
     1
1070
   271
1070
     0
1070
   279
1070
     0
1070
   288
1070
     1
1002
}
  0
DIMENSION
  5
7B2C
  8
3
  6
CONTINUOUS
  2
*D6
 10
2297.600190409697
 20
5658.6412742384737
 30
0.0
 11
2776.669349409698
 21
5658.6412742384737
 31
0.0
 70
   128
 13
3258.600190409697
 23
5125.538708238475
 33
0.0
 14
2297.600190409697
 24
5038.5634732384742
 34
0.0
1001
ACAD
1000
DSTYLE
1002
{
1070
   287
1070
     3
1070
   287
1070
     3
1070
    40
1040
40.0
1070
   143
1040
0.039
1070
   172
1070
     1
1070
   271
1070
     0
1070
   279
1070
     0
1070
   288
1070
     1
1002
}
  0
DIMENSION
  5
7B38
  8
3
  6
CONTINUOUS
  2
*D7
 10
1654.600190409697
 20
5658.6412742384737
 30
0.0
 11
1976.100190409697
 21
5758.6412742384737
 31
0.0
 70
     0
 13
2297.600190409697
 23
5038.5634732384742
 33
0.0
 14
1654.600190409697
 24
4505.5387082384741
 34
0.0
1001
ACAD
1000
DSTYLE
1002
{
1070
   287
1070
     3
1070
   287
1070
     3
1070
    40
1040
40.0
1070
   143
1040
0.039
1070
   172
1070
     1
1070
   271
1070
     0
1070
   279
1070
     0
1070
   288
1070
     1
1002
}
  0
DIMENSION
  5
7B45
  8
3
  6
CONTINUOUS
  2
*D8
 10
4241.4758914096974
 20
3685.5387082384741
 30
0.0
 11
4241.4758914096956
 21
4453.4089402384743
 31
0.0
 70
   128
 13
3298.600190409697
 23
5125.538708238475
 33
0.0
 14
3637.600190409697
 24
3685.5387082384741
 34
0.0
 50
90.0
1001
ACAD
1000
DSTYLE
1002
{
1070
   287
1070
     3
1070
   287
1070
     3
1070
    40
1040
40.0
1070
   143
1040
0.039
1070
   172
1070
     1
1070
   271
1070
     0
1070
   279
1070
     0
1070
   288
1070
     1
1002
}
  0
DIMENSION
  5
7B52
  8
3
  6
CONTINUOUS
  2
*D9
 10
3637.600190409697
 20
6786.6749747910426
 30
0.0
 11
2633.4927884096969
 21
6786.6749747910426
 31
0.0
 70
   128
 13
1737.600190409697
 23
7306.4358397910437
 33
0.0
 14
3637.600190409697
 24
7306.4358397910437
 34
0.0
1001
ACAD
1000
DSTYLE
1002
{
1070
   287
1070
     3
1070
   287
1070
     3
1070
    40
1040
40.0
1070
   143
1040
0.039
1070
   172
1070
     1
1070
   271
1070
     0
1070
   279
1070
     0
1070
   288
1070
     1
1002
}
  0
DIMENSION
  5
7B5F
  8
3
  6
CONTINUOUS
  2
*D10
 10
4032.2177914096978
 20
7306.4358397910437
 30
0.0
 11
4032.2177914096969
 21
7760.8718077910444
 31
0.0
 70
   128
 13
3637.600190409697
 23
8256.4358397910437
 33
0.0
 14
3637.600190409697
 24
7306.4358397910437
 34
0.0
 50
90.0
1001
ACAD
1000
DSTYLE
1002
{
1070
   287
1070
     3
1070
   287
1070
     3
1070
    40
1040
40.0
1070
   143
1040
0.039
1070
   172
1070
     1
1070
   271
1070
     0
1070
   279
1070
     0
1070
   288
1070
     1
1002
}
  0
LINE
  5
7B60
  8
2
  6
CENTER
 10
1555.477935409697
 20
7853.4358397910428
 30
0.0
 11
3431.9775454096962
 21
7853.4358397910428
 31
0.0
  0
LINE
  5
7B61
  8
2
  6
CENTER
 10
2297.600190409697
 20
7132.6809497910426
 30
0.0
 11
2297.600190409697
 21
8356.5552887910435
 31
0.0
  0
LINE
  5
7B62
  8
2
  6
CENTER
 10
5916.9846913900446
 20
5350.6973882384746
 30
0.0
 11
5916.9846913900446
 21
3606.2929342384732
 31
0.0
  0
DIMENSION
  5
7B6F
  8
3
  6
CONTINUOUS
  2
*D11
 10
6251.9846913900446
 20
5339.0591172384729
 30
0.0
 11
5856.2704056757602
 21
5339.0591172384729
 31
0.0
 70
   128
 13
5581.9846913900446
 23
5125.538708238475
 33
0.0
 14
6251.9846913900446
 24
5125.538708238475
 34
0.0
1001
ACAD
1000
DSTYLE
1002
{
1070
   287
1070
     3
1070
   287
1070
     3
1070
    40
1040
40.0
1070
   143
1040
0.039
1070
   172
1070
     1
1070
   271
1070
     0
1070
   279
1070
     0
1070
   288
1070
     1
1002
}
  0
DIMENSION
  5
7B7C
  8
3
  6
CONTINUOUS
  2
*D12
 10
5916.9846913900446
 20
5613.092234468575
 30
0.0
 11
5548.4132628186171
 21
5613.092234468575
 31
0.0
 70
   128
  1
MAX\P720
 13
5256.9846913900446
 23
4707.9387082384746
 33
0.0
 14
5916.9846913900446
 24
5502.744997238472
 34
0.0
1001
ACAD
1000
DSTYLE
1002
{
1070
   287
1070
     3
1070
   287
1070
     3
1070
    40
1040
40.0
1070
   143
1040
0.039
1070
   172
1070
     1
1070
   271
1070
     0
1070
   279
1070
     0
1070
   288
1070
     1
1002
}
  0
DIMENSION
  5
7B8A
  8
3
  6
CONTINUOUS
  2
*D13
 10
6334.9846913900456
 20
5613.6394964685742
 30
0.0
 11
6117.8751788907248
 21
5727.2419170352223
 31
0.0
 70
   128
 13
5916.9846913900446
 23
5502.744997238472
 33
0.0
 14
6334.9846913900456
 24
4995.538708238475
 34
0.0
1001
ACAD
1000
DSTYLE
1002
{
1070
   288
1070
     1
1070
   172
1070
     1
1070
    40
1040
40.0
1070
   271
1070
     0
1070
   143
1040
0.039
1002
}
  0
DIMENSION
  5
7BAD
  8
3
  6
CONTINUOUS
  2
*D14
 10
6687.9454683900449
 20
4055.5387082384741
 30
0.0
 11
6687.945468390044
 21
4497.977086238473
 31
0.0
 70
   128
 13
6334.9846913900456
 23
4955.538708238475
 33
0.0
 14
6334.9846913900456
 24
4055.5387082384741
 34
0.0
 50
90.0
1001
ACAD
1000
DSTYLE
1002
{
1070
   287
1070
     3
1070
   287
1070
     3
1070
     3
1000
φ<>
1070
    40
1040
40.0
1070
   143
1040
0.039
1070
   172
1070
     1
1070
   271
1070
     0
1070
   279
1070
     0
1070
   288
1070
     1
1002
}
  0
DIMENSION
  5
7BBC
  8
3
  6
CONTINUOUS
  2
*D15
 10
5916.9846913900446
 20
3412.668800238474
 30
0.0
 11
5675.2263678456593
 21
3515.5476349465748
 31
0.0
 70
   128
 13
5369.9846913900456
 23
3685.5387082384741
 33
0.0
 14
5916.9846913900446
 24
3606.2929342384732
 34
0.0
1001
ACAD
1000
DSTYLE
1002
{
1070
   288
1070
     1
1070
   172
1070
     1
1070
    40
1040
40.0
1070
   271
1070
     0
1070
   143
1040
0.039
1002
}
  0
DIMENSION
  5
7BCA
  8
3
  6
CONTINUOUS
  2
*D16
 10
6319.9846913900456
 20
3412.121538238473
 30
0.0
 11
6139.4677871495451
 21
3526.3350324032799
 31
0.0
 70
   128
 13
5916.9846913900446
 23
3606.2929342384732
 33
0.0
 14
6319.9846913900456
 24
3685.5387082384741
 34
0.0
1001
ACAD
1000
DSTYLE
1002
{
1070
   288
1070
     1
1070
   172
1070
     1
1070
    40
1040
40.0
1070
   271
1070
     0
1070
   143
1040
0.039
1002
}
  0
LINE
  5
7BE1
  8
2
  6
CENTER
 10
5067.2991503900448
 20
4505.5387082384741
 30
0.0
 11
6435.6609753900439
 21
4505.5387082384741
 31
0.0
  0
LINE
  5
7BE2
  8
4
  6
CONTINUOUS
 10
7400.0
 20
2000.0
 30
0.0
 11
7400.0
 21
1200.0
 31
0.0
  0
LINE
  5
7BE3
  8
4
  6
CONTINUOUS
 10
4600.0
 20
2000.0
 30
0.0
 11
4600.0
 21
1200.0
 31
0.0
  0
LINE
  5
7BE4
  8
4
  6
CONTINUOUS
 10
2600.0
 20
2000.0
 30
0.0
 11
2600.0
 21
1200.0
 31
0.0
  0
LINE
  5
7BE7
  8
4
  6
CONTINUOUS
 10
2600.0
 20
1200.0
 30
0.0
 11
7400.0
 21
1200.0
 31
0.0
  0
LINE
  5
7BE8
  8
4
  6
CONTINUOUS
 10
2600.0
 20
1600.0
 30
0.0
 11
7400.0
 21
1600.0
 31
0.0
  0
TEXT
  5
7BE9
  8
4
  6
CONTINUOUS
 10
2754.0083232000002
 20
1726.1721031999989
 30
0.0
 40
200.0
  1
機器名称
  0
TEXT
  5
7BEA
  8
4
  6
CONTINUOUS
 10
2745.032424
 20
1286.5806264
 30
0.0
 40
200.0
  1
機器型番
  0
TEXT
  5
7BEB
  8
4
  6
CONTINUOUS
 10
4710.7149823999989
 20
1690.2870751999999
 30
0.0
 40
168.88888879999999
  1
ミツヤリミットロードファン
  0
TEXT
  5
7BEC
  8
4
  6
CONTINUOUS
 10
4746.6179824000001
 20
1268.6383367999999
 30
0.0
 40
200.0
  1
LLE#5 1/2-4
  0
TEXT
  5
7BEE
  8
4
  6
CONTINUOUS
 10
3619.1430624
 20
9533.7153655999991
 30
0.0
 40
216.0
  1
床置ベット
  0
TEXT
  5
7BEF
  8
4
  6
CONTINUOUS
 10
1264.6703735999999
 20
10135.5239048
 30
0.0
 40
240.0
  1
ベルト駆動式片吸込両持排煙ファン
  0
LINE
  5
7BF0
  8
4
  6
CONTINUOUS
 10
1000.0
 20
9877.635016799999
 30
0.0
 11
7400.0
 21
9877.635016799999
 31
0.0
  0
LINE
  5
7BF1
  8
4
  6
CONTINUOUS
 10
1000.0
 20
10677.635016800001
 30
0.0
 11
7400.0
 21
10677.635016800001
 31
0.0
  0
LINE
  5
7BF2
  8
4
  6
CONTINUOUS
 10
2600.0
 20
2000.0
 30
0.0
 11
7400.0
 21
2000.0
 31
0.0
  0
LINE
  5
7BF3
  8
4
  6
CONTINUOUS
 10
1000.0
 20
10677.635016800001
 30
0.0
 11
1000.0
 21
9877.635016799999
 31
0.0
  0
TEXT
  5
7BF4
  8
4
  6
CONTINUOUS
 10
1875.7077336
 20
9529.2779104000001
 30
0.0
 40
216.0
  1
左回転上向
  0
TEXT
  5
7BF5
  8
4
  6
CONTINUOUS
 10
5875.8782375999999
 20
10824.244326399999
 30
0.0
 40
224.0
  1
No.
  0
TEXT
  5
7BF6
  8
4
  6
CONTINUOUS
 10
5245.1842504000006
 20
9533.7153655999991
 30
0.0
 40
216.0
  1
縮尺：1/40
  0
LINE
  5
7BF7
  8
4
  6
CONTINUOUS
 10
7400.0
 20
10677.635016800001
 30
0.0
 11
7400.0
 21
9877.635016799999
 31
0.0
  0
LINE
  5
7BF9
  8
4
  6
CONTINUOUS
 10
5762.4696895999996
 20
10725.0543328
 30
0.0
 11
5762.4696895999996
 21
11146.609046400001
 31
0.0
  0
LINE
  5
7BFA
  8
4
  6
CONTINUOUS
 10
5762.4696895999996
 20
11146.609046400001
 30
0.0
 11
7400.0
 21
11146.609046400001
 31
0.0
  0
LINE
  5
7BFB
  8
4
  6
CONTINUOUS
 10
7400.0
 20
11146.609046400001
 30
0.0
 11
7400.0
 21
10725.0543328
 31
0.0
  0
LINE
  5
7BFC
  8
4
  6
CONTINUOUS
 10
7400.0
 20
10725.0543328
 30
0.0
 11
5762.4696895999996
 21
10725.0543328
 31
0.0
  0
DIMENSION
  5
7D83
  8
3
  2
*D17
 10
3637.600190409697
 20
5888.7763597090052
 30
0.0
 11
2900.5739721383138
 21
5888.7763597090052
 31
0.0
 70
   128
 13
1654.600190409697
 23
4525.538708238475
 33
0.0
 14
3637.600190409697
 24
3810.5387082384741
 34
0.0
1001
ACAD
1000
DSTYLE
1002
{
1070
   287
1070
     3
1070
   287
1070
     3
1070
    40
1040
40.0
1070
   143
1040
0.039
1070
   172
1070
     1
1070
   271
1070
     0
1070
   279
1070
     0
1070
   288
1070
     1
1002
}
  0
ENDSEC
  0
EOF
