  0
SECTION
  2
HEADER
  9
$ACADVER
  1
AC1009
  9
$INSBASE
 10
0.0
 20
0.0
 30
0.0
  9
$EXTMIN
 10
1000.0
 20
1200.0
 30
0.0
  9
$EXTMAX
 10
7400.0
 20
11146.609046400001
 30
0.0
  9
$LIMMIN
 10
0.0
 20
0.0
  9
$LIMMAX
 10
297.0
 20
210.0
  9
$ORTHOMODE
 70
     0
  9
$REGENMODE
 70
     1
  9
$FILLMODE
 70
     0
  9
$QTEXTMODE
 70
     0
  9
$MIRRTEXT
 70
     1
  9
$DRAGMODE
 70
     2
  9
$LTSCALE
 40
100.0
  9
$OSMODE
 70
    37
  9
$ATTMODE
 70
     1
  9
$TEXTSIZE
 40
180.0
  9
$TRACEWID
 40
0.05
  9
$TEXTSTYLE
  7
STANDARD
  9
$CLAYER
  8
3
  9
$CELTYPE
  6
BYLAYER
  9
$CECOLOR
 62
   256
  9
$DIMSCALE
 40
40.0
  9
$DIMASZ
 40
2.0
  9
$DIMEXO
 40
0.5
  9
$DIMDLI
 40
10.0
  9
$DIMRND
 40
0.0
  9
$DIMDLE
 40
0.0
  9
$DIMEXE
 40
1.0
  9
$DIMTP
 40
1.0
  9
$DIMTM
 40
1.0
  9
$DIMTXT
 40
3.0
  9
$DIMCEN
 40
0.0
  9
$DIMTSZ
 40
0.0
  9
$DIMTOL
 70
     0
  9
$DIMLIM
 70
     0
  9
$DIMTIH
 70
     0
  9
$DIMTOH
 70
     0
  9
$DIMSE1
 70
     0
  9
$DIMSE2
 70
     0
  9
$DIMTAD
 70
     1
  9
$DIMZIN
 70
     8
  9
$DIMBLK
  1

  9
$DIMASO
 70
     1
  9
$DIMSHO
 70
     1
  9
$DIMPOST
  1

  9
$DIMAPOST
  1

  9
$DIMALT
 70
     0
  9
$DIMALTD
 70
     2
  9
$DIMALTF
 40
0.039
  9
$DIMLFAC
 40
1.0
  9
$DIMTOFL
 70
     1
  9
$DIMTVP
 40
0.0
  9
$DIMTIX
 70
     0
  9
$DIMSOXD
 70
     0
  9
$DIMSAH
 70
     1
  9
$DIMBLK1
  1
OPEN
  9
$DIMBLK2
  1
OPEN
  9
$DIMSTYLE
  2
IGA
  9
$DIMCLRD
 70
     0
  9
$DIMCLRE
 70
     0
  9
$DIMCLRT
 70
     0
  9
$DIMTFAC
 40
10.0
  9
$DIMGAP
 40
1.0
  9
$LUNITS
 70
     2
  9
$LUPREC
 70
     3
  9
$SKETCHINC
 40
0.1
  9
$FILLETRAD
 40
50.0
  9
$AUNITS
 70
     0
  9
$AUPREC
 70
     0
  9
$MENU
  1
acad
  9
$ELEVATION
 40
0.0
  9
$PELEVATION
 40
0.0
  9
$THICKNESS
 40
0.0
  9
$LIMCHECK
 70
     0
  9
$BLIPMODE
 70
     0
  9
$CHAMFERA
 40
0.5
  9
$CHAMFERB
 40
0.5
  9
$SKPOLY
 70
     0
  9
$TDCREATE
 40
2450751.6420223368
  9
$TDUPDATE
 40
2454953.6855638651
  9
$TDINDWG
 40
0.0054499653
  9
$TDUSRTIMER
 40
0.0054499653
  9
$USRTIMER
 70
     1
  9
$ANGBASE
 50
0.0
  9
$ANGDIR
 70
     0
  9
$PDMODE
 70
     0
  9
$PDSIZE
 40
0.0
  9
$PLINEWID
 40
0.0
  9
$COORDS
 70
     1
  9
$SPLFRAME
 70
     0
  9
$SPLINETYPE
 70
     6
  9
$SPLINESEGS
 70
     8
  9
$ATTDIA
 70
     0
  9
$ATTREQ
 70
     1
  9
$HANDLING
 70
 10241
  9
$HANDSEED
  5
7F00
  9
$SURFTAB1
 70
     6
  9
$SURFTAB2
 70
     6
  9
$SURFTYPE
 70
     6
  9
$SURFU
 70
     6
  9
$SURFV
 70
     6
  9
$UCSNAME
  2

  9
$UCSORG
 10
0.0
 20
0.0
 30
0.0
  9
$UCSXDIR
 10
1.0
 20
0.0
 30
0.0
  9
$UCSYDIR
 10
0.0
 20
1.0
 30
0.0
  9
$PUCSNAME
  2

  9
$PUCSORG
 10
0.0
 20
0.0
 30
0.0
  9
$PUCSXDIR
 10
1.0
 20
0.0
 30
0.0
  9
$PUCSYDIR
 10
0.0
 20
1.0
 30
0.0
  9
$USERI1
 70
     0
  9
$USERI2
 70
     0
  9
$USERI3
 70
     0
  9
$USERI4
 70
     0
  9
$USERI5
 70
     0
  9
$USERR1
 40
0.0
  9
$USERR2
 40
0.0
  9
$USERR3
 40
0.0
  9
$USERR4
 40
0.0
  9
$USERR5
 40
0.0
  9
$WORLDVIEW
 70
     1
  9
$SHADEDGE
 70
     3
  9
$SHADEDIF
 70
    70
  9
$TILEMODE
 70
     1
  9
$MAXACTVP
 70
    16
  9
$PLIMCHECK
 70
     0
  9
$PEXTMIN
 10
1.0000000000000000E+020
 20
1.0000000000000000E+020
 30
1.0000000000000000E+020
  9
$PEXTMAX
 10
-1.0000000000000000E+020
 20
-1.0000000000000000E+020
 30
-1.0000000000000000E+020
  9
$PLIMMIN
 10
0.0
 20
0.0
  9
$PLIMMAX
 10
12.0
 20
9.0
  9
$UNITMODE
 70
     0
  9
$VISRETAIN
 70
     0
  9
$PLINEGEN
 70
     0
  9
$PSLTSCALE
 70
     1
  0
ENDSEC
  0
SECTION
  2
TABLES
  0
TABLE
  2
VPORT
 70
     2
  0
VPORT
  2
*ACTIVE
 70
     0
 10
0.0
 20
0.0
 11
1.0
 21
1.0
 12
18356.374657944631
 22
5135.4172737030967
 13
0.0
 23
0.0
 14
10.0
 24
10.0
 15
10.0
 25
10.0
 16
0.0
 26
0.0
 36
1.0
 17
0.0
 27
0.0
 37
0.0
 40
13379.19423964927
 41
3.1666666666666661
 42
50.0
 43
0.0
 44
0.0
 50
0.0
 51
0.0
 71
     0
 72
   100
 73
     1
 74
     0
 75
     0
 76
     0
 77
     0
 78
     0
  0
ENDTAB
  0
TABLE
  2
LTYPE
 70
     2
  0
LTYPE
  2
CONTINUOUS
 70
     0
  3
Solid line
 72
    65
 73
     0
 40
0.0
  0
LTYPE
  2
CENTER
 70
     0
  3
____ _ ____ _ ____ _ ____ _ ____ _ ____ _ ____ 
 72
    65
 73
     4
 40
2.0
 49
1.25
 49
-0.25
 49
0.25
 49
-0.25
  0
ENDTAB
  0
TABLE
  2
LAYER
 70
     6
  0
LAYER
  2
0
 70
     0
 62
     7
  6
CONTINUOUS
  0
LAYER
  2
3
 70
     0
 62
     2
  6
CONTINUOUS
  0
LAYER
  2
2
 70
     0
 62
     3
  6
CENTER
  0
LAYER
  2
1
 70
     0
 62
     4
  6
CONTINUOUS
  0
LAYER
  2
4
 70
     0
 62
     7
  6
CONTINUOUS
  0
LAYER
  2
DEFPOINTS
 70
     0
 62
     7
  6
CONTINUOUS
  0
ENDTAB
  0
TABLE
  2
STYLE
 70
     1
  0
STYLE
  2
STANDARD
 70
     0
 40
0.0
 41
1.0
 50
0.0
 71
     0
 42
180.0
  3
simplex.shx
  4
extfont.shx
  0
ENDTAB
  0
TABLE
  2
VIEW
 70
     0
  0
ENDTAB
  0
TABLE
  2
UCS
 70
     0
  0
ENDTAB
  0
TABLE
  2
APPID
 70
     1
  0
APPID
  2
ACAD
 70
     0
  0
ENDTAB
  0
TABLE
  2
DIMSTYLE
 70
     1
  0
DIMSTYLE
  2
IGA
 70
     0
  3

  4

  5

  6
OPEN
  7
OPEN
 40
2.0
 41
2.0
 42
0.5
 43
10.0
 44
1.0
 45
0.0
 46
0.0
 47
1.0
 48
1.0
140
3.0
141
0.0
142
0.0
143
0.03937
144
1.0
145
0.0
146
10.0
147
1.0
 71
     0
 72
     0
 73
     0
 74
     0
 75
     0
 76
     0
 77
     1
 78
     8
170
     0
171
     2
172
     0
173
     1
174
     0
175
     0
176
     0
177
     0
178
     0
  0
ENDTAB
  0
ENDSEC
  0
SECTION
  2
BLOCKS
  0
BLOCK
  8
0
  2
$MODEL_SPACE
 70
     0
 10
0.0
 20
0.0
 30
0.0
  3
$MODEL_SPACE
  1

  0
ENDBLK
  5
1B
  8
0
  0
BLOCK
 67
     1
  8
0
  2
$PAPER_SPACE
 70
     0
 10
0.0
 20
0.0
 30
0.0
  3
$PAPER_SPACE
  1

  0
ENDBLK
  5
18
 67
     1
  8
0
  0
BLOCK
  8
0
  2
_OPEN
 70
     0
 10
0.0
 20
0.0
 30
0.0
  3
_OPEN
  1

  0
LINE
  5
7ADA
  8
0
  6
BYBLOCK
 62
     0
 10
-1.0
 20
0.166667
 30
0.0
 11
0.0
 21
0.0
 31
0.0
  0
LINE
  5
7ADB
  8
0
  6
BYBLOCK
 62
     0
 10
0.0
 20
0.0
 30
0.0
 11
-1.0
 21
-0.166667
 31
0.0
  0
LINE
  5
7ADC
  8
0
  6
BYBLOCK
 62
     0
 10
0.0
 20
0.0
 30
0.0
 11
-1.0
 21
0.0
 31
0.0
  0
ENDBLK
  5
7ADD
  8
0
  0
BLOCK
  8
0
  2
*D1
 70
     1
 10
0.0
 20
0.0
 30
0.0
  3
*D1
  1

  0
LINE
  5
7E73
  8
3
  6
CONTINUOUS
 62
     0
 10
2356.8869439837949
 20
4287.4219929999999
 30
0.0
 11
2356.8869439837949
 21
3990.658183
 31
0.0
  0
LINE
  5
7E74
  8
3
  6
CONTINUOUS
 62
     0
 10
2916.8869439837949
 20
4130.4957169999998
 30
0.0
 11
2916.8869439837949
 21
3990.658183
 31
0.0
  0
LINE
  5
7E75
  8
3
  6
CONTINUOUS
 62
     0
 10
2436.8869439837949
 20
4030.6581829999991
 30
0.0
 11
2836.8869439837949
 21
4030.6581829999991
 31
0.0
  0
INSERT
  5
7E76
  8
3
  6
CONTINUOUS
 62
     0
  2
_OPEN
 10
2356.8869439837949
 20
4030.6581829999991
 30
0.0
 41
80.0
 42
80.0
 43
80.0
 50
180.0
  0
INSERT
  5
7E77
  8
3
  6
CONTINUOUS
 62
     0
  2
_OPEN
 10
2916.8869439837949
 20
4030.6581829999991
 30
0.0
 41
80.0
 42
80.0
 43
80.0
  0
TEXT
  8
3
  40
120
  5
7EF1
  62
0
  72
0
  71
0
 10
2391.17
 20
3918.26
 30
0.000000
  1
560
  0
POINT
  5
7E79
  8
DEFPOINTS
  6
CONTINUOUS
 62
     0
 10
2356.8869439837949
 20
4307.4219929999999
 30
0.0
  0
POINT
  5
7E7A
  8
DEFPOINTS
  6
CONTINUOUS
 62
     0
 10
2916.8869439837949
 20
4150.4957169999998
 30
0.0
  0
POINT
  5
7E7B
  8
DEFPOINTS
  6
CONTINUOUS
 62
     0
 10
2916.8869439837949
 20
4030.6581829999991
 30
0.0
  0
ENDBLK
  5
7CEF
  8
0
  0
BLOCK
  8
0
  2
*D2
 70
     1
 10
0.0
 20
0.0
 30
0.0
  3
*D2
  1

  0
LINE
  5
7E7C
  8
3
  6
CONTINUOUS
 62
     0
 10
2916.8869439837949
 20
4130.4957169999998
 30
0.0
 11
2916.8869439837949
 21
3990.658183
 31
0.0
  0
LINE
  5
7E7D
  8
3
  6
CONTINUOUS
 62
     0
 10
4256.8869439837954
 20
4287.4219929999999
 30
0.0
 11
4256.8869439837954
 21
3990.658183
 31
0.0
  0
LINE
  5
7E7E
  8
3
  6
CONTINUOUS
 62
     0
 10
2996.8869439837949
 20
4030.6581829999991
 30
0.0
 11
4176.8869439837954
 21
4030.6581829999991
 31
0.0
  0
INSERT
  5
7E7F
  8
3
  6
CONTINUOUS
 62
     0
  2
_OPEN
 10
2916.8869439837949
 20
4030.6581829999991
 30
0.0
 41
80.0
 42
80.0
 43
80.0
 50
180.0
  0
INSERT
  5
7E80
  8
3
  6
CONTINUOUS
 62
     0
  2
_OPEN
 10
4256.8869439837954
 20
4030.6581829999991
 30
0.0
 41
80.0
 42
80.0
 43
80.0
  0
TEXT
  8
3
  40
120
  5
7EF2
  62
0
  72
0
  71
0
 10
3346.89
 20
3918.26
 30
0.000000
  1
1340
  0
POINT
  5
7E82
  8
DEFPOINTS
  6
CONTINUOUS
 62
     0
 10
2916.8869439837949
 20
4150.4957169999998
 30
0.0
  0
POINT
  5
7E83
  8
DEFPOINTS
  6
CONTINUOUS
 62
     0
 10
4256.8869439837954
 20
4307.4219929999999
 30
0.0
  0
POINT
  5
7E84
  8
DEFPOINTS
  6
CONTINUOUS
 62
     0
 10
4256.8869439837954
 20
4030.6581829999991
 30
0.0
  0
ENDBLK
  5
7CE4
  8
0
  0
BLOCK
  8
0
  2
*D3
 70
     1
 10
0.0
 20
0.0
 30
0.0
  3
*D3
  1

  0
LINE
  5
7E85
  8
3
  6
CONTINUOUS
 62
     0
 10
2276.8869439837949
 20
5948.4219929999999
 30
0.0
 11
1987.644676983798
 21
5948.4219930000008
 31
0.0
  0
LINE
  5
7E86
  8
3
  6
CONTINUOUS
 62
     0
 10
2276.8869439837949
 20
5023.4219929999999
 30
0.0
 11
1987.6446769837969
 21
5023.4219930000008
 31
0.0
  0
LINE
  5
7E87
  8
3
  6
CONTINUOUS
 62
     0
 10
2027.6446769837969
 20
5868.4219930000008
 30
0.0
 11
2027.6446769837969
 21
5103.4219930000008
 31
0.0
  0
INSERT
  5
7E88
  8
3
  6
CONTINUOUS
 62
     0
  2
_OPEN
 10
2027.6446769837969
 20
5948.4219930000008
 30
0.0
 41
80.0
 42
80.0
 43
80.0
 50
90.0
  0
INSERT
  5
7E89
  8
3
  6
CONTINUOUS
 62
     0
  2
_OPEN
 10
2027.6446769837969
 20
5023.4219930000008
 30
0.0
 41
80.0
 42
80.0
 43
80.0
 50
270.0
  0
TEXT
  8
3
  40
120
  5
7EF3
  62
0
  72
0
  71
0
 10
1687.64
 20
5344.89
 30
0.000000
  1
925
  0
POINT
  5
7E8B
  8
DEFPOINTS
  6
CONTINUOUS
 62
     0
 10
2296.8869439837949
 20
5948.4219929999999
 30
0.0
  0
POINT
  5
7E8C
  8
DEFPOINTS
  6
CONTINUOUS
 62
     0
 10
2296.8869439837949
 20
5023.4219929999999
 30
0.0
  0
POINT
  5
7E8D
  8
DEFPOINTS
  6
CONTINUOUS
 62
     0
 10
2027.6446769837969
 20
5023.4219930000008
 30
0.0
  0
ENDBLK
  5
7CD9
  8
0
  0
BLOCK
  8
0
  2
*D4
 70
     1
 10
0.0
 20
0.0
 30
0.0
  3
*D4
  1

  0
LINE
  5
7E8E
  8
3
  6
CONTINUOUS
 62
     0
 10
2276.8869439837949
 20
5948.4219929999999
 30
0.0
 11
1739.752964983797
 21
5948.4219930000008
 31
0.0
  0
LINE
  5
7E8F
  8
3
  6
CONTINUOUS
 62
     0
 10
2363.8621799837938
 20
4987.4219929999999
 30
0.0
 11
1739.752964983797
 21
4987.4219930000008
 31
0.0
  0
LINE
  5
7E90
  8
3
  6
CONTINUOUS
 62
     0
 10
1779.752964983797
 20
5868.4219930000008
 30
0.0
 11
1779.752964983797
 21
5067.4219929999999
 31
0.0
  0
INSERT
  5
7E91
  8
3
  6
CONTINUOUS
 62
     0
  2
_OPEN
 10
1779.752964983797
 20
5948.4219930000008
 30
0.0
 41
80.0
 42
80.0
 43
80.0
 50
90.0
  0
INSERT
  5
7E92
  8
3
  6
CONTINUOUS
 62
     0
  2
_OPEN
 10
1779.752964983797
 20
4987.4219930000008
 30
0.0
 41
80.0
 42
80.0
 43
80.0
 50
270.0
  0
TEXT
  8
3
  40
120
  5
7EF4
  62
0
  72
0
  71
0
 10
1439.75
 20
5281.54
 30
0.000000
  1
961
  0
POINT
  5
7E94
  8
DEFPOINTS
  6
CONTINUOUS
 62
     0
 10
2296.8869439837949
 20
5948.4219929999999
 30
0.0
  0
POINT
  5
7E95
  8
DEFPOINTS
  6
CONTINUOUS
 62
     0
 10
2383.8621799837952
 20
4987.4219929999999
 30
0.0
  0
POINT
  5
7E96
  8
DEFPOINTS
  6
CONTINUOUS
 62
     0
 10
1779.752964983797
 20
4987.4219930000008
 30
0.0
  0
ENDBLK
  5
7CCE
  8
0
  0
BLOCK
  8
0
  2
*D5
 70
     1
 10
0.0
 20
0.0
 30
0.0
  3
*D5
  1

  0
LINE
  5
7E97
  8
3
  6
CONTINUOUS
 62
     0
 10
2363.8621799837938
 20
4987.4219929999999
 30
0.0
 11
1739.7529649837959
 21
4987.4219930000008
 31
0.0
  0
LINE
  5
7E98
  8
3
  6
CONTINUOUS
 62
     0
 10
2336.8869439837949
 20
4307.4219929999999
 30
0.0
 11
1739.7529649837959
 21
4307.4219930000008
 31
0.0
  0
LINE
  5
7E99
  8
3
  6
CONTINUOUS
 62
     0
 10
1779.7529649837959
 20
4907.4219930000008
 30
0.0
 11
1779.7529649837959
 21
4387.4219930000008
 31
0.0
  0
INSERT
  5
7E9A
  8
3
  6
CONTINUOUS
 62
     0
  2
_OPEN
 10
1779.7529649837959
 20
4987.4219930000008
 30
0.0
 41
80.0
 42
80.0
 43
80.0
 50
90.0
  0
INSERT
  5
7E9B
  8
3
  6
CONTINUOUS
 62
     0
  2
_OPEN
 10
1779.7529649837959
 20
4307.4219930000008
 30
0.0
 41
80.0
 42
80.0
 43
80.0
 50
270.0
  0
TEXT
  8
3
  40
120
  5
7EF5
  62
0
  72
0
  71
0
 10
1439.75
 20
4435.02
 30
0.000000
  1
680
  0
POINT
  5
7E9D
  8
DEFPOINTS
  6
CONTINUOUS
 62
     0
 10
2383.8621799837952
 20
4987.4219929999999
 30
0.0
  0
POINT
  5
7E9E
  8
DEFPOINTS
  6
CONTINUOUS
 62
     0
 10
2356.8869439837949
 20
4307.4219929999999
 30
0.0
  0
POINT
  5
7E9F
  8
DEFPOINTS
  6
CONTINUOUS
 62
     0
 10
1779.7529649837959
 20
4307.4219930000008
 30
0.0
  0
ENDBLK
  5
7CC3
  8
0
  0
BLOCK
  8
0
  2
*D6
 70
     1
 10
0.0
 20
0.0
 30
0.0
  3
*D6
  1

  0
LINE
  5
7EA0
  8
3
  6
CONTINUOUS
 62
     0
 10
2296.8869439837949
 20
6008.4219929999999
 30
0.0
 11
2296.8869439837949
 21
6151.2666939999999
 31
0.0
  0
LINE
  5
7EA1
  8
3
  6
CONTINUOUS
 62
     0
 10
2916.8869439837949
 20
5915.7584299999999
 30
0.0
 11
2916.8869439837949
 21
6151.2666939999999
 31
0.0
  0
LINE
  5
7EA2
  8
3
  6
CONTINUOUS
 62
     0
 10
2376.8869439837949
 20
6111.2666939999999
 30
0.0
 11
2836.8869439837949
 21
6111.2666939999999
 31
0.0
  0
INSERT
  5
7EA3
  8
3
  6
CONTINUOUS
 62
     0
  2
_OPEN
 10
2296.8869439837949
 20
6111.2666939999999
 30
0.0
 41
80.0
 42
80.0
 43
80.0
 50
180.0
  0
INSERT
  5
7EA4
  8
3
  6
CONTINUOUS
 62
     0
  2
_OPEN
 10
2916.8869439837949
 20
6111.2666939999999
 30
0.0
 41
80.0
 42
80.0
 43
80.0
  0
TEXT
  8
3
  40
120
  5
7EF6
  62
0
  72
0
  71
0
 10
2402.60
 20
5998.87
 30
0.000000
  1
620
  0
POINT
  5
7EA6
  8
DEFPOINTS
  6
CONTINUOUS
 62
     0
 10
2296.8869439837949
 20
5988.4219929999999
 30
0.0
  0
POINT
  5
7EA7
  8
DEFPOINTS
  6
CONTINUOUS
 62
     0
 10
2916.8869439837949
 20
5895.7584299999999
 30
0.0
  0
POINT
  5
7EA8
  8
DEFPOINTS
  6
CONTINUOUS
 62
     0
 10
2916.8869439837949
 20
6111.2666939999999
 30
0.0
  0
ENDBLK
  5
7CB8
  8
0
  0
BLOCK
  8
0
  2
*D7
 70
     1
 10
0.0
 20
0.0
 30
0.0
  3
*D7
  1

  0
LINE
  5
7EA9
  8
3
  6
CONTINUOUS
 62
     0
 10
2916.8869439837949
 20
5915.7584299999999
 30
0.0
 11
2916.8869439837949
 21
6151.2666939999999
 31
0.0
  0
LINE
  5
7EAA
  8
3
  6
CONTINUOUS
 62
     0
 10
3693.8869439837949
 20
5007.4219929999999
 30
0.0
 11
3693.8869439837949
 21
6151.2666939999999
 31
0.0
  0
LINE
  5
7EAB
  8
3
  6
CONTINUOUS
 62
     0
 10
2996.8869439837949
 20
6111.2666939999999
 30
0.0
 11
3613.8869439837949
 21
6111.2666939999999
 31
0.0
  0
INSERT
  5
7EAC
  8
3
  6
CONTINUOUS
 62
     0
  2
_OPEN
 10
2916.8869439837949
 20
6111.2666939999999
 30
0.0
 41
80.0
 42
80.0
 43
80.0
 50
180.0
  0
INSERT
  5
7EAD
  8
3
  6
CONTINUOUS
 62
     0
  2
_OPEN
 10
3693.8869439837949
 20
6111.2666939999999
 30
0.0
 41
80.0
 42
80.0
 43
80.0
  0
TEXT
  8
3
  40
120
  5
7EF7
  62
0
  72
0
  71
0
 10
3065.39
 20
5998.87
 30
0.000000
  1
777
  0
POINT
  5
7EAF
  8
DEFPOINTS
  6
CONTINUOUS
 62
     0
 10
2916.8869439837949
 20
5895.7584299999999
 30
0.0
  0
POINT
  5
7EB0
  8
DEFPOINTS
  6
CONTINUOUS
 62
     0
 10
3693.8869439837949
 20
4987.4219929999999
 30
0.0
  0
POINT
  5
7EB1
  8
DEFPOINTS
  6
CONTINUOUS
 62
     0
 10
3693.8869439837949
 20
6111.2666939999999
 30
0.0
  0
ENDBLK
  5
7D8A
  8
0
  0
BLOCK
  8
0
  2
*D8
 70
     1
 10
0.0
 20
0.0
 30
0.0
  3
*D8
  1

  0
LINE
  5
7EB2
  8
3
  6
CONTINUOUS
 62
     0
 10
2356.886943983794
 20
7427.167533119019
 30
0.0
 11
2356.886943983794
 21
6930.2547511190196
 31
0.0
  0
LINE
  5
7EB3
  8
3
  6
CONTINUOUS
 62
     0
 10
4256.8869439837936
 20
7427.167533119019
 30
0.0
 11
4256.8869439837936
 21
6930.2547511190196
 31
0.0
  0
LINE
  5
7EB4
  8
3
  6
CONTINUOUS
 62
     0
 10
2436.886943983794
 20
6970.2547511190196
 30
0.0
 11
4176.8869439837936
 21
6970.2547511190196
 31
0.0
  0
INSERT
  5
7EB5
  8
3
  6
CONTINUOUS
 62
     0
  2
_OPEN
 10
2356.886943983794
 20
6970.2547511190196
 30
0.0
 41
80.0
 42
80.0
 43
80.0
 50
180.0
  0
INSERT
  5
7EB6
  8
3
  6
CONTINUOUS
 62
     0
  2
_OPEN
 10
4256.8869439837936
 20
6970.2547511190196
 30
0.0
 41
80.0
 42
80.0
 43
80.0
  0
TEXT
  8
3
  40
120
  5
7EF8
  62
0
  72
0
  71
0
 10
3073.22
 20
6857.85
 30
0.000000
  1
1900
  0
POINT
  5
7EB8
  8
DEFPOINTS
  6
CONTINUOUS
 62
     0
 10
2356.886943983794
 20
7447.1675331190199
 30
0.0
  0
POINT
  5
7EB9
  8
DEFPOINTS
  6
CONTINUOUS
 62
     0
 10
4256.8869439837936
 20
7447.1675331190199
 30
0.0
  0
POINT
  5
7EBA
  8
DEFPOINTS
  6
CONTINUOUS
 62
     0
 10
4256.8869439837936
 20
6970.2547511190196
 30
0.0
  0
ENDBLK
  5
7CA2
  8
0
  0
BLOCK
  8
0
  2
*D9
 70
     1
 10
0.0
 20
0.0
 30
0.0
  3
*D9
  1

  0
LINE
  5
7EBB
  8
3
  6
CONTINUOUS
 62
     0
 10
4276.8869439837936
 20
8397.1675331190199
 30
0.0
 11
4656.6705219837968
 21
8397.1675331190199
 31
0.0
  0
LINE
  5
7EBC
  8
3
  6
CONTINUOUS
 62
     0
 10
4276.8869439837936
 20
7447.1675331190199
 30
0.0
 11
4656.6705219837968
 21
7447.1675331190199
 31
0.0
  0
LINE
  5
7EBD
  8
3
  6
CONTINUOUS
 62
     0
 10
4616.6705219837977
 20
8317.1675331190199
 30
0.0
 11
4616.6705219837977
 21
7527.167533119019
 31
0.0
  0
INSERT
  5
7EBE
  8
3
  6
CONTINUOUS
 62
     0
  2
_OPEN
 10
4616.6705219837977
 20
8397.1675331190199
 30
0.0
 41
80.0
 42
80.0
 43
80.0
 50
90.0
  0
INSERT
  5
7EBF
  8
3
  6
CONTINUOUS
 62
     0
  2
_OPEN
 10
4616.6705219837977
 20
7447.1675331190199
 30
0.0
 41
80.0
 42
80.0
 43
80.0
 50
270.0
  0
TEXT
  8
3
  40
120
  5
7EF9
  62
0
  72
0
  71
0
 10
4276.67
 20
7720.13
 30
0.000000
  1
950
  0
POINT
  5
7EC1
  8
DEFPOINTS
  6
CONTINUOUS
 62
     0
 10
4256.8869439837936
 20
8397.1675331190199
 30
0.0
  0
POINT
  5
7EC2
  8
DEFPOINTS
  6
CONTINUOUS
 62
     0
 10
4256.8869439837936
 20
7447.1675331190199
 30
0.0
  0
POINT
  5
7EC3
  8
DEFPOINTS
  6
CONTINUOUS
 62
     0
 10
4616.6705219837977
 20
7447.1675331190199
 30
0.0
  0
ENDBLK
  5
7C97
  8
0
  0
BLOCK
  8
0
  2
*D10
 70
     1
 10
0.0
 20
0.0
 30
0.0
  3
*D10
  1

  0
LINE
  5
7EC4
  8
3
  6
CONTINUOUS
 62
     0
 10
5760.5967161936333
 20
5968.421992999999
 30
0.0
 11
5760.5967161936333
 21
6167.9847900000004
 31
0.0
  0
LINE
  5
7EC5
  8
3
  6
CONTINUOUS
 62
     0
 10
6430.5967161936333
 20
5968.421992999999
 30
0.0
 11
6430.5967161936333
 21
6167.9847900000004
 31
0.0
  0
LINE
  5
7EC6
  8
3
  6
CONTINUOUS
 62
     0
 10
5840.5967161936333
 20
6127.9847899999986
 30
0.0
 11
6350.5967161936333
 21
6127.9847899999986
 31
0.0
  0
INSERT
  5
7EC7
  8
3
  6
CONTINUOUS
 62
     0
  2
_OPEN
 10
5760.5967161936333
 20
6127.9847899999986
 30
0.0
 41
80.0
 42
80.0
 43
80.0
 50
180.0
  0
INSERT
  5
7EC8
  8
3
  6
CONTINUOUS
 62
     0
  2
_OPEN
 10
6430.5967161936333
 20
6127.9847899999986
 30
0.0
 41
80.0
 42
80.0
 43
80.0
  0
TEXT
  8
3
  40
120
  5
7EFA
  62
0
  72
0
  71
0
 10
5794.88
 20
6015.58
 30
0.000000
  1
670
  0
POINT
  5
7ECA
  8
DEFPOINTS
  6
CONTINUOUS
 62
     0
 10
5760.5967161936333
 20
5948.4219929999999
 30
0.0
  0
POINT
  5
7ECB
  8
DEFPOINTS
  6
CONTINUOUS
 62
     0
 10
6430.5967161936333
 20
5948.4219929999999
 30
0.0
  0
POINT
  5
7ECC
  8
DEFPOINTS
  6
CONTINUOUS
 62
     0
 10
6430.5967161936333
 20
6127.9847899999986
 30
0.0
  0
ENDBLK
  5
7C8C
  8
0
  0
BLOCK
  8
0
  2
*D11
 70
     1
 10
0.0
 20
0.0
 30
0.0
  3
*D11
  1

  0
LINE
  5
7ECD
  8
3
  6
CONTINUOUS
 62
     0
 10
5435.5967161936333
 20
5209.8219929999996
 30
0.0
 11
5435.5967161936333
 21
6437.1009884404602
 31
0.0
  0
LINE
  5
7ECE
  8
3
  6
CONTINUOUS
 62
     0
 10
6095.5967161936333
 20
6318.9719472482684
 30
0.0
 11
6095.5967161936333
 21
6437.1009884404602
 31
0.0
  0
LINE
  5
7ECF
  8
3
  6
CONTINUOUS
 62
     0
 10
5515.5967161936333
 20
6397.1009884404602
 30
0.0
 11
6015.5967161936333
 21
6397.1009884404602
 31
0.0
  0
INSERT
  5
7ED0
  8
3
  6
CONTINUOUS
 62
     0
  2
_OPEN
 10
5435.5967161936333
 20
6397.1009884404602
 30
0.0
 41
80.0
 42
80.0
 43
80.0
 50
180.0
  0
INSERT
  5
7ED1
  8
3
  6
CONTINUOUS
 62
     0
  2
_OPEN
 10
6095.5967161936333
 20
6397.1009884404602
 30
0.0
 41
80.0
 42
80.0
 43
80.0
  0
TEXT
  8
3
  40
120
  5
7EFB
  62
0
  72
0
  71
0
 10
5564.17
 20
6384.70
 30
0.000000
  1
MAX
  0
TEXT
  8
3
  40
120
  5
7EFC
  62
0
  72
0
  71
0
 10
5564.17
 20
6228.70
 30
0.000000
  1
720
  0
POINT
  5
7ED3
  8
DEFPOINTS
  6
CONTINUOUS
 62
     0
 10
5435.5967161936333
 20
5189.8219929999987
 30
0.0
  0
POINT
  5
7ED4
  8
DEFPOINTS
  6
CONTINUOUS
 62
     0
 10
6095.5967161936333
 20
6298.9719472482693
 30
0.0
  0
POINT
  5
7ED5
  8
DEFPOINTS
  6
CONTINUOUS
 62
     0
 10
6095.5967161936333
 20
6397.1009884404602
 30
0.0
  0
ENDBLK
  5
7D73
  8
0
  0
BLOCK
  8
0
  2
*D12
 70
     1
 10
0.0
 20
0.0
 30
0.0
  3
*D12
  1

  0
LINE
  5
7D75
  8
0
  6
BYBLOCK
 62
     0
 10
6687.9033814728373
 20
6318.9719472482684
 30
0.0
 11
6687.9033814728373
 21
6437.6739034404609
 31
0.0
  0
LINE
  5
7D76
  8
0
  6
BYBLOCK
 62
     0
 10
7105.9033814728382
 20
5497.4219929999999
 30
0.0
 11
7105.9033814728382
 21
6437.6739034404609
 31
0.0
  0
LINE
  5
7D77
  8
0
  6
BYBLOCK
 62
     0
 10
6767.9033814728373
 20
6397.67390344046
 30
0.0
 11
7025.9033814728364
 21
6397.67390344046
 31
0.0
  0
TEXT
  5
7D78
  8
3
 62
     0
 10
6754.0462386156942
 20
6440.967403341554
 30
0.0
 40
120.0
  1
418
  0
INSERT
  5
7D79
  8
0
  6
BYBLOCK
 62
     0
  2
_OPEN
 10
6687.9033814728373
 20
6397.67390344046
 30
0.0
 41
80.0
 42
80.0
 43
80.0
 50
180.0
  0
INSERT
  5
7D7A
  8
0
  6
BYBLOCK
 62
     0
  2
_OPEN
 10
7105.9033814728382
 20
6397.67390344046
 30
0.0
 41
80.0
 42
80.0
 43
80.0
  0
POINT
  5
7D7B
  8
DEFPOINTS
  6
BYBLOCK
 62
     0
 10
6687.9033814728373
 20
6298.9719472482693
 30
0.0
  0
POINT
  5
7D7C
  8
DEFPOINTS
  6
BYBLOCK
 62
     0
 10
7105.9033814728382
 20
5477.4219929999999
 30
0.0
  0
POINT
  5
7D7D
  8
DEFPOINTS
  6
BYBLOCK
 62
     0
 10
7105.9033814728382
 20
6397.67390344046
 30
0.0
  0
ENDBLK
  5
7D7E
  8
0
  0
BLOCK
  8
0
  2
*D13
 70
     1
 10
0.0
 20
0.0
 30
0.0
  3
*D13
  1

  0
LINE
  5
7ED6
  8
3
  6
CONTINUOUS
 62
     0
 10
6533.5967161936342
 20
5437.4219929999999
 30
0.0
 11
6907.1215671936343
 21
5437.4219929999999
 31
0.0
  0
LINE
  5
7ED7
  8
3
  6
CONTINUOUS
 62
     0
 10
6533.5967161936342
 20
4537.4219929999999
 30
0.0
 11
6907.1215671936343
 21
4537.4219929999999
 31
0.0
  0
LINE
  5
7ED8
  8
3
  6
CONTINUOUS
 62
     0
 10
6867.1215671936343
 20
5357.421992999999
 30
0.0
 11
6867.1215671936343
 21
4617.421992999999
 31
0.0
  0
INSERT
  5
7ED9
  8
3
  6
CONTINUOUS
 62
     0
  2
_OPEN
 10
6867.1215671936343
 20
5437.4219929999999
 30
0.0
 41
80.0
 42
80.0
 43
80.0
 50
90.0
  0
INSERT
  5
7EDA
  8
3
  6
CONTINUOUS
 62
     0
  2
_OPEN
 10
6867.1215671936343
 20
4537.4219929999999
 30
0.0
 41
80.0
 42
80.0
 43
80.0
 50
270.0
  0
TEXT
  8
3
  40
120
  5
7EFD
  62
0
  72
0
  71
0
 10
6527.12
 20
4735.05
 30
0.000000
  1
φ900
  0
POINT
  5
7EDC
  8
DEFPOINTS
  6
CONTINUOUS
 62
     0
 10
6513.5967161936333
 20
5437.4219929999999
 30
0.0
  0
POINT
  5
7EDD
  8
DEFPOINTS
  6
CONTINUOUS
 62
     0
 10
6513.5967161936333
 20
4537.4219929999999
 30
0.0
  0
POINT
  5
7EDE
  8
DEFPOINTS
  6
CONTINUOUS
 62
     0
 10
6867.1215671936343
 20
4537.4219929999999
 30
0.0
  0
ENDBLK
  5
7D3C
  8
0
  0
BLOCK
  8
0
  2
*D14
 70
     1
 10
0.0
 20
0.0
 30
0.0
  3
*D14
  1

  0
LINE
  5
7D12
  8
0
  6
BYBLOCK
 62
     0
 10
6140.9033814728373
 20
4287.4219929999999
 30
0.0
 11
6140.9033814728373
 21
3961.8797420000001
 31
0.0
  0
LINE
  5
7D13
  8
0
  6
BYBLOCK
 62
     0
 10
6687.9033814728373
 20
4207.6146609999996
 30
0.0
 11
6687.9033814728373
 21
3961.8797420000001
 31
0.0
  0
LINE
  5
7D14
  8
0
  6
BYBLOCK
 62
     0
 10
6220.9033814728373
 20
4001.8797419999992
 30
0.0
 11
6607.9033814728373
 21
4001.8797419999992
 31
0.0
  0
TEXT
  5
7D15
  8
3
 62
     0
 10
6260.1176671871226
 20
4041.2673873939748
 30
0.0
 40
120.0
  1
547
  0
INSERT
  5
7D16
  8
0
  6
BYBLOCK
 62
     0
  2
_OPEN
 10
6140.9033814728373
 20
4001.8797419999992
 30
0.0
 41
80.0
 42
80.0
 43
80.0
 50
180.0
  0
INSERT
  5
7D17
  8
0
  6
BYBLOCK
 62
     0
  2
_OPEN
 10
6687.9033814728373
 20
4001.8797419999992
 30
0.0
 41
80.0
 42
80.0
 43
80.0
  0
POINT
  5
7D18
  8
DEFPOINTS
  6
BYBLOCK
 62
     0
 10
6140.9033814728373
 20
4307.4219929999999
 30
0.0
  0
POINT
  5
7D19
  8
DEFPOINTS
  6
BYBLOCK
 62
     0
 10
6687.9033814728373
 20
4227.6146609999987
 30
0.0
  0
POINT
  5
7D1A
  8
DEFPOINTS
  6
BYBLOCK
 62
     0
 10
6687.9033814728373
 20
4001.8797419999992
 30
0.0
  0
ENDBLK
  5
7D1B
  8
0
  0
BLOCK
  8
0
  2
*D15
 70
     1
 10
0.0
 20
0.0
 30
0.0
  3
*D15
  1

  0
LINE
  5
7D1D
  8
0
  6
BYBLOCK
 62
     0
 10
6687.9033814728373
 20
4207.6146609999996
 30
0.0
 11
6687.9033814728373
 21
3961.8797420000001
 31
0.0
  0
LINE
  5
7D1E
  8
0
  6
BYBLOCK
 62
     0
 10
7090.9033814728382
 20
4287.4219929999999
 30
0.0
 11
7090.9033814728382
 21
3961.8797420000001
 31
0.0
  0
LINE
  5
7D1F
  8
0
  6
BYBLOCK
 62
     0
 10
6767.9033814728373
 20
4001.8797419999992
 30
0.0
 11
7010.9033814728382
 21
4001.8797419999992
 31
0.0
  0
TEXT
  5
7D20
  8
3
 62
     0
 10
6735.1176671871226
 20
4076.2057061701712
 30
0.0
 40
120.0
  1
403
  0
INSERT
  5
7D21
  8
0
  6
BYBLOCK
 62
     0
  2
_OPEN
 10
6687.9033814728373
 20
4001.8797419999992
 30
0.0
 41
80.0
 42
80.0
 43
80.0
 50
180.0
  0
INSERT
  5
7D22
  8
0
  6
BYBLOCK
 62
     0
  2
_OPEN
 10
7090.9033814728382
 20
4001.8797419999992
 30
0.0
 41
80.0
 42
80.0
 43
80.0
  0
POINT
  5
7D23
  8
DEFPOINTS
  6
BYBLOCK
 62
     0
 10
6687.9033814728373
 20
4227.6146609999987
 30
0.0
  0
POINT
  5
7D24
  8
DEFPOINTS
  6
BYBLOCK
 62
     0
 10
7090.9033814728382
 20
4307.4219929999999
 30
0.0
  0
POINT
  5
7D25
  8
DEFPOINTS
  6
BYBLOCK
 62
     0
 10
7090.9033814728382
 20
4001.8797419999992
 30
0.0
  0
ENDBLK
  5
7D26
  8
0
  0
BLOCK
  8
0
  2
*D16
 70
     1
 10
0.0
 20
0.0
 30
0.0
  3
*D16
  1

  0
LINE
  5
7EDF
  8
3
 62
     0
 10
2296.8869439837949
 20
6028.4219929999999
 30
0.0
 11
2296.8869439837949
 21
6386.0536119528188
 31
0.0
  0
LINE
  5
7EE0
  8
3
 62
     0
 10
4256.8869439837954
 20
4452.4219929999999
 30
0.0
 11
4256.8869439837954
 21
6386.0536119528188
 31
0.0
  0
LINE
  5
7EE1
  8
3
 62
     0
 10
2376.8869439837949
 20
6346.0536119528178
 30
0.0
 11
4176.8869439837954
 21
6346.0536119528178
 31
0.0
  0
INSERT
  5
7EE2
  8
3
 62
     0
  2
_OPEN
 10
2296.8869439837949
 20
6346.0536119528178
 30
0.0
 41
80.0
 42
80.0
 43
80.0
 50
180.0
  0
INSERT
  5
7EE3
  8
3
 62
     0
  2
_OPEN
 10
4256.8869439837954
 20
6346.0536119528178
 30
0.0
 41
80.0
 42
80.0
 43
80.0
  0
TEXT
  8
3
  40
120
  5
7EFE
  62
0
  72
0
  71
0
 10
3065.34
 20
6233.65
 30
0.000000
  1
1960
  0
POINT
  5
7EE5
  8
DEFPOINTS
 62
     0
 10
2296.8869439837949
 20
6008.4219929999999
 30
0.0
  0
POINT
  5
7EE6
  8
DEFPOINTS
 62
     0
 10
4256.8869439837954
 20
4432.4219929999999
 30
0.0
  0
POINT
  5
7EE7
  8
DEFPOINTS
 62
     0
 10
4256.8869439837954
 20
6346.0536119528178
 30
0.0
  0
ENDBLK
  5
7D96
  8
0
  0
BLOCK
  8
0
  2
*D17
 70
     1
 10
0.0
 20
0.0
 30
0.0
  3
*D17
  1

  0
LINE
  5
7EE8
  8
3
 62
     0
 10
2276.8869439837949
 20
5988.4219929999999
 30
0.0
 11
1473.2679631859439
 21
5988.4219930000008
 31
0.0
  0
LINE
  5
7EE9
  8
3
 62
     0
 10
2336.8869439837949
 20
4307.4219929999999
 30
0.0
 11
1473.267963185943
 21
4307.4219930000008
 31
0.0
  0
LINE
  5
7EEA
  8
3
 62
     0
 10
1513.2679631859439
 20
5908.4219930000008
 30
0.0
 11
1513.267963185943
 21
4387.4219930000008
 31
0.0
  0
INSERT
  5
7EEB
  8
3
 62
     0
  2
_OPEN
 10
1513.2679631859439
 20
5988.4219930000008
 30
0.0
 41
80.0
 42
80.0
 43
80.0
 50
90.0
  0
INSERT
  5
7EEC
  8
3
 62
     0
  2
_OPEN
 10
1513.267963185943
 20
4307.4219930000008
 30
0.0
 41
80.0
 42
80.0
 43
80.0
 50
270.0
  0
TEXT
  8
3
  40
120
  5
7EFF
  62
0
  72
0
  71
0
 10
1173.27
 20
4902.08
 30
0.000000
  1
1681
  0
POINT
  5
7EEE
  8
DEFPOINTS
 62
     0
 10
2296.8869439837949
 20
5988.4219929999999
 30
0.0
  0
POINT
  5
7EEF
  8
DEFPOINTS
 62
     0
 10
2356.8869439837949
 20
4307.4219929999999
 30
0.0
  0
POINT
  5
7EF0
  8
DEFPOINTS
 62
     0
 10
1513.267963185943
 20
4307.4219930000008
 30
0.0
  0
ENDBLK
  5
7DA3
  8
0
  0
ENDSEC
  0
SECTION
  2
ENTITIES
  0
ARC
  5
7A70
  8
1
  6
CONTINUOUS
 10
2983.8869439837949
 20
5054.4219929999999
 30
0.0
 40
710.0
 50
298.82976000000002
 51
354.58515799999998
  0
ARC
  5
7A71
  8
1
  6
CONTINUOUS
 10
2970.3869439837949
 20
4933.9219929999999
 30
0.0
 40
589.5
 50
174.7929639999999
 51
238.29017099999999
  0
CIRCLE
  5
7A72
  8
1
  6
CONTINUOUS
 10
2916.8869439837949
 20
4987.4219929999999
 30
0.0
 40
490.0
  0
ARC
  5
7A73
  8
1
  6
CONTINUOUS
 10
4036.8869439837949
 20
4642.4219929999999
 30
0.0
 40
162.0
 50
324.972283
 51
215.02771699999991
  0
LINE
  5
7A74
  8
1
  6
CONTINUOUS
 10
4190.8869439837954
 20
4500.421992999999
 30
0.0
 11
4169.5446099837964
 21
4549.4384259999997
 31
0.0
  0
LINE
  5
7A75
  8
1
  6
CONTINUOUS
 10
3882.8869439837949
 20
4500.421992999999
 30
0.0
 11
3904.2292779837949
 21
4549.4384259999997
 31
0.0
  0
CIRCLE
  5
7A76
  8
1
  6
CONTINUOUS
 10
4036.8869439837949
 20
4642.4219929999999
 30
0.0
 40
152.40000000000001
  0
ARC
  5
7A77
  8
1
  6
CONTINUOUS
 10
4036.8869439837949
 20
4642.4219929999999
 30
0.0
 40
202.40000000000001
 50
252.879299
 51
72.879299000000003
  0
LINE
  5
7A78
  8
1
  6
CONTINUOUS
 10
3992.0225729837948
 20
4496.7753380000004
 30
0.0
 11
2872.0225729837939
 21
4841.7753380000013
 31
0.0
  0
LINE
  5
7A79
  8
1
  6
CONTINUOUS
 10
3977.3032909837948
 20
4448.9910020000007
 30
0.0
 11
2857.3032909837948
 21
4793.9910020000007
 31
0.0
  0
LINE
  5
7A7A
  8
2
  6
CENTER
 10
4036.8869439837949
 20
4485.0219930000003
 30
0.0
 11
4036.8869439837949
 21
4799.8219929999996
 31
0.0
  0
LINE
  5
7A7B
  8
1
  6
CONTINUOUS
 10
4256.8869439837954
 20
4307.4219929999999
 30
0.0
 11
2356.8869439837949
 21
4307.4219929999999
 31
0.0
  0
LINE
  5
7A7C
  8
1
  6
CONTINUOUS
 10
4256.8869439837954
 20
4432.4219929999999
 30
0.0
 11
2356.8869439837949
 21
4432.4219929999999
 31
0.0
  0
LINE
  5
7A7D
  8
1
  6
CONTINUOUS
 10
2356.8869439837949
 20
4432.4219929999999
 30
0.0
 11
2356.8869439837949
 21
4307.4219929999999
 31
0.0
  0
LINE
  5
7A7E
  8
1
  6
CONTINUOUS
 10
4234.3869439837954
 20
4432.4219929999999
 30
0.0
 11
3839.3869439837949
 21
4432.4219929999999
 31
0.0
  0
LINE
  5
7A7F
  8
1
  6
CONTINUOUS
 10
3882.8869439837949
 20
4482.421992999999
 30
0.0
 11
3882.8869439837949
 21
4500.421992999999
 31
0.0
  0
LINE
  5
7A80
  8
1
  6
CONTINUOUS
 10
3849.3869439837949
 20
4482.421992999999
 30
0.0
 11
3882.8869439837949
 21
4482.421992999999
 31
0.0
  0
LINE
  5
7A81
  8
1
  6
CONTINUOUS
 10
3839.3869439837949
 20
4432.4219929999999
 30
0.0
 11
3849.3869439837949
 21
4482.421992999999
 31
0.0
  0
LINE
  5
7A82
  8
1
  6
CONTINUOUS
 10
4256.8869439837954
 20
4432.4219929999999
 30
0.0
 11
4256.8869439837954
 21
4307.4219929999999
 31
0.0
  0
LINE
  5
7A83
  8
1
  6
CONTINUOUS
 10
4190.8869439837954
 20
4482.421992999999
 30
0.0
 11
4190.8869439837954
 21
4500.421992999999
 31
0.0
  0
LINE
  5
7A84
  8
1
  6
CONTINUOUS
 10
4224.3869439837954
 20
4482.421992999999
 30
0.0
 11
4234.3869439837954
 21
4432.4219929999999
 31
0.0
  0
LINE
  5
7A85
  8
1
  6
CONTINUOUS
 10
4190.8869439837954
 20
4482.421992999999
 30
0.0
 11
4224.3869439837954
 21
4482.421992999999
 31
0.0
  0
ARC
  5
7A86
  8
1
  6
CONTINUOUS
 10
2849.8869439837949
 20
5054.4219929999999
 30
0.0
 40
844.0
 50
355.44684799999999
 51
85.446848000000003
  0
LINE
  5
7A87
  8
1
  6
CONTINUOUS
 10
4256.8869439837936
 20
8397.1675331190199
 30
0.0
 11
3366.8869439837949
 21
8397.1675331190199
 31
0.0
  0
LINE
  5
7A88
  8
1
  6
CONTINUOUS
 10
3693.886943983794
 20
7659.1675331190199
 30
0.0
 11
2296.886943983794
 21
7659.1675331190199
 31
0.0
  0
LINE
  5
7A89
  8
1
  6
CONTINUOUS
 10
3693.886943983794
 20
8329.1675331190199
 30
0.0
 11
2296.886943983794
 21
8329.1675331190199
 31
0.0
  0
LINE
  5
7A8A
  8
1
  6
CONTINUOUS
 10
3884.4869439837948
 20
7447.1675331190199
 30
0.0
 11
3069.286943983795
 21
7447.1675331190199
 31
0.0
  0
LINE
  5
7A8B
  8
1
  6
CONTINUOUS
 10
4081.751314983796
 20
4788.0686479999986
 30
0.0
 11
2961.751314983796
 21
5133.0686480000004
 31
0.0
  0
LINE
  5
7A8C
  8
1
  6
CONTINUOUS
 10
4096.4705969837951
 20
4835.8529840000001
 30
0.0
 11
2976.470596983796
 21
5180.852984000001
 31
0.0
  0
LINE
  5
7A8D
  8
1
  6
CONTINUOUS
 10
4239.286943983795
 20
7334.1675331190199
 30
0.0
 11
2714.4869439837948
 21
7334.1675331190199
 31
0.0
  0
LINE
  5
7A8E
  8
1
  6
CONTINUOUS
 10
4239.286943983795
 20
7474.167533119019
 30
0.0
 11
2714.4869439837948
 21
7474.167533119019
 31
0.0
  0
LINE
  5
7A8F
  8
1
  6
CONTINUOUS
 10
2296.8869439837949
 20
5988.4219929999999
 30
0.0
 11
2296.8869439837949
 21
4983.4219929999999
 31
0.0
  0
LINE
  5
7A90
  8
1
  6
CONTINUOUS
 10
2336.8869439837949
 20
5945.0243440000004
 30
0.0
 11
2336.8869439837949
 21
5023.4219929999999
 31
0.0
  0
CIRCLE
  5
7A91
  8
1
  6
CONTINUOUS
 10
2916.8869439837949
 20
4987.4219929999999
 30
0.0
 40
450.0
  0
CIRCLE
  5
7A92
  8
1
  6
CONTINUOUS
 10
2916.8869439837949
 20
4987.4219929999999
 30
0.0
 40
152.40000000000001
  0
ARC
  5
7A93
  8
1
  6
CONTINUOUS
 10
2916.8869439837949
 20
4987.4219929999999
 30
0.0
 40
202.40000000000001
 50
72.879299000000003
 51
252.879299
  0
LINE
  5
7A94
  8
2
  6
CENTER
 10
6602.8237691936338
 20
4987.4219929999999
 30
0.0
 11
5327.3115941936339
 21
4987.4219929999999
 31
0.0
  0
ARC
  5
7A95
  8
1
  6
CONTINUOUS
 10
2863.3869439837949
 20
4933.9219929999999
 30
0.0
 40
482.5
 50
169.310168
 51
173.63390599999991
  0
LINE
  5
7A96
  8
1
  6
CONTINUOUS
 10
2389.2603789837958
 20
5023.4219929999999
 30
0.0
 11
2296.8869439837949
 21
5023.4219929999999
 31
0.0
  0
LINE
  5
7A97
  8
2
  6
CENTER
 10
2916.8869439837949
 20
4150.4957169999998
 30
0.0
 11
2916.8869439837949
 21
5964.4199669999998
 31
0.0
  0
LINE
  5
7A98
  8
1
  6
CONTINUOUS
 10
2916.8869439837949
 20
5895.7584299999999
 30
0.0
 11
2296.8869439837949
 21
5948.4219929999999
 31
0.0
  0
LINE
  5
7A99
  8
1
  6
CONTINUOUS
 10
2296.886943983794
 20
7619.1675331190199
 30
0.0
 11
2296.886943983794
 21
8369.1675331190199
 31
0.0
  0
LINE
  5
7A9A
  8
1
  6
CONTINUOUS
 10
2336.886943983794
 20
7659.1675331190199
 30
0.0
 11
2336.886943983794
 21
8329.1675331190199
 31
0.0
  0
LINE
  5
7A9B
  8
1
  6
CONTINUOUS
 10
3069.286943983795
 20
7376.6675331190199
 30
0.0
 11
2764.4869439837939
 21
7376.6675331190199
 31
0.0
  0
LINE
  5
7A9C
  8
1
  6
CONTINUOUS
 10
3069.286943983795
 20
7451.6675331190199
 30
0.0
 11
2764.4869439837939
 21
7451.6675331190199
 31
0.0
  0
LINE
  5
7A9D
  8
1
  6
CONTINUOUS
 10
2356.886943983794
 20
7659.1675331190199
 30
0.0
 11
2356.886943983794
 21
7447.1675331190199
 31
0.0
  0
LINE
  5
7A9E
  8
1
  6
CONTINUOUS
 10
2764.4869439837939
 20
7447.1675331190199
 30
0.0
 11
2356.886943983794
 21
7447.1675331190199
 31
0.0
  0
LINE
  5
7A9F
  8
1
  6
CONTINUOUS
 10
2764.4869439837939
 20
7451.6675331190199
 30
0.0
 11
2764.4869439837939
 21
7376.6675331190199
 31
0.0
  0
LINE
  5
7AA0
  8
1
  6
CONTINUOUS
 10
2714.4869439837948
 20
7334.1675331190199
 30
0.0
 11
2714.4869439837948
 21
7474.167533119019
 31
0.0
  0
LINE
  5
7AA1
  8
1
  6
CONTINUOUS
 10
2886.886943983794
 20
7659.1675331190199
 30
0.0
 11
2886.886943983794
 21
7451.6675331190199
 31
0.0
  0
LINE
  5
7AA2
  8
1
  6
CONTINUOUS
 10
2946.886943983794
 20
7659.1675331190199
 30
0.0
 11
2946.886943983794
 21
7451.6675331190199
 31
0.0
  0
LINE
  5
7AA3
  8
1
  6
CONTINUOUS
 10
3069.286943983795
 20
7451.6675331190199
 30
0.0
 11
3069.286943983795
 21
7376.6675331190199
 31
0.0
  0
LINE
  5
7AA4
  8
1
  6
CONTINUOUS
 10
3406.886943983794
 20
8412.1675331190218
 30
0.0
 11
2426.886943983794
 21
8412.1675331190218
 31
0.0
  0
LINE
  5
7AA5
  8
1
  6
CONTINUOUS
 10
2356.886943983794
 20
8397.1675331190199
 30
0.0
 11
2356.886943983794
 21
8329.1675331190199
 31
0.0
  0
LINE
  5
7AA6
  8
1
  6
CONTINUOUS
 10
2466.886943983794
 20
8412.1675331190218
 30
0.0
 11
2466.886943983794
 21
8329.1675331190199
 31
0.0
  0
LINE
  5
7AA7
  8
1
  6
CONTINUOUS
 10
2466.886943983794
 20
8397.1675331190199
 30
0.0
 11
2356.886943983794
 21
8397.1675331190199
 31
0.0
  0
LINE
  5
7AA8
  8
1
  6
CONTINUOUS
 10
3366.8869439837949
 20
8412.1675331190218
 30
0.0
 11
3366.8869439837949
 21
8329.1675331190199
 31
0.0
  0
LINE
  5
7AA9
  8
2
  6
CENTER
 10
4194.286943983795
 20
4642.4219929999999
 30
0.0
 11
3879.4869439837939
 21
4642.4219929999999
 31
0.0
  0
LINE
  5
7AAA
  8
1
  6
CONTINUOUS
 10
4256.8869439837936
 20
8397.1675331190199
 30
0.0
 11
4256.8869439837936
 21
7447.1675331190199
 31
0.0
  0
LINE
  5
7AAB
  8
1
  6
CONTINUOUS
 10
3693.886943983794
 20
8329.1675331190199
 30
0.0
 11
3693.886943983794
 21
7659.1675331190199
 31
0.0
  0
LINE
  5
7AAC
  8
1
  6
CONTINUOUS
 10
3874.886943983794
 20
7486.667533119019
 30
0.0
 11
3874.886943983794
 21
7979.6675331190199
 31
0.0
  0
LINE
  5
7AAD
  8
1
  6
CONTINUOUS
 10
4198.8869439837954
 20
7486.667533119019
 30
0.0
 11
4198.8869439837954
 21
7979.6675331190199
 31
0.0
  0
LINE
  5
7AAE
  8
1
  6
CONTINUOUS
 10
3884.4869439837948
 20
7376.6675331190199
 30
0.0
 11
4189.2869439837959
 21
7376.6675331190199
 31
0.0
  0
LINE
  5
7AAF
  8
1
  6
CONTINUOUS
 10
4198.8869439837954
 20
7486.667533119019
 30
0.0
 11
3874.886943983794
 21
7486.667533119019
 31
0.0
  0
LINE
  5
7AB0
  8
1
  6
CONTINUOUS
 10
3884.4869439837948
 20
7451.6675331190199
 30
0.0
 11
4189.2869439837959
 21
7451.6675331190199
 31
0.0
  0
LINE
  5
7AB1
  8
1
  6
CONTINUOUS
 10
4015.886943983794
 20
7451.6675331190199
 30
0.0
 11
4015.886943983794
 21
7486.667533119019
 31
0.0
  0
LINE
  5
7AB2
  8
1
  6
CONTINUOUS
 10
4057.8869439837949
 20
7451.6675331190199
 30
0.0
 11
4057.8869439837949
 21
7486.667533119019
 31
0.0
  0
LINE
  5
7AB3
  8
1
  6
CONTINUOUS
 10
3884.4869439837948
 20
7451.6675331190199
 30
0.0
 11
3884.4869439837948
 21
7376.6675331190199
 31
0.0
  0
LINE
  5
7AB4
  8
1
  6
CONTINUOUS
 10
4256.8869439837936
 20
7447.1675331190199
 30
0.0
 11
4189.2869439837959
 21
7447.1675331190199
 31
0.0
  0
LINE
  5
7AB5
  8
1
  6
CONTINUOUS
 10
4189.2869439837959
 20
7451.6675331190199
 30
0.0
 11
4189.2869439837959
 21
7376.6675331190199
 31
0.0
  0
LINE
  5
7AB6
  8
1
  6
CONTINUOUS
 10
4239.286943983795
 20
7334.1675331190199
 30
0.0
 11
4239.286943983795
 21
7474.167533119019
 31
0.0
  0
LINE
  5
7AB7
  8
1
  6
CONTINUOUS
 10
4198.8869439837954
 20
7979.6675331190199
 30
0.0
 11
3874.886943983794
 21
7979.6675331190199
 31
0.0
  0
LINE
  5
7AB8
  8
1
  6
CONTINUOUS
 10
6513.5967161936333
 20
5477.4219929999999
 30
0.0
 11
6513.5967161936333
 21
4497.421992999999
 31
0.0
  0
LINE
  5
7AB9
  8
1
  6
CONTINUOUS
 10
5553.0967161936333
 20
4794.8219929999987
 30
0.0
 11
5553.0967161936333
 21
4490.0219930000003
 31
0.0
  0
LINE
  5
7ABA
  8
1
  6
CONTINUOUS
 10
5575.5967161936333
 20
5189.8219929999987
 30
0.0
 11
5575.5967161936333
 21
4440.0219930000012
 31
0.0
  0
LINE
  5
7ABB
  8
1
  6
CONTINUOUS
 10
5435.5967161936333
 20
5189.8219929999987
 30
0.0
 11
5435.5967161936333
 21
4440.0219930000012
 31
0.0
  0
LINE
  5
7ABC
  8
1
  6
CONTINUOUS
 10
5478.0967161936333
 20
4794.8219929999987
 30
0.0
 11
5478.0967161936333
 21
4490.0219930000003
 31
0.0
  0
LINE
  5
7ABD
  8
1
  6
CONTINUOUS
 10
5588.0967161936333
 20
4804.4219929999999
 30
0.0
 11
5588.0967161936333
 21
4432.4219929999999
 31
0.0
  0
LINE
  5
7ABE
  8
1
  6
CONTINUOUS
 10
5760.5967161936333
 20
5948.4219929999999
 30
0.0
 11
5760.5967161936333
 21
4432.4219929999999
 31
0.0
  0
LINE
  5
7ABF
  8
1
  6
CONTINUOUS
 10
6430.5967161936333
 20
5948.4219929999999
 30
0.0
 11
6430.5967161936333
 21
4432.4219929999999
 31
0.0
  0
LINE
  5
7AC0
  8
1
  6
CONTINUOUS
 10
5548.5967161936342
 20
4432.4219929999999
 30
0.0
 11
6498.5967161936333
 21
4432.4219929999999
 31
0.0
  0
LINE
  5
7AC1
  8
1
  6
CONTINUOUS
 10
5548.5967161936342
 20
4307.4219929999999
 30
0.0
 11
6498.5967161936333
 21
4307.4219929999999
 31
0.0
  0
LINE
  5
7AC2
  8
1
  6
CONTINUOUS
 10
5435.5967161936333
 20
4440.0219930000012
 30
0.0
 11
5575.5967161936333
 21
4440.0219930000012
 31
0.0
  0
LINE
  5
7AC3
  8
1
  6
CONTINUOUS
 10
5478.0967161936333
 20
4490.0219930000003
 30
0.0
 11
5553.0967161936333
 21
4490.0219930000003
 31
0.0
  0
LINE
  5
7AC4
  8
1
  6
CONTINUOUS
 10
5588.0967161936333
 20
4482.421992999999
 30
0.0
 11
5760.5967161936333
 21
4482.421992999999
 31
0.0
  0
LINE
  5
7AC5
  8
1
  6
CONTINUOUS
 10
5548.5967161936342
 20
4432.4219929999999
 30
0.0
 11
5548.5967161936342
 21
4307.4219929999999
 31
0.0
  0
LINE
  5
7AC6
  8
1
  6
CONTINUOUS
 10
6498.5967161936333
 20
4432.4219929999999
 30
0.0
 11
6498.5967161936333
 21
4307.4219929999999
 31
0.0
  0
LINE
  5
7AC7
  8
1
  6
CONTINUOUS
 10
6430.5967161936333
 20
5948.4219929999999
 30
0.0
 11
5760.5967161936333
 21
5023.4219929999999
 31
0.0
  0
LINE
  5
7AC8
  8
1
  6
CONTINUOUS
 10
5760.5967161936333
 20
5948.4219929999999
 30
0.0
 11
6430.5967161936333
 21
5023.4219929999999
 31
0.0
  0
LINE
  5
7AC9
  8
1
  6
CONTINUOUS
 10
5760.5967161936333
 20
5023.4219929999999
 30
0.0
 11
6430.5967161936333
 21
5023.4219929999999
 31
0.0
  0
LINE
  5
7ACA
  8
1
  6
CONTINUOUS
 10
5553.0967161936333
 20
5139.8219929999987
 30
0.0
 11
5553.0967161936333
 21
4835.0219930000003
 31
0.0
  0
LINE
  5
7ACB
  8
1
  6
CONTINUOUS
 10
5435.5967161936333
 20
5189.8219929999987
 30
0.0
 11
5575.5967161936333
 21
5189.8219929999987
 31
0.0
  0
LINE
  5
7ACC
  8
1
  6
CONTINUOUS
 10
5478.0967161936333
 20
4794.8219929999987
 30
0.0
 11
5553.0967161936333
 21
4794.8219929999987
 31
0.0
  0
LINE
  5
7ACD
  8
1
  6
CONTINUOUS
 10
5478.0967161936333
 20
4835.0219930000003
 30
0.0
 11
5553.0967161936333
 21
4835.0219930000003
 31
0.0
  0
LINE
  5
7ACE
  8
1
  6
CONTINUOUS
 10
5478.0967161936333
 20
5139.8219929999987
 30
0.0
 11
5553.0967161936333
 21
5139.8219929999987
 31
0.0
  0
LINE
  5
7ACF
  8
1
  6
CONTINUOUS
 10
5553.0967161936333
 20
4621.4219929999999
 30
0.0
 11
5588.0967161936333
 21
4621.4219929999999
 31
0.0
  0
LINE
  5
7AD0
  8
1
  6
CONTINUOUS
 10
5553.0967161936333
 20
4663.4219929999999
 30
0.0
 11
5588.0967161936333
 21
4663.4219929999999
 31
0.0
  0
LINE
  5
7AD1
  8
1
  6
CONTINUOUS
 10
5553.0967161936333
 20
4957.4219929999999
 30
0.0
 11
5760.5967161936333
 21
4957.4219929999999
 31
0.0
  0
LINE
  5
7AD2
  8
1
  6
CONTINUOUS
 10
5553.0967161936333
 20
5017.4219929999999
 30
0.0
 11
5760.5967161936333
 21
5017.4219929999999
 31
0.0
  0
LINE
  5
7AD3
  8
1
  6
CONTINUOUS
 10
5588.0967161936333
 20
4804.4219929999999
 30
0.0
 11
5760.5967161936333
 21
4804.4219929999999
 31
0.0
  0
LINE
  5
7AD4
  8
1
  6
CONTINUOUS
 10
5478.0967161936333
 20
5139.8219929999987
 30
0.0
 11
5478.0967161936333
 21
4835.0219930000003
 31
0.0
  0
LINE
  5
7AD5
  8
1
  6
CONTINUOUS
 10
6430.5967161936333
 20
4537.4219929999999
 30
0.0
 11
6513.5967161936333
 21
4537.4219929999999
 31
0.0
  0
LINE
  5
7AD6
  8
1
  6
CONTINUOUS
 10
5760.5967161936333
 20
5948.4219929999999
 30
0.0
 11
6430.5967161936333
 21
5948.4219929999999
 31
0.0
  0
LINE
  5
7AD7
  8
1
  6
CONTINUOUS
 10
6430.5967161936333
 20
5437.4219929999999
 30
0.0
 11
6513.5967161936333
 21
5437.4219929999999
 31
0.0
  0
DIMENSION
  5
7AED
  8
3
  6
CONTINUOUS
  2
*D1
 10
2916.8869439837949
 20
4030.6581829999991
 30
0.0
 11
2631.1726582695101
 21
4030.6581829999991
 31
0.0
 70
   128
 13
2356.8869439837949
 23
4307.4219929999999
 33
0.0
 14
2916.8869439837949
 24
4150.4957169999998
 34
0.0
1001
ACAD
1000
DSTYLE
1002
{
1070
   287
1070
     3
1070
   287
1070
     3
1070
    40
1040
40.0
1070
   143
1040
0.039
1070
   172
1070
     1
1070
   271
1070
     0
1070
   279
1070
     0
1070
   288
1070
     1
1002
}
  0
DIMENSION
  5
7AF9
  8
3
  6
CONTINUOUS
  2
*D2
 10
4256.8869439837954
 20
4030.6581829999991
 30
0.0
 11
3586.8869439837949
 21
4130.6581829999996
 31
0.0
 70
     0
 13
2916.8869439837949
 23
4150.4957169999998
 33
0.0
 14
4256.8869439837954
 24
4307.4219929999999
 34
0.0
1001
ACAD
1000
DSTYLE
1002
{
1070
   287
1070
     3
1070
   287
1070
     3
1070
    40
1040
40.0
1070
   143
1040
0.039
1070
   172
1070
     1
1070
   271
1070
     0
1070
   279
1070
     0
1070
   288
1070
     1
1002
}
  0
DIMENSION
  5
7B06
  8
3
  6
CONTINUOUS
  2
*D3
 10
2027.6446769837969
 20
5023.4219930000008
 30
0.0
 11
2027.6446769837969
 21
5557.2858759999999
 31
0.0
 70
   128
 13
2296.8869439837949
 23
5948.4219929999999
 33
0.0
 14
2296.8869439837949
 24
5023.4219929999999
 34
0.0
 50
90.0
1001
ACAD
1000
DSTYLE
1002
{
1070
   287
1070
     3
1070
   287
1070
     3
1070
    40
1040
40.0
1070
   143
1040
0.039
1070
   172
1070
     1
1070
   271
1070
     0
1070
   279
1070
     0
1070
   288
1070
     1
1002
}
  0
DIMENSION
  5
7B13
  8
3
  6
CONTINUOUS
  2
*D4
 10
1779.752964983797
 20
4987.4219930000008
 30
0.0
 11
1779.7529649837959
 21
5493.940216
 31
0.0
 70
   128
 13
2296.8869439837949
 23
5948.4219929999999
 33
0.0
 14
2383.8621799837952
 24
4987.4219929999999
 34
0.0
 50
90.0
1001
ACAD
1000
DSTYLE
1002
{
1070
   287
1070
     3
1070
   287
1070
     3
1070
    40
1040
40.0
1070
   143
1040
0.039
1070
   172
1070
     1
1070
   271
1070
     0
1070
   279
1070
     0
1070
   288
1070
     1
1002
}
  0
DIMENSION
  5
7B1F
  8
3
  6
CONTINUOUS
  2
*D5
 10
1779.7529649837959
 20
4307.4219930000008
 30
0.0
 11
1679.752964983795
 21
4647.4219929999999
 31
0.0
 70
     0
 13
2383.8621799837952
 23
4987.4219929999999
 33
0.0
 14
2356.8869439837949
 24
4307.4219929999999
 34
0.0
 50
90.0
1001
ACAD
1000
DSTYLE
1002
{
1070
   287
1070
     3
1070
   287
1070
     3
1070
    40
1040
40.0
1070
   143
1040
0.039
1070
   172
1070
     1
1070
   271
1070
     0
1070
   279
1070
     0
1070
   288
1070
     1
1002
}
  0
DIMENSION
  5
7B2C
  8
3
  6
CONTINUOUS
  2
*D6
 10
2916.8869439837949
 20
6111.2666939999999
 30
0.0
 11
2642.6012296980798
 21
6111.2666939999999
 31
0.0
 70
   128
 13
2296.8869439837949
 23
5988.4219929999999
 33
0.0
 14
2916.8869439837949
 24
5895.7584299999999
 34
0.0
1001
ACAD
1000
DSTYLE
1002
{
1070
   287
1070
     3
1070
   287
1070
     3
1070
    40
1040
40.0
1070
   143
1040
0.039
1070
   172
1070
     1
1070
   271
1070
     0
1070
   279
1070
     0
1070
   288
1070
     1
1002
}
  0
DIMENSION
  5
7B38
  8
3
  6
CONTINUOUS
  2
*D7
 10
3693.8869439837949
 20
6111.2666939999999
 30
0.0
 11
3305.3869439837949
 21
6211.2666939999999
 31
0.0
 70
     0
 13
2916.8869439837949
 23
5895.7584299999999
 33
0.0
 14
3693.8869439837949
 24
4987.4219929999999
 34
0.0
1001
ACAD
1000
DSTYLE
1002
{
1070
   287
1070
     3
1070
   287
1070
     3
1070
    40
1040
40.0
1070
   143
1040
0.039
1070
   172
1070
     1
1070
   271
1070
     0
1070
   279
1070
     0
1070
   288
1070
     1
1002
}
  0
DIMENSION
  5
7B45
  8
3
  6
CONTINUOUS
  2
*D8
 10
4256.8869439837936
 20
6970.2547511190196
 30
0.0
 11
3313.2223369837961
 21
6970.2547511190196
 31
0.0
 70
   128
 13
2356.886943983794
 23
7447.1675331190199
 33
0.0
 14
4256.8869439837936
 24
7447.1675331190199
 34
0.0
1001
ACAD
1000
DSTYLE
1002
{
1070
   287
1070
     3
1070
   287
1070
     3
1070
    40
1040
40.0
1070
   143
1040
0.039
1070
   172
1070
     1
1070
   271
1070
     0
1070
   279
1070
     0
1070
   288
1070
     1
1002
}
  0
DIMENSION
  5
7B52
  8
3
  6
CONTINUOUS
  2
*D9
 10
4616.6705219837977
 20
7447.1675331190199
 30
0.0
 11
4616.6705219837968
 21
7932.5301411190203
 31
0.0
 70
   128
 13
4256.8869439837936
 23
8397.1675331190199
 33
0.0
 14
4256.8869439837936
 24
7447.1675331190199
 34
0.0
 50
90.0
1001
ACAD
1000
DSTYLE
1002
{
1070
   287
1070
     3
1070
   287
1070
     3
1070
    40
1040
40.0
1070
   143
1040
0.039
1070
   172
1070
     1
1070
   271
1070
     0
1070
   279
1070
     0
1070
   288
1070
     1
1002
}
  0
LINE
  5
7B53
  8
2
  6
CENTER
 10
3757.3010659837942
 20
7994.1675331190199
 30
0.0
 11
2166.5784019837952
 21
7994.1675331190199
 31
0.0
  0
LINE
  5
7B54
  8
2
  6
CENTER
 10
2916.886943983794
 20
7256.4709381190187
 30
0.0
 11
2916.886943983794
 21
8524.9588651190188
 31
0.0
  0
LINE
  5
7B55
  8
2
  6
CENTER
 10
6095.5967161936333
 20
6147.5774879999999
 30
0.0
 11
6095.5967161936333
 21
4227.6146609999987
 31
0.0
  0
DIMENSION
  5
7B62
  8
3
  6
CONTINUOUS
  2
*D10
 10
6430.5967161936333
 20
6127.9847899999986
 30
0.0
 11
6034.8824304793479
 21
6127.9847899999986
 31
0.0
 70
   128
 13
5760.5967161936333
 23
5948.4219929999999
 33
0.0
 14
6430.5967161936333
 24
5948.4219929999999
 34
0.0
1001
ACAD
1000
DSTYLE
1002
{
1070
   287
1070
     3
1070
   287
1070
     3
1070
    40
1040
40.0
1070
   143
1040
0.039
1070
   172
1070
     1
1070
   271
1070
     0
1070
   279
1070
     0
1070
   288
1070
     1
1002
}
  0
DIMENSION
  5
7B6F
  8
3
  6
CONTINUOUS
  2
*D11
 10
6095.5967161936333
 20
6397.1009884404602
 30
0.0
 11
5804.1681447650608
 21
6397.1009884404602
 31
0.0
 70
   128
  1
MAX\P720
 13
5435.5967161936333
 23
5189.8219929999987
 33
0.0
 14
6095.5967161936333
 24
6298.9719472482693
 34
0.0
1001
ACAD
1000
DSTYLE
1002
{
1070
   287
1070
     3
1070
   287
1070
     3
1070
    40
1040
40.0
1070
   143
1040
0.039
1070
   172
1070
     1
1070
   271
1070
     0
1070
   279
1070
     0
1070
   288
1070
     1
1002
}
  0
DIMENSION
  5
7B7D
  8
3
  6
CONTINUOUS
  2
*D12
 10
6513.5967161936333
 20
6397.67390344046
 30
0.0
 11
6304.5967161936333
 21
6500.967403341554
 31
0.0
 12
-592.30666527920403
 22
0.0
 32
0.0
 70
   128
 13
6095.5967161936333
 23
6298.9719472482693
 33
0.0
 14
6513.5967161936333
 24
5477.4219929999999
 34
0.0
1001
ACAD
1000
DSTYLE
1002
{
1070
   288
1070
     1
1070
   172
1070
     1
1070
    40
1040
40.0
1070
   271
1070
     0
1070
   143
1040
0.039
1002
}
  0
DIMENSION
  5
7BA0
  8
3
  6
CONTINUOUS
  2
*D13
 10
6867.1215671936343
 20
4537.4219929999999
 30
0.0
 11
6867.1215671936343
 21
4947.4519019999998
 31
0.0
 70
   128
 13
6513.5967161936333
 23
5437.4219929999999
 33
0.0
 14
6513.5967161936333
 24
4537.4219929999999
 34
0.0
 50
90.0
1001
ACAD
1000
DSTYLE
1002
{
1070
   287
1070
     3
1070
   287
1070
     3
1070
     3
1000
φ<>
1070
    40
1040
40.0
1070
   143
1040
0.039
1070
   172
1070
     1
1070
   271
1070
     0
1070
   279
1070
     0
1070
   288
1070
     1
1002
}
  0
DIMENSION
  5
7BAF
  8
3
  6
CONTINUOUS
  2
*D14
 10
6095.5967161936333
 20
4001.8797419999992
 30
0.0
 11
5822.0967161936342
 21
4101.2673873939739
 31
0.0
 12
-592.30666527920403
 22
0.0
 32
0.0
 70
   128
 13
5548.5967161936342
 23
4307.4219929999999
 33
0.0
 14
6095.5967161936333
 24
4227.6146609999987
 34
0.0
1001
ACAD
1000
DSTYLE
1002
{
1070
   288
1070
     1
1070
   172
1070
     1
1070
    40
1040
40.0
1070
   271
1070
     0
1070
   143
1040
0.039
1002
}
  0
DIMENSION
  5
7BBD
  8
3
  6
CONTINUOUS
  2
*D15
 10
6498.5967161936333
 20
4001.8797419999992
 30
0.0
 11
6297.0967161936333
 21
4136.2057061701698
 31
0.0
 12
-592.30666527920403
 22
0.0
 32
0.0
 70
   128
 13
6095.5967161936333
 23
4227.6146609999987
 33
0.0
 14
6498.5967161936333
 24
4307.4219929999999
 34
0.0
1001
ACAD
1000
DSTYLE
1002
{
1070
   288
1070
     1
1070
   172
1070
     1
1070
    40
1040
40.0
1070
   271
1070
     0
1070
   143
1040
0.039
1002
}
  0
LINE
  5
7BD4
  8
2
  6
CENTER
 10
3790.5511389837952
 20
4987.4219929999999
 30
0.0
 11
2246.4088779837939
 21
4987.4219929999999
 31
0.0
  0
LINE
  5
7BD5
  8
4
  6
CONTINUOUS
 10
7400.0
 20
2000.0
 30
0.0
 11
7400.0
 21
1200.0
 31
0.0
  0
LINE
  5
7BD6
  8
4
  6
CONTINUOUS
 10
4600.0
 20
2000.0
 30
0.0
 11
4600.0
 21
1200.0
 31
0.0
  0
LINE
  5
7BD7
  8
4
  6
CONTINUOUS
 10
2600.0
 20
2000.0
 30
0.0
 11
2600.0
 21
1200.0
 31
0.0
  0
LINE
  5
7BDA
  8
4
  6
CONTINUOUS
 10
2600.0
 20
1200.0
 30
0.0
 11
7400.0
 21
1200.0
 31
0.0
  0
LINE
  5
7BDB
  8
4
  6
CONTINUOUS
 10
2600.0
 20
1600.0
 30
0.0
 11
7400.0
 21
1600.0
 31
0.0
  0
TEXT
  5
7BDC
  8
4
  6
CONTINUOUS
 10
2754.0083232000002
 20
1726.1721031999989
 30
0.0
 40
200.0
  1
機器名称
  0
TEXT
  5
7BDD
  8
4
  6
CONTINUOUS
 10
2745.032424
 20
1286.5806264
 30
0.0
 40
200.0
  1
機器型番
  0
TEXT
  5
7BDE
  8
4
  6
CONTINUOUS
 10
4710.7149823999989
 20
1690.2870751999999
 30
0.0
 40
168.88888879999999
  1
ミツヤリミットロードファン
  0
TEXT
  5
7BDF
  8
4
  6
CONTINUOUS
 10
4746.6179824000001
 20
1268.6383367999999
 30
0.0
 40
200.0
  1
LLE#5 1/2-4
  0
TEXT
  5
7BE1
  8
4
  6
CONTINUOUS
 10
3619.1430624
 20
9533.7153655999991
 30
0.0
 40
216.0
  1
床置ベット
  0
TEXT
  5
7BE2
  8
4
  6
CONTINUOUS
 10
1264.6703735999999
 20
10135.5239048
 30
0.0
 40
240.0
  1
ベルト駆動式片吸込両持排煙ファン
  0
LINE
  5
7BE3
  8
4
  6
CONTINUOUS
 10
1000.0
 20
9877.635016799999
 30
0.0
 11
7400.0
 21
9877.635016799999
 31
0.0
  0
LINE
  5
7BE4
  8
4
  6
CONTINUOUS
 10
1000.0
 20
10677.635016800001
 30
0.0
 11
7400.0
 21
10677.635016800001
 31
0.0
  0
LINE
  5
7BE5
  8
4
  6
CONTINUOUS
 10
2600.0
 20
2000.0
 30
0.0
 11
7400.0
 21
2000.0
 31
0.0
  0
LINE
  5
7BE6
  8
4
  6
CONTINUOUS
 10
1000.0
 20
10677.635016800001
 30
0.0
 11
1000.0
 21
9877.635016799999
 31
0.0
  0
TEXT
  5
7BE7
  8
4
  6
CONTINUOUS
 10
1605.0879087998539
 20
9529.2779104000001
 30
0.0
 40
216.0
  1
左回転左横向
  0
TEXT
  5
7BE8
  8
4
  6
CONTINUOUS
 10
5875.8782375999999
 20
10824.244326399999
 30
0.0
 40
224.0
  1
No.
  0
TEXT
  5
7BE9
  8
4
  6
CONTINUOUS
 10
5245.1842504000006
 20
9533.7153655999991
 30
0.0
 40
216.0
  1
縮尺：1/40
  0
LINE
  5
7BEA
  8
4
  6
CONTINUOUS
 10
7400.0
 20
10677.635016800001
 30
0.0
 11
7400.0
 21
9877.635016799999
 31
0.0
  0
LINE
  5
7BEC
  8
4
  6
CONTINUOUS
 10
5762.4696895999996
 20
10725.0543328
 30
0.0
 11
5762.4696895999996
 21
11146.609046400001
 31
0.0
  0
LINE
  5
7BED
  8
4
  6
CONTINUOUS
 10
5762.4696895999996
 20
11146.609046400001
 30
0.0
 11
7400.0
 21
11146.609046400001
 31
0.0
  0
LINE
  5
7BEE
  8
4
  6
CONTINUOUS
 10
7400.0
 20
11146.609046400001
 30
0.0
 11
7400.0
 21
10725.0543328
 31
0.0
  0
LINE
  5
7BEF
  8
4
  6
CONTINUOUS
 10
7400.0
 20
10725.0543328
 30
0.0
 11
5762.4696895999996
 21
10725.0543328
 31
0.0
  0
DIMENSION
  5
7D97
  8
3
  2
*D16
 10
4256.8869439837954
 20
6346.0536119528178
 30
0.0
 11
3305.3350502441308
 21
6346.0536119528178
 31
0.0
 70
   128
 13
2296.8869439837949
 23
6008.4219929999999
 33
0.0
 14
4256.8869439837954
 24
4432.4219929999999
 34
0.0
1001
ACAD
1000
DSTYLE
1002
{
1070
   287
1070
     3
1070
   287
1070
     3
1070
    40
1040
40.0
1070
   143
1040
0.039
1070
   172
1070
     1
1070
   271
1070
     0
1070
   279
1070
     0
1070
   288
1070
     1
1002
}
  0
DIMENSION
  5
7DA4
  8
3
  2
*D17
 10
1513.267963185943
 20
4307.4219930000008
 30
0.0
 11
1513.2679631859421
 21
5114.4782955428809
 31
0.0
 70
   128
 13
2296.8869439837949
 23
5988.4219929999999
 33
0.0
 14
2356.8869439837949
 24
4307.4219929999999
 34
0.0
 50
90.0
1001
ACAD
1000
DSTYLE
1002
{
1070
   287
1070
     3
1070
   287
1070
     3
1070
    40
1040
40.0
1070
   143
1040
0.039
1070
   172
1070
     1
1070
   271
1070
     0
1070
   279
1070
     0
1070
   288
1070
     1
1002
}
  0
ENDSEC
  0
EOF
