  0
SECTION
  2
HEADER
  9
$ACADVER
  1
AC1009
  9
$INSBASE
 10
0.0
 20
0.0
 30
0.0
  9
$EXTMIN
 10
1000.0
 20
1200.0
 30
0.0
  9
$EXTMAX
 10
7400.0
 20
11146.609046
 30
0.0
  9
$LIMMIN
 10
0.0
 20
0.0
  9
$LIMMAX
 10
297.0
 20
210.0
  9
$ORTHOMODE
 70
     0
  9
$REGENMODE
 70
     1
  9
$FILLMODE
 70
     0
  9
$QTEXTMODE
 70
     0
  9
$MIRRTEXT
 70
     1
  9
$DRAGMODE
 70
     2
  9
$LTSCALE
 40
100.0
  9
$OSMODE
 70
    37
  9
$ATTMODE
 70
     1
  9
$TEXTSIZE
 40
180.0
  9
$TRACEWID
 40
0.05
  9
$TEXTSTYLE
  7
STANDARD
  9
$CLAYER
  8
3
  9
$CELTYPE
  6
BYLAYER
  9
$CECOLOR
 62
   256
  9
$DIMSCALE
 40
40.0
  9
$DIMASZ
 40
2.0
  9
$DIMEXO
 40
0.5
  9
$DIMDLI
 40
10.0
  9
$DIMRND
 40
0.0
  9
$DIMDLE
 40
0.0
  9
$DIMEXE
 40
1.0
  9
$DIMTP
 40
1.0
  9
$DIMTM
 40
1.0
  9
$DIMTXT
 40
3.0
  9
$DIMCEN
 40
0.0
  9
$DIMTSZ
 40
0.0
  9
$DIMTOL
 70
     0
  9
$DIMLIM
 70
     0
  9
$DIMTIH
 70
     0
  9
$DIMTOH
 70
     0
  9
$DIMSE1
 70
     0
  9
$DIMSE2
 70
     0
  9
$DIMTAD
 70
     1
  9
$DIMZIN
 70
     8
  9
$DIMBLK
  1

  9
$DIMASO
 70
     1
  9
$DIMSHO
 70
     1
  9
$DIMPOST
  1
(<>)
  9
$DIMAPOST
  1

  9
$DIMALT
 70
     0
  9
$DIMALTD
 70
     2
  9
$DIMALTF
 40
0.039
  9
$DIMLFAC
 40
1.0
  9
$DIMTOFL
 70
     1
  9
$DIMTVP
 40
0.0
  9
$DIMTIX
 70
     0
  9
$DIMSOXD
 70
     0
  9
$DIMSAH
 70
     1
  9
$DIMBLK1
  1
OPEN
  9
$DIMBLK2
  1
OPEN
  9
$DIMSTYLE
  2
IGA
  9
$DIMCLRD
 70
     0
  9
$DIMCLRE
 70
     0
  9
$DIMCLRT
 70
     0
  9
$DIMTFAC
 40
10.0
  9
$DIMGAP
 40
1.0
  9
$LUNITS
 70
     2
  9
$LUPREC
 70
     3
  9
$SKETCHINC
 40
0.1
  9
$FILLETRAD
 40
50.0
  9
$AUNITS
 70
     0
  9
$AUPREC
 70
     0
  9
$MENU
  1
acad
  9
$ELEVATION
 40
0.0
  9
$PELEVATION
 40
0.0
  9
$THICKNESS
 40
0.0
  9
$LIMCHECK
 70
     0
  9
$BLIPMODE
 70
     0
  9
$CHAMFERA
 40
0.5
  9
$CHAMFERB
 40
0.5
  9
$SKPOLY
 70
     0
  9
$TDCREATE
 40
2450753.4260253469
  9
$TDUPDATE
 40
2454953.685508715
  9
$TDINDWG
 40
0.0076410417
  9
$TDUSRTIMER
 40
0.0076410417
  9
$USRTIMER
 70
     1
  9
$ANGBASE
 50
0.0
  9
$ANGDIR
 70
     0
  9
$PDMODE
 70
     0
  9
$PDSIZE
 40
0.0
  9
$PLINEWID
 40
0.0
  9
$COORDS
 70
     1
  9
$SPLFRAME
 70
     0
  9
$SPLINETYPE
 70
     6
  9
$SPLINESEGS
 70
     8
  9
$ATTDIA
 70
     0
  9
$ATTREQ
 70
     1
  9
$HANDLING
 70
 10241
  9
$HANDSEED
  5
7F5C
  9
$SURFTAB1
 70
     6
  9
$SURFTAB2
 70
     6
  9
$SURFTYPE
 70
     6
  9
$SURFU
 70
     6
  9
$SURFV
 70
     6
  9
$UCSNAME
  2

  9
$UCSORG
 10
0.0
 20
0.0
 30
0.0
  9
$UCSXDIR
 10
1.0
 20
0.0
 30
0.0
  9
$UCSYDIR
 10
0.0
 20
1.0
 30
0.0
  9
$PUCSNAME
  2

  9
$PUCSORG
 10
0.0
 20
0.0
 30
0.0
  9
$PUCSXDIR
 10
1.0
 20
0.0
 30
0.0
  9
$PUCSYDIR
 10
0.0
 20
1.0
 30
0.0
  9
$USERI1
 70
     0
  9
$USERI2
 70
     0
  9
$USERI3
 70
     0
  9
$USERI4
 70
     0
  9
$USERI5
 70
     0
  9
$USERR1
 40
0.0
  9
$USERR2
 40
0.0
  9
$USERR3
 40
0.0
  9
$USERR4
 40
0.0
  9
$USERR5
 40
0.0
  9
$WORLDVIEW
 70
     1
  9
$SHADEDGE
 70
     3
  9
$SHADEDIF
 70
    70
  9
$TILEMODE
 70
     1
  9
$MAXACTVP
 70
    16
  9
$PLIMCHECK
 70
     0
  9
$PEXTMIN
 10
1.0000000000000000E+020
 20
1.0000000000000000E+020
 30
1.0000000000000000E+020
  9
$PEXTMAX
 10
-1.0000000000000000E+020
 20
-1.0000000000000000E+020
 30
-1.0000000000000000E+020
  9
$PLIMMIN
 10
0.0
 20
0.0
  9
$PLIMMAX
 10
12.0
 20
9.0
  9
$UNITMODE
 70
     0
  9
$VISRETAIN
 70
     0
  9
$PLINEGEN
 70
     0
  9
$PSLTSCALE
 70
     1
  0
ENDSEC
  0
SECTION
  2
TABLES
  0
TABLE
  2
VPORT
 70
     2
  0
VPORT
  2
*ACTIVE
 70
     0
 10
0.0
 20
0.0
 11
1.0
 21
1.0
 12
20873.108193600139
 22
7152.646295769996
 13
0.0
 23
0.0
 14
10.0
 24
10.0
 15
10.0
 25
10.0
 16
0.0
 26
0.0
 36
1.0
 17
0.0
 27
0.0
 37
0.0
 40
15261.43785170853
 41
3.1666666666666661
 42
50.0
 43
0.0
 44
0.0
 50
0.0
 51
0.0
 71
     0
 72
   100
 73
     1
 74
     0
 75
     0
 76
     0
 77
     0
 78
     0
  0
ENDTAB
  0
TABLE
  2
LTYPE
 70
     2
  0
LTYPE
  2
CONTINUOUS
 70
     0
  3
Solid line
 72
    65
 73
     0
 40
0.0
  0
LTYPE
  2
CENTER
 70
     0
  3
____ _ ____ _ ____ _ ____ _ ____ _ ____ _ ____ 
 72
    65
 73
     4
 40
2.0
 49
1.25
 49
-0.25
 49
0.25
 49
-0.25
  0
ENDTAB
  0
TABLE
  2
LAYER
 70
     6
  0
LAYER
  2
0
 70
     0
 62
     7
  6
CONTINUOUS
  0
LAYER
  2
3
 70
     0
 62
     2
  6
CONTINUOUS
  0
LAYER
  2
2
 70
     0
 62
     3
  6
CENTER
  0
LAYER
  2
1
 70
     0
 62
     4
  6
CONTINUOUS
  0
LAYER
  2
4
 70
     0
 62
     7
  6
CONTINUOUS
  0
LAYER
  2
DEFPOINTS
 70
     0
 62
     7
  6
CONTINUOUS
  0
ENDTAB
  0
TABLE
  2
STYLE
 70
     1
  0
STYLE
  2
STANDARD
 70
     0
 40
0.0
 41
1.0
 50
0.0
 71
     0
 42
180.0
  3
simplex.shx
  4
extfont.shx
  0
ENDTAB
  0
TABLE
  2
VIEW
 70
     0
  0
ENDTAB
  0
TABLE
  2
UCS
 70
     0
  0
ENDTAB
  0
TABLE
  2
APPID
 70
     1
  0
APPID
  2
ACAD
 70
     0
  0
ENDTAB
  0
TABLE
  2
DIMSTYLE
 70
     1
  0
DIMSTYLE
  2
IGA
 70
     0
  3

  4

  5

  6
OPEN
  7
OPEN
 40
2.0
 41
2.0
 42
0.5
 43
10.0
 44
1.0
 45
0.0
 46
0.0
 47
1.0
 48
1.0
140
3.0
141
0.0
142
0.0
143
0.03937
144
1.0
145
0.0
146
10.0
147
1.0
 71
     0
 72
     0
 73
     0
 74
     0
 75
     0
 76
     0
 77
     1
 78
     8
170
     0
171
     2
172
     0
173
     1
174
     0
175
     0
176
     0
177
     0
178
     0
  0
ENDTAB
  0
ENDSEC
  0
SECTION
  2
BLOCKS
  0
BLOCK
  8
0
  2
$MODEL_SPACE
 70
     0
 10
0.0
 20
0.0
 30
0.0
  3
$MODEL_SPACE
  1

  0
ENDBLK
  5
1B
  8
0
  0
BLOCK
 67
     1
  8
0
  2
$PAPER_SPACE
 70
     0
 10
0.0
 20
0.0
 30
0.0
  3
$PAPER_SPACE
  1

  0
ENDBLK
  5
18
 67
     1
  8
0
  0
BLOCK
  8
0
  2
_OPEN
 70
     0
 10
0.0
 20
0.0
 30
0.0
  3
_OPEN
  1

  0
LINE
  5
7AE8
  8
0
  6
BYBLOCK
 62
     0
 10
-1.0
 20
0.166667
 30
0.0
 11
0.0
 21
0.0
 31
0.0
  0
LINE
  5
7AE9
  8
0
  6
BYBLOCK
 62
     0
 10
0.0
 20
0.0
 30
0.0
 11
-1.0
 21
-0.166667
 31
0.0
  0
LINE
  5
7AEA
  8
0
  6
BYBLOCK
 62
     0
 10
0.0
 20
0.0
 30
0.0
 11
-1.0
 21
0.0
 31
0.0
  0
ENDBLK
  5
7AEB
  8
0
  0
BLOCK
  8
0
  2
*D1
 70
     1
 10
0.0
 20
0.0
 30
0.0
  3
*D1
  1

  0
LINE
  5
7EA8
  8
3
  6
CONTINUOUS
 62
     0
 10
2492.9173919999998
 20
4894.0219989999996
 30
0.0
 11
2204.8970060000001
 21
4894.0219989999996
 31
0.0
  0
LINE
  5
7EA9
  8
3
  6
CONTINUOUS
 62
     0
 10
2492.9173919999998
 20
4069.0219990000001
 30
0.0
 11
2204.8970060000001
 21
4069.0219990000001
 31
0.0
  0
LINE
  5
7EAA
  8
3
  6
CONTINUOUS
 62
     0
 10
2244.8970059999988
 20
4814.0219990000014
 30
0.0
 11
2244.8970059999988
 21
4149.0219989999996
 31
0.0
  0
INSERT
  5
7EAB
  8
3
  6
CONTINUOUS
 62
     0
  2
_OPEN
 10
2244.8970059999988
 20
4894.0219989999996
 30
0.0
 41
80.0
 42
80.0
 43
80.0
 50
90.0
  0
INSERT
  5
7EAC
  8
3
  6
CONTINUOUS
 62
     0
  2
_OPEN
 10
2244.8970059999988
 20
4069.0219990000001
 30
0.0
 41
80.0
 42
80.0
 43
80.0
 50
270.0
  0
TEXT
  8
3
  40
120
  5
7F4B
  62
0
  72
0
  71
0
 10
1904.90
 20
4309.81
 30
0.000000
  1
825
  0
POINT
  5
7EAE
  8
DEFPOINTS
  6
CONTINUOUS
 62
     0
 10
2512.9173919999998
 20
4894.0219989999996
 30
0.0
  0
POINT
  5
7EAF
  8
DEFPOINTS
  6
CONTINUOUS
 62
     0
 10
2512.9173919999998
 20
4069.0219990000001
 30
0.0
  0
POINT
  5
7EB0
  8
DEFPOINTS
  6
CONTINUOUS
 62
     0
 10
2244.8970059999988
 20
4069.0219990000001
 30
0.0
  0
ENDBLK
  5
7B13
  8
0
  0
BLOCK
  8
0
  2
*D2
 70
     1
 10
0.0
 20
0.0
 30
0.0
  3
*D2
  1

  0
LINE
  5
7EB1
  8
3
  6
CONTINUOUS
 62
     0
 10
2492.9173919999998
 20
4069.0219990000001
 30
0.0
 11
1987.3787239999999
 21
4069.0219990000001
 31
0.0
  0
LINE
  5
7EB2
  8
3
  6
CONTINUOUS
 62
     0
 10
2567.1251940000002
 20
4917.0219990000014
 30
0.0
 11
1987.3787239999999
 21
4917.0219990000014
 31
0.0
  0
LINE
  5
7EB3
  8
3
  6
CONTINUOUS
 62
     0
 10
2027.3787239999999
 20
4149.0219990000014
 30
0.0
 11
2027.3787239999999
 21
4837.0219990000014
 31
0.0
  0
INSERT
  5
7EB4
  8
3
  6
CONTINUOUS
 62
     0
  2
_OPEN
 10
2027.3787239999999
 20
4069.0219990000001
 30
0.0
 41
80.0
 42
80.0
 43
80.0
 50
270.0
  0
INSERT
  5
7EB5
  8
3
  6
CONTINUOUS
 62
     0
  2
_OPEN
 10
2027.3787239999999
 20
4917.0219990000014
 30
0.0
 41
80.0
 42
80.0
 43
80.0
 50
90.0
  0
TEXT
  8
3
  40
120
  5
7F4C
  62
0
  72
0
  71
0
 10
1687.38
 20
4333.96
 30
0.000000
  1
848
  0
POINT
  5
7EB7
  8
DEFPOINTS
  6
CONTINUOUS
 62
     0
 10
2512.9173919999998
 20
4069.0219990000001
 30
0.0
  0
POINT
  5
7EB8
  8
DEFPOINTS
  6
CONTINUOUS
 62
     0
 10
2587.1251940000002
 20
4917.0219990000014
 30
0.0
  0
POINT
  5
7EB9
  8
DEFPOINTS
  6
CONTINUOUS
 62
     0
 10
2027.3787239999999
 20
4917.0219990000014
 30
0.0
  0
ENDBLK
  5
7B20
  8
0
  0
BLOCK
  8
0
  2
*D3
 70
     1
 10
0.0
 20
0.0
 30
0.0
  3
*D3
  1

  0
LINE
  5
7EBA
  8
3
  6
CONTINUOUS
 62
     0
 10
3037.9173919999998
 20
5485.0219989999996
 30
0.0
 11
1781.9448270000009
 21
5485.0219990000014
 31
0.0
  0
LINE
  5
7EBB
  8
3
  6
CONTINUOUS
 62
     0
 10
2567.1251940000002
 20
4917.0219990000014
 30
0.0
 11
1781.9448270000009
 21
4917.0219990000014
 31
0.0
  0
LINE
  5
7EBC
  8
3
  6
CONTINUOUS
 62
     0
 10
1821.9448270000009
 20
5405.0219990000023
 30
0.0
 11
1821.9448270000009
 21
4997.0219990000014
 31
0.0
  0
INSERT
  5
7EBD
  8
3
  6
CONTINUOUS
 62
     0
  2
_OPEN
 10
1821.9448270000009
 20
5485.0219990000014
 30
0.0
 41
80.0
 42
80.0
 43
80.0
 50
90.0
  0
INSERT
  5
7EBE
  8
3
  6
CONTINUOUS
 62
     0
  2
_OPEN
 10
1821.9448270000009
 20
4917.0219990000014
 30
0.0
 41
80.0
 42
80.0
 43
80.0
 50
270.0
  0
TEXT
  8
3
  40
120
  5
7F4D
  62
0
  72
0
  71
0
 10
1481.94
 20
4998.34
 30
0.000000
  1
568
  0
POINT
  5
7EC0
  8
DEFPOINTS
  6
CONTINUOUS
 62
     0
 10
3057.9173919999998
 20
5485.0219989999996
 30
0.0
  0
POINT
  5
7EC1
  8
DEFPOINTS
  6
CONTINUOUS
 62
     0
 10
2587.1251940000002
 20
4917.0219990000014
 30
0.0
  0
POINT
  5
7EC2
  8
DEFPOINTS
  6
CONTINUOUS
 62
     0
 10
1821.9448270000009
 20
4917.0219990000014
 30
0.0
  0
ENDBLK
  5
7D3C
  8
0
  0
BLOCK
  8
0
  2
*D4
 70
     1
 10
0.0
 20
0.0
 30
0.0
  3
*D4
  1

  0
LINE
  5
7EC3
  8
3
  6
CONTINUOUS
 62
     0
 10
2537.9173919999998
 20
3957.0219990000001
 30
0.0
 11
1781.944827
 21
3957.0219990000001
 31
0.0
  0
LINE
  5
7EC4
  8
3
  6
CONTINUOUS
 62
     0
 10
1821.944827
 20
4837.0219990000014
 30
0.0
 11
1821.944827
 21
4037.0219990000001
 31
0.0
  0
INSERT
  5
7EC5
  8
3
  6
CONTINUOUS
 62
     0
  2
_OPEN
 10
1821.944827
 20
4917.0219990000014
 30
0.0
 41
80.0
 42
80.0
 43
80.0
 50
90.0
  0
INSERT
  5
7EC6
  8
3
  6
CONTINUOUS
 62
     0
  2
_OPEN
 10
1821.944827
 20
3957.0219990000001
 30
0.0
 41
80.0
 42
80.0
 43
80.0
 50
270.0
  0
TEXT
  8
3
  40
120
  5
7F4E
  62
0
  72
0
  71
0
 10
1481.94
 20
4224.62
 30
0.000000
  1
960
  0
POINT
  5
7EC8
  8
DEFPOINTS
  6
CONTINUOUS
 62
     0
 10
2587.1251940000002
 20
4917.0219990000014
 30
0.0
  0
POINT
  5
7EC9
  8
DEFPOINTS
  6
CONTINUOUS
 62
     0
 10
2557.9173919999998
 20
3957.0219990000001
 30
0.0
  0
POINT
  5
7ECA
  8
DEFPOINTS
  6
CONTINUOUS
 62
     0
 10
1821.944827
 20
3957.0219990000001
 30
0.0
  0
ENDBLK
  5
7B39
  8
0
  0
BLOCK
  8
0
  2
*D5
 70
     1
 10
0.0
 20
0.0
 30
0.0
  3
*D5
  1

  0
LINE
  5
7CB7
  8
0
  6
BYBLOCK
 62
     0
 10
2512.9173919999998
 20
4956.5219989999996
 30
0.0
 11
2512.9173919999998
 21
5637.760534
 31
0.0
  0
LINE
  5
7CB8
  8
0
  6
BYBLOCK
 62
     0
 10
3057.9173919999998
 20
5503.9203639999987
 30
0.0
 11
3057.9173919999998
 21
5637.760534
 31
0.0
  0
LINE
  5
7CB9
  8
0
  6
BYBLOCK
 62
     0
 10
2592.9173919999998
 20
5597.760534
 30
0.0
 11
2977.9173919999998
 21
5597.760534
 31
0.0
  0
TEXT
  5
7CBA
  8
3
 62
     0
 10
2631.1316777142861
 20
5633.6794302402268
 30
0.0
 40
120.0
  1
545
  0
INSERT
  5
7CBB
  8
0
  6
BYBLOCK
 62
     0
  2
_OPEN
 10
2512.9173919999998
 20
5597.760534
 30
0.0
 41
80.0
 42
80.0
 43
80.0
 50
180.0
  0
INSERT
  5
7CBC
  8
0
  6
BYBLOCK
 62
     0
  2
_OPEN
 10
3057.9173919999998
 20
5597.760534
 30
0.0
 41
80.0
 42
80.0
 43
80.0
  0
POINT
  5
7CBD
  8
DEFPOINTS
  6
BYBLOCK
 62
     0
 10
2512.9173919999998
 20
4936.5219989999996
 30
0.0
  0
POINT
  5
7CBE
  8
DEFPOINTS
  6
BYBLOCK
 62
     0
 10
3057.9173919999998
 20
5483.9203639999987
 30
0.0
  0
POINT
  5
7CBF
  8
DEFPOINTS
  6
BYBLOCK
 62
     0
 10
3057.9173919999998
 20
5597.760534
 30
0.0
  0
ENDBLK
  5
7CC0
  8
0
  0
BLOCK
  8
0
  2
*D6
 70
     1
 10
0.0
 20
0.0
 30
0.0
  3
*D6
  1

  0
LINE
  5
7ECB
  8
3
  6
CONTINUOUS
 62
     0
 10
3743.9173919999998
 20
4937.0219990000014
 30
0.0
 11
3743.9173919999998
 21
5637.760534
 31
0.0
  0
LINE
  5
7ECC
  8
3
  6
CONTINUOUS
 62
     0
 10
3137.9173919999998
 20
5597.760534
 30
0.0
 11
3663.9173919999998
 21
5597.760534
 31
0.0
  0
INSERT
  5
7ECD
  8
3
  6
CONTINUOUS
 62
     0
  2
_OPEN
 10
3057.9173919999998
 20
5597.760534
 30
0.0
 41
80.0
 42
80.0
 43
80.0
 50
180.0
  0
INSERT
  5
7ECE
  8
3
  6
CONTINUOUS
 62
     0
  2
_OPEN
 10
3743.9173919999998
 20
5597.760534
 30
0.0
 41
80.0
 42
80.0
 43
80.0
  0
TEXT
  8
3
  40
120
  5
7F4F
  62
0
  72
0
  71
0
 10
3160.92
 20
5485.36
 30
0.000000
  1
686
  0
POINT
  5
7ED0
  8
DEFPOINTS
  6
CONTINUOUS
 62
     0
 10
3057.9173919999998
 20
5483.9203639999987
 30
0.0
  0
POINT
  5
7ED1
  8
DEFPOINTS
  6
CONTINUOUS
 62
     0
 10
3743.9173919999998
 20
4917.0219990000014
 30
0.0
  0
POINT
  5
7ED2
  8
DEFPOINTS
  6
CONTINUOUS
 62
     0
 10
3743.9173919999998
 20
5597.760534
 30
0.0
  0
ENDBLK
  5
7D18
  8
0
  0
BLOCK
  8
0
  2
*D7
 70
     1
 10
0.0
 20
0.0
 30
0.0
  3
*D7
  1

  0
LINE
  5
7ED3
  8
3
  6
CONTINUOUS
 62
     0
 10
2557.9173919999998
 20
7240.7090260000014
 30
0.0
 11
2557.9173919999998
 21
6824.0150999999996
 31
0.0
  0
LINE
  5
7ED4
  8
3
  6
CONTINUOUS
 62
     0
 10
4257.9173920000003
 20
7240.7090260000014
 30
0.0
 11
4257.9173920000003
 21
6824.0150999999996
 31
0.0
  0
LINE
  5
7ED5
  8
3
  6
CONTINUOUS
 62
     0
 10
2637.9173919999998
 20
6864.0150999999996
 30
0.0
 11
4177.9173920000003
 21
6864.0150999999996
 31
0.0
  0
INSERT
  5
7ED6
  8
3
  6
CONTINUOUS
 62
     0
  2
_OPEN
 10
2557.9173919999998
 20
6864.0150999999996
 30
0.0
 41
80.0
 42
80.0
 43
80.0
 50
180.0
  0
INSERT
  5
7ED7
  8
3
  6
CONTINUOUS
 62
     0
  2
_OPEN
 10
4257.9173920000003
 20
6864.0150999999996
 30
0.0
 41
80.0
 42
80.0
 43
80.0
  0
TEXT
  8
3
  40
120
  5
7F50
  62
0
  72
0
  71
0
 10
3189.16
 20
6751.62
 30
0.000000
  1
1700
  0
POINT
  5
7ED9
  8
DEFPOINTS
  6
CONTINUOUS
 62
     0
 10
2557.9173919999998
 20
7260.7090260000004
 30
0.0
  0
POINT
  5
7EDA
  8
DEFPOINTS
  6
CONTINUOUS
 62
     0
 10
4257.9173920000003
 20
7260.7090260000004
 30
0.0
  0
POINT
  5
7EDB
  8
DEFPOINTS
  6
CONTINUOUS
 62
     0
 10
4257.9173920000003
 20
6864.0150999999996
 30
0.0
  0
ENDBLK
  5
7B98
  8
0
  0
BLOCK
  8
0
  2
*D8
 70
     1
 10
0.0
 20
0.0
 30
0.0
  3
*D8
  1

  0
LINE
  5
7EDC
  8
3
  6
CONTINUOUS
 62
     0
 10
4277.9173920000003
 20
8110.7090260000004
 30
0.0
 11
4659.4713659999998
 21
8110.7090260000004
 31
0.0
  0
LINE
  5
7EDD
  8
3
  6
CONTINUOUS
 62
     0
 10
4277.9173920000003
 20
7260.7090260000004
 30
0.0
 11
4659.4713659999998
 21
7260.7090260000004
 31
0.0
  0
LINE
  5
7EDE
  8
3
  6
CONTINUOUS
 62
     0
 10
4619.4713659999998
 20
8030.7090260000023
 30
0.0
 11
4619.4713659999998
 21
7340.7090260000004
 31
0.0
  0
INSERT
  5
7EDF
  8
3
  6
CONTINUOUS
 62
     0
  2
_OPEN
 10
4619.4713659999998
 20
8110.7090260000004
 30
0.0
 41
80.0
 42
80.0
 43
80.0
 50
90.0
  0
INSERT
  5
7EE0
  8
3
  6
CONTINUOUS
 62
     0
  2
_OPEN
 10
4619.4713659999998
 20
7260.7090260000004
 30
0.0
 41
80.0
 42
80.0
 43
80.0
 50
270.0
  0
TEXT
  8
3
  40
120
  5
7F51
  62
0
  72
0
  71
0
 10
4279.47
 20
7527.99
 30
0.000000
  1
850
  0
POINT
  5
7EE2
  8
DEFPOINTS
  6
CONTINUOUS
 62
     0
 10
4257.9173920000003
 20
8110.7090260000004
 30
0.0
  0
POINT
  5
7EE3
  8
DEFPOINTS
  6
CONTINUOUS
 62
     0
 10
4257.9173920000003
 20
7260.7090260000004
 30
0.0
  0
POINT
  5
7EE4
  8
DEFPOINTS
  6
CONTINUOUS
 62
     0
 10
4619.4713659999998
 20
7260.7090260000004
 30
0.0
  0
ENDBLK
  5
7BA5
  8
0
  0
BLOCK
  8
0
  2
*D9
 70
     1
 10
0.0
 20
0.0
 30
0.0
  3
*D9
  1

  0
LINE
  5
7EE5
  8
3
  6
CONTINUOUS
 62
     0
 10
6845.1542439999994
 20
5317.0219990000014
 30
0.0
 11
7168.7985610000014
 21
5317.0219990000014
 31
0.0
  0
LINE
  5
7EE6
  8
3
  6
CONTINUOUS
 62
     0
 10
6845.1542439999994
 20
4517.0219989999996
 30
0.0
 11
7168.7985610000014
 21
4517.0219989999996
 31
0.0
  0
LINE
  5
7EE7
  8
3
  6
CONTINUOUS
 62
     0
 10
7128.7985609999996
 20
5237.0219990000014
 30
0.0
 11
7128.7985609999996
 21
4597.0219989999996
 31
0.0
  0
INSERT
  5
7EE8
  8
3
  6
CONTINUOUS
 62
     0
  2
_OPEN
 10
7128.7985609999996
 20
5317.0219990000014
 30
0.0
 41
80.0
 42
80.0
 43
80.0
 50
90.0
  0
INSERT
  5
7EE9
  8
3
  6
CONTINUOUS
 62
     0
  2
_OPEN
 10
7128.7985609999996
 20
4517.0219989999996
 30
0.0
 41
80.0
 42
80.0
 43
80.0
 50
270.0
  0
TEXT
  8
3
  40
120
  5
7F52
  62
0
  72
0
  71
0
 10
6788.80
 20
4695.56
 30
0.000000
  1
φ800
  0
POINT
  5
7EEB
  8
DEFPOINTS
  6
CONTINUOUS
 62
     0
 10
6825.1542440000003
 20
5317.0219990000014
 30
0.0
  0
POINT
  5
7EEC
  8
DEFPOINTS
  6
CONTINUOUS
 62
     0
 10
6825.1542440000003
 20
4517.0219989999996
 30
0.0
  0
POINT
  5
7EED
  8
DEFPOINTS
  6
CONTINUOUS
 62
     0
 10
7128.7985609999996
 20
4517.0219989999996
 30
0.0
  0
ENDBLK
  5
7C89
  8
0
  0
BLOCK
  8
0
  2
*D10
 70
     1
 10
0.0
 20
0.0
 30
0.0
  3
*D10
  1

  0
LINE
  5
7EEE
  8
3
  6
CONTINUOUS
 62
     0
 10
6142.1542440000003
 20
5415.0219989999996
 30
0.0
 11
6142.1542440000003
 21
5577.404050000001
 31
0.0
  0
LINE
  5
7EEF
  8
3
  6
CONTINUOUS
 62
     0
 10
6742.1542439999994
 20
5415.0219989999996
 30
0.0
 11
6742.1542439999994
 21
5577.404050000001
 31
0.0
  0
LINE
  5
7EF0
  8
3
  6
CONTINUOUS
 62
     0
 10
6062.1542439999994
 20
5537.4040500000001
 30
0.0
 11
5982.1542440000003
 21
5537.4040500000001
 31
0.0
  0
LINE
  5
7EF1
  8
3
  6
CONTINUOUS
 62
     0
 10
6822.1542440000003
 20
5537.4040500000001
 30
0.0
 11
6902.1542439999994
 21
5537.4040500000001
 31
0.0
  0
LINE
  5
7EF2
  8
3
  6
CONTINUOUS
 62
     0
 10
6142.1542440000003
 20
5537.4040500000001
 30
0.0
 11
6742.1542439999994
 21
5537.4040500000001
 31
0.0
  0
INSERT
  5
7EF3
  8
3
  6
CONTINUOUS
 62
     0
  2
_OPEN
 10
6142.1542440000003
 20
5537.4040500000001
 30
0.0
 41
80.0
 42
80.0
 43
80.0
  0
INSERT
  5
7EF4
  8
3
  6
CONTINUOUS
 62
     0
  2
_OPEN
 10
6742.1542439999994
 20
5537.4040500000001
 30
0.0
 41
80.0
 42
80.0
 43
80.0
 50
180.0
  0
TEXT
  8
3
  40
120
  5
7F53
  62
0
  72
0
  71
0
 10
6176.44
 20
5425.00
 30
0.000000
  1
600
  0
POINT
  5
7EF6
  8
DEFPOINTS
  6
CONTINUOUS
 62
     0
 10
6142.1542440000003
 20
5395.0219989999996
 30
0.0
  0
POINT
  5
7EF7
  8
DEFPOINTS
  6
CONTINUOUS
 62
     0
 10
6742.1542439999994
 20
5395.0219989999996
 30
0.0
  0
POINT
  5
7EF8
  8
DEFPOINTS
  6
CONTINUOUS
 62
     0
 10
6742.1542439999994
 20
5537.4040500000001
 30
0.0
  0
ENDBLK
  5
7C03
  8
0
  0
BLOCK
  8
0
  2
*D11
 70
     1
 10
0.0
 20
0.0
 30
0.0
  3
*D11
  1

  0
LINE
  5
7CFA
  8
0
  6
BYBLOCK
 62
     0
 10
5872.1542439999994
 20
5137.0219990000014
 30
0.0
 11
5872.1542439999994
 21
5842.9726140000002
 31
0.0
  0
LINE
  5
7CFB
  8
0
  6
BYBLOCK
 62
     0
 10
6442.1542440000003
 20
5734.8865749805454
 30
0.0
 11
6442.1542440000003
 21
5842.9726140000002
 31
0.0
  0
LINE
  5
7CFC
  8
0
  6
BYBLOCK
 62
     0
 10
5952.1542439999994
 20
5802.9726140000002
 30
0.0
 11
6362.1542439999994
 21
5802.9726140000002
 31
0.0
  0
INSERT
  5
7CFD
  8
3
  2
*U22
 10
0.0
 20
0.0
 30
0.0
  0
INSERT
  5
7CFE
  8
0
  6
BYBLOCK
 62
     0
  2
_OPEN
 10
5872.1542439999994
 20
5802.9726140000002
 30
0.0
 41
80.0
 42
80.0
 43
80.0
 50
180.0
  0
INSERT
  5
7CFF
  8
0
  6
BYBLOCK
 62
     0
  2
_OPEN
 10
6442.1542440000003
 20
5802.9726140000002
 30
0.0
 41
80.0
 42
80.0
 43
80.0
  0
POINT
  5
7D00
  8
DEFPOINTS
  6
BYBLOCK
 62
     0
 10
5872.1542439999994
 20
5117.0219990000014
 30
0.0
  0
POINT
  5
7D01
  8
DEFPOINTS
  6
BYBLOCK
 62
     0
 10
6442.1542440000003
 20
5714.8865749805436
 30
0.0
  0
POINT
  5
7D02
  8
DEFPOINTS
  6
BYBLOCK
 62
     0
 10
6442.1542440000003
 20
5802.9726140000002
 30
0.0
  0
ENDBLK
  5
7D03
  8
0
  0
BLOCK
  8
0
  2
*D12
 70
     1
 10
0.0
 20
0.0
 30
0.0
  3
*D12
  1

  0
LINE
  5
7EF9
  8
3
  6
CONTINUOUS
 62
     0
 10
6825.1542440000003
 20
5377.0219989999996
 30
0.0
 11
6825.1542440000003
 21
5842.9726140000002
 31
0.0
  0
LINE
  5
7EFA
  8
3
  6
CONTINUOUS
 62
     0
 10
6522.1542439999994
 20
5802.9726140000002
 30
0.0
 11
6745.1542440000003
 21
5802.9726140000002
 31
0.0
  0
TEXT
  8
3
  40
120
  5
7F54
  62
0
  72
0
  71
0
 10
6375.21
 20
5691.17
 30
0.000000
  1
383
  0
INSERT
  5
7EFC
  8
3
  6
CONTINUOUS
 62
     0
  2
_OPEN
 10
6442.1542440000003
 20
5802.9726140000002
 30
0.0
 41
80.0
 42
80.0
 43
80.0
 50
180.0
  0
INSERT
  5
7EFD
  8
3
  6
CONTINUOUS
 62
     0
  2
_OPEN
 10
6825.1542440000003
 20
5802.9726140000002
 30
0.0
 41
80.0
 42
80.0
 43
80.0
  0
POINT
  5
7EFE
  8
DEFPOINTS
  6
CONTINUOUS
 62
     0
 10
6442.1542440000003
 20
5718.2797104301717
 30
0.0
  0
POINT
  5
7EFF
  8
DEFPOINTS
  6
CONTINUOUS
 62
     0
 10
6825.1542440000003
 20
5357.0219989999996
 30
0.0
  0
POINT
  5
7F00
  8
DEFPOINTS
  6
CONTINUOUS
 62
     0
 10
6825.1542440000003
 20
5802.9726140000002
 30
0.0
  0
ENDBLK
  5
7CF8
  8
0
  0
BLOCK
  8
0
  2
*D13
 70
     1
 10
0.0
 20
0.0
 30
0.0
  3
*D13
  1

  0
LINE
  5
7F06
  8
3
 62
     0
 10
2512.9173919999998
 20
4976.5219989999996
 30
0.0
 11
2512.9173919999998
 21
5890.8243228995343
 31
0.0
  0
LINE
  5
7F07
  8
3
 62
     0
 10
4257.9173920000003
 20
4077.0219990000001
 30
0.0
 11
4257.9173920000003
 21
5890.8243228995343
 31
0.0
  0
LINE
  5
7F08
  8
3
 62
     0
 10
2592.9173919999998
 20
5850.8243228995343
 30
0.0
 11
4177.9173920000003
 21
5850.8243228995343
 31
0.0
  0
INSERT
  5
7F09
  8
3
 62
     0
  2
_OPEN
 10
2512.9173919999998
 20
5850.8243228995343
 30
0.0
 41
80.0
 42
80.0
 43
80.0
 50
180.0
  0
INSERT
  5
7F0A
  8
3
 62
     0
  2
_OPEN
 10
4257.9173920000003
 20
5850.8243228995343
 30
0.0
 41
80.0
 42
80.0
 43
80.0
  0
TEXT
  8
3
  40
120
  5
7F55
  62
0
  72
0
  71
0
 10
3045.75
 20
5738.42
 30
0.000000
  1
1745
  0
POINT
  5
7F0C
  8
DEFPOINTS
 62
     0
 10
2512.9173919999998
 20
4956.5219989999996
 30
0.0
  0
POINT
  5
7F0D
  8
DEFPOINTS
 62
     0
 10
4257.9173920000003
 20
4057.0219989999991
 30
0.0
  0
POINT
  5
7F0E
  8
DEFPOINTS
 62
     0
 10
4257.9173920000003
 20
5850.8243228995343
 30
0.0
  0
ENDBLK
  5
7D24
  8
0
  0
BLOCK
  8
0
  2
*D14
 70
     1
 10
0.0
 20
0.0
 30
0.0
  3
*D14
  1

  0
LINE
  5
7F0F
  8
3
 62
     0
 10
2557.9173919999998
 20
3742.0219990000001
 30
0.0
 11
2557.9173919999998
 21
3468.4945395127252
 31
0.0
  0
LINE
  5
7F10
  8
3
 62
     0
 10
3057.9173919999998
 20
3742.0219990000001
 30
0.0
 11
3057.9173919999998
 21
3468.4945395127252
 31
0.0
  0
LINE
  5
7F11
  8
3
 62
     0
 10
2637.9173919999998
 20
3508.4945395127238
 30
0.0
 11
2977.9173919999998
 21
3508.4945395127238
 31
0.0
  0
INSERT
  5
7F12
  8
3
 62
     0
  2
_OPEN
 10
2557.9173919999998
 20
3508.4945395127238
 30
0.0
 41
80.0
 42
80.0
 43
80.0
 50
180.0
  0
INSERT
  5
7F13
  8
3
 62
     0
  2
_OPEN
 10
3057.9173919999998
 20
3508.4945395127238
 30
0.0
 41
80.0
 42
80.0
 43
80.0
  0
TEXT
  8
3
  40
120
  5
7F56
  62
0
  72
0
  71
0
 10
2567.92
 20
3396.09
 30
0.000000
  1
500
  0
POINT
  5
7F15
  8
DEFPOINTS
 62
     0
 10
2557.9173919999998
 20
3762.0219990000001
 30
0.0
  0
POINT
  5
7F16
  8
DEFPOINTS
 62
     0
 10
3057.9173919999998
 20
3762.0219990000001
 30
0.0
  0
POINT
  5
7F17
  8
DEFPOINTS
 62
     0
 10
3057.9173919999998
 20
3508.4945395127238
 30
0.0
  0
ENDBLK
  5
7D52
  8
0
  0
BLOCK
  8
0
  2
*D15
 70
     1
 10
0.0
 20
0.0
 30
0.0
  3
*D15
  1

  0
LINE
  5
7F18
  8
3
 62
     0
 10
3057.9173919999998
 20
3742.0219990000001
 30
0.0
 11
3057.9173919999998
 21
3468.4945395127252
 31
0.0
  0
LINE
  5
7F19
  8
3
 62
     0
 10
4257.9173920000003
 20
3742.0219990000001
 30
0.0
 11
4257.9173920000003
 21
3468.4945395127252
 31
0.0
  0
LINE
  5
7F1A
  8
3
 62
     0
 10
3137.9173919999998
 20
3508.4945395127238
 30
0.0
 11
4177.9173920000003
 21
3508.4945395127238
 31
0.0
  0
INSERT
  5
7F1B
  8
3
 62
     0
  2
_OPEN
 10
3057.9173919999998
 20
3508.4945395127238
 30
0.0
 41
80.0
 42
80.0
 43
80.0
 50
180.0
  0
INSERT
  5
7F1C
  8
3
 62
     0
  2
_OPEN
 10
4257.9173920000003
 20
3508.4945395127238
 30
0.0
 41
80.0
 42
80.0
 43
80.0
  0
TEXT
  8
3
  40
120
  5
7F57
  62
0
  72
0
  71
0
 10
3417.92
 20
3396.09
 30
0.000000
  1
1200
  0
POINT
  5
7F1E
  8
DEFPOINTS
 62
     0
 10
3057.9173919999998
 20
3762.0219990000001
 30
0.0
  0
POINT
  5
7F1F
  8
DEFPOINTS
 62
     0
 10
4257.9173920000003
 20
3762.0219990000001
 30
0.0
  0
POINT
  5
7F20
  8
DEFPOINTS
 62
     0
 10
4257.9173920000003
 20
3508.4945395127238
 30
0.0
  0
ENDBLK
  5
7D5F
  8
0
  0
BLOCK
  8
0
  2
*D16
 70
     1
 10
0.0
 20
0.0
 30
0.0
  3
*D16
  1

  0
LINE
  5
7F21
  8
3
 62
     0
 10
5945.1542440000003
 20
3742.0219990000001
 30
0.0
 11
5945.1542440000003
 21
3468.4945395127252
 31
0.0
  0
LINE
  5
7F22
  8
3
 62
     0
 10
6442.1542440000003
 20
3742.0219990000001
 30
0.0
 11
6442.1542440000003
 21
3468.4945395127252
 31
0.0
  0
LINE
  5
7F23
  8
3
 62
     0
 10
6025.1542439999994
 20
3508.4945395127238
 30
0.0
 11
6362.1542439999994
 21
3508.4945395127238
 31
0.0
  0
INSERT
  5
7F24
  8
3
 62
     0
  2
_OPEN
 10
5945.1542440000003
 20
3508.4945395127238
 30
0.0
 41
80.0
 42
80.0
 43
80.0
 50
180.0
  0
INSERT
  5
7F25
  8
3
 62
     0
  2
_OPEN
 10
6442.1542440000003
 20
3508.4945395127238
 30
0.0
 41
80.0
 42
80.0
 43
80.0
  0
TEXT
  8
3
  40
120
  5
7F58
  62
0
  72
0
  71
0
 10
5953.65
 20
3396.09
 30
0.000000
  1
497
  0
POINT
  5
7F27
  8
DEFPOINTS
 62
     0
 10
5945.1542440000003
 20
3762.0219990000001
 30
0.0
  0
POINT
  5
7F28
  8
DEFPOINTS
 62
     0
 10
6442.1542440000003
 20
3762.0219990000001
 30
0.0
  0
POINT
  5
7F29
  8
DEFPOINTS
 62
     0
 10
6442.1542440000003
 20
3508.4945395127238
 30
0.0
  0
ENDBLK
  5
7D6E
  8
0
  0
BLOCK
  8
0
  2
*D17
 70
     1
 10
0.0
 20
0.0
 30
0.0
  3
*D17
  1

  0
LINE
  5
7F2A
  8
3
 62
     0
 10
6442.1542440000003
 20
3742.0219990000001
 30
0.0
 11
6442.1542440000003
 21
3468.4945395127252
 31
0.0
  0
LINE
  5
7F2B
  8
3
 62
     0
 10
6795.1542439999994
 20
3742.0219990000001
 30
0.0
 11
6795.1542439999994
 21
3468.4945395127252
 31
0.0
  0
LINE
  5
7F2C
  8
3
 62
     0
 10
6522.1542439999994
 20
3508.4945395127238
 30
0.0
 11
6715.1542440000003
 21
3508.4945395127238
 31
0.0
  0
LINE
  5
7F2D
  8
3
 62
     0
 10
6795.1542439999994
 20
3508.4945395127238
 30
0.0
 11
7263.7256725714278
 21
3508.4945395127238
 31
0.0
  0
INSERT
  5
7F2E
  8
3
 62
     0
  2
_OPEN
 10
6442.1542440000003
 20
3508.4945395127238
 30
0.0
 41
80.0
 42
80.0
 43
80.0
 50
180.0
  0
INSERT
  5
7F2F
  8
3
 62
     0
  2
_OPEN
 10
6795.1542439999994
 20
3508.4945395127238
 30
0.0
 41
80.0
 42
80.0
 43
80.0
  0
TEXT
  8
3
  40
120
  5
7F59
  62
0
  72
0
  71
0
 10
6829.44
 20
3396.09
 30
0.000000
  1
353
  0
POINT
  5
7F31
  8
DEFPOINTS
 62
     0
 10
6442.1542440000003
 20
3762.0219990000001
 30
0.0
  0
POINT
  5
7F32
  8
DEFPOINTS
 62
     0
 10
6795.1542439999994
 20
3762.0219990000001
 30
0.0
  0
POINT
  5
7F33
  8
DEFPOINTS
 62
     0
 10
6795.1542439999994
 20
3508.4945395127238
 30
0.0
  0
ENDBLK
  5
7D7C
  8
0
  0
BLOCK
  8
0
  2
_DOT
 70
     0
 10
0.0
 20
0.0
 30
0.0
  3
_DOT
  1

  0
POLYLINE
  5
7D80
  8
0
  6
BYBLOCK
 62
     0
 66
     1
 10
0.0
 20
0.0
 30
0.0
 70
     1
 40
0.5
 41
0.5
  0
VERTEX
  5
7F34
  8
0
  6
BYBLOCK
 62
     0
 10
-0.25
 20
0.0
 30
0.0
 42
1.0
  0
VERTEX
  5
7F35
  8
0
  6
BYBLOCK
 62
     0
 10
0.25
 20
0.0
 30
0.0
 42
1.0
  0
SEQEND
  5
7F36
  8
0
  6
BYBLOCK
 62
     0
  0
LINE
  5
7D84
  8
0
  6
BYBLOCK
 62
     0
 10
-0.5
 20
0.0
 30
0.0
 11
-1.0
 21
0.0
 31
0.0
  0
ENDBLK
  5
7D85
  8
0
  0
BLOCK
  8
0
  2
*D19
 70
     1
 10
0.0
 20
0.0
 30
0.0
  3
*D19
  1

  0
LINE
  5
7F37
  8
3
 62
     0
 10
2537.9173919999998
 20
3862.0219990000001
 30
0.0
 11
1781.649641749696
 21
3862.0219990000001
 31
0.0
  0
LINE
  5
7F38
  8
3
 62
     0
 10
2537.9173919999998
 20
3762.0219990000001
 30
0.0
 11
1781.649641749696
 21
3762.0219990000001
 31
0.0
  0
LINE
  5
7F39
  8
3
 62
     0
 10
1821.649641749696
 20
3942.0219989999991
 30
0.0
 11
1821.649641749696
 21
4022.0219990000001
 31
0.0
  0
LINE
  5
7F3A
  8
3
 62
     0
 10
1821.649641749696
 20
3682.0219989999991
 30
0.0
 11
1821.649641749696
 21
3236.3077132857138
 31
0.0
  0
LINE
  5
7F3B
  8
3
 62
     0
 10
1821.649641749696
 20
3862.0219990000001
 30
0.0
 11
1821.649641749696
 21
3762.0219990000001
 31
0.0
  0
INSERT
  5
7F3C
  8
3
 62
     0
  2
_DOT
 10
1821.649641749696
 20
3862.0219990000001
 30
0.0
 41
80.0
 42
80.0
 43
80.0
 50
270.0
  0
INSERT
  5
7F3D
  8
3
 62
     0
  2
_OPEN
 10
1821.649641749696
 20
3762.0219990000001
 30
0.0
 41
80.0
 42
80.0
 43
80.0
 50
90.0
  0
TEXT
  8
3
  40
120
  5
7F5A
  62
0
  72
0
  71
0
 10
1481.65
 20
3206.76
 30
0.000000
  1
100
  0
POINT
  5
7F3F
  8
DEFPOINTS
 62
     0
 10
2557.9173919999998
 20
3862.0219990000001
 30
0.0
  0
POINT
  5
7F40
  8
DEFPOINTS
 62
     0
 10
2557.9173919999998
 20
3762.0219990000001
 30
0.0
  0
POINT
  5
7F41
  8
DEFPOINTS
 62
     0
 10
1821.649641749696
 20
3762.0219990000001
 30
0.0
  0
ENDBLK
  5
7D93
  8
0
  0
BLOCK
  8
0
  2
*D20
 70
     1
 10
0.0
 20
0.0
 30
0.0
  3
*D20
  1

  0
LINE
  5
7D97
  8
0
  6
BYBLOCK
 62
     0
 10
2537.9173919999998
 20
3862.0219990000001
 30
0.0
 11
1781.649641749696
 21
3862.0219990000001
 31
0.0
  0
LINE
  5
7D98
  8
0
  6
BYBLOCK
 62
     0
 10
2537.9173919999998
 20
3957.0219990000001
 30
0.0
 11
1781.649641749696
 21
3957.0219990000001
 31
0.0
  0
LINE
  5
7D99
  8
0
  6
BYBLOCK
 62
     0
 10
1821.649641749696
 20
3782.0219989999991
 30
0.0
 11
1821.649641749696
 21
3702.0219990000001
 31
0.0
  0
LINE
  5
7D9A
  8
0
  6
BYBLOCK
 62
     0
 10
1821.649641749696
 20
4037.0219990000001
 30
0.0
 11
1821.649641749696
 21
4117.0219990000014
 31
0.0
  0
TEXT
  5
7D9B
  8
3
 62
     0
 10
1670.2210703211249
 20
3735.2362847142849
 30
0.0
 40
120.0
  1
(95)
 50
90.0
  0
LINE
  5
7D9C
  8
0
  6
BYBLOCK
 62
     0
 10
1821.649641749696
 20
3862.0219990000001
 30
0.0
 11
1821.649641749696
 21
3957.0219990000001
 31
0.0
  0
INSERT
  5
7D9D
  8
0
  6
BYBLOCK
 62
     0
  2
_DOT
 10
1821.649641749696
 20
3862.0219990000001
 30
0.0
 41
80.0
 42
80.0
 43
80.0
 50
90.0
  0
INSERT
  5
7D9E
  8
0
  6
BYBLOCK
 62
     0
  2
_OPEN
 10
1821.649641749696
 20
3957.0219990000001
 30
0.0
 41
80.0
 42
80.0
 43
80.0
 50
270.0
  0
POINT
  5
7D9F
  8
DEFPOINTS
  6
BYBLOCK
 62
     0
 10
2557.9173919999998
 20
3862.0219990000001
 30
0.0
  0
POINT
  5
7DA0
  8
DEFPOINTS
  6
BYBLOCK
 62
     0
 10
2557.9173919999998
 20
3957.0219990000001
 30
0.0
  0
POINT
  5
7DA1
  8
DEFPOINTS
  6
BYBLOCK
 62
     0
 10
1821.649641749696
 20
3957.0219990000001
 30
0.0
  0
ENDBLK
  5
7DA2
  8
0
  0
BLOCK
  8
0
  2
*D21
 70
     1
 10
0.0
 20
0.0
 30
0.0
  3
*D21
  1

  0
LINE
  5
7F42
  8
3
 62
     0
 10
3017.9173919999998
 20
5485.0219989999996
 30
0.0
 11
1424.4241097072811
 21
5485.0219990000014
 31
0.0
  0
LINE
  5
7F43
  8
3
 62
     0
 10
2537.9173919999998
 20
3762.0219990000001
 30
0.0
 11
1424.42410970728
 21
3762.0219990000001
 31
0.0
  0
LINE
  5
7F44
  8
3
 62
     0
 10
1464.4241097072811
 20
5405.0219990000023
 30
0.0
 11
1464.42410970728
 21
3842.0219989999991
 31
0.0
  0
INSERT
  5
7F45
  8
3
 62
     0
  2
_OPEN
 10
1464.4241097072811
 20
5485.0219990000014
 30
0.0
 41
80.0
 42
80.0
 43
80.0
 50
90.0
  0
INSERT
  5
7F46
  8
3
 62
     0
  2
_OPEN
 10
1464.42410970728
 20
3762.0219990000001
 30
0.0
 41
80.0
 42
80.0
 43
80.0
 50
270.0
  0
TEXT
  8
3
  40
120
  5
7F5B
  62
0
  72
0
  71
0
 10
1093.00
 20
4411.12
 30
0.000000
  1
(1723)
  0
POINT
  5
7F48
  8
DEFPOINTS
 62
     0
 10
3037.9173919999998
 20
5485.0219989999996
 30
0.0
  0
POINT
  5
7F49
  8
DEFPOINTS
 62
     0
 10
2557.9173919999998
 20
3762.0219990000001
 30
0.0
  0
POINT
  5
7F4A
  8
DEFPOINTS
 62
     0
 10
1464.42410970728
 20
3762.0219990000001
 30
0.0
  0
ENDBLK
  5
7DAF
  8
0
  0
BLOCK
  8
0
  2
*U22
 70
     1
 10
0.0
 20
0.0
 30
0.0
  3
*U22
  1

  0
TEXT
  5
7F02
  8
3
 62
     0
 10
5985.7256725714278
 20
6056.2399651497471
 30
0.0
 40
120.0
  1
MAX
  0
TEXT
  5
7F03
  8
3
 62
     0
 10
6002.8685297142847
 20
5856.2399651497471
 30
0.0
 40
120.0
  1
660
  0
ENDBLK
  5
7F05
  8
0
  0
ENDSEC
  0
SECTION
  2
ENTITIES
  0
LINE
  5
7A73
  8
1
  6
CONTINUOUS
 10
2557.9173919999998
 20
3762.0219990000001
 30
0.0
 11
4257.9173920000003
 21
3762.0219990000001
 31
0.0
  0
LINE
  5
7A74
  8
1
  6
CONTINUOUS
 10
2557.9173919999998
 20
3862.0219990000001
 30
0.0
 11
4257.9173920000003
 21
3862.0219990000001
 31
0.0
  0
CIRCLE
  5
7A75
  8
1
  6
CONTINUOUS
 10
3057.9173919999998
 20
4917.0219990000014
 30
0.0
 40
440.0
  0
LINE
  5
7A76
  8
1
  6
CONTINUOUS
 10
2557.9173919999998
 20
4057.0219989999991
 30
0.0
 11
4257.9173920000003
 21
4057.0219989999991
 31
0.0
  0
LINE
  5
7A77
  8
1
  6
CONTINUOUS
 10
2557.9173919999998
 20
3957.0219990000001
 30
0.0
 11
4257.9173920000003
 21
3957.0219990000001
 31
0.0
  0
POLYLINE
  5
7A78
  8
1
  6
CONTINUOUS
 66
     1
 10
0.0
 20
0.0
 30
0.0
  0
VERTEX
  5
7EA1
  8
1
  6
CONTINUOUS
 10
2512.9173919999998
 20
4069.0219990000001
 30
0.0
  0
VERTEX
  5
7EA2
  8
1
  6
CONTINUOUS
 10
3057.9173919999998
 20
4113.0219989999996
 30
0.0
 42
0.4
  0
VERTEX
  5
7EA3
  8
1
  6
CONTINUOUS
 10
3746.217392
 20
4858.0219989999996
 30
0.0
 42
0.4
  0
VERTEX
  5
7EA4
  8
1
  6
CONTINUOUS
 10
3049.3173919999999
 20
5483.7219990000003
 30
0.0
 42
0.4
  0
VERTEX
  5
7EA5
  8
1
  6
CONTINUOUS
 10
2583.217392
 20
4964.5219990000014
 30
0.0
  0
VERTEX
  5
7EA6
  8
1
  6
CONTINUOUS
 10
2589.0173920000002
 20
4894.0219989999996
 30
0.0
 42
0.4
  0
SEQEND
  5
7EA7
  8
1
  6
CONTINUOUS
  0
LINE
  5
7A80
  8
1
  6
CONTINUOUS
 10
2552.9173919999998
 20
4894.0219989999996
 30
0.0
 11
2552.9173919999998
 21
4069.0219990000001
 31
0.0
  0
LINE
  5
7A81
  8
1
  6
CONTINUOUS
 10
2512.9173919999998
 20
4936.5219989999996
 30
0.0
 11
2512.9173919999998
 21
4026.5219989999991
 31
0.0
  0
LINE
  5
7A82
  8
1
  6
CONTINUOUS
 10
2557.9173919999998
 20
3862.0219990000001
 30
0.0
 11
2557.9173919999998
 21
3762.0219990000001
 31
0.0
  0
LINE
  5
7A83
  8
1
  6
CONTINUOUS
 10
2557.9173919999998
 20
4057.0219989999991
 30
0.0
 11
2557.9173919999998
 21
3957.0219990000001
 31
0.0
  0
LINE
  5
7A84
  8
1
  6
CONTINUOUS
 10
2589.0173920000002
 20
4894.0219989999996
 30
0.0
 11
2512.9173919999998
 21
4894.0219989999996
 31
0.0
  0
LINE
  5
7A85
  8
1
  6
CONTINUOUS
 10
3115.717392
 20
4998.621999
 30
0.0
 11
4056.6173920000001
 21
4332.3219989999998
 31
0.0
  0
LINE
  5
7A86
  8
1
  6
CONTINUOUS
 10
3173.5173920000002
 20
5080.2219990000003
 30
0.0
 11
4114.4173920000003
 21
4413.9219990000001
 31
0.0
  0
LINE
  5
7A87
  8
1
  6
CONTINUOUS
 10
3003.0173920000002
 20
4833.4219990000001
 30
0.0
 11
3966.5173920000002
 21
4200.121999
 31
0.0
  0
LINE
  5
7A88
  8
1
  6
CONTINUOUS
 10
2948.0173920000002
 20
4749.9219990000001
 30
0.0
 11
3911.5173920000002
 21
4116.621999
 31
0.0
  0
CIRCLE
  5
7A89
  8
1
  6
CONTINUOUS
 10
3057.9173919999998
 20
4917.0219990000014
 30
0.0
 40
400.0
  0
ARC
  5
7A8A
  8
1
  6
CONTINUOUS
 10
3057.9173919999998
 20
4917.0219990000014
 30
0.0
 40
200.0
 50
54.699999999999989
 51
236.6999999999999
  0
LINE
  5
7A8B
  8
2
  6
CENTER
 10
6891.3924700000007
 20
4917.0219990000014
 30
0.0
 11
5760.7535977573216
 21
4917.0219990000014
 31
0.0
  0
CIRCLE
  5
7A8C
  8
1
  6
CONTINUOUS
 10
3057.9173919999998
 20
4917.0219990000014
 30
0.0
 40
100.0
  0
LINE
  5
7A8D
  8
2
  6
CENTER
 10
3057.9173919999998
 20
8361.3568439999981
 30
0.0
 11
3057.9173919999998
 21
7116.3114340000002
 31
0.0
  0
LINE
  5
7A8E
  8
1
  6
CONTINUOUS
 10
3822.9173919999998
 20
4107.0219989999996
 30
0.0
 11
4197.9173919999994
 21
4107.0219989999996
 31
0.0
  0
ARC
  5
7A8F
  8
1
  6
CONTINUOUS
 10
4010.4173919999989
 20
4267.0219989999996
 30
0.0
 40
180.0
 50
236.6999999999999
 51
54.699999999999989
  0
LINE
  5
7A90
  8
2
  6
CENTER
 10
4090.4173919999998
 20
4267.0219989999996
 30
0.0
 11
3930.4173919999998
 21
4267.0219989999996
 31
0.0
  0
CIRCLE
  5
7A91
  8
1
  6
CONTINUOUS
 10
4010.4173919999989
 20
4267.0219989999996
 30
0.0
 40
80.0
  0
ARC
  5
7A92
  8
1
  6
CONTINUOUS
 10
4010.4173919999989
 20
4267.0219989999996
 30
0.0
 40
162.0
 50
325.0
 51
214.99999999999989
  0
LINE
  5
7A93
  8
1
  6
CONTINUOUS
 10
3812.9173920000012
 20
4057.0219989999991
 30
0.0
 11
3822.9173919999998
 21
4107.0219989999996
 31
0.0
  0
LINE
  5
7A94
  8
2
  6
CENTER
 10
4010.4173919999989
 20
4187.0219989999996
 30
0.0
 11
4010.4173919999989
 21
4347.0219989999996
 31
0.0
  0
LINE
  5
7A95
  8
1
  6
CONTINUOUS
 10
3856.4173919999998
 20
4107.0219989999996
 30
0.0
 11
3856.4173919999998
 21
4125.0219989999996
 31
0.0
  0
LINE
  5
7A96
  8
1
  6
CONTINUOUS
 10
3856.4173919999998
 20
4125.0219989999996
 30
0.0
 11
3877.717392
 21
4174.0219989999996
 31
0.0
  0
LINE
  5
7A97
  8
1
  6
CONTINUOUS
 10
4257.9173920000003
 20
3862.0219990000001
 30
0.0
 11
4257.9173920000003
 21
3762.0219990000001
 31
0.0
  0
LINE
  5
7A98
  8
1
  6
CONTINUOUS
 10
4197.9173919999994
 20
4107.0219989999996
 30
0.0
 11
4207.9173920000003
 21
4057.0219989999991
 31
0.0
  0
LINE
  5
7A99
  8
1
  6
CONTINUOUS
 10
4164.4173920000003
 20
4125.0219989999996
 30
0.0
 11
4143.1173919999992
 21
4174.0219989999996
 31
0.0
  0
LINE
  5
7A9A
  8
1
  6
CONTINUOUS
 10
4164.4173920000003
 20
4107.0219989999996
 30
0.0
 11
4164.4173920000003
 21
4125.0219989999996
 31
0.0
  0
LINE
  5
7A9B
  8
1
  6
CONTINUOUS
 10
4257.9173920000003
 20
4057.0219989999991
 30
0.0
 11
4257.9173920000003
 21
3957.0219990000001
 31
0.0
  0
LINE
  5
7A9C
  8
1
  6
CONTINUOUS
 10
2617.9173919999998
 20
8140.7090260000014
 30
0.0
 11
3497.9173919999998
 21
8140.7090260000014
 31
0.0
  0
LINE
  5
7A9D
  8
1
  6
CONTINUOUS
 10
2512.9173919999998
 20
7457.7090260000004
 30
0.0
 11
3746.217392
 21
7457.7090260000004
 31
0.0
  0
LINE
  5
7A9E
  8
1
  6
CONTINUOUS
 10
2512.9173919999998
 20
8057.7090260000014
 30
0.0
 11
3746.217392
 21
8057.7090260000014
 31
0.0
  0
LINE
  5
7A9F
  8
1
  6
CONTINUOUS
 10
2557.9173919999998
 20
8110.7090260000004
 30
0.0
 11
2657.9173919999998
 21
8110.7090260000004
 31
0.0
  0
LINE
  5
7AA0
  8
1
  6
CONTINUOUS
 10
2557.9173919999998
 20
7260.7090260000004
 30
0.0
 11
2957.9173919999998
 21
7260.7090260000004
 31
0.0
  0
LINE
  5
7AA1
  8
1
  6
CONTINUOUS
 10
2557.9173919999998
 20
7457.7090260000004
 30
0.0
 11
2557.9173919999998
 21
7260.7090260000004
 31
0.0
  0
LINE
  5
7AA2
  8
1
  6
CONTINUOUS
 10
2512.9173919999998
 20
7417.7090260000004
 30
0.0
 11
2512.9173919999998
 21
8097.7090260000023
 31
0.0
  0
LINE
  5
7AA3
  8
1
  6
CONTINUOUS
 10
2552.9173919999998
 20
7457.7090260000004
 30
0.0
 11
2552.9173919999998
 21
8057.7090260000014
 31
0.0
  0
LINE
  5
7AA4
  8
1
  6
CONTINUOUS
 10
2557.9173919999998
 20
8110.7090260000004
 30
0.0
 11
2557.9173919999998
 21
8057.7090260000014
 31
0.0
  0
LINE
  5
7AA5
  8
1
  6
CONTINUOUS
 10
3457.9173919999998
 20
8110.7090260000004
 30
0.0
 11
4257.9173920000003
 21
8110.7090260000004
 31
0.0
  0
LINE
  5
7AA6
  8
1
  6
CONTINUOUS
 10
3157.9173919999998
 20
7260.7090260000004
 30
0.0
 11
3930.4173919999998
 21
7260.7090260000004
 31
0.0
  0
LINE
  5
7AA7
  8
1
  6
CONTINUOUS
 10
2857.9173919999998
 20
7347.7090260000014
 30
0.0
 11
4190.4173920000003
 21
7347.7090260000014
 31
0.0
  0
LINE
  5
7AA8
  8
1
  6
CONTINUOUS
 10
2857.9173919999998
 20
7187.7090260000004
 30
0.0
 11
4190.4173920000003
 21
7187.7090260000004
 31
0.0
  0
LINE
  5
7AA9
  8
1
  6
CONTINUOUS
 10
2657.9173919999998
 20
8057.7090260000014
 30
0.0
 11
2657.9173919999998
 21
8140.7090260000014
 31
0.0
  0
LINE
  5
7AAA
  8
1
  6
CONTINUOUS
 10
3457.9173919999998
 20
8057.7090260000014
 30
0.0
 11
3457.9173919999998
 21
8140.7090260000014
 31
0.0
  0
LINE
  5
7AAB
  8
1
  6
CONTINUOUS
 10
2957.9173919999998
 20
7220.7090260000004
 30
0.0
 11
3157.9173919999998
 21
7220.7090260000004
 31
0.0
  0
LINE
  5
7AAC
  8
1
  6
CONTINUOUS
 10
2957.9173919999998
 20
7300.7090260000014
 30
0.0
 11
3157.9173919999998
 21
7300.7090260000014
 31
0.0
  0
LINE
  5
7AAD
  8
1
  6
CONTINUOUS
 10
3036.9173919999998
 20
7300.7090260000014
 30
0.0
 11
3036.9173919999998
 21
7457.7090260000004
 31
0.0
  0
LINE
  5
7AAE
  8
1
  6
CONTINUOUS
 10
3078.9173919999998
 20
7300.7090260000014
 30
0.0
 11
3078.9173919999998
 21
7457.7090260000004
 31
0.0
  0
LINE
  5
7AAF
  8
1
  6
CONTINUOUS
 10
2857.9173919999998
 20
7187.7090260000004
 30
0.0
 11
2857.9173919999998
 21
7347.7090260000014
 31
0.0
  0
LINE
  5
7AB0
  8
1
  6
CONTINUOUS
 10
2957.9173919999998
 20
7220.7090260000004
 30
0.0
 11
2957.9173919999998
 21
7300.7090260000014
 31
0.0
  0
LINE
  5
7AB1
  8
1
  6
CONTINUOUS
 10
3157.9173919999998
 20
7220.7090260000004
 30
0.0
 11
3157.9173919999998
 21
7300.7090260000014
 31
0.0
  0
LINE
  5
7AB2
  8
1
  6
CONTINUOUS
 10
3930.4173919999998
 20
7300.7090260000014
 30
0.0
 11
4090.4173919999998
 21
7300.7090260000014
 31
0.0
  0
LINE
  5
7AB3
  8
1
  6
CONTINUOUS
 10
3930.4173919999998
 20
7220.7090260000004
 30
0.0
 11
4090.4173919999998
 21
7220.7090260000004
 31
0.0
  0
LINE
  5
7AB4
  8
1
  6
CONTINUOUS
 10
4172.4173920000003
 20
7399.4090260000003
 30
0.0
 11
3848.4173919999998
 21
7399.4090260000003
 31
0.0
  0
LINE
  5
7AB5
  8
1
  6
CONTINUOUS
 10
4172.4173920000003
 20
7884.4090260000003
 30
0.0
 11
3848.4173919999998
 21
7884.4090260000003
 31
0.0
  0
LINE
  5
7AB6
  8
1
  6
CONTINUOUS
 10
3848.4173919999998
 20
7399.4090260000003
 30
0.0
 11
3848.4173919999998
 21
7884.4090260000003
 31
0.0
  0
LINE
  5
7AB7
  8
1
  6
CONTINUOUS
 10
3930.4173919999998
 20
7220.7090260000004
 30
0.0
 11
3930.4173919999998
 21
7300.7090260000014
 31
0.0
  0
LINE
  5
7AB8
  8
1
  6
CONTINUOUS
 10
3989.4173919999998
 20
7300.7090260000014
 30
0.0
 11
3989.4173919999998
 21
7399.4090260000003
 31
0.0
  0
LINE
  5
7AB9
  8
1
  6
CONTINUOUS
 10
3746.217392
 20
7457.7090260000004
 30
0.0
 11
3746.217392
 21
8057.7090260000014
 31
0.0
  0
LINE
  5
7ABA
  8
1
  6
CONTINUOUS
 10
4257.9173920000003
 20
8110.7090260000004
 30
0.0
 11
4257.9173920000003
 21
7260.7090260000004
 31
0.0
  0
LINE
  5
7ABB
  8
1
  6
CONTINUOUS
 10
4172.4173920000003
 20
7399.4090260000003
 30
0.0
 11
4172.4173920000003
 21
7884.4090260000003
 31
0.0
  0
LINE
  5
7ABC
  8
1
  6
CONTINUOUS
 10
4090.4173919999998
 20
7260.7090260000004
 30
0.0
 11
4257.9173920000003
 21
7260.7090260000004
 31
0.0
  0
LINE
  5
7ABD
  8
1
  6
CONTINUOUS
 10
4090.4173919999998
 20
7220.7090260000004
 30
0.0
 11
4090.4173919999998
 21
7300.7090260000014
 31
0.0
  0
LINE
  5
7ABE
  8
1
  6
CONTINUOUS
 10
4190.4173920000003
 20
7187.7090260000004
 30
0.0
 11
4190.4173920000003
 21
7347.7090260000014
 31
0.0
  0
LINE
  5
7ABF
  8
1
  6
CONTINUOUS
 10
4031.4173919999998
 20
7300.7090260000014
 30
0.0
 11
4031.4173919999998
 21
7399.4090260000003
 31
0.0
  0
LINE
  5
7AC0
  8
1
  6
CONTINUOUS
 10
6795.1542439999994
 20
3862.0219990000001
 30
0.0
 11
5945.1542440000003
 21
3862.0219990000001
 31
0.0
  0
LINE
  5
7AC1
  8
1
  6
CONTINUOUS
 10
6795.1542439999994
 20
3762.0219990000001
 30
0.0
 11
5945.1542440000003
 21
3762.0219990000001
 31
0.0
  0
LINE
  5
7AC2
  8
1
  6
CONTINUOUS
 10
6142.1542440000003
 20
4894.0219989999996
 30
0.0
 11
6742.1542439999994
 21
4894.0219989999996
 31
0.0
  0
LINE
  5
7AC3
  8
1
  6
CONTINUOUS
 10
6795.1542439999994
 20
3957.0219990000001
 30
0.0
 11
5945.1542440000003
 21
3957.0219990000001
 31
0.0
  0
LINE
  5
7AC4
  8
1
  6
CONTINUOUS
 10
6795.1542439999994
 20
4057.0219989999991
 30
0.0
 11
5945.1542440000003
 21
4057.0219989999991
 31
0.0
  0
LINE
  5
7AC5
  8
1
  6
CONTINUOUS
 10
6142.1542440000003
 20
5395.0219989999996
 30
0.0
 11
6742.1542439999994
 21
5395.0219989999996
 31
0.0
  0
LINE
  5
7AC6
  8
1
  6
CONTINUOUS
 10
6142.1542440000003
 20
4069.0219990000001
 30
0.0
 11
6742.1542439999994
 21
4069.0219990000001
 31
0.0
  0
LINE
  5
7AC7
  8
1
  6
CONTINUOUS
 10
6142.1542440000003
 20
4894.0219989999996
 30
0.0
 11
6742.1542439999994
 21
4069.0219990000001
 31
0.0
  0
LINE
  5
7AC8
  8
1
  6
CONTINUOUS
 10
6142.1542440000003
 20
4069.0219990000001
 30
0.0
 11
6742.1542439999994
 21
4894.0219989999996
 31
0.0
  0
LINE
  5
7ACA
  8
1
  6
CONTINUOUS
 10
6142.1542440000003
 20
5395.0219989999996
 30
0.0
 11
6142.1542440000003
 21
4057.0219989999991
 31
0.0
  0
LINE
  5
7ACB
  8
1
  6
CONTINUOUS
 10
5872.1542439999994
 20
5117.0219990000014
 30
0.0
 11
5872.1542439999994
 21
4087.0219990000001
 31
0.0
  0
LINE
  5
7ACC
  8
1
  6
CONTINUOUS
 10
6032.1542439999994
 20
5117.0219990000014
 30
0.0
 11
6032.1542439999994
 21
4087.0219990000001
 31
0.0
  0
LINE
  5
7ACD
  8
1
  6
CONTINUOUS
 10
5992.1542439999994
 20
4246.0219989999996
 30
0.0
 11
6142.1542440000003
 21
4246.0219989999996
 31
0.0
  0
LINE
  5
7ACE
  8
1
  6
CONTINUOUS
 10
5992.1542439999994
 20
4288.0219989999996
 30
0.0
 11
6142.1542440000003
 21
4288.0219989999996
 31
0.0
  0
LINE
  5
7AD1
  8
1
  6
CONTINUOUS
 10
5945.1542440000003
 20
3862.0219990000001
 30
0.0
 11
5945.1542440000003
 21
3762.0219990000001
 31
0.0
  0
LINE
  5
7AD3
  8
1
  6
CONTINUOUS
 10
5872.1542439999994
 20
4087.0219990000001
 30
0.0
 11
6032.1542439999994
 21
4087.0219990000001
 31
0.0
  0
LINE
  5
7AD4
  8
1
  6
CONTINUOUS
 10
5945.1542440000003
 20
4057.0219989999991
 30
0.0
 11
5945.1542440000003
 21
3957.0219990000001
 31
0.0
  0
LINE
  5
7AD5
  8
1
  6
CONTINUOUS
 10
5912.1542439999994
 20
4187.0219989999996
 30
0.0
 11
5992.1542439999994
 21
4187.0219989999996
 31
0.0
  0
LINE
  5
7AD6
  8
1
  6
CONTINUOUS
 10
5912.1542439999994
 20
4347.0219989999996
 30
0.0
 11
5992.1542439999994
 21
4347.0219989999996
 31
0.0
  0
LINE
  5
7AD7
  8
1
  6
CONTINUOUS
 10
5912.1542439999994
 20
4347.0219989999996
 30
0.0
 11
5912.1542439999994
 21
4187.0219989999996
 31
0.0
  0
LINE
  5
7AD8
  8
1
  6
CONTINUOUS
 10
5992.1542439999994
 20
4347.0219989999996
 30
0.0
 11
5992.1542439999994
 21
4187.0219989999996
 31
0.0
  0
LINE
  5
7AD9
  8
1
  6
CONTINUOUS
 10
5992.1542439999994
 20
4938.0219989999996
 30
0.0
 11
6142.1542440000003
 21
4938.0219989999996
 31
0.0
  0
LINE
  5
7ADA
  8
1
  6
CONTINUOUS
 10
5992.1542439999994
 20
4896.0219990000014
 30
0.0
 11
6142.1542440000003
 21
4896.0219990000014
 31
0.0
  0
LINE
  5
7ADB
  8
1
  6
CONTINUOUS
 10
5872.1542439999994
 20
5117.0219990000014
 30
0.0
 11
6032.1542439999994
 21
5117.0219990000014
 31
0.0
  0
LINE
  5
7ADC
  8
1
  6
CONTINUOUS
 10
5912.1542439999994
 20
5017.0219989999996
 30
0.0
 11
5992.1542439999994
 21
5017.0219989999996
 31
0.0
  0
LINE
  5
7ADD
  8
1
  6
CONTINUOUS
 10
5912.1542439999994
 20
4817.0219990000014
 30
0.0
 11
5992.1542439999994
 21
4817.0219990000014
 31
0.0
  0
LINE
  5
7ADE
  8
1
  6
CONTINUOUS
 10
5992.1542439999994
 20
5017.0219989999996
 30
0.0
 11
5992.1542439999994
 21
4817.0219990000014
 31
0.0
  0
LINE
  5
7ADF
  8
1
  6
CONTINUOUS
 10
5912.1542439999994
 20
5017.0219989999996
 30
0.0
 11
5912.1542439999994
 21
4817.0219990000014
 31
0.0
  0
LINE
  5
7AE0
  8
1
  6
CONTINUOUS
 10
6742.1542439999994
 20
5395.0219989999996
 30
0.0
 11
6742.1542439999994
 21
4057.0219989999991
 31
0.0
  0
LINE
  5
7AE1
  8
1
  6
CONTINUOUS
 10
6825.1542440000003
 20
5357.0219989999996
 30
0.0
 11
6825.1542440000003
 21
4477.0219989999996
 31
0.0
  0
LINE
  5
7AE2
  8
1
  6
CONTINUOUS
 10
6795.1542439999994
 20
3862.0219990000001
 30
0.0
 11
6795.1542439999994
 21
3762.0219990000001
 31
0.0
  0
LINE
  5
7AE3
  8
1
  6
CONTINUOUS
 10
6742.1542439999994
 20
4517.0219989999996
 30
0.0
 11
6825.1542440000003
 21
4517.0219989999996
 31
0.0
  0
LINE
  5
7AE4
  8
1
  6
CONTINUOUS
 10
6795.1542439999994
 20
4057.0219989999991
 30
0.0
 11
6795.1542439999994
 21
3957.0219990000001
 31
0.0
  0
LINE
  5
7AE5
  8
1
  6
CONTINUOUS
 10
6742.1542439999994
 20
5317.0219990000014
 30
0.0
 11
6825.1542440000003
 21
5317.0219990000014
 31
0.0
  0
DIMENSION
  5
7B14
  8
3
  6
CONTINUOUS
  2
*D1
 10
2244.8970059999988
 20
4069.0219990000001
 30
0.0
 11
2244.8970059999988
 21
4522.2139659999993
 31
0.0
 70
   128
 13
2512.9173919999998
 23
4894.0219989999996
 33
0.0
 14
2512.9173919999998
 24
4069.0219990000001
 34
0.0
 50
90.0
1001
ACAD
1000
DSTYLE
1002
{
1070
   287
1070
     3
1070
   287
1070
     3
1070
    40
1040
40.0
1070
   143
1040
0.039
1070
   172
1070
     1
1070
   271
1070
     0
1070
   279
1070
     0
1070
   288
1070
     1
1002
}
  0
DIMENSION
  5
7B21
  8
3
  6
CONTINUOUS
  2
*D2
 10
2027.3787239999999
 20
4917.0219990000014
 30
0.0
 11
2027.3787239999999
 21
4546.3565649999991
 31
0.0
 70
   128
 13
2512.9173919999998
 23
4069.0219990000001
 33
0.0
 14
2587.1251940000002
 24
4917.0219990000014
 34
0.0
 50
90.0
1001
ACAD
1000
DSTYLE
1002
{
1070
   287
1070
     3
1070
   287
1070
     3
1070
    40
1040
40.0
1070
   143
1040
0.039
1070
   172
1070
     1
1070
   271
1070
     0
1070
   279
1070
     0
1070
   288
1070
     1
1002
}
  0
DIMENSION
  5
7B2E
  8
3
  6
CONTINUOUS
  2
*D3
 10
1821.9448270000009
 20
4917.0219990000014
 30
0.0
 11
1821.944827
 21
5210.7362847142858
 31
0.0
 70
   128
 13
3057.9173919999998
 23
5485.0219989999996
 33
0.0
 14
2587.1251940000002
 24
4917.0219990000014
 34
0.0
 50
90.0
1001
ACAD
1000
DSTYLE
1002
{
1070
   287
1070
     3
1070
   287
1070
     3
1070
    40
1040
40.0
1070
   143
1040
0.039
1070
   172
1070
     1
1070
   271
1070
     0
1070
   279
1070
     0
1070
   288
1070
     1
1002
}
  0
DIMENSION
  5
7B3A
  8
3
  6
CONTINUOUS
  2
*D4
 10
1821.944827
 20
3957.0219990000001
 30
0.0
 11
1721.9448269999989
 21
4437.0219989999996
 31
0.0
 70
     0
 13
2587.1251940000002
 23
4917.0219990000014
 33
0.0
 14
2557.9173919999998
 24
3957.0219990000001
 34
0.0
 50
90.0
1001
ACAD
1000
DSTYLE
1002
{
1070
   287
1070
     4
1070
   287
1070
     4
1070
    40
1040
40.0
1070
    75
1070
     1
1070
   143
1040
0.039
1070
   172
1070
     1
1070
   271
1070
     0
1070
   279
1070
     1
1070
   288
1070
     1
1002
}
  0
DIMENSION
  5
7B80
  8
3
  6
CONTINUOUS
  2
*D5
 10
3057.9173919999998
 20
5597.760534
 30
0.0
 11
2785.4173919999998
 21
5693.6794302402259
 31
0.0
 70
   128
 13
2512.9173919999998
 23
4936.5219989999996
 33
0.0
 14
3057.9173919999998
 24
5483.9203639999987
 34
0.0
1001
ACAD
1000
DSTYLE
1002
{
1070
   288
1070
     1
1070
   172
1070
     1
1070
    40
1040
40.0
1070
   271
1070
     0
1070
   143
1040
0.039
1002
}
  0
DIMENSION
  5
7B8C
  8
3
  6
CONTINUOUS
  2
*D6
 10
3743.9173919999998
 20
5597.760534
 30
0.0
 11
3400.9173919999998
 21
5697.760534
 31
0.0
 70
     0
 13
3057.9173919999998
 23
5483.9203639999987
 33
0.0
 14
3743.9173919999998
 24
4917.0219990000014
 34
0.0
1001
ACAD
1000
DSTYLE
1002
{
1070
   287
1070
     4
1070
   287
1070
     4
1070
    40
1040
40.0
1070
    75
1070
     1
1070
   143
1040
0.039
1070
   172
1070
     1
1070
   271
1070
     0
1070
   279
1070
     1
1070
   288
1070
     1
1002
}
  0
DIMENSION
  5
7B99
  8
3
  6
CONTINUOUS
  2
*D7
 10
4257.9173920000003
 20
6864.0150999999996
 30
0.0
 11
3429.163078
 21
6864.0150999999996
 31
0.0
 70
   128
 13
2557.9173919999998
 23
7260.7090260000004
 33
0.0
 14
4257.9173920000003
 24
7260.7090260000004
 34
0.0
1001
ACAD
1000
DSTYLE
1002
{
1070
   287
1070
     3
1070
   287
1070
     3
1070
    40
1040
40.0
1070
   143
1040
0.039
1070
   172
1070
     1
1070
   271
1070
     0
1070
   279
1070
     0
1070
   288
1070
     1
1002
}
  0
DIMENSION
  5
7BA6
  8
3
  6
CONTINUOUS
  2
*D8
 10
4619.4713659999998
 20
7260.7090260000004
 30
0.0
 11
4619.4713659999989
 21
7740.3852450000004
 31
0.0
 70
   128
 13
4257.9173920000003
 23
8110.7090260000004
 33
0.0
 14
4257.9173920000003
 24
7260.7090260000004
 34
0.0
 50
90.0
1001
ACAD
1000
DSTYLE
1002
{
1070
   287
1070
     3
1070
   287
1070
     3
1070
    40
1040
40.0
1070
   143
1040
0.039
1070
   172
1070
     1
1070
   271
1070
     0
1070
   279
1070
     0
1070
   288
1070
     1
1002
}
  0
LINE
  5
7BA7
  8
2
  6
CENTER
 10
3903.3138869999998
 20
7757.7090260000004
 30
0.0
 11
2341.5717610000002
 21
7757.7090260000004
 31
0.0
  0
LINE
  5
7BA8
  8
2
  6
CENTER
 10
3057.9173919999998
 20
5541.0069100000001
 30
0.0
 11
3057.9173919999998
 21
3762.0219990000001
 31
0.0
  0
LINE
  5
7BA9
  8
2
  6
CENTER
 10
6442.1542440000003
 20
5470.7865359999996
 30
0.0
 11
6442.1542440000003
 21
3762.0219990000001
 31
0.0
  0
DIMENSION
  5
7BE9
  8
3
  6
CONTINUOUS
  2
*D9
 10
7128.7985609999996
 20
4517.0219989999996
 30
0.0
 11
7128.7985609999987
 21
4907.9550392139208
 31
0.0
 70
   128
 13
6825.1542440000003
 23
5317.0219990000014
 33
0.0
 14
6825.1542440000003
 24
4517.0219989999996
 34
0.0
 50
90.0
1001
ACAD
1000
DSTYLE
1002
{
1070
   287
1070
     3
1070
   287
1070
     3
1070
     3
1000
φ<>
1070
    40
1040
40.0
1070
   143
1040
0.039
1070
   172
1070
     1
1070
   271
1070
     0
1070
   279
1070
     0
1070
   288
1070
     1
1002
}
  0
DIMENSION
  5
7C04
  8
3
  6
CONTINUOUS
  2
*D10
 10
6742.1542439999994
 20
5537.4040500000001
 30
0.0
 11
6416.439957999999
 21
5537.4040500000001
 31
0.0
 70
   128
 13
6142.1542440000003
 23
5395.0219989999996
 33
0.0
 14
6742.1542439999994
 24
5395.0219989999996
 34
0.0
1001
ACAD
1000
DSTYLE
1002
{
1070
   287
1070
     3
1070
   287
1070
     3
1070
    40
1040
40.0
1070
   143
1040
0.039
1070
   172
1070
     1
1070
   271
1070
     0
1070
   279
1070
     0
1070
   288
1070
     1
1002
}
  0
DIMENSION
  5
7C11
  8
3
  6
CONTINUOUS
  2
*D11
 10
6442.1542440000003
 20
5802.9726140000002
 30
0.0
 11
6157.1542439999994
 21
6016.2399651497471
 31
0.0
 70
   128
  1
MAX\P660
 13
5872.1542439999994
 23
5117.0219990000014
 33
0.0
 14
6442.1542440000003
 24
5714.8865749805436
 34
0.0
1001
ACAD
1000
DSTYLE
1002
{
1070
   288
1070
     1
1070
   172
1070
     1
1070
    40
1040
40.0
1070
   271
1070
     0
1070
   143
1040
0.039
1002
}
  0
DIMENSION
  5
7C1F
  8
3
  6
CONTINUOUS
  2
*D12
 10
6825.1542440000003
 20
5802.9726140000002
 30
0.0
 11
6615.2137970000003
 21
5803.5730860000003
 31
0.0
 70
   128
 13
6442.1542440000003
 23
5718.2797104301717
 33
0.0
 14
6825.1542440000003
 24
5357.0219989999996
 34
0.0
1001
ACAD
1000
DSTYLE
1002
{
1070
   287
1070
     4
1070
   287
1070
     4
1070
    40
1040
40.0
1070
    75
1070
     1
1070
   143
1040
0.039
1070
   172
1070
     1
1070
   271
1070
     0
1070
   279
1070
     1
1070
   288
1070
     1
1002
}
  0
LINE
  5
7C37
  8
2
  6
CENTER
 10
3848.6247737235531
 20
4917.0219990000014
 30
0.0
 11
2450.3747969999999
 21
4917.0219990000014
 31
0.0
  0
LINE
  5
7C38
  8
4
  6
CONTINUOUS
 10
7400.0
 20
2000.0
 30
0.0
 11
7400.0
 21
1200.0
 31
0.0
  0
LINE
  5
7C39
  8
4
  6
CONTINUOUS
 10
4600.0
 20
2000.0
 30
0.0
 11
4600.0
 21
1200.0
 31
0.0
  0
LINE
  5
7C3A
  8
4
  6
CONTINUOUS
 10
2600.0
 20
2000.0
 30
0.0
 11
2600.0
 21
1200.0
 31
0.0
  0
LINE
  5
7C3D
  8
4
  6
CONTINUOUS
 10
2600.0
 20
1200.0
 30
0.0
 11
7400.0
 21
1200.0
 31
0.0
  0
LINE
  5
7C3E
  8
4
  6
CONTINUOUS
 10
2600.0
 20
1600.0
 30
0.0
 11
7400.0
 21
1600.0
 31
0.0
  0
TEXT
  5
7C3F
  8
4
  6
CONTINUOUS
 10
2754.008323
 20
1726.1721030000001
 30
0.0
 40
200.0
  1
機器名称
  0
TEXT
  5
7C40
  8
4
  6
CONTINUOUS
 10
2745.032424
 20
1286.580627
 30
0.0
 40
200.0
  1
機器型番
  0
TEXT
  5
7C41
  8
4
  6
CONTINUOUS
 10
4710.7149820000004
 20
1690.2870760000001
 30
0.0
 40
160.0
  1
ミツヤリミットロードファン
  0
TEXT
  5
7C42
  8
4
  6
CONTINUOUS
 10
4746.6179819999998
 20
1268.6383370000001
 30
0.0
 40
200.0
  1
LLE#5-4
  0
TEXT
  5
7C44
  8
4
  6
CONTINUOUS
 10
3138.2165960000002
 20
9533.715365
 30
0.0
 40
216.0
  1
床置防振ベット
  0
TEXT
  5
7C45
  8
4
  6
CONTINUOUS
 10
1264.6703729999999
 20
10135.523905
 30
0.0
 40
240.0
  1
ベルト駆動式片吸込両持排煙ファン
  0
LINE
  5
7C46
  8
4
  6
CONTINUOUS
 10
1000.0
 20
9877.6350170000005
 30
0.0
 11
7400.0
 21
9877.6350170000005
 31
0.0
  0
LINE
  5
7C47
  8
4
  6
CONTINUOUS
 10
1000.0
 20
10677.635017000001
 30
0.0
 11
7400.0
 21
10677.635017000001
 31
0.0
  0
LINE
  5
7C48
  8
4
  6
CONTINUOUS
 10
2600.0
 20
2000.0
 30
0.0
 11
7400.0
 21
2000.0
 31
0.0
  0
LINE
  5
7C49
  8
4
  6
CONTINUOUS
 10
1000.0
 20
10677.635017000001
 30
0.0
 11
1000.0
 21
9877.6350170000005
 31
0.0
  0
TEXT
  5
7C4A
  8
4
  6
CONTINUOUS
 10
1394.7812670000001
 20
9529.2779099999989
 30
0.0
 40
216.0
  1
右回転左横向
  0
TEXT
  5
7C4B
  8
4
  6
CONTINUOUS
 10
5875.8782369999999
 20
10824.244326
 30
0.0
 40
224.0
  1
No.
  0
TEXT
  5
7C4C
  8
4
  6
CONTINUOUS
 10
5245.1842500000012
 20
9533.715365
 30
0.0
 40
216.0
  1
縮尺：1/40
  0
LINE
  5
7C4D
  8
4
  6
CONTINUOUS
 10
7400.0
 20
10677.635017000001
 30
0.0
 11
7400.0
 21
9877.6350170000005
 31
0.0
  0
LINE
  5
7C4F
  8
4
  6
CONTINUOUS
 10
5762.4696889999996
 20
10725.054333
 30
0.0
 11
5762.4696889999996
 21
11146.609046
 31
0.0
  0
LINE
  5
7C50
  8
4
  6
CONTINUOUS
 10
5762.4696889999996
 20
11146.609046
 30
0.0
 11
7400.0
 21
11146.609046
 31
0.0
  0
LINE
  5
7C51
  8
4
  6
CONTINUOUS
 10
7400.0
 20
11146.609046
 30
0.0
 11
7400.0
 21
10725.054333
 31
0.0
  0
LINE
  5
7C52
  8
4
  6
CONTINUOUS
 10
7400.0
 20
10725.054333
 30
0.0
 11
5762.4696889999996
 21
10725.054333
 31
0.0
  0
DIMENSION
  5
7D25
  8
3
  2
*D13
 10
4257.9173920000003
 20
5850.8243228995343
 30
0.0
 11
3285.7470009889439
 21
5850.8243228995343
 31
0.0
 70
   128
 13
2512.9173919999998
 23
4956.5219989999996
 33
0.0
 14
4257.9173920000003
 24
4057.0219989999991
 34
0.0
1001
ACAD
1000
DSTYLE
1002
{
1070
   287
1070
     3
1070
   287
1070
     3
1070
    40
1040
40.0
1070
   143
1040
0.039
1070
   172
1070
     1
1070
   271
1070
     0
1070
   279
1070
     0
1070
   288
1070
     1
1002
}
  0
DIMENSION
  5
7D53
  8
3
  2
*D14
 10
3057.9173919999998
 20
3508.4945395127238
 30
0.0
 11
2807.9173919999998
 21
3608.4945395127252
 31
0.0
 70
     0
 13
2557.9173919999998
 23
3762.0219990000001
 33
0.0
 14
3057.9173919999998
 24
3762.0219990000001
 34
0.0
1001
ACAD
1000
DSTYLE
1002
{
1070
   287
1070
     3
1070
   287
1070
     3
1070
    40
1040
40.0
1070
   143
1040
0.039
1070
   172
1070
     1
1070
   271
1070
     0
1070
   279
1070
     0
1002
}
  0
DIMENSION
  5
7D60
  8
3
  2
*D15
 10
4257.9173920000003
 20
3508.4945395127238
 30
0.0
 11
3657.9173919999998
 21
3608.4945395127252
 31
0.0
 70
     0
 13
3057.9173919999998
 23
3762.0219990000001
 33
0.0
 14
4257.9173920000003
 24
3762.0219990000001
 34
0.0
1001
ACAD
1000
DSTYLE
1002
{
1070
   287
1070
     3
1070
   287
1070
     3
1070
    40
1040
40.0
1070
   143
1040
0.039
1070
   172
1070
     1
1070
   271
1070
     0
1070
   279
1070
     0
1002
}
  0
DIMENSION
  5
7D6F
  8
3
  2
*D16
 10
6442.1542440000003
 20
3508.4945395127238
 30
0.0
 11
6193.6542440000003
 21
3608.4945395127252
 31
0.0
 70
     0
 13
5945.1542440000003
 23
3762.0219990000001
 33
0.0
 14
6442.1542440000003
 24
3762.0219990000001
 34
0.0
1001
ACAD
1000
DSTYLE
1002
{
1070
   287
1070
     3
1070
   287
1070
     3
1070
    40
1040
40.0
1070
   143
1040
0.039
1070
   172
1070
     1
1070
   271
1070
     0
1070
   279
1070
     0
1002
}
  0
DIMENSION
  5
7D7D
  8
3
  2
*D17
 10
6795.1542439999994
 20
3508.4945395127238
 30
0.0
 11
7069.4399582857141
 21
3608.4945395127252
 31
0.0
 70
     0
 13
6442.1542440000003
 23
3762.0219990000001
 33
0.0
 14
6795.1542439999994
 24
3762.0219990000001
 34
0.0
1001
ACAD
1000
DSTYLE
1002
{
1070
   287
1070
     3
1070
   287
1070
     3
1070
    40
1040
40.0
1070
   143
1040
0.039
1070
   172
1070
     1
1070
   271
1070
     0
1070
   279
1070
     0
1002
}
  0
DIMENSION
  5
7D94
  8
3
  2
*D19
 10
1821.649641749696
 20
3762.0219990000001
 30
0.0
 11
1721.649641749696
 21
3419.1648561428578
 31
0.0
 70
     0
 13
2557.9173919999998
 23
3862.0219990000001
 33
0.0
 14
2557.9173919999998
 24
3762.0219990000001
 34
0.0
 50
90.0
1001
ACAD
1000
DSTYLE
1002
{
1070
   287
1070
     3
1070
   287
1070
     3
1070
    40
1040
40.0
1070
   143
1040
0.039
1070
   172
1070
     1
1070
   271
1070
     0
1070
   279
1070
     0
1070
     6
1000
DOT
1002
}
  0
DIMENSION
  5
7DA3
  8
3
  2
*D20
 10
1821.649641749696
 20
3957.0219990000001
 30
0.0
 11
1630.2210703211249
 21
3909.5219990000001
 31
0.0
 70
     0
 13
2557.9173919999998
 23
3862.0219990000001
 33
0.0
 14
2557.9173919999998
 24
3957.0219990000001
 34
0.0
 50
90.0
1001
ACAD
1000
DSTYLE
1002
{
1070
   172
1070
     1
1070
    40
1040
40.0
1070
     3
1000
(<>)
1070
   271
1070
     0
1070
     6
1000
_DOT
1070
   143
1040
0.039
1002
}
  0
DIMENSION
  5
7DB0
  8
3
  2
*D21
 10
1464.42410970728
 20
3762.0219990000001
 30
0.0
 11
1332.995538278708
 21
4623.5219989999996
 31
0.0
 70
     0
 13
3037.9173919999998
 23
5485.0219989999996
 33
0.0
 14
2557.9173919999998
 24
3762.0219990000001
 34
0.0
 50
90.0
1001
ACAD
1000
DSTYLE
1002
{
1070
   287
1070
     3
1070
   287
1070
     3
1070
     3
1000
(<>)
1070
    40
1040
40.0
1070
   143
1040
0.039
1070
   172
1070
     1
1070
   271
1070
     0
1070
   279
1070
     0
1002
}
  0
ENDSEC
  0
EOF
