  0
SECTION
  2
HEADER
  9
$ACADVER
  1
AC1009
  9
$INSBASE
 10
0.0
 20
0.0
 30
0.0
  9
$EXTMIN
 10
1000.0
 20
1200.0
 30
0.0
  9
$EXTMAX
 10
7400.0
 20
11146.609046
 30
0.0
  9
$LIMMIN
 10
0.0
 20
0.0
  9
$LIMMAX
 10
297.0
 20
210.0
  9
$ORTHOMODE
 70
     0
  9
$REGENMODE
 70
     1
  9
$FILLMODE
 70
     0
  9
$QTEXTMODE
 70
     0
  9
$MIRRTEXT
 70
     1
  9
$DRAGMODE
 70
     2
  9
$LTSCALE
 40
100.0
  9
$OSMODE
 70
    37
  9
$ATTMODE
 70
     1
  9
$TEXTSIZE
 40
180.0
  9
$TRACEWID
 40
0.05
  9
$TEXTSTYLE
  7
STANDARD
  9
$CLAYER
  8
3
  9
$CELTYPE
  6
BYLAYER
  9
$CECOLOR
 62
   256
  9
$DIMSCALE
 40
40.0
  9
$DIMASZ
 40
2.0
  9
$DIMEXO
 40
0.5
  9
$DIMDLI
 40
10.0
  9
$DIMRND
 40
0.0
  9
$DIMDLE
 40
0.0
  9
$DIMEXE
 40
1.0
  9
$DIMTP
 40
1.0
  9
$DIMTM
 40
1.0
  9
$DIMTXT
 40
3.0
  9
$DIMCEN
 40
0.0
  9
$DIMTSZ
 40
0.0
  9
$DIMTOL
 70
     0
  9
$DIMLIM
 70
     0
  9
$DIMTIH
 70
     0
  9
$DIMTOH
 70
     0
  9
$DIMSE1
 70
     0
  9
$DIMSE2
 70
     0
  9
$DIMTAD
 70
     1
  9
$DIMZIN
 70
     8
  9
$DIMBLK
  1

  9
$DIMASO
 70
     1
  9
$DIMSHO
 70
     1
  9
$DIMPOST
  1
(<>)
  9
$DIMAPOST
  1

  9
$DIMALT
 70
     0
  9
$DIMALTD
 70
     2
  9
$DIMALTF
 40
0.039
  9
$DIMLFAC
 40
1.0
  9
$DIMTOFL
 70
     1
  9
$DIMTVP
 40
0.0
  9
$DIMTIX
 70
     0
  9
$DIMSOXD
 70
     0
  9
$DIMSAH
 70
     1
  9
$DIMBLK1
  1
OPEN
  9
$DIMBLK2
  1
OPEN
  9
$DIMSTYLE
  2
IGA
  9
$DIMCLRD
 70
     0
  9
$DIMCLRE
 70
     0
  9
$DIMCLRT
 70
     0
  9
$DIMTFAC
 40
10.0
  9
$DIMGAP
 40
1.0
  9
$LUNITS
 70
     2
  9
$LUPREC
 70
     3
  9
$SKETCHINC
 40
0.1
  9
$FILLETRAD
 40
50.0
  9
$AUNITS
 70
     0
  9
$AUPREC
 70
     0
  9
$MENU
  1
acad
  9
$ELEVATION
 40
0.0
  9
$PELEVATION
 40
0.0
  9
$THICKNESS
 40
0.0
  9
$LIMCHECK
 70
     0
  9
$BLIPMODE
 70
     0
  9
$CHAMFERA
 40
0.5
  9
$CHAMFERB
 40
0.5
  9
$SKPOLY
 70
     0
  9
$TDCREATE
 40
2450753.407232407
  9
$TDUPDATE
 40
2454953.685458981
  9
$TDINDWG
 40
0.0539973958
  9
$TDUSRTIMER
 40
0.0539973958
  9
$USRTIMER
 70
     1
  9
$ANGBASE
 50
0.0
  9
$ANGDIR
 70
     0
  9
$PDMODE
 70
     0
  9
$PDSIZE
 40
0.0
  9
$PLINEWID
 40
0.0
  9
$COORDS
 70
     1
  9
$SPLFRAME
 70
     0
  9
$SPLINETYPE
 70
     6
  9
$SPLINESEGS
 70
     8
  9
$ATTDIA
 70
     0
  9
$ATTREQ
 70
     1
  9
$HANDLING
 70
 10241
  9
$HANDSEED
  5
7FCE
  9
$SURFTAB1
 70
     6
  9
$SURFTAB2
 70
     6
  9
$SURFTYPE
 70
     6
  9
$SURFU
 70
     6
  9
$SURFV
 70
     6
  9
$UCSNAME
  2

  9
$UCSORG
 10
0.0
 20
0.0
 30
0.0
  9
$UCSXDIR
 10
1.0
 20
0.0
 30
0.0
  9
$UCSYDIR
 10
0.0
 20
1.0
 30
0.0
  9
$PUCSNAME
  2

  9
$PUCSORG
 10
0.0
 20
0.0
 30
0.0
  9
$PUCSXDIR
 10
1.0
 20
0.0
 30
0.0
  9
$PUCSYDIR
 10
0.0
 20
1.0
 30
0.0
  9
$USERI1
 70
     0
  9
$USERI2
 70
     0
  9
$USERI3
 70
     0
  9
$USERI4
 70
     0
  9
$USERI5
 70
     0
  9
$USERR1
 40
0.0
  9
$USERR2
 40
0.0
  9
$USERR3
 40
0.0
  9
$USERR4
 40
0.0
  9
$USERR5
 40
0.0
  9
$WORLDVIEW
 70
     1
  9
$SHADEDGE
 70
     3
  9
$SHADEDIF
 70
    70
  9
$TILEMODE
 70
     1
  9
$MAXACTVP
 70
    16
  9
$PLIMCHECK
 70
     0
  9
$PEXTMIN
 10
1.0000000000000000E+020
 20
1.0000000000000000E+020
 30
1.0000000000000000E+020
  9
$PEXTMAX
 10
-1.0000000000000000E+020
 20
-1.0000000000000000E+020
 30
-1.0000000000000000E+020
  9
$PLIMMIN
 10
0.0
 20
0.0
  9
$PLIMMAX
 10
12.0
 20
9.0
  9
$UNITMODE
 70
     0
  9
$VISRETAIN
 70
     0
  9
$PLINEGEN
 70
     0
  9
$PSLTSCALE
 70
     1
  0
ENDSEC
  0
SECTION
  2
TABLES
  0
TABLE
  2
VPORT
 70
     2
  0
VPORT
  2
*ACTIVE
 70
     0
 10
0.0
 20
0.0
 11
1.0
 21
1.0
 12
17917.113334016129
 22
6129.5255672974072
 13
0.0
 23
0.0
 14
10.0
 24
10.0
 15
10.0
 25
10.0
 16
0.0
 26
0.0
 36
1.0
 17
0.0
 27
0.0
 37
0.0
 40
13465.92788147709
 41
3.1666666666666661
 42
50.0
 43
0.0
 44
0.0
 50
0.0
 51
0.0
 71
     0
 72
   100
 73
     1
 74
     0
 75
     0
 76
     0
 77
     0
 78
     0
  0
ENDTAB
  0
TABLE
  2
LTYPE
 70
     2
  0
LTYPE
  2
CONTINUOUS
 70
     0
  3
Solid line
 72
    65
 73
     0
 40
0.0
  0
LTYPE
  2
CENTER
 70
     0
  3
____ _ ____ _ ____ _ ____ _ ____ _ ____ _ ____ 
 72
    65
 73
     4
 40
2.0
 49
1.25
 49
-0.25
 49
0.25
 49
-0.25
  0
ENDTAB
  0
TABLE
  2
LAYER
 70
     6
  0
LAYER
  2
0
 70
     0
 62
     7
  6
CONTINUOUS
  0
LAYER
  2
3
 70
     0
 62
     2
  6
CONTINUOUS
  0
LAYER
  2
2
 70
     0
 62
     3
  6
CENTER
  0
LAYER
  2
1
 70
     0
 62
     4
  6
CONTINUOUS
  0
LAYER
  2
4
 70
     0
 62
     7
  6
CONTINUOUS
  0
LAYER
  2
DEFPOINTS
 70
     0
 62
     7
  6
CONTINUOUS
  0
ENDTAB
  0
TABLE
  2
STYLE
 70
     1
  0
STYLE
  2
STANDARD
 70
     0
 40
0.0
 41
1.0
 50
0.0
 71
     0
 42
180.0
  3
simplex.shx
  4
extfont.shx
  0
ENDTAB
  0
TABLE
  2
VIEW
 70
     0
  0
ENDTAB
  0
TABLE
  2
UCS
 70
     0
  0
ENDTAB
  0
TABLE
  2
APPID
 70
     1
  0
APPID
  2
ACAD
 70
     0
  0
ENDTAB
  0
TABLE
  2
DIMSTYLE
 70
     1
  0
DIMSTYLE
  2
IGA
 70
     0
  3

  4

  5

  6
OPEN
  7
OPEN
 40
2.0
 41
2.0
 42
0.5
 43
10.0
 44
1.0
 45
0.0
 46
0.0
 47
1.0
 48
1.0
140
3.0
141
0.0
142
0.0
143
0.03937
144
1.0
145
0.0
146
10.0
147
1.0
 71
     0
 72
     0
 73
     0
 74
     0
 75
     0
 76
     0
 77
     1
 78
     8
170
     0
171
     2
172
     0
173
     1
174
     0
175
     0
176
     0
177
     0
178
     0
  0
ENDTAB
  0
ENDSEC
  0
SECTION
  2
BLOCKS
  0
BLOCK
  8
0
  2
$MODEL_SPACE
 70
     0
 10
0.0
 20
0.0
 30
0.0
  3
$MODEL_SPACE
  1

  0
ENDBLK
  5
1B
  8
0
  0
BLOCK
 67
     1
  8
0
  2
$PAPER_SPACE
 70
     0
 10
0.0
 20
0.0
 30
0.0
  3
$PAPER_SPACE
  1

  0
ENDBLK
  5
18
 67
     1
  8
0
  0
BLOCK
  8
0
  2
_OPEN
 70
     0
 10
0.0
 20
0.0
 30
0.0
  3
_OPEN
  1

  0
LINE
  5
7AE6
  8
0
  6
BYBLOCK
 62
     0
 10
-1.0
 20
0.166667
 30
0.0
 11
0.0
 21
0.0
 31
0.0
  0
LINE
  5
7AE7
  8
0
  6
BYBLOCK
 62
     0
 10
0.0
 20
0.0
 30
0.0
 11
-1.0
 21
-0.166667
 31
0.0
  0
LINE
  5
7AE8
  8
0
  6
BYBLOCK
 62
     0
 10
0.0
 20
0.0
 30
0.0
 11
-1.0
 21
0.0
 31
0.0
  0
ENDBLK
  5
7AE9
  8
0
  0
BLOCK
  8
0
  2
*D1
 70
     1
 10
0.0
 20
0.0
 30
0.0
  3
*D1
  1

  0
LINE
  5
7F26
  8
3
  6
CONTINUOUS
 62
     0
 10
1953.9603090000001
 20
5182.6735790000002
 30
0.0
 11
1953.9603090000001
 21
5458.944555
 31
0.0
  0
LINE
  5
7F27
  8
3
  6
CONTINUOUS
 62
     0
 10
2778.9603090000001
 20
5182.6735790000002
 30
0.0
 11
2778.9603090000001
 21
5458.944555
 31
0.0
  0
LINE
  5
7F28
  8
3
  6
CONTINUOUS
 62
     0
 10
2033.9603090000001
 20
5418.944555
 30
0.0
 11
2698.9603090000001
 21
5418.944555
 31
0.0
  0
INSERT
  5
7F29
  8
3
  6
CONTINUOUS
 62
     0
  2
_OPEN
 10
1953.9603090000001
 20
5418.944555
 30
0.0
 41
80.0
 42
80.0
 43
80.0
 50
180.0
  0
INSERT
  5
7F2A
  8
3
  6
CONTINUOUS
 62
     0
  2
_OPEN
 10
2778.9603090000001
 20
5418.944555
 30
0.0
 41
80.0
 42
80.0
 43
80.0
  0
TEXT
  8
3
  40
120
  5
7FBE
  62
0
  72
0
  71
0
 10
2140.44
 20
5306.54
 30
0.000000
  1
825
  0
POINT
  5
7F2C
  8
DEFPOINTS
  6
CONTINUOUS
 62
     0
 10
1953.9603090000001
 20
5162.6735790000002
 30
0.0
  0
POINT
  5
7F2D
  8
DEFPOINTS
  6
CONTINUOUS
 62
     0
 10
2778.9603090000001
 20
5162.6735790000002
 30
0.0
  0
POINT
  5
7F2E
  8
DEFPOINTS
  6
CONTINUOUS
 62
     0
 10
2778.9603090000001
 20
5418.944555
 30
0.0
  0
ENDBLK
  5
7B27
  8
0
  0
BLOCK
  8
0
  2
*D2
 70
     1
 10
0.0
 20
0.0
 30
0.0
  3
*D2
  1

  0
LINE
  5
7F2F
  8
3
  6
CONTINUOUS
 62
     0
 10
1953.9603090000001
 20
5182.6735790000002
 30
0.0
 11
1953.9603090000001
 21
5648.4181170000002
 31
0.0
  0
LINE
  5
7F30
  8
3
  6
CONTINUOUS
 62
     0
 10
2801.9603090000001
 20
5108.4657770000013
 30
0.0
 11
2801.9603090000001
 21
5648.4181170000002
 31
0.0
  0
LINE
  5
7F31
  8
3
  6
CONTINUOUS
 62
     0
 10
2033.9603090000001
 20
5608.4181170000002
 30
0.0
 11
2721.9603089999991
 21
5608.4181170000002
 31
0.0
  0
INSERT
  5
7F32
  8
3
  6
CONTINUOUS
 62
     0
  2
_OPEN
 10
1953.9603090000001
 20
5608.4181170000002
 30
0.0
 41
80.0
 42
80.0
 43
80.0
 50
180.0
  0
INSERT
  5
7F33
  8
3
  6
CONTINUOUS
 62
     0
  2
_OPEN
 10
2801.9603090000001
 20
5608.4181170000002
 30
0.0
 41
80.0
 42
80.0
 43
80.0
  0
TEXT
  8
3
  40
120
  5
7FBF
  62
0
  72
0
  71
0
 10
2130.96
 20
5496.02
 30
0.000000
  1
848
  0
POINT
  5
7F35
  8
DEFPOINTS
  6
CONTINUOUS
 62
     0
 10
1953.9603090000001
 20
5162.6735790000002
 30
0.0
  0
POINT
  5
7F36
  8
DEFPOINTS
  6
CONTINUOUS
 62
     0
 10
2801.9603090000001
 20
5088.4657770000003
 30
0.0
  0
POINT
  5
7F37
  8
DEFPOINTS
  6
CONTINUOUS
 62
     0
 10
2801.9603090000001
 20
5608.4181170000002
 30
0.0
  0
ENDBLK
  5
7B34
  8
0
  0
BLOCK
  8
0
  2
*D3
 70
     1
 10
0.0
 20
0.0
 30
0.0
  3
*D3
  1

  0
LINE
  5
7F38
  8
3
  6
CONTINUOUS
 62
     0
 10
3369.9603090000001
 20
4634.1810668593889
 30
0.0
 11
3369.9603090000001
 21
5648.4181170000002
 31
0.0
  0
LINE
  5
7F39
  8
3
  6
CONTINUOUS
 62
     0
 10
2881.9603090000001
 20
5608.4181170000002
 30
0.0
 11
3289.9603090000001
 21
5608.4181170000002
 31
0.0
  0
INSERT
  5
7F3A
  8
3
  6
CONTINUOUS
 62
     0
  2
_OPEN
 10
2801.9603090000001
 20
5608.4181170000002
 30
0.0
 41
80.0
 42
80.0
 43
80.0
 50
180.0
  0
INSERT
  5
7F3B
  8
3
  6
CONTINUOUS
 62
     0
  2
_OPEN
 10
3369.9603090000001
 20
5608.4181170000002
 30
0.0
 41
80.0
 42
80.0
 43
80.0
  0
TEXT
  8
3
  40
120
  5
7FC0
  62
0
  72
0
  71
0
 10
2845.96
 20
5496.02
 30
0.000000
  1
568
  0
POINT
  5
7F3D
  8
DEFPOINTS
  6
CONTINUOUS
 62
     0
 10
2801.9603090000001
 20
5088.4657770000003
 30
0.0
  0
POINT
  5
7F3E
  8
DEFPOINTS
  6
CONTINUOUS
 62
     0
 10
3369.9603090000001
 20
4614.1810668593898
 30
0.0
  0
POINT
  5
7F3F
  8
DEFPOINTS
  6
CONTINUOUS
 62
     0
 10
3369.9603090000001
 20
5608.4181170000002
 30
0.0
  0
ENDBLK
  5
7CED
  8
0
  0
BLOCK
  8
0
  2
*D4
 70
     1
 10
0.0
 20
0.0
 30
0.0
  3
*D4
  1

  0
LINE
  5
7CD9
  8
0
  6
BYBLOCK
 62
     0
 10
2841.4603090000001
 20
5162.6735790000002
 30
0.0
 11
3748.662061999999
 21
5162.6735790000002
 31
0.0
  0
LINE
  5
7CDA
  8
0
  6
BYBLOCK
 62
     0
 10
3551.8035749999999
 20
4617.6735790000002
 30
0.0
 11
3748.662061999999
 21
4617.6735790000002
 31
0.0
  0
LINE
  5
7CDB
  8
0
  6
BYBLOCK
 62
     0
 10
3708.6620619999999
 20
5082.6735790000002
 30
0.0
 11
3708.6620619999999
 21
4697.6735790000002
 31
0.0
  0
TEXT
  5
7CDC
  8
3
 62
     0
 10
3658.9057603820538
 20
4740.1878647142848
 30
0.0
 40
120.0
  1
545
 50
90.0
  0
INSERT
  5
7CDD
  8
0
  6
BYBLOCK
 62
     0
  2
_OPEN
 10
3708.6620619999999
 20
5162.6735790000002
 30
0.0
 41
80.0
 42
80.0
 43
80.0
 50
90.0
  0
INSERT
  5
7CDE
  8
0
  6
BYBLOCK
 62
     0
  2
_OPEN
 10
3708.6620619999999
 20
4617.6735790000002
 30
0.0
 41
80.0
 42
80.0
 43
80.0
 50
270.0
  0
POINT
  5
7CDF
  8
DEFPOINTS
  6
BYBLOCK
 62
     0
 10
2821.4603090000001
 20
5162.6735790000002
 30
0.0
  0
POINT
  5
7CE0
  8
DEFPOINTS
  6
BYBLOCK
 62
     0
 10
3531.8035749999999
 20
4617.6735790000002
 30
0.0
  0
POINT
  5
7CE1
  8
DEFPOINTS
  6
BYBLOCK
 62
     0
 10
3708.6620619999999
 20
4617.6735790000002
 30
0.0
  0
ENDBLK
  5
7CE2
  8
0
  0
BLOCK
  8
0
  2
*D5
 70
     1
 10
0.0
 20
0.0
 30
0.0
  3
*D5
  1

  0
LINE
  5
7F40
  8
3
  6
CONTINUOUS
 62
     0
 10
3321.9603090000001
 20
3917.6735789999998
 30
0.0
 11
3748.662061999999
 21
3917.6735789999998
 31
0.0
  0
LINE
  5
7F41
  8
3
  6
CONTINUOUS
 62
     0
 10
3708.6620619999999
 20
4537.6735790000002
 30
0.0
 11
3708.6620619999999
 21
3997.6735789999998
 31
0.0
  0
INSERT
  5
7F42
  8
3
  6
CONTINUOUS
 62
     0
  2
_OPEN
 10
3708.6620619999999
 20
4617.6735790000002
 30
0.0
 41
80.0
 42
80.0
 43
80.0
 50
90.0
  0
INSERT
  5
7F43
  8
3
  6
CONTINUOUS
 62
     0
  2
_OPEN
 10
3708.6620619999999
 20
3917.6735789999998
 30
0.0
 41
80.0
 42
80.0
 43
80.0
 50
270.0
  0
TEXT
  8
3
  40
120
  5
7FC1
  62
0
  72
0
  71
0
 10
3368.66
 20
4055.27
 30
0.000000
  1
700
  0
POINT
  5
7F45
  8
DEFPOINTS
  6
CONTINUOUS
 62
     0
 10
3531.8035749999999
 20
4617.6735790000002
 30
0.0
  0
POINT
  5
7F46
  8
DEFPOINTS
  6
CONTINUOUS
 62
     0
 10
3301.9603090000001
 20
3917.6735789999998
 30
0.0
  0
POINT
  5
7F47
  8
DEFPOINTS
  6
CONTINUOUS
 62
     0
 10
3708.6620619999999
 20
3917.6735789999998
 30
0.0
  0
ENDBLK
  5
7CD7
  8
0
  0
BLOCK
  8
0
  2
*D6
 70
     1
 10
0.0
 20
0.0
 30
0.0
  3
*D6
  1

  0
LINE
  5
7F48
  8
3
  6
CONTINUOUS
 62
     0
 10
1601.9603090000001
 20
7441.5641409999998
 30
0.0
 11
1601.9603090000001
 21
6995.6204409999991
 31
0.0
  0
LINE
  5
7F49
  8
3
  6
CONTINUOUS
 62
     0
 10
3301.9603090000001
 20
7441.5641409999998
 30
0.0
 11
3301.9603090000001
 21
6995.6204409999991
 31
0.0
  0
LINE
  5
7F4A
  8
3
  6
CONTINUOUS
 62
     0
 10
1681.9603090000001
 20
7035.620441
 30
0.0
 11
3221.9603089999991
 21
7035.620441
 31
0.0
  0
INSERT
  5
7F4B
  8
3
  6
CONTINUOUS
 62
     0
  2
_OPEN
 10
1601.9603090000001
 20
7035.620441
 30
0.0
 41
80.0
 42
80.0
 43
80.0
 50
180.0
  0
INSERT
  5
7F4C
  8
3
  6
CONTINUOUS
 62
     0
  2
_OPEN
 10
3301.9603090000001
 20
7035.620441
 30
0.0
 41
80.0
 42
80.0
 43
80.0
  0
TEXT
  8
3
  40
120
  5
7FC2
  62
0
  72
0
  71
0
 10
2192.13
 20
6923.22
 30
0.000000
  1
1700
  0
POINT
  5
7F4E
  8
DEFPOINTS
  6
CONTINUOUS
 62
     0
 10
1601.9603090000001
 20
7461.5641409999998
 30
0.0
  0
POINT
  5
7F4F
  8
DEFPOINTS
  6
CONTINUOUS
 62
     0
 10
3301.9603090000001
 20
7461.5641409999998
 30
0.0
  0
POINT
  5
7F50
  8
DEFPOINTS
  6
CONTINUOUS
 62
     0
 10
3301.9603090000001
 20
7035.620441
 30
0.0
  0
ENDBLK
  5
7B9F
  8
0
  0
BLOCK
  8
0
  2
*D7
 70
     1
 10
0.0
 20
0.0
 30
0.0
  3
*D7
  1

  0
LINE
  5
7F51
  8
3
  6
CONTINUOUS
 62
     0
 10
3321.9603090000001
 20
8311.5641409999989
 30
0.0
 11
3742.973136000001
 21
8311.5641409999989
 31
0.0
  0
LINE
  5
7F52
  8
3
  6
CONTINUOUS
 62
     0
 10
3321.9603090000001
 20
7461.5641409999998
 30
0.0
 11
3742.973136000001
 21
7461.5641409999998
 31
0.0
  0
LINE
  5
7F53
  8
3
  6
CONTINUOUS
 62
     0
 10
3702.973136000001
 20
8231.5641409999989
 30
0.0
 11
3702.973136000001
 21
7541.5641410000007
 31
0.0
  0
INSERT
  5
7F54
  8
3
  6
CONTINUOUS
 62
     0
  2
_OPEN
 10
3702.973136000001
 20
8311.5641409999989
 30
0.0
 41
80.0
 42
80.0
 43
80.0
 50
90.0
  0
INSERT
  5
7F55
  8
3
  6
CONTINUOUS
 62
     0
  2
_OPEN
 10
3702.973136000001
 20
7461.5641409999998
 30
0.0
 41
80.0
 42
80.0
 43
80.0
 50
270.0
  0
TEXT
  8
3
  40
120
  5
7FC3
  62
0
  72
0
  71
0
 10
3362.97
 20
7699.54
 30
0.000000
  1
850
  0
POINT
  5
7F57
  8
DEFPOINTS
  6
CONTINUOUS
 62
     0
 10
3301.9603090000001
 20
8311.5641409999989
 30
0.0
  0
POINT
  5
7F58
  8
DEFPOINTS
  6
CONTINUOUS
 62
     0
 10
3301.9603090000001
 20
7461.5641409999998
 30
0.0
  0
POINT
  5
7F59
  8
DEFPOINTS
  6
CONTINUOUS
 62
     0
 10
3702.973136000001
 20
7461.5641409999998
 30
0.0
  0
ENDBLK
  5
7BAC
  8
0
  0
BLOCK
  8
0
  2
*D8
 70
     1
 10
0.0
 20
0.0
 30
0.0
  3
*D8
  1

  0
LINE
  5
7F5A
  8
3
  6
CONTINUOUS
 62
     0
 10
6265.5502809999998
 20
5182.6735790000002
 30
0.0
 11
6265.5502809999998
 21
5344.342412
 31
0.0
  0
LINE
  5
7F5B
  8
3
  6
CONTINUOUS
 62
     0
 10
6865.5502809999998
 20
5182.6735790000002
 30
0.0
 11
6865.5502809999998
 21
5344.342412
 31
0.0
  0
LINE
  5
7F5C
  8
3
  6
CONTINUOUS
 62
     0
 10
6345.5502809999998
 20
5304.342412
 30
0.0
 11
6785.5502809999998
 21
5304.342412
 31
0.0
  0
INSERT
  5
7F5D
  8
3
  6
CONTINUOUS
 62
     0
  2
_OPEN
 10
6265.5502809999998
 20
5304.342412
 30
0.0
 41
80.0
 42
80.0
 43
80.0
 50
180.0
  0
INSERT
  5
7F5E
  8
3
  6
CONTINUOUS
 62
     0
  2
_OPEN
 10
6865.5502809999998
 20
5304.342412
 30
0.0
 41
80.0
 42
80.0
 43
80.0
  0
TEXT
  8
3
  40
120
  5
7FC4
  62
0
  72
0
  71
0
 10
6299.84
 20
5191.94
 30
0.000000
  1
600
  0
POINT
  5
7F60
  8
DEFPOINTS
  6
CONTINUOUS
 62
     0
 10
6265.5502809999998
 20
5162.6735790000002
 30
0.0
  0
POINT
  5
7F61
  8
DEFPOINTS
  6
CONTINUOUS
 62
     0
 10
6865.5502809999998
 20
5162.6735790000002
 30
0.0
  0
POINT
  5
7F62
  8
DEFPOINTS
  6
CONTINUOUS
 62
     0
 10
6865.5502809999998
 20
5304.342412
 30
0.0
  0
ENDBLK
  5
7BF0
  8
0
  0
BLOCK
  8
0
  2
*D9
 70
     1
 10
0.0
 20
0.0
 30
0.0
  3
*D9
  1

  0
LINE
  5
7C96
  8
0
  6
BYBLOCK
 62
     0
 10
5995.5502809999989
 20
4837.6735790000002
 30
0.0
 11
5995.5502809999989
 21
5576.9188039999999
 31
0.0
  0
LINE
  5
7C97
  8
0
  6
BYBLOCK
 62
     0
 10
6565.5502809999998
 20
5547.4102080000002
 30
0.0
 11
6565.5502809999998
 21
5576.9188039999999
 31
0.0
  0
LINE
  5
7C98
  8
0
  6
BYBLOCK
 62
     0
 10
6075.5502809999989
 20
5536.918803999999
 30
0.0
 11
6485.5502809999998
 21
5536.918803999999
 31
0.0
  0
INSERT
  5
7C99
  8
3
  2
*U21
 10
0.0
 20
0.0
 30
0.0
  0
INSERT
  5
7C9A
  8
0
  6
BYBLOCK
 62
     0
  2
_OPEN
 10
5995.5502809999989
 20
5536.918803999999
 30
0.0
 41
80.0
 42
80.0
 43
80.0
 50
180.0
  0
INSERT
  5
7C9B
  8
0
  6
BYBLOCK
 62
     0
  2
_OPEN
 10
6565.5502809999998
 20
5536.918803999999
 30
0.0
 41
80.0
 42
80.0
 43
80.0
  0
POINT
  5
7C9C
  8
DEFPOINTS
  6
BYBLOCK
 62
     0
 10
5995.5502809999989
 20
4817.6735790000002
 30
0.0
  0
POINT
  5
7C9D
  8
DEFPOINTS
  6
BYBLOCK
 62
     0
 10
6565.5502809999998
 20
5527.4102080000002
 30
0.0
  0
POINT
  5
7C9E
  8
DEFPOINTS
  6
BYBLOCK
 62
     0
 10
6565.5502809999998
 20
5536.918803999999
 30
0.0
  0
ENDBLK
  5
7C9F
  8
0
  0
BLOCK
  8
0
  2
*D10
 70
     1
 10
0.0
 20
0.0
 30
0.0
  3
*D10
  1

  0
LINE
  5
7F63
  8
3
  6
CONTINUOUS
 62
     0
 10
6948.5502809999998
 20
5077.6735790000002
 30
0.0
 11
6948.5502809999998
 21
5576.9188039999999
 31
0.0
  0
LINE
  5
7F64
  8
3
  6
CONTINUOUS
 62
     0
 10
6645.5502809999998
 20
5536.918803999999
 30
0.0
 11
6868.5502809999998
 21
5536.918803999999
 31
0.0
  0
TEXT
  8
3
  40
120
  5
7FC5
  62
0
  72
0
  71
0
 10
6512.05
 20
5424.99
 30
0.000000
  1
383
  0
INSERT
  5
7F66
  8
3
  6
CONTINUOUS
 62
     0
  2
_OPEN
 10
6565.5502809999998
 20
5536.918803999999
 30
0.0
 41
80.0
 42
80.0
 43
80.0
 50
180.0
  0
INSERT
  5
7F67
  8
3
  6
CONTINUOUS
 62
     0
  2
_OPEN
 10
6948.5502809999998
 20
5536.918803999999
 30
0.0
 41
80.0
 42
80.0
 43
80.0
  0
POINT
  5
7F68
  8
DEFPOINTS
  6
CONTINUOUS
 62
     0
 10
6565.5502809999998
 20
5527.4102080000002
 30
0.0
  0
POINT
  5
7F69
  8
DEFPOINTS
  6
CONTINUOUS
 62
     0
 10
6948.5502809999998
 20
5057.6735790000002
 30
0.0
  0
POINT
  5
7F6A
  8
DEFPOINTS
  6
CONTINUOUS
 62
     0
 10
6948.5502809999998
 20
5536.918803999999
 30
0.0
  0
ENDBLK
  5
7C22
  8
0
  0
BLOCK
  8
0
  2
*D11
 70
     1
 10
0.0
 20
0.0
 30
0.0
  3
*D11
  1

  0
LINE
  5
7F6B
  8
3
  6
CONTINUOUS
 62
     0
 10
6968.5502809999998
 20
5017.6735790000002
 30
0.0
 11
7294.693819000001
 21
5017.6735790000002
 31
0.0
  0
LINE
  5
7F6C
  8
3
  6
CONTINUOUS
 62
     0
 10
6968.5502809999998
 20
4217.6735790000002
 30
0.0
 11
7294.693819000001
 21
4217.6735790000002
 31
0.0
  0
LINE
  5
7F6D
  8
3
  6
CONTINUOUS
 62
     0
 10
7254.6938190000001
 20
4937.6735790000012
 30
0.0
 11
7254.6938190000001
 21
4297.6735790000002
 31
0.0
  0
INSERT
  5
7F6E
  8
3
  6
CONTINUOUS
 62
     0
  2
_OPEN
 10
7254.6938190000001
 20
5017.6735790000002
 30
0.0
 41
80.0
 42
80.0
 43
80.0
 50
90.0
  0
INSERT
  5
7F6F
  8
3
  6
CONTINUOUS
 62
     0
  2
_OPEN
 10
7254.6938190000001
 20
4217.6735790000002
 30
0.0
 41
80.0
 42
80.0
 43
80.0
 50
270.0
  0
TEXT
  8
3
  40
120
  5
7FC6
  62
0
  72
0
  71
0
 10
6914.69
 20
4351.56
 30
0.000000
  1
φ800
  0
POINT
  5
7F71
  8
DEFPOINTS
  6
CONTINUOUS
 62
     0
 10
6948.5502809999998
 20
5017.6735790000002
 30
0.0
  0
POINT
  5
7F72
  8
DEFPOINTS
  6
CONTINUOUS
 62
     0
 10
6948.5502809999998
 20
4217.6735790000002
 30
0.0
  0
POINT
  5
7F73
  8
DEFPOINTS
  6
CONTINUOUS
 62
     0
 10
7254.6938190000001
 20
4217.6735790000002
 30
0.0
  0
ENDBLK
  5
7C71
  8
0
  0
BLOCK
  8
0
  2
*D12
 70
     1
 10
0.0
 20
0.0
 30
0.0
  3
*D12
  1

  0
LINE
  5
7F79
  8
3
 62
     0
 10
3369.9603090000001
 20
4654.1810668593889
 30
0.0
 11
3369.9603090000001
 21
5856.7196536974006
 31
0.0
  0
LINE
  5
7F7A
  8
3
 62
     0
 10
1601.9603090000001
 20
4037.6735789999989
 30
0.0
 11
1601.9603090000001
 21
5856.7196536974006
 31
0.0
  0
LINE
  5
7F7B
  8
3
 62
     0
 10
3289.9603090000001
 20
5816.7196536974006
 30
0.0
 11
1681.9603090000001
 21
5816.7196536974006
 31
0.0
  0
INSERT
  5
7F7C
  8
3
 62
     0
  2
_OPEN
 10
3369.9603090000001
 20
5816.7196536974006
 30
0.0
 41
80.0
 42
80.0
 43
80.0
  0
INSERT
  5
7F7D
  8
3
 62
     0
  2
_OPEN
 10
1601.9603090000001
 20
5816.7196536974006
 30
0.0
 41
80.0
 42
80.0
 43
80.0
 50
180.0
  0
TEXT
  8
3
  40
120
  5
7FC7
  62
0
  72
0
  71
0
 10
2306.45
 20
5704.32
 30
0.000000
  1
1768
  0
POINT
  5
7F7F
  8
DEFPOINTS
 62
     0
 10
3369.9603090000001
 20
4634.1810668593889
 30
0.0
  0
POINT
  5
7F80
  8
DEFPOINTS
 62
     0
 10
1601.9603090000001
 20
4017.6735789999998
 30
0.0
  0
POINT
  5
7F81
  8
DEFPOINTS
 62
     0
 10
1601.9603090000001
 20
5816.7196536974006
 30
0.0
  0
ENDBLK
  5
7CF9
  8
0
  0
BLOCK
  8
0
  2
*D13
 70
     1
 10
0.0
 20
0.0
 30
0.0
  3
*D13
  1

  0
LINE
  5
7F82
  8
3
 62
     0
 10
1601.9603090000001
 20
3702.6735789999989
 30
0.0
 11
1601.9603090000001
 21
3442.1939929119249
 31
0.0
  0
LINE
  5
7F83
  8
3
 62
     0
 10
2801.9603090000001
 20
3702.6735789999989
 30
0.0
 11
2801.9603090000001
 21
3442.1939929119249
 31
0.0
  0
LINE
  5
7F84
  8
3
 62
     0
 10
1681.9603090000001
 20
3482.1939929119249
 30
0.0
 11
2721.9603089999991
 21
3482.1939929119249
 31
0.0
  0
INSERT
  5
7F85
  8
3
 62
     0
  2
_OPEN
 10
1601.9603090000001
 20
3482.1939929119249
 30
0.0
 41
80.0
 42
80.0
 43
80.0
 50
180.0
  0
INSERT
  5
7F86
  8
3
 62
     0
  2
_OPEN
 10
2801.9603090000001
 20
3482.1939929119249
 30
0.0
 41
80.0
 42
80.0
 43
80.0
  0
TEXT
  8
3
  40
120
  5
7FC8
  62
0
  72
0
  71
0
 10
1961.96
 20
3369.79
 30
0.000000
  1
1200
  0
POINT
  5
7F88
  8
DEFPOINTS
 62
     0
 10
1601.9603090000001
 20
3722.6735789999998
 30
0.0
  0
POINT
  5
7F89
  8
DEFPOINTS
 62
     0
 10
2801.9603090000001
 20
3722.6735789999998
 30
0.0
  0
POINT
  5
7F8A
  8
DEFPOINTS
 62
     0
 10
2801.9603090000001
 20
3482.1939929119249
 30
0.0
  0
ENDBLK
  5
7D0E
  8
0
  0
BLOCK
  8
0
  2
*D14
 70
     1
 10
0.0
 20
0.0
 30
0.0
  3
*D14
  1

  0
LINE
  5
7F8B
  8
3
 62
     0
 10
2801.9603090000001
 20
3702.6735789999989
 30
0.0
 11
2801.9603090000001
 21
3442.1939929119249
 31
0.0
  0
LINE
  5
7F8C
  8
3
 62
     0
 10
3301.9603090000001
 20
3702.6735789999989
 30
0.0
 11
3301.9603090000001
 21
3442.1939929119249
 31
0.0
  0
LINE
  5
7F8D
  8
3
 62
     0
 10
2881.9603090000001
 20
3482.1939929119249
 30
0.0
 11
3221.9603089999991
 21
3482.1939929119249
 31
0.0
  0
INSERT
  5
7F8E
  8
3
 62
     0
  2
_OPEN
 10
2801.9603090000001
 20
3482.1939929119249
 30
0.0
 41
80.0
 42
80.0
 43
80.0
 50
180.0
  0
INSERT
  5
7F8F
  8
3
 62
     0
  2
_OPEN
 10
3301.9603090000001
 20
3482.1939929119249
 30
0.0
 41
80.0
 42
80.0
 43
80.0
  0
TEXT
  8
3
  40
120
  5
7FC9
  62
0
  72
0
  71
0
 10
2811.96
 20
3369.79
 30
0.000000
  1
500
  0
POINT
  5
7F91
  8
DEFPOINTS
 62
     0
 10
2801.9603090000001
 20
3722.6735789999998
 30
0.0
  0
POINT
  5
7F92
  8
DEFPOINTS
 62
     0
 10
3301.9603090000001
 20
3722.6735789999998
 30
0.0
  0
POINT
  5
7F93
  8
DEFPOINTS
 62
     0
 10
3301.9603090000001
 20
3482.1939929119249
 30
0.0
  0
ENDBLK
  5
7D1D
  8
0
  0
BLOCK
  8
0
  2
*D15
 70
     1
 10
0.0
 20
0.0
 30
0.0
  3
*D15
  1

  0
LINE
  5
7F94
  8
3
 62
     0
 10
6068.5502809999998
 20
3702.6735789999989
 30
0.0
 11
6068.5502809999998
 21
3442.1939929119249
 31
0.0
  0
LINE
  5
7F95
  8
3
 62
     0
 10
6565.5502809999998
 20
3702.6735789999989
 30
0.0
 11
6565.5502809999998
 21
3442.1939929119249
 31
0.0
  0
LINE
  5
7F96
  8
3
 62
     0
 10
6148.5502809999998
 20
3482.1939929119249
 30
0.0
 11
6485.5502809999998
 21
3482.1939929119249
 31
0.0
  0
INSERT
  5
7F97
  8
3
 62
     0
  2
_OPEN
 10
6068.5502809999998
 20
3482.1939929119249
 30
0.0
 41
80.0
 42
80.0
 43
80.0
 50
180.0
  0
INSERT
  5
7F98
  8
3
 62
     0
  2
_OPEN
 10
6565.5502809999998
 20
3482.1939929119249
 30
0.0
 41
80.0
 42
80.0
 43
80.0
  0
TEXT
  8
3
  40
120
  5
7FCA
  62
0
  72
0
  71
0
 10
6077.05
 20
3369.79
 30
0.000000
  1
497
  0
POINT
  5
7F9A
  8
DEFPOINTS
 62
     0
 10
6068.5502809999998
 20
3722.6735789999998
 30
0.0
  0
POINT
  5
7F9B
  8
DEFPOINTS
 62
     0
 10
6565.5502809999998
 20
3722.6735789999998
 30
0.0
  0
POINT
  5
7F9C
  8
DEFPOINTS
 62
     0
 10
6565.5502809999998
 20
3482.1939929119249
 30
0.0
  0
ENDBLK
  5
7D2C
  8
0
  0
BLOCK
  8
0
  2
*D16
 70
     1
 10
0.0
 20
0.0
 30
0.0
  3
*D16
  1

  0
LINE
  5
7F9D
  8
3
 62
     0
 10
6565.5502809999998
 20
3702.6735789999989
 30
0.0
 11
6565.5502809999998
 21
3442.1939929119249
 31
0.0
  0
LINE
  5
7F9E
  8
3
 62
     0
 10
6918.5502809999998
 20
3702.6735789999989
 30
0.0
 11
6918.5502809999998
 21
3442.1939929119249
 31
0.0
  0
LINE
  5
7F9F
  8
3
 62
     0
 10
6645.5502809999998
 20
3482.1939929119249
 30
0.0
 11
6838.5502809999998
 21
3482.1939929119249
 31
0.0
  0
LINE
  5
7FA0
  8
3
 62
     0
 10
6918.5502809999998
 20
3482.1939929119249
 30
0.0
 11
7387.1217095714283
 21
3482.1939929119249
 31
0.0
  0
INSERT
  5
7FA1
  8
3
 62
     0
  2
_OPEN
 10
6565.5502809999998
 20
3482.1939929119249
 30
0.0
 41
80.0
 42
80.0
 43
80.0
 50
180.0
  0
INSERT
  5
7FA2
  8
3
 62
     0
  2
_OPEN
 10
6918.5502809999998
 20
3482.1939929119249
 30
0.0
 41
80.0
 42
80.0
 43
80.0
  0
TEXT
  8
3
  40
120
  5
7FCB
  62
0
  72
0
  71
0
 10
6952.84
 20
3369.79
 30
0.000000
  1
353
  0
POINT
  5
7FA4
  8
DEFPOINTS
 62
     0
 10
6565.5502809999998
 20
3722.6735789999998
 30
0.0
  0
POINT
  5
7FA5
  8
DEFPOINTS
 62
     0
 10
6918.5502809999998
 20
3722.6735789999998
 30
0.0
  0
POINT
  5
7FA6
  8
DEFPOINTS
 62
     0
 10
6918.5502809999998
 20
3482.1939929119249
 30
0.0
  0
ENDBLK
  5
7D3A
  8
0
  0
BLOCK
  8
0
  2
_DOT
 70
     0
 10
0.0
 20
0.0
 30
0.0
  3
_DOT
  1

  0
POLYLINE
  5
7D3E
  8
0
  6
BYBLOCK
 62
     0
 66
     1
 10
0.0
 20
0.0
 30
0.0
 70
     1
 40
0.5
 41
0.5
  0
VERTEX
  5
7FA7
  8
0
  6
BYBLOCK
 62
     0
 10
-0.25
 20
0.0
 30
0.0
 42
1.0
  0
VERTEX
  5
7FA8
  8
0
  6
BYBLOCK
 62
     0
 10
0.25
 20
0.0
 30
0.0
 42
1.0
  0
SEQEND
  5
7FA9
  8
0
  6
BYBLOCK
 62
     0
  0
LINE
  5
7D42
  8
0
  6
BYBLOCK
 62
     0
 10
-0.5
 20
0.0
 30
0.0
 11
-1.0
 21
0.0
 31
0.0
  0
ENDBLK
  5
7D43
  8
0
  0
BLOCK
  8
0
  2
*D18
 70
     1
 10
0.0
 20
0.0
 30
0.0
  3
*D18
  1

  0
LINE
  5
7FAA
  8
3
 62
     0
 10
3321.9603090000001
 20
3822.6735789999989
 30
0.0
 11
3751.629067315735
 21
3822.6735789999989
 31
0.0
  0
LINE
  5
7FAB
  8
3
 62
     0
 10
3321.9603090000001
 20
3722.6735789999998
 30
0.0
 11
3751.629067315735
 21
3722.6735789999998
 31
0.0
  0
LINE
  5
7FAC
  8
3
 62
     0
 10
3711.6290673157341
 20
3902.6735789999998
 30
0.0
 11
3711.6290673157341
 21
3982.6735789999998
 31
0.0
  0
LINE
  5
7FAD
  8
3
 62
     0
 10
3711.6290673157341
 20
3642.6735789999998
 30
0.0
 11
3711.6290673157341
 21
3196.959293285714
 31
0.0
  0
LINE
  5
7FAE
  8
3
 62
     0
 10
3711.6290673157341
 20
3822.6735789999989
 30
0.0
 11
3711.6290673157341
 21
3722.6735789999998
 31
0.0
  0
INSERT
  5
7FAF
  8
3
 62
     0
  2
_DOT
 10
3711.6290673157341
 20
3822.6735789999989
 30
0.0
 41
80.0
 42
80.0
 43
80.0
 50
270.0
  0
INSERT
  5
7FB0
  8
3
 62
     0
  2
_OPEN
 10
3711.6290673157341
 20
3722.6735789999998
 30
0.0
 41
80.0
 42
80.0
 43
80.0
 50
90.0
  0
TEXT
  8
3
  40
120
  5
7FCC
  62
0
  72
0
  71
0
 10
3371.63
 20
3167.42
 30
0.000000
  1
100
  0
POINT
  5
7FB2
  8
DEFPOINTS
 62
     0
 10
3301.9603090000001
 20
3822.6735789999989
 30
0.0
  0
POINT
  5
7FB3
  8
DEFPOINTS
 62
     0
 10
3301.9603090000001
 20
3722.6735789999998
 30
0.0
  0
POINT
  5
7FB4
  8
DEFPOINTS
 62
     0
 10
3711.6290673157341
 20
3722.6735789999998
 30
0.0
  0
ENDBLK
  5
7D51
  8
0
  0
BLOCK
  8
0
  2
*D19
 70
     1
 10
0.0
 20
0.0
 30
0.0
  3
*D19
  1

  0
LINE
  5
7D55
  8
0
  6
BYBLOCK
 62
     0
 10
3321.9603090000001
 20
3822.6735789999989
 30
0.0
 11
3751.629067315735
 21
3822.6735789999989
 31
0.0
  0
LINE
  5
7D56
  8
0
  6
BYBLOCK
 62
     0
 10
3321.9603090000001
 20
3917.6735789999998
 30
0.0
 11
3751.629067315735
 21
3917.6735789999998
 31
0.0
  0
LINE
  5
7D57
  8
0
  6
BYBLOCK
 62
     0
 10
3711.6290673157341
 20
3742.6735789999998
 30
0.0
 11
3711.6290673157341
 21
3662.6735789999989
 31
0.0
  0
LINE
  5
7D58
  8
0
  6
BYBLOCK
 62
     0
 10
3711.6290673157341
 20
3997.6735789999998
 30
0.0
 11
3711.6290673157341
 21
4077.6735789999989
 31
0.0
  0
TEXT
  5
7D59
  8
3
 62
     0
 10
3943.0576387443061
 20
3695.8878647142851
 30
0.0
 40
120.0
  1
(95)
 50
90.0
  0
LINE
  5
7D5A
  8
0
  6
BYBLOCK
 62
     0
 10
3711.6290673157341
 20
3822.6735789999989
 30
0.0
 11
3711.6290673157341
 21
3917.6735789999998
 31
0.0
  0
INSERT
  5
7D5B
  8
0
  6
BYBLOCK
 62
     0
  2
_DOT
 10
3711.6290673157341
 20
3822.6735789999989
 30
0.0
 41
80.0
 42
80.0
 43
80.0
 50
90.0
  0
INSERT
  5
7D5C
  8
0
  6
BYBLOCK
 62
     0
  2
_OPEN
 10
3711.6290673157341
 20
3917.6735789999998
 30
0.0
 41
80.0
 42
80.0
 43
80.0
 50
270.0
  0
POINT
  5
7D5D
  8
DEFPOINTS
  6
BYBLOCK
 62
     0
 10
3301.9603090000001
 20
3822.6735789999989
 30
0.0
  0
POINT
  5
7D5E
  8
DEFPOINTS
  6
BYBLOCK
 62
     0
 10
3301.9603090000001
 20
3917.6735789999998
 30
0.0
  0
POINT
  5
7D5F
  8
DEFPOINTS
  6
BYBLOCK
 62
     0
 10
3711.6290673157341
 20
3917.6735789999998
 30
0.0
  0
ENDBLK
  5
7D60
  8
0
  0
BLOCK
  8
0
  2
*D20
 70
     1
 10
0.0
 20
0.0
 30
0.0
  3
*D20
  1

  0
LINE
  5
7FB5
  8
3
 62
     0
 10
2841.4603090000001
 20
5162.6735790000002
 30
0.0
 11
4131.4303415801178
 21
5162.6735790000002
 31
0.0
  0
LINE
  5
7FB6
  8
3
 62
     0
 10
3321.9603090000001
 20
3722.6735789999998
 30
0.0
 11
4131.4303415801178
 21
3722.6735789999998
 31
0.0
  0
LINE
  5
7FB7
  8
3
 62
     0
 10
4091.4303415801178
 20
5082.6735790000002
 30
0.0
 11
4091.4303415801178
 21
3802.6735789999998
 31
0.0
  0
INSERT
  5
7FB8
  8
3
 62
     0
  2
_OPEN
 10
4091.4303415801191
 20
5162.6735790000002
 30
0.0
 41
80.0
 42
80.0
 43
80.0
 50
90.0
  0
INSERT
  5
7FB9
  8
3
 62
     0
  2
_OPEN
 10
4091.4303415801178
 20
3722.6735789999998
 30
0.0
 41
80.0
 42
80.0
 43
80.0
 50
270.0
  0
TEXT
  8
3
  40
120
  5
7FCD
  62
0
  72
0
  71
0
 10
3720.00
 20
4230.27
 30
0.000000
  1
(1440)
  0
POINT
  5
7FBB
  8
DEFPOINTS
 62
     0
 10
2821.4603090000001
 20
5162.6735790000002
 30
0.0
  0
POINT
  5
7FBC
  8
DEFPOINTS
 62
     0
 10
3301.9603090000001
 20
3722.6735789999998
 30
0.0
  0
POINT
  5
7FBD
  8
DEFPOINTS
 62
     0
 10
4091.4303415801178
 20
3722.6735789999998
 30
0.0
  0
ENDBLK
  5
7D6D
  8
0
  0
BLOCK
  8
0
  2
*U21
 70
     1
 10
0.0
 20
0.0
 30
0.0
  3
*U21
  1

  0
TEXT
  5
7F75
  8
3
 62
     0
 10
6109.1217095714292
 20
5798.8580349117219
 30
0.0
 40
120.0
  1
MAX
  0
TEXT
  5
7F76
  8
3
 62
     0
 10
6126.264566714286
 20
5598.8580349117219
 30
0.0
 40
120.0
  1
660
  0
ENDBLK
  5
7F78
  8
0
  0
ENDSEC
  0
SECTION
  2
ENTITIES
  0
LINE
  5
7A72
  8
1
  6
CONTINUOUS
 62
     4
 10
6918.5502809999998
 20
3822.6735789999989
 30
0.0
 11
6068.5502809999998
 21
3822.6735789999989
 31
0.0
  0
LINE
  5
7A73
  8
1
  6
CONTINUOUS
 62
     4
 10
6918.5502809999998
 20
3722.6735789999998
 30
0.0
 11
6068.5502809999998
 21
3722.6735789999998
 31
0.0
  0
LINE
  5
7A74
  8
1
  6
CONTINUOUS
 62
     4
 10
6918.5502809999998
 20
3917.6735789999998
 30
0.0
 11
6068.5502809999998
 21
3917.6735789999998
 31
0.0
  0
LINE
  5
7A75
  8
1
  6
CONTINUOUS
 62
     4
 10
6918.5502809999998
 20
4017.6735789999998
 30
0.0
 11
6068.5502809999998
 21
4017.6735789999998
 31
0.0
  0
LINE
  5
7A76
  8
1
  6
CONTINUOUS
 62
     4
 10
6115.5502809999998
 20
4638.6735790000002
 30
0.0
 11
6265.5502809999998
 21
4638.6735790000002
 31
0.0
  0
LINE
  5
7A77
  8
1
  6
CONTINUOUS
 62
     4
 10
6115.5502809999998
 20
4596.6735789999993
 30
0.0
 11
6265.5502809999998
 21
4596.6735789999993
 31
0.0
  0
LINE
  5
7A78
  8
1
  6
CONTINUOUS
 62
     4
 10
6115.5502809999998
 20
4206.6735790000002
 30
0.0
 11
6265.5502809999998
 21
4206.6735790000002
 31
0.0
  0
LINE
  5
7A79
  8
1
  6
CONTINUOUS
 62
     4
 10
6115.5502809999998
 20
4248.6735790000002
 30
0.0
 11
6265.5502809999998
 21
4248.6735790000002
 31
0.0
  0
LINE
  5
7A7A
  8
1
  6
CONTINUOUS
 62
     4
 10
3301.9603090000001
 20
3822.6735789999989
 30
0.0
 11
1601.9603090000001
 21
3822.6735789999989
 31
0.0
  0
LINE
  5
7A7B
  8
1
  6
CONTINUOUS
 62
     4
 10
3301.9603090000001
 20
3722.6735789999998
 30
0.0
 11
1601.9603090000001
 21
3722.6735789999998
 31
0.0
  0
LINE
  5
7A7C
  8
1
  6
CONTINUOUS
 62
     4
 10
1914.4603090000001
 20
4059.7735789999988
 30
0.0
 11
2874.1603089999999
 21
4431.1735790000002
 31
0.0
  0
LINE
  5
7A7D
  8
1
  6
CONTINUOUS
 62
     4
 10
1878.360308999999
 20
4153.073578999999
 30
0.0
 11
2838.060309
 21
4524.3735790000001
 31
0.0
  0
LINE
  5
7A7E
  8
1
  6
CONTINUOUS
 62
     4
 10
1778.0603089999991
 20
4392.8735790000001
 30
0.0
 11
2722.560309
 21
4801.2735789999997
 31
0.0
  0
LINE
  5
7A7F
  8
1
  6
CONTINUOUS
 62
     4
 10
1817.760309
 20
4301.073578999999
 30
0.0
 11
2762.2603089999998
 21
4709.4735789999986
 31
0.0
  0
LINE
  5
7A80
  8
1
  6
CONTINUOUS
 62
     4
 10
2821.4603090000001
 20
5162.6735790000002
 30
0.0
 11
1911.4603089999989
 21
5162.6735790000002
 31
0.0
  0
POLYLINE
  5
7A81
  8
1
  6
CONTINUOUS
 62
     4
 66
     1
 10
0.0
 20
0.0
 30
0.0
  0
VERTEX
  5
7F1F
  8
1
  6
CONTINUOUS
 62
     4
 10
1953.9603090000001
 20
5162.6735790000002
 30
0.0
  0
VERTEX
  5
7F20
  8
1
  6
CONTINUOUS
 62
     4
 10
1997.9603090000001
 20
4617.6735790000002
 30
0.0
 42
0.4
  0
VERTEX
  5
7F21
  8
1
  6
CONTINUOUS
 62
     4
 10
2742.9603090000001
 20
3929.3735789999992
 30
0.0
 42
0.4
  0
VERTEX
  5
7F22
  8
1
  6
CONTINUOUS
 62
     4
 10
3368.6603089999999
 20
4626.2735789999997
 30
0.0
 42
0.4
  0
VERTEX
  5
7F23
  8
1
  6
CONTINUOUS
 62
     4
 10
2849.4603090000001
 20
5092.3735790000001
 30
0.0
  0
VERTEX
  5
7F24
  8
1
  6
CONTINUOUS
 62
     4
 10
2778.9603090000001
 20
5086.5735789999999
 30
0.0
 42
0.4
  0
SEQEND
  5
7F25
  8
1
  6
CONTINUOUS
 62
     4
  0
LINE
  5
7A89
  8
1
  6
CONTINUOUS
 62
     4
 10
3301.9603090000001
 20
3917.6735789999998
 30
0.0
 11
1601.9603090000001
 21
3917.6735789999998
 31
0.0
  0
LINE
  5
7A8A
  8
1
  6
CONTINUOUS
 62
     4
 10
3301.9603090000001
 20
4017.6735789999998
 30
0.0
 11
1601.9603090000001
 21
4017.6735789999998
 31
0.0
  0
LINE
  5
7A8B
  8
1
  6
CONTINUOUS
 62
     4
 10
2778.9603090000001
 20
5122.6735790000002
 30
0.0
 11
1953.9603090000001
 21
5122.6735790000002
 31
0.0
  0
CIRCLE
  5
7A8C
  8
1
  6
CONTINUOUS
 62
     4
 10
2801.9603090000001
 20
4617.6735790000002
 30
0.0
 40
400.0
  0
CIRCLE
  5
7A8D
  8
1
  6
CONTINUOUS
 62
     4
 10
2801.9603090000001
 20
4617.6735790000002
 30
0.0
 40
440.0
  0
LINE
  5
7A8E
  8
1
  6
CONTINUOUS
 62
     4
 10
1601.9603090000001
 20
3822.6735789999989
 30
0.0
 11
1601.9603090000001
 21
3722.6735789999998
 31
0.0
  0
LINE
  5
7A8F
  8
1
  6
CONTINUOUS
 62
     4
 10
1601.9603090000001
 20
4017.6735789999998
 30
0.0
 11
1601.9603090000001
 21
3917.6735789999998
 31
0.0
  0
ARC
  5
7A90
  8
1
  6
CONTINUOUS
 62
     4
 10
1849.4603090000001
 20
4227.6735790000002
 30
0.0
 40
162.0
 50
325.0
 51
214.99999999999989
  0
CIRCLE
  5
7A91
  8
1
  6
CONTINUOUS
 62
     4
 10
1849.4603090000001
 20
4227.6735790000002
 30
0.0
 40
80.0
  0
LINE
  5
7A92
  8
2
  6
CENTER
 62
     3
 10
1769.4603090000001
 20
4227.6735790000002
 30
0.0
 11
1929.4603090000001
 21
4227.6735790000002
 31
0.0
  0
ARC
  5
7A93
  8
1
  6
CONTINUOUS
 62
     4
 10
1849.4603090000001
 20
4227.6735790000002
 30
0.0
 40
180.0
 50
113.39999999999991
 51
291.19999999999987
  0
LINE
  5
7A94
  8
1
  6
CONTINUOUS
 62
     4
 10
2036.9603090000001
 20
4067.6735789999998
 30
0.0
 11
1661.9603090000001
 21
4067.6735789999998
 31
0.0
  0
LINE
  5
7A95
  8
1
  6
CONTINUOUS
 62
     4
 10
1695.4603089999989
 20
4067.6735789999998
 30
0.0
 11
1695.4603089999989
 21
4085.6735789999998
 31
0.0
  0
LINE
  5
7A96
  8
1
  6
CONTINUOUS
 62
     4
 10
1695.4603089999989
 20
4085.6735789999998
 30
0.0
 11
1716.760309
 21
4134.6735790000002
 31
0.0
  0
LINE
  5
7A97
  8
1
  6
CONTINUOUS
 62
     4
 10
1661.9603090000001
 20
4067.6735789999998
 30
0.0
 11
1651.9603090000001
 21
4017.6735789999998
 31
0.0
  0
LINE
  5
7A98
  8
1
  6
CONTINUOUS
 62
     4
 10
2003.4603090000001
 20
4085.6735789999998
 30
0.0
 11
1982.1603090000001
 21
4134.6735790000002
 31
0.0
  0
LINE
  5
7A99
  8
1
  6
CONTINUOUS
 62
     4
 10
2003.4603090000001
 20
4067.6735789999998
 30
0.0
 11
2003.4603090000001
 21
4085.6735789999998
 31
0.0
  0
LINE
  5
7A9A
  8
2
  6
CENTER
 62
     3
 10
1849.4603090000001
 20
4147.6735790000002
 30
0.0
 11
1849.4603090000001
 21
4307.6735790000002
 31
0.0
  0
LINE
  5
7A9B
  8
1
  6
CONTINUOUS
 62
     4
 10
2046.9603090000001
 20
4017.6735789999998
 30
0.0
 11
2036.9603090000001
 21
4067.6735789999998
 31
0.0
  0
CIRCLE
  5
7A9C
  8
1
  6
CONTINUOUS
 62
     4
 10
2801.9603090000001
 20
4617.6735790000002
 30
0.0
 40
100.0
  0
LINE
  5
7A9D
  8
2
  6
CENTER
 62
     3
 10
2801.9603090000001
 20
3722.6735789999998
 30
0.0
 11
2801.9603090000001
 21
5464.8992429999998
 31
0.0
  0
ARC
  5
7A9E
  8
1
  6
CONTINUOUS
 62
     4
 10
2801.9603090000001
 20
4617.6735790000002
 30
0.0
 40
200.0
 50
291.19999999999987
 51
113.39999999999991
  0
LINE
  5
7A9F
  8
1
  6
CONTINUOUS
 62
     4
 10
3301.9603090000001
 20
3822.6735789999989
 30
0.0
 11
3301.9603090000001
 21
3722.6735789999998
 31
0.0
  0
LINE
  5
7AA0
  8
1
  6
CONTINUOUS
 62
     4
 10
3301.9603090000001
 20
4017.6735789999998
 30
0.0
 11
3301.9603090000001
 21
3917.6735789999998
 31
0.0
  0
LINE
  5
7AA1
  8
2
  6
CENTER
 62
     3
 10
7055.4362370000008
 20
4617.6735790000002
 30
0.0
 11
5938.2794539999986
 21
4617.6735790000002
 31
0.0
  0
LINE
  5
7AA2
  8
1
  6
CONTINUOUS
 62
     4
 10
2778.9603090000001
 20
5086.5735789999999
 30
0.0
 11
2778.9603090000001
 21
5162.6735790000002
 31
0.0
  0
LINE
  5
7AA3
  8
1
  6
CONTINUOUS
 62
     4
 10
5995.5502809999989
 20
4817.6735790000002
 30
0.0
 11
5995.5502809999989
 21
4047.6735789999998
 31
0.0
  0
LINE
  5
7AA4
  8
1
  6
CONTINUOUS
 62
     4
 10
6155.5502809999998
 20
4817.6735790000002
 30
0.0
 11
6155.5502809999998
 21
4047.6735789999998
 31
0.0
  0
LINE
  5
7AA5
  8
1
  6
CONTINUOUS
 62
     4
 10
6115.5502809999998
 20
4717.6735790000002
 30
0.0
 11
6115.5502809999998
 21
4517.6735790000002
 31
0.0
  0
LINE
  5
7AA6
  8
1
  6
CONTINUOUS
 62
     4
 10
6035.5502809999989
 20
4717.6735790000002
 30
0.0
 11
6035.5502809999989
 21
4517.6735790000002
 31
0.0
  0
LINE
  5
7AAA
  8
1
  6
CONTINUOUS
 62
     4
 10
6068.5502809999998
 20
3822.6735789999989
 30
0.0
 11
6068.5502809999998
 21
3722.6735789999998
 31
0.0
  0
LINE
  5
7AAC
  8
1
  6
CONTINUOUS
 62
     4
 10
6068.5502809999998
 20
4017.6735789999998
 30
0.0
 11
6068.5502809999998
 21
3917.6735789999998
 31
0.0
  0
LINE
  5
7AAD
  8
1
  6
CONTINUOUS
 62
     4
 10
6035.5502809999989
 20
4517.6735790000002
 30
0.0
 11
6115.5502809999998
 21
4517.6735790000002
 31
0.0
  0
LINE
  5
7AAE
  8
1
  6
CONTINUOUS
 62
     4
 10
5995.5502809999989
 20
4047.6735789999998
 30
0.0
 11
6155.5502809999998
 21
4047.6735789999998
 31
0.0
  0
LINE
  5
7AAF
  8
1
  6
CONTINUOUS
 62
     4
 10
6035.5502809999989
 20
4147.6735790000002
 30
0.0
 11
6115.5502809999998
 21
4147.6735790000002
 31
0.0
  0
LINE
  5
7AB0
  8
1
  6
CONTINUOUS
 62
     4
 10
6035.5502809999989
 20
4307.6735790000002
 30
0.0
 11
6115.5502809999998
 21
4307.6735790000002
 31
0.0
  0
LINE
  5
7AB1
  8
1
  6
CONTINUOUS
 62
     4
 10
6035.5502809999989
 20
4307.6735790000002
 30
0.0
 11
6035.5502809999989
 21
4147.6735790000002
 31
0.0
  0
LINE
  5
7AB2
  8
1
  6
CONTINUOUS
 62
     4
 10
6115.5502809999998
 20
4307.6735790000002
 30
0.0
 11
6115.5502809999998
 21
4147.6735790000002
 31
0.0
  0
LINE
  5
7AB3
  8
1
  6
CONTINUOUS
 62
     4
 10
5995.5502809999989
 20
4817.6735790000002
 30
0.0
 11
6155.5502809999998
 21
4817.6735790000002
 31
0.0
  0
LINE
  5
7AB4
  8
1
  6
CONTINUOUS
 62
     4
 10
6035.5502809999989
 20
4717.6735790000002
 30
0.0
 11
6115.5502809999998
 21
4717.6735790000002
 31
0.0
  0
LINE
  5
7AB5
  8
1
  6
CONTINUOUS
 62
     4
 10
2701.9603090000001
 20
7461.5641409999998
 30
0.0
 11
1929.4603090000001
 21
7461.5641409999998
 31
0.0
  0
LINE
  5
7AB6
  8
1
  6
CONTINUOUS
 62
     4
 10
2778.9603090000001
 20
8258.5641409999989
 30
0.0
 11
1953.9603090000001
 21
7658.5641409999989
 31
0.0
  0
LINE
  5
7AB7
  8
1
  6
CONTINUOUS
 62
     4
 10
2778.9603090000001
 20
7658.5641409999989
 30
0.0
 11
1953.9603090000001
 21
8258.5641409999989
 31
0.0
  0
LINE
  5
7AB8
  8
1
  6
CONTINUOUS
 62
     4
 10
3372.2603089999998
 20
8258.5641409999989
 30
0.0
 11
1953.9603090000001
 21
8258.5641409999989
 31
0.0
  0
LINE
  5
7AB9
  8
1
  6
CONTINUOUS
 62
     4
 10
3372.2603089999998
 20
7658.5641409999989
 30
0.0
 11
1953.9603090000001
 21
7658.5641409999989
 31
0.0
  0
LINE
  5
7ABA
  8
1
  6
CONTINUOUS
 62
     4
 10
3241.9603090000001
 20
8341.5641409999989
 30
0.0
 11
2361.9603090000001
 21
8341.5641409999989
 31
0.0
  0
LINE
  5
7ABB
  8
1
  6
CONTINUOUS
 62
     4
 10
3001.9603090000001
 20
7388.5641409999998
 30
0.0
 11
1669.4603090000001
 21
7388.5641409999998
 31
0.0
  0
LINE
  5
7ABC
  8
1
  6
CONTINUOUS
 62
     4
 10
3001.9603090000001
 20
7548.5641409999989
 30
0.0
 11
1669.4603090000001
 21
7548.5641409999989
 31
0.0
  0
LINE
  5
7ABD
  8
1
  6
CONTINUOUS
 62
     4
 10
1769.4603090000001
 20
7461.5641409999998
 30
0.0
 11
1601.9603090000001
 21
7461.5641409999998
 31
0.0
  0
LINE
  5
7ABE
  8
1
  6
CONTINUOUS
 62
     4
 10
2401.9603090000001
 20
8311.5641409999989
 30
0.0
 11
1601.9603090000001
 21
8311.5641409999989
 31
0.0
  0
LINE
  5
7ABF
  8
1
  6
CONTINUOUS
 62
     4
 10
1601.9603090000001
 20
8311.5641409999989
 30
0.0
 11
1601.9603090000001
 21
7461.5641409999998
 31
0.0
  0
LINE
  5
7AC0
  8
1
  6
CONTINUOUS
 62
     4
 10
2401.9603090000001
 20
8258.5641409999989
 30
0.0
 11
2401.9603090000001
 21
8341.5641409999989
 31
0.0
  0
LINE
  5
7AC1
  8
1
  6
CONTINUOUS
 62
     4
 10
2011.4603089999989
 20
7600.2641409999997
 30
0.0
 11
2011.4603089999989
 21
7658.5641409999989
 31
0.0
  0
LINE
  5
7AC2
  8
1
  6
CONTINUOUS
 62
     4
 10
1687.4603090000001
 20
7600.2641409999997
 30
0.0
 11
1687.4603090000001
 21
8085.2641410000006
 31
0.0
  0
LINE
  5
7AC3
  8
1
  6
CONTINUOUS
 62
     4
 10
1687.4603090000001
 20
7600.2641409999997
 30
0.0
 11
2011.4603089999989
 21
7600.2641409999997
 31
0.0
  0
LINE
  5
7AC4
  8
1
  6
CONTINUOUS
 62
     4
 10
1929.4603090000001
 20
7421.5641410000007
 30
0.0
 11
1769.4603090000001
 21
7421.5641410000007
 31
0.0
  0
LINE
  5
7AC5
  8
1
  6
CONTINUOUS
 62
     4
 10
1929.4603090000001
 20
7501.5641409999998
 30
0.0
 11
1769.4603090000001
 21
7501.5641409999998
 31
0.0
  0
LINE
  5
7AC6
  8
1
  6
CONTINUOUS
 62
     4
 10
1828.4603090000001
 20
7501.5641409999998
 30
0.0
 11
1828.4603090000001
 21
7600.2641409999997
 31
0.0
  0
LINE
  5
7AC7
  8
1
  6
CONTINUOUS
 62
     4
 10
1669.4603090000001
 20
7388.5641409999998
 30
0.0
 11
1669.4603090000001
 21
7548.5641409999989
 31
0.0
  0
LINE
  5
7AC8
  8
1
  6
CONTINUOUS
 62
     4
 10
1769.4603090000001
 20
7421.5641410000007
 30
0.0
 11
1769.4603090000001
 21
7501.5641409999998
 31
0.0
  0
LINE
  5
7AC9
  8
1
  6
CONTINUOUS
 62
     4
 10
1870.4603090000001
 20
7501.5641409999998
 30
0.0
 11
1870.4603090000001
 21
7600.2641409999997
 31
0.0
  0
LINE
  5
7ACA
  8
1
  6
CONTINUOUS
 62
     4
 10
1929.4603090000001
 20
7421.5641410000007
 30
0.0
 11
1929.4603090000001
 21
7501.5641409999998
 31
0.0
  0
LINE
  5
7ACB
  8
1
  6
CONTINUOUS
 62
     4
 10
1687.4603090000001
 20
8085.2641410000006
 30
0.0
 11
1953.9603090000001
 21
8085.2641410000006
 31
0.0
  0
LINE
  5
7ACC
  8
1
  6
CONTINUOUS
 62
     4
 10
1953.9603090000001
 20
7658.5641409999989
 30
0.0
 11
1953.9603090000001
 21
8258.5641409999989
 31
0.0
  0
LINE
  5
7ACD
  8
1
  6
CONTINUOUS
 62
     4
 10
3201.9603090000001
 20
8258.5641409999989
 30
0.0
 11
3201.9603090000001
 21
8341.5641409999989
 31
0.0
  0
LINE
  5
7ACE
  8
1
  6
CONTINUOUS
 62
     4
 10
3301.9603090000001
 20
7461.5641409999998
 30
0.0
 11
2901.9603090000001
 21
7461.5641409999998
 31
0.0
  0
LINE
  5
7ACF
  8
1
  6
CONTINUOUS
 62
     4
 10
2780.9603090000001
 20
7501.5641409999998
 30
0.0
 11
2780.9603090000001
 21
7658.5641409999989
 31
0.0
  0
LINE
  5
7AD0
  8
1
  6
CONTINUOUS
 62
     4
 10
2822.9603090000001
 20
7501.5641409999998
 30
0.0
 11
2822.9603090000001
 21
7658.5641409999989
 31
0.0
  0
LINE
  5
7AD1
  8
1
  6
CONTINUOUS
 62
     4
 10
2901.9603090000001
 20
7501.5641409999998
 30
0.0
 11
2701.9603090000001
 21
7501.5641409999998
 31
0.0
  0
LINE
  5
7AD2
  8
1
  6
CONTINUOUS
 62
     4
 10
2901.9603090000001
 20
7421.5641410000007
 30
0.0
 11
2701.9603090000001
 21
7421.5641410000007
 31
0.0
  0
LINE
  5
7AD3
  8
1
  6
CONTINUOUS
 62
     4
 10
2701.9603090000001
 20
7421.5641410000007
 30
0.0
 11
2701.9603090000001
 21
7501.5641409999998
 31
0.0
  0
LINE
  5
7AD4
  8
1
  6
CONTINUOUS
 62
     4
 10
2901.9603090000001
 20
7421.5641410000007
 30
0.0
 11
2901.9603090000001
 21
7501.5641409999998
 31
0.0
  0
LINE
  5
7AD5
  8
1
  6
CONTINUOUS
 62
     4
 10
2778.9603090000001
 20
7658.5641409999989
 30
0.0
 11
2778.9603090000001
 21
8258.5641409999989
 31
0.0
  0
LINE
  5
7AD6
  8
1
  6
CONTINUOUS
 62
     4
 10
3301.9603090000001
 20
7658.5641409999989
 30
0.0
 11
3301.9603090000001
 21
7461.5641409999998
 31
0.0
  0
LINE
  5
7AD7
  8
1
  6
CONTINUOUS
 62
     4
 10
3001.9603090000001
 20
7388.5641409999998
 30
0.0
 11
3001.9603090000001
 21
7548.5641409999989
 31
0.0
  0
LINE
  5
7AD8
  8
1
  6
CONTINUOUS
 62
     4
 10
3372.2603089999998
 20
7658.5641409999989
 30
0.0
 11
3372.2603089999998
 21
8258.5641409999989
 31
0.0
  0
LINE
  5
7AD9
  8
1
  6
CONTINUOUS
 62
     4
 10
3301.9603090000001
 20
8311.5641409999989
 30
0.0
 11
3301.9603090000001
 21
8258.5641409999989
 31
0.0
  0
LINE
  5
7ADA
  8
1
  6
CONTINUOUS
 62
     4
 10
3301.9603090000001
 20
8311.5641409999989
 30
0.0
 11
3201.9603090000001
 21
8311.5641409999989
 31
0.0
  0
LINE
  5
7ADB
  8
1
  6
CONTINUOUS
 62
     4
 10
6265.5502809999998
 20
5162.6735790000002
 30
0.0
 11
6265.5502809999998
 21
4017.6735789999998
 31
0.0
  0
LINE
  5
7ADC
  8
1
  6
CONTINUOUS
 62
     4
 10
6865.5502809999998
 20
5162.6735790000002
 30
0.0
 11
6865.5502809999998
 21
4017.6735789999998
 31
0.0
  0
LINE
  5
7ADD
  8
1
  6
CONTINUOUS
 62
     4
 10
6948.5502809999998
 20
5057.6735790000002
 30
0.0
 11
6948.5502809999998
 21
4177.6735790000002
 31
0.0
  0
LINE
  5
7ADE
  8
1
  6
CONTINUOUS
 62
     4
 10
6918.5502809999998
 20
3822.6735789999989
 30
0.0
 11
6918.5502809999998
 21
3722.6735789999998
 31
0.0
  0
LINE
  5
7ADF
  8
1
  6
CONTINUOUS
 62
     4
 10
6865.5502809999998
 20
4217.6735790000002
 30
0.0
 11
6948.5502809999998
 21
4217.6735790000002
 31
0.0
  0
LINE
  5
7AE0
  8
1
  6
CONTINUOUS
 62
     4
 10
6918.5502809999998
 20
4017.6735789999998
 30
0.0
 11
6918.5502809999998
 21
3917.6735789999998
 31
0.0
  0
LINE
  5
7AE1
  8
1
  6
CONTINUOUS
 62
     4
 10
6265.5502809999998
 20
5122.6735790000002
 30
0.0
 11
6865.5502809999998
 21
5122.6735790000002
 31
0.0
  0
LINE
  5
7AE2
  8
1
  6
CONTINUOUS
 62
     4
 10
6225.5502809999998
 20
5162.6735790000002
 30
0.0
 11
6905.5502809999998
 21
5162.6735790000002
 31
0.0
  0
LINE
  5
7AE3
  8
1
  6
CONTINUOUS
 62
     4
 10
6865.5502809999998
 20
5017.6735790000002
 30
0.0
 11
6948.5502809999998
 21
5017.6735790000002
 31
0.0
  0
DIMENSION
  5
7B28
  8
3
  6
CONTINUOUS
  2
*D1
 10
2778.9603090000001
 20
5418.944555
 30
0.0
 11
2380.4399359999989
 21
5418.944555
 31
0.0
 70
   128
 13
1953.9603090000001
 23
5162.6735790000002
 33
0.0
 14
2778.9603090000001
 24
5162.6735790000002
 34
0.0
1001
ACAD
1000
DSTYLE
1002
{
1070
   287
1070
     3
1070
   287
1070
     3
1070
    40
1040
40.0
1070
   143
1040
0.039
1070
   172
1070
     1
1070
   271
1070
     0
1070
   279
1070
     0
1070
   288
1070
     1
1002
}
  0
DIMENSION
  5
7B35
  8
3
  6
CONTINUOUS
  2
*D2
 10
2801.9603090000001
 20
5608.4181170000002
 30
0.0
 11
2370.9560219999998
 21
5608.4181170000002
 31
0.0
 70
   128
 13
1953.9603090000001
 23
5162.6735790000002
 33
0.0
 14
2801.9603090000001
 24
5088.4657770000003
 34
0.0
1001
ACAD
1000
DSTYLE
1002
{
1070
   287
1070
     3
1070
   287
1070
     3
1070
    40
1040
40.0
1070
   143
1040
0.039
1070
   172
1070
     1
1070
   271
1070
     0
1070
   279
1070
     0
1070
   288
1070
     1
1002
}
  0
DIMENSION
  5
7B41
  8
3
  6
CONTINUOUS
  2
*D3
 10
3369.9603090000001
 20
5608.4181170000002
 30
0.0
 11
3085.9603090000001
 21
5708.4181170000002
 31
0.0
 70
     0
 13
2801.9603090000001
 23
5088.4657770000003
 33
0.0
 14
3369.9603090000001
 24
4614.1810668593898
 34
0.0
1001
ACAD
1000
DSTYLE
1002
{
1070
   287
1070
     4
1070
   287
1070
     4
1070
    40
1040
40.0
1070
    75
1070
     1
1070
   143
1040
0.039
1070
   172
1070
     1
1070
   271
1070
     0
1070
   279
1070
     1
1070
   288
1070
     1
1002
}
  0
DIMENSION
  5
7B50
  8
3
  6
CONTINUOUS
  2
*D4
 10
3708.6620619999999
 20
4617.6735790000002
 30
0.0
 11
3598.9057603820538
 21
4894.4735789999986
 31
0.0
 70
   128
 13
2821.4603090000001
 23
5162.6735790000002
 33
0.0
 14
3531.8035749999999
 24
4617.6735790000002
 34
0.0
 50
90.0
1001
ACAD
1000
DSTYLE
1002
{
1070
   288
1070
     1
1070
   172
1070
     1
1070
    40
1040
40.0
1070
   271
1070
     0
1070
   143
1040
0.039
1002
}
  0
DIMENSION
  5
7B5C
  8
3
  6
CONTINUOUS
  2
*D5
 10
3708.6620619999999
 20
3917.6735789999998
 30
0.0
 11
3608.6620619999999
 21
4267.6735790000012
 31
0.0
 70
     0
 13
3531.8035749999999
 23
4617.6735790000002
 33
0.0
 14
3301.9603090000001
 24
3917.6735789999998
 34
0.0
 50
90.0
1001
ACAD
1000
DSTYLE
1002
{
1070
   287
1070
     4
1070
   287
1070
     4
1070
    40
1040
40.0
1070
    75
1070
     1
1070
   143
1040
0.039
1070
   172
1070
     1
1070
   271
1070
     0
1070
   279
1070
     1
1070
   288
1070
     1
1002
}
  0
DIMENSION
  5
7BA0
  8
3
  6
CONTINUOUS
  2
*D6
 10
3301.9603090000001
 20
7035.620441
 30
0.0
 11
2432.1280149999989
 21
7035.620441
 31
0.0
 70
   128
 13
1601.9603090000001
 23
7461.5641409999998
 33
0.0
 14
3301.9603090000001
 24
7461.5641409999998
 34
0.0
1001
ACAD
1000
DSTYLE
1002
{
1070
   287
1070
     3
1070
   287
1070
     3
1070
    40
1040
40.0
1070
   143
1040
0.039
1070
   172
1070
     1
1070
   271
1070
     0
1070
   279
1070
     0
1070
   288
1070
     1
1002
}
  0
DIMENSION
  5
7BAD
  8
3
  6
CONTINUOUS
  2
*D7
 10
3702.973136000001
 20
7461.5641409999998
 30
0.0
 11
3702.9731360000001
 21
7911.9356659999994
 31
0.0
 70
   128
 13
3301.9603090000001
 23
8311.5641409999989
 33
0.0
 14
3301.9603090000001
 24
7461.5641409999998
 34
0.0
 50
90.0
1001
ACAD
1000
DSTYLE
1002
{
1070
   287
1070
     3
1070
   287
1070
     3
1070
    40
1040
40.0
1070
   143
1040
0.039
1070
   172
1070
     1
1070
   271
1070
     0
1070
   279
1070
     0
1070
   288
1070
     1
1002
}
  0
LINE
  5
7BAE
  8
2
  6
CENTER
 10
1840.153292
 20
7958.5641409999998
 30
0.0
 11
3489.584996
 21
7958.5641409999998
 31
0.0
  0
LINE
  5
7BAF
  8
2
  6
CENTER
 62
     3
 10
2801.9603090000001
 20
7255.424355000001
 30
0.0
 11
2801.9603090000001
 21
8538.8523360000017
 31
0.0
  0
LINE
  5
7BB0
  8
2
  6
CENTER
 10
6565.5502809999998
 20
5527.4102080000002
 30
0.0
 11
6565.5502809999998
 21
5519.817067
 31
0.0
  0
DIMENSION
  5
7BF1
  8
3
  6
CONTINUOUS
  2
*D8
 10
6865.5502809999998
 20
5304.342412
 30
0.0
 11
6539.8359959999989
 21
5304.342412
 31
0.0
 70
   128
 13
6265.5502809999998
 23
5162.6735790000002
 33
0.0
 14
6865.5502809999998
 24
5162.6735790000002
 34
0.0
1001
ACAD
1000
DSTYLE
1002
{
1070
   287
1070
     3
1070
   287
1070
     3
1070
    40
1040
40.0
1070
   143
1040
0.039
1070
   172
1070
     1
1070
   271
1070
     0
1070
   279
1070
     0
1070
   288
1070
     1
1002
}
  0
DIMENSION
  5
7BFE
  8
3
  6
CONTINUOUS
  2
*D9
 10
6565.5502809999998
 20
5536.918803999999
 30
0.0
 11
6280.5502809999998
 21
5758.8580349117219
 31
0.0
 70
   128
  1
MAX\P660
 13
5995.5502809999989
 23
4817.6735790000002
 33
0.0
 14
6565.5502809999998
 24
5527.4102080000002
 34
0.0
1001
ACAD
1000
DSTYLE
1002
{
1070
   288
1070
     1
1070
   172
1070
     1
1070
    40
1040
40.0
1070
   271
1070
     0
1070
   143
1040
0.039
1002
}
  0
DIMENSION
  5
7C0C
  8
3
  6
CONTINUOUS
  2
*D10
 10
6948.5502809999998
 20
5536.918803999999
 30
0.0
 11
6752.0460810000004
 21
5537.3900659999999
 31
0.0
 70
   128
 13
6565.5502809999998
 23
5527.4102080000002
 33
0.0
 14
6948.5502809999998
 24
5057.6735790000002
 34
0.0
1001
ACAD
1000
DSTYLE
1002
{
1070
   287
1070
     4
1070
   287
1070
     4
1070
    40
1040
40.0
1070
    75
1070
     1
1070
   143
1040
0.039
1070
   172
1070
     1
1070
   271
1070
     0
1070
   279
1070
     1
1070
   288
1070
     1
1002
}
  0
DIMENSION
  5
7C2F
  8
3
  6
CONTINUOUS
  2
*D11
 10
7254.6938190000001
 20
4217.6735790000002
 30
0.0
 11
7254.6938190000001
 21
4563.9592932857149
 31
0.0
 70
   128
 13
6948.5502809999998
 23
5017.6735790000002
 33
0.0
 14
6948.5502809999998
 24
4217.6735790000002
 34
0.0
 50
90.0
1001
ACAD
1000
DSTYLE
1002
{
1070
   287
1070
     3
1070
   287
1070
     3
1070
     3
1000
φ<>
1070
    40
1040
40.0
1070
   143
1040
0.039
1070
   172
1070
     1
1070
   271
1070
     0
1070
   279
1070
     0
1070
   288
1070
     1
1002
}
  0
LINE
  5
7C30
  8
2
  6
CENTER
 62
     3
 10
3531.8035749999999
 20
4617.6735790000002
 30
0.0
 11
1957.4726880000001
 21
4617.6735790000002
 31
0.0
  0
LINE
  5
7C31
  8
4
  6
CONTINUOUS
 10
7400.0
 20
2000.0
 30
0.0
 11
7400.0
 21
1200.0
 31
0.0
  0
LINE
  5
7C32
  8
4
  6
CONTINUOUS
 10
4600.0
 20
2000.0
 30
0.0
 11
4600.0
 21
1200.0
 31
0.0
  0
LINE
  5
7C33
  8
4
  6
CONTINUOUS
 10
2600.0
 20
2000.0
 30
0.0
 11
2600.0
 21
1200.0
 31
0.0
  0
LINE
  5
7C36
  8
4
  6
CONTINUOUS
 10
2600.0
 20
1200.0
 30
0.0
 11
7400.0
 21
1200.0
 31
0.0
  0
LINE
  5
7C37
  8
4
  6
CONTINUOUS
 10
2600.0
 20
1600.0
 30
0.0
 11
7400.0
 21
1600.0
 31
0.0
  0
TEXT
  5
7C38
  8
4
  6
CONTINUOUS
 10
2754.008323
 20
1726.1721030000001
 30
0.0
 40
200.0
  1
機器名称
  0
TEXT
  5
7C39
  8
4
  6
CONTINUOUS
 10
2745.032424
 20
1286.580627
 30
0.0
 40
200.0
  1
機器型番
  0
TEXT
  5
7C3A
  8
4
  6
CONTINUOUS
 10
4710.7149820000004
 20
1690.2870760000001
 30
0.0
 40
160.0
  1
ミツヤリミットロードファン
  0
TEXT
  5
7C3B
  8
4
  6
CONTINUOUS
 10
4746.6179819999998
 20
1268.6383370000001
 30
0.0
 40
200.0
  1
LLE#5-4
  0
TEXT
  5
7C3D
  8
4
  6
CONTINUOUS
 10
3039.3174260000001
 20
9533.715365
 30
0.0
 40
216.0
  1
床置防振ベット
  0
TEXT
  5
7C3E
  8
4
  6
CONTINUOUS
 10
1264.6703729999999
 20
10135.523905
 30
0.0
 40
240.0
  1
ベルト駆動式片吸込両持排煙ファン
  0
LINE
  5
7C3F
  8
4
  6
CONTINUOUS
 10
1000.0
 20
9877.6350170000005
 30
0.0
 11
7400.0
 21
9877.6350170000005
 31
0.0
  0
LINE
  5
7C40
  8
4
  6
CONTINUOUS
 10
1000.0
 20
10677.635017000001
 30
0.0
 11
7400.0
 21
10677.635017000001
 31
0.0
  0
LINE
  5
7C41
  8
4
  6
CONTINUOUS
 10
2600.0
 20
2000.0
 30
0.0
 11
7400.0
 21
2000.0
 31
0.0
  0
LINE
  5
7C42
  8
4
  6
CONTINUOUS
 10
1000.0
 20
10677.635017000001
 30
0.0
 11
1000.0
 21
9877.6350170000005
 31
0.0
  0
TEXT
  5
7C43
  8
4
  6
CONTINUOUS
 10
1295.882098
 20
9529.2779099999989
 30
0.0
 40
216.0
  1
右回転上向
  0
TEXT
  5
7C44
  8
4
  6
CONTINUOUS
 10
5875.8782369999999
 20
10824.244326
 30
0.0
 40
224.0
  1
No.
  0
TEXT
  5
7C45
  8
4
  6
CONTINUOUS
 10
5245.1842500000012
 20
9533.715365
 30
0.0
 40
216.0
  1
縮尺：1/40
  0
LINE
  5
7C46
  8
4
  6
CONTINUOUS
 10
7400.0
 20
10677.635017000001
 30
0.0
 11
7400.0
 21
9877.6350170000005
 31
0.0
  0
LINE
  5
7C48
  8
4
  6
CONTINUOUS
 10
5762.4696889999996
 20
10725.054333
 30
0.0
 11
5762.4696889999996
 21
11146.609046
 31
0.0
  0
LINE
  5
7C49
  8
4
  6
CONTINUOUS
 10
5762.4696889999996
 20
11146.609046
 30
0.0
 11
7400.0
 21
11146.609046
 31
0.0
  0
LINE
  5
7C4A
  8
4
  6
CONTINUOUS
 10
7400.0
 20
11146.609046
 30
0.0
 11
7400.0
 21
10725.054333
 31
0.0
  0
LINE
  5
7C4B
  8
4
  6
CONTINUOUS
 10
7400.0
 20
10725.054333
 30
0.0
 11
5762.4696889999996
 21
10725.054333
 31
0.0
  0
LINE
  5
7C55
  8
2
  6
CENTER
 10
6565.5502809999998
 20
5327.493074
 30
0.0
 11
6565.5502809999998
 21
3722.6735789999989
 31
0.0
  0
DIMENSION
  5
7CFA
  8
3
  2
*D12
 10
1601.9603090000001
 20
5816.7196536974006
 30
0.0
 11
2546.4510069173261
 21
5816.7196536974006
 31
0.0
 70
   128
 13
3369.9603090000001
 23
4634.1810668593889
 33
0.0
 14
1601.9603090000001
 24
4017.6735789999998
 34
0.0
1001
ACAD
1000
DSTYLE
1002
{
1070
   287
1070
     3
1070
   287
1070
     3
1070
    40
1040
40.0
1070
   143
1040
0.039
1070
   172
1070
     1
1070
   271
1070
     0
1070
   279
1070
     0
1070
   288
1070
     1
1002
}
  0
DIMENSION
  5
7D0F
  8
3
  2
*D13
 10
2801.9603090000001
 20
3482.1939929119249
 30
0.0
 11
2201.9603089999991
 21
3582.1939929119249
 31
0.0
 70
     0
 13
1601.9603090000001
 23
3722.6735789999998
 33
0.0
 14
2801.9603090000001
 24
3722.6735789999998
 34
0.0
1001
ACAD
1000
DSTYLE
1002
{
1070
   287
1070
     3
1070
   287
1070
     3
1070
    40
1040
40.0
1070
   143
1040
0.039
1070
   172
1070
     1
1070
   271
1070
     0
1070
   279
1070
     0
1002
}
  0
DIMENSION
  5
7D1E
  8
3
  2
*D14
 10
3301.9603090000001
 20
3482.1939929119249
 30
0.0
 11
3051.9603090000001
 21
3582.1939929119249
 31
0.0
 70
     0
 13
2801.9603090000001
 23
3722.6735789999998
 33
0.0
 14
3301.9603090000001
 24
3722.6735789999998
 34
0.0
1001
ACAD
1000
DSTYLE
1002
{
1070
   287
1070
     3
1070
   287
1070
     3
1070
    40
1040
40.0
1070
   143
1040
0.039
1070
   172
1070
     1
1070
   271
1070
     0
1070
   279
1070
     0
1002
}
  0
DIMENSION
  5
7D2D
  8
3
  2
*D15
 10
6565.5502809999998
 20
3482.1939929119249
 30
0.0
 11
6317.0502809999998
 21
3582.1939929119249
 31
0.0
 70
     0
 13
6068.5502809999998
 23
3722.6735789999998
 33
0.0
 14
6565.5502809999998
 24
3722.6735789999998
 34
0.0
1001
ACAD
1000
DSTYLE
1002
{
1070
   287
1070
     3
1070
   287
1070
     3
1070
    40
1040
40.0
1070
   143
1040
0.039
1070
   172
1070
     1
1070
   271
1070
     0
1070
   279
1070
     0
1002
}
  0
DIMENSION
  5
7D3B
  8
3
  2
*D16
 10
6918.5502809999998
 20
3482.1939929119249
 30
0.0
 11
7192.8359952857154
 21
3582.1939929119249
 31
0.0
 70
     0
 13
6565.5502809999998
 23
3722.6735789999998
 33
0.0
 14
6918.5502809999998
 24
3722.6735789999998
 34
0.0
1001
ACAD
1000
DSTYLE
1002
{
1070
   287
1070
     3
1070
   287
1070
     3
1070
    40
1040
40.0
1070
   143
1040
0.039
1070
   172
1070
     1
1070
   271
1070
     0
1070
   279
1070
     0
1002
}
  0
DIMENSION
  5
7D52
  8
3
  2
*D18
 10
3711.6290673157341
 20
3722.6735789999998
 30
0.0
 11
3611.6290673157341
 21
3379.816436142858
 31
0.0
 70
     0
 13
3301.9603090000001
 23
3822.6735789999989
 33
0.0
 14
3301.9603090000001
 24
3722.6735789999998
 34
0.0
 50
90.0
1001
ACAD
1000
DSTYLE
1002
{
1070
   287
1070
     3
1070
   287
1070
     3
1070
    40
1040
40.0
1070
   143
1040
0.039
1070
   172
1070
     1
1070
   271
1070
     0
1070
   279
1070
     0
1070
     6
1000
DOT
1002
}
  0
DIMENSION
  5
7D61
  8
3
  2
*D19
 10
3711.6290673157341
 20
3917.6735789999998
 30
0.0
 11
3903.0576387443061
 21
3870.1735789999998
 31
0.0
 70
     0
 13
3301.9603090000001
 23
3822.6735789999989
 33
0.0
 14
3301.9603090000001
 24
3917.6735789999998
 34
0.0
 50
90.0
1001
ACAD
1000
DSTYLE
1002
{
1070
   172
1070
     1
1070
    40
1040
40.0
1070
     3
1000
(<>)
1070
   271
1070
     0
1070
     6
1000
_DOT
1070
   143
1040
0.039
1002
}
  0
DIMENSION
  5
7D6E
  8
3
  2
*D20
 10
4091.4303415801178
 20
3722.6735789999998
 30
0.0
 11
3960.0017701515471
 21
4442.6735790000002
 31
0.0
 70
     0
 13
2821.4603090000001
 23
5162.6735790000002
 33
0.0
 14
3301.9603090000001
 24
3722.6735789999998
 34
0.0
 50
90.0
1001
ACAD
1000
DSTYLE
1002
{
1070
   287
1070
     3
1070
   287
1070
     3
1070
     3
1000
(<>)
1070
    40
1040
40.0
1070
   143
1040
0.039
1070
   172
1070
     1
1070
   271
1070
     0
1070
   279
1070
     0
1002
}
  0
ENDSEC
  0
EOF
