  0
SECTION
  2
HEADER
  9
$ACADVER
  1
AC1009
  9
$INSBASE
 10
0.0
 20
0.0
 30
0.0
  9
$EXTMIN
 10
1000.0
 20
1200.0
 30
0.0
  9
$EXTMAX
 10
7400.0
 20
11146.609046
 30
0.0
  9
$LIMMIN
 10
0.0
 20
0.0
  9
$LIMMAX
 10
297.0
 20
210.0
  9
$ORTHOMODE
 70
     0
  9
$REGENMODE
 70
     1
  9
$FILLMODE
 70
     0
  9
$QTEXTMODE
 70
     0
  9
$MIRRTEXT
 70
     1
  9
$DRAGMODE
 70
     2
  9
$LTSCALE
 40
100.0
  9
$OSMODE
 70
    37
  9
$ATTMODE
 70
     1
  9
$TEXTSIZE
 40
180.0
  9
$TRACEWID
 40
0.05
  9
$TEXTSTYLE
  7
STANDARD
  9
$CLAYER
  8
3
  9
$CELTYPE
  6
BYLAYER
  9
$CECOLOR
 62
   256
  9
$DIMSCALE
 40
40.0
  9
$DIMASZ
 40
2.0
  9
$DIMEXO
 40
0.5
  9
$DIMDLI
 40
10.0
  9
$DIMRND
 40
0.0
  9
$DIMDLE
 40
0.0
  9
$DIMEXE
 40
1.0
  9
$DIMTP
 40
1.0
  9
$DIMTM
 40
1.0
  9
$DIMTXT
 40
3.0
  9
$DIMCEN
 40
0.0
  9
$DIMTSZ
 40
0.0
  9
$DIMTOL
 70
     0
  9
$DIMLIM
 70
     0
  9
$DIMTIH
 70
     0
  9
$DIMTOH
 70
     0
  9
$DIMSE1
 70
     0
  9
$DIMSE2
 70
     0
  9
$DIMTAD
 70
     1
  9
$DIMZIN
 70
     8
  9
$DIMBLK
  1

  9
$DIMASO
 70
     1
  9
$DIMSHO
 70
     1
  9
$DIMPOST
  1
(<>)
  9
$DIMAPOST
  1

  9
$DIMALT
 70
     0
  9
$DIMALTD
 70
     2
  9
$DIMALTF
 40
0.039
  9
$DIMLFAC
 40
1.0
  9
$DIMTOFL
 70
     1
  9
$DIMTVP
 40
0.0
  9
$DIMTIX
 70
     0
  9
$DIMSOXD
 70
     0
  9
$DIMSAH
 70
     1
  9
$DIMBLK1
  1
OPEN
  9
$DIMBLK2
  1
OPEN
  9
$DIMSTYLE
  2
IGA
  9
$DIMCLRD
 70
     0
  9
$DIMCLRE
 70
     0
  9
$DIMCLRT
 70
     0
  9
$DIMTFAC
 40
10.0
  9
$DIMGAP
 40
1.0
  9
$LUNITS
 70
     2
  9
$LUPREC
 70
     3
  9
$SKETCHINC
 40
0.1
  9
$FILLETRAD
 40
50.0
  9
$AUNITS
 70
     0
  9
$AUPREC
 70
     0
  9
$MENU
  1
acad
  9
$ELEVATION
 40
0.0
  9
$PELEVATION
 40
0.0
  9
$THICKNESS
 40
0.0
  9
$LIMCHECK
 70
     0
  9
$BLIPMODE
 70
     0
  9
$CHAMFERA
 40
0.5
  9
$CHAMFERB
 40
0.5
  9
$SKPOLY
 70
     0
  9
$TDCREATE
 40
2450753.438654976
  9
$TDUPDATE
 40
2454953.6854092479
  9
$TDINDWG
 40
0.0079201852
  9
$TDUSRTIMER
 40
0.0079201852
  9
$USRTIMER
 70
     1
  9
$ANGBASE
 50
0.0
  9
$ANGDIR
 70
     0
  9
$PDMODE
 70
     0
  9
$PDSIZE
 40
0.0
  9
$PLINEWID
 40
0.0
  9
$COORDS
 70
     1
  9
$SPLFRAME
 70
     0
  9
$SPLINETYPE
 70
     6
  9
$SPLINESEGS
 70
     8
  9
$ATTDIA
 70
     0
  9
$ATTREQ
 70
     1
  9
$HANDLING
 70
 10241
  9
$HANDSEED
  5
7F8B
  9
$SURFTAB1
 70
     6
  9
$SURFTAB2
 70
     6
  9
$SURFTYPE
 70
     6
  9
$SURFU
 70
     6
  9
$SURFV
 70
     6
  9
$UCSNAME
  2

  9
$UCSORG
 10
0.0
 20
0.0
 30
0.0
  9
$UCSXDIR
 10
1.0
 20
0.0
 30
0.0
  9
$UCSYDIR
 10
0.0
 20
1.0
 30
0.0
  9
$PUCSNAME
  2

  9
$PUCSORG
 10
0.0
 20
0.0
 30
0.0
  9
$PUCSXDIR
 10
1.0
 20
0.0
 30
0.0
  9
$PUCSYDIR
 10
0.0
 20
1.0
 30
0.0
  9
$USERI1
 70
     0
  9
$USERI2
 70
     0
  9
$USERI3
 70
     0
  9
$USERI4
 70
     0
  9
$USERI5
 70
     0
  9
$USERR1
 40
0.0
  9
$USERR2
 40
0.0
  9
$USERR3
 40
0.0
  9
$USERR4
 40
0.0
  9
$USERR5
 40
0.0
  9
$WORLDVIEW
 70
     1
  9
$SHADEDGE
 70
     3
  9
$SHADEDIF
 70
    70
  9
$TILEMODE
 70
     1
  9
$MAXACTVP
 70
    16
  9
$PLIMCHECK
 70
     0
  9
$PEXTMIN
 10
1.0000000000000000E+020
 20
1.0000000000000000E+020
 30
1.0000000000000000E+020
  9
$PEXTMAX
 10
-1.0000000000000000E+020
 20
-1.0000000000000000E+020
 30
-1.0000000000000000E+020
  9
$PLIMMIN
 10
0.0
 20
0.0
  9
$PLIMMAX
 10
12.0
 20
9.0
  9
$UNITMODE
 70
     0
  9
$VISRETAIN
 70
     0
  9
$PLINEGEN
 70
     0
  9
$PSLTSCALE
 70
     1
  0
ENDSEC
  0
SECTION
  2
TABLES
  0
TABLE
  2
VPORT
 70
     2
  0
VPORT
  2
*ACTIVE
 70
     0
 10
0.0
 20
0.0
 11
1.0
 21
1.0
 12
15632.27359526904
 22
5646.6380001631342
 13
0.0
 23
0.0
 14
10.0
 24
10.0
 15
10.0
 25
10.0
 16
0.0
 26
0.0
 36
1.0
 17
0.0
 27
0.0
 37
0.0
 40
11908.19504725045
 41
3.1666666666666661
 42
50.0
 43
0.0
 44
0.0
 50
0.0
 51
0.0
 71
     0
 72
   100
 73
     1
 74
     0
 75
     0
 76
     0
 77
     0
 78
     0
  0
ENDTAB
  0
TABLE
  2
LTYPE
 70
     2
  0
LTYPE
  2
CONTINUOUS
 70
     0
  3
Solid line
 72
    65
 73
     0
 40
0.0
  0
LTYPE
  2
CENTER
 70
     0
  3
____ _ ____ _ ____ _ ____ _ ____ _ ____ _ ____ 
 72
    65
 73
     4
 40
2.0
 49
1.25
 49
-0.25
 49
0.25
 49
-0.25
  0
ENDTAB
  0
TABLE
  2
LAYER
 70
     6
  0
LAYER
  2
0
 70
     0
 62
     7
  6
CONTINUOUS
  0
LAYER
  2
3
 70
     0
 62
     2
  6
CONTINUOUS
  0
LAYER
  2
2
 70
     0
 62
     3
  6
CENTER
  0
LAYER
  2
1
 70
     0
 62
     4
  6
CONTINUOUS
  0
LAYER
  2
4
 70
     0
 62
     7
  6
CONTINUOUS
  0
LAYER
  2
DEFPOINTS
 70
     0
 62
     7
  6
CONTINUOUS
  0
ENDTAB
  0
TABLE
  2
STYLE
 70
     1
  0
STYLE
  2
STANDARD
 70
     0
 40
0.0
 41
1.0
 50
0.0
 71
     0
 42
180.0
  3
simplex.shx
  4
extfont.shx
  0
ENDTAB
  0
TABLE
  2
VIEW
 70
     0
  0
ENDTAB
  0
TABLE
  2
UCS
 70
     0
  0
ENDTAB
  0
TABLE
  2
APPID
 70
     1
  0
APPID
  2
ACAD
 70
     0
  0
ENDTAB
  0
TABLE
  2
DIMSTYLE
 70
     1
  0
DIMSTYLE
  2
IGA
 70
     0
  3

  4

  5

  6
OPEN
  7
OPEN
 40
2.0
 41
2.0
 42
0.5
 43
10.0
 44
1.0
 45
0.0
 46
0.0
 47
1.0
 48
1.0
140
3.0
141
0.0
142
0.0
143
0.03937
144
1.0
145
0.0
146
10.0
147
1.0
 71
     0
 72
     0
 73
     0
 74
     0
 75
     0
 76
     0
 77
     1
 78
     8
170
     0
171
     2
172
     0
173
     1
174
     0
175
     0
176
     0
177
     0
178
     0
  0
ENDTAB
  0
ENDSEC
  0
SECTION
  2
BLOCKS
  0
BLOCK
  8
0
  2
$MODEL_SPACE
 70
     0
 10
0.0
 20
0.0
 30
0.0
  3
$MODEL_SPACE
  1

  0
ENDBLK
  5
1B
  8
0
  0
BLOCK
 67
     1
  8
0
  2
$PAPER_SPACE
 70
     0
 10
0.0
 20
0.0
 30
0.0
  3
$PAPER_SPACE
  1

  0
ENDBLK
  5
18
 67
     1
  8
0
  0
BLOCK
  8
0
  2
_OPEN
 70
     0
 10
0.0
 20
0.0
 30
0.0
  3
_OPEN
  1

  0
LINE
  5
7AE8
  8
0
  6
BYBLOCK
 62
     0
 10
-1.0
 20
0.166667
 30
0.0
 11
0.0
 21
0.0
 31
0.0
  0
LINE
  5
7AE9
  8
0
  6
BYBLOCK
 62
     0
 10
0.0
 20
0.0
 30
0.0
 11
-1.0
 21
-0.166667
 31
0.0
  0
LINE
  5
7AEA
  8
0
  6
BYBLOCK
 62
     0
 10
0.0
 20
0.0
 30
0.0
 11
-1.0
 21
0.0
 31
0.0
  0
ENDBLK
  5
7AEB
  8
0
  0
BLOCK
  8
0
  2
*D1
 70
     1
 10
0.0
 20
0.0
 30
0.0
  3
*D1
  1

  0
LINE
  5
7ECF
  8
3
  6
CONTINUOUS
 62
     0
 10
3606.0111219999999
 20
4803.9456630000004
 30
0.0
 11
3919.645051
 21
4803.9456630000004
 31
0.0
  0
LINE
  5
7ED0
  8
3
  6
CONTINUOUS
 62
     0
 10
3606.0111219999999
 20
3978.945663
 30
0.0
 11
3919.645051
 21
3978.945663
 31
0.0
  0
LINE
  5
7ED1
  8
3
  6
CONTINUOUS
 62
     0
 10
3879.645051
 20
4723.9456630000013
 30
0.0
 11
3879.645051
 21
4058.9456630000009
 31
0.0
  0
INSERT
  5
7ED2
  8
3
  6
CONTINUOUS
 62
     0
  2
_OPEN
 10
3879.645051
 20
4803.9456630000004
 30
0.0
 41
80.0
 42
80.0
 43
80.0
 50
90.0
  0
INSERT
  5
7ED3
  8
3
  6
CONTINUOUS
 62
     0
  2
_OPEN
 10
3879.645051
 20
3978.945663
 30
0.0
 41
80.0
 42
80.0
 43
80.0
 50
270.0
  0
TEXT
  8
3
  40
120
  5
7F79
  62
0
  72
0
  71
0
 10
3539.65
 20
4212.67
 30
0.000000
  1
825
  0
POINT
  5
7ED5
  8
DEFPOINTS
  6
CONTINUOUS
 62
     0
 10
3586.0111219999999
 20
4803.9456630000004
 30
0.0
  0
POINT
  5
7ED6
  8
DEFPOINTS
  6
CONTINUOUS
 62
     0
 10
3586.0111219999999
 20
3978.945663
 30
0.0
  0
POINT
  5
7ED7
  8
DEFPOINTS
  6
CONTINUOUS
 62
     0
 10
3879.645051
 20
3978.945663
 30
0.0
  0
ENDBLK
  5
7B29
  8
0
  0
BLOCK
  8
0
  2
*D2
 70
     1
 10
0.0
 20
0.0
 30
0.0
  3
*D2
  1

  0
LINE
  5
7ED8
  8
3
  6
CONTINUOUS
 62
     0
 10
3606.0111219999999
 20
3978.945663
 30
0.0
 11
4186.707421000001
 21
3978.945663
 31
0.0
  0
LINE
  5
7ED9
  8
3
  6
CONTINUOUS
 62
     0
 10
3531.8033209999999
 20
4826.9456630000004
 30
0.0
 11
4186.707421000001
 21
4826.9456630000004
 31
0.0
  0
LINE
  5
7EDA
  8
3
  6
CONTINUOUS
 62
     0
 10
4146.707421000001
 20
4058.9456630000009
 30
0.0
 11
4146.707421000001
 21
4746.9456630000004
 31
0.0
  0
INSERT
  5
7EDB
  8
3
  6
CONTINUOUS
 62
     0
  2
_OPEN
 10
4146.707421000001
 20
3978.945663
 30
0.0
 41
80.0
 42
80.0
 43
80.0
 50
270.0
  0
INSERT
  5
7EDC
  8
3
  6
CONTINUOUS
 62
     0
  2
_OPEN
 10
4146.707421000001
 20
4826.9456630000004
 30
0.0
 41
80.0
 42
80.0
 43
80.0
 50
90.0
  0
TEXT
  8
3
  40
120
  5
7F7A
  62
0
  72
0
  71
0
 10
3806.71
 20
4218.71
 30
0.000000
  1
848
  0
POINT
  5
7EDE
  8
DEFPOINTS
  6
CONTINUOUS
 62
     0
 10
3586.0111219999999
 20
3978.945663
 30
0.0
  0
POINT
  5
7EDF
  8
DEFPOINTS
  6
CONTINUOUS
 62
     0
 10
3511.8033209999999
 20
4826.9456630000004
 30
0.0
  0
POINT
  5
7EE0
  8
DEFPOINTS
  6
CONTINUOUS
 62
     0
 10
4146.707421000001
 20
4826.9456630000004
 30
0.0
  0
ENDBLK
  5
7B36
  8
0
  0
BLOCK
  8
0
  2
*D3
 70
     1
 10
0.0
 20
0.0
 30
0.0
  3
*D3
  1

  0
LINE
  5
7EE1
  8
3
  6
CONTINUOUS
 62
     0
 10
3061.0111219999999
 20
5394.9456630000013
 30
0.0
 11
4422.3522110000013
 21
5394.9456630000013
 31
0.0
  0
LINE
  5
7EE2
  8
3
  6
CONTINUOUS
 62
     0
 10
3531.8033209999999
 20
4826.9456630000004
 30
0.0
 11
4422.3522110000013
 21
4826.9456630000004
 31
0.0
  0
LINE
  5
7EE3
  8
3
  6
CONTINUOUS
 62
     0
 10
4382.3522110000013
 20
5314.9456630000004
 30
0.0
 11
4382.3522110000013
 21
4906.9456630000013
 31
0.0
  0
INSERT
  5
7EE4
  8
3
  6
CONTINUOUS
 62
     0
  2
_OPEN
 10
4382.3522110000013
 20
5394.9456630000013
 30
0.0
 41
80.0
 42
80.0
 43
80.0
 50
90.0
  0
INSERT
  5
7EE5
  8
3
  6
CONTINUOUS
 62
     0
  2
_OPEN
 10
4382.3522110000013
 20
4826.9456630000004
 30
0.0
 41
80.0
 42
80.0
 43
80.0
 50
270.0
  0
TEXT
  8
3
  40
120
  5
7F7B
  62
0
  72
0
  71
0
 10
4042.35
 20
4908.26
 30
0.000000
  1
568
  0
POINT
  5
7EE7
  8
DEFPOINTS
  6
CONTINUOUS
 62
     0
 10
3041.0111219999999
 20
5394.9456630000013
 30
0.0
  0
POINT
  5
7EE8
  8
DEFPOINTS
  6
CONTINUOUS
 62
     0
 10
3511.8033209999999
 20
4826.9456630000004
 30
0.0
  0
POINT
  5
7EE9
  8
DEFPOINTS
  6
CONTINUOUS
 62
     0
 10
4382.3522110000013
 20
4826.9456630000004
 30
0.0
  0
ENDBLK
  5
7D5A
  8
0
  0
BLOCK
  8
0
  2
*D4
 70
     1
 10
0.0
 20
0.0
 30
0.0
  3
*D4
  1

  0
LINE
  5
7EEA
  8
3
  6
CONTINUOUS
 62
     0
 10
3561.0111219999999
 20
3866.945663
 30
0.0
 11
4422.3522110000004
 21
3866.945663
 31
0.0
  0
LINE
  5
7EEB
  8
3
  6
CONTINUOUS
 62
     0
 10
4382.3522110000004
 20
4746.9456630000004
 30
0.0
 11
4382.3522110000004
 21
3946.945663
 31
0.0
  0
INSERT
  5
7EEC
  8
3
  6
CONTINUOUS
 62
     0
  2
_OPEN
 10
4382.3522110000004
 20
4826.9456630000004
 30
0.0
 41
80.0
 42
80.0
 43
80.0
 50
90.0
  0
INSERT
  5
7EED
  8
3
  6
CONTINUOUS
 62
     0
  2
_OPEN
 10
4382.3522110000004
 20
3866.945663
 30
0.0
 41
80.0
 42
80.0
 43
80.0
 50
270.0
  0
TEXT
  8
3
  40
120
  5
7F7C
  62
0
  72
0
  71
0
 10
4042.35
 20
4134.55
 30
0.000000
  1
960
  0
POINT
  5
7EEF
  8
DEFPOINTS
  6
CONTINUOUS
 62
     0
 10
3511.8033209999999
 20
4826.9456630000004
 30
0.0
  0
POINT
  5
7EF0
  8
DEFPOINTS
  6
CONTINUOUS
 62
     0
 10
3541.0111219999999
 20
3866.945663
 30
0.0
  0
POINT
  5
7EF1
  8
DEFPOINTS
  6
CONTINUOUS
 62
     0
 10
4382.3522110000004
 20
3866.945663
 30
0.0
  0
ENDBLK
  5
7B4F
  8
0
  0
BLOCK
  8
0
  2
*D5
 70
     1
 10
0.0
 20
0.0
 30
0.0
  3
*D5
  1

  0
LINE
  5
7EF2
  8
3
  6
CONTINUOUS
 62
     0
 10
2355.0111219999999
 20
4846.9456630000004
 30
0.0
 11
2355.0111219999999
 21
5566.5645619999987
 31
0.0
  0
LINE
  5
7EF3
  8
3
  6
CONTINUOUS
 62
     0
 10
3041.0111219999999
 20
5413.8440280000004
 30
0.0
 11
3041.0111219999999
 21
5566.5645619999987
 31
0.0
  0
LINE
  5
7EF4
  8
3
  6
CONTINUOUS
 62
     0
 10
2435.0111219999999
 20
5526.5645619999987
 30
0.0
 11
2961.0111219999999
 21
5526.5645619999987
 31
0.0
  0
INSERT
  5
7EF5
  8
3
  6
CONTINUOUS
 62
     0
  2
_OPEN
 10
2355.0111219999999
 20
5526.5645619999987
 30
0.0
 41
80.0
 42
80.0
 43
80.0
 50
180.0
  0
INSERT
  5
7EF6
  8
3
  6
CONTINUOUS
 62
     0
  2
_OPEN
 10
3041.0111219999999
 20
5526.5645619999987
 30
0.0
 41
80.0
 42
80.0
 43
80.0
  0
TEXT
  8
3
  40
120
  5
7F7D
  62
0
  72
0
  71
0
 10
2438.46
 20
5414.16
 30
0.000000
  1
686
  0
POINT
  5
7EF8
  8
DEFPOINTS
  6
CONTINUOUS
 62
     0
 10
2355.0111219999999
 20
4826.9456630000004
 30
0.0
  0
POINT
  5
7EF9
  8
DEFPOINTS
  6
CONTINUOUS
 62
     0
 10
3041.0111219999999
 20
5393.8440280000013
 30
0.0
  0
POINT
  5
7EFA
  8
DEFPOINTS
  6
CONTINUOUS
 62
     0
 10
3041.0111219999999
 20
5526.5645619999987
 30
0.0
  0
ENDBLK
  5
7D43
  8
0
  0
BLOCK
  8
0
  2
*D6
 70
     1
 10
0.0
 20
0.0
 30
0.0
  3
*D6
  1

  0
LINE
  5
7EFB
  8
3
  6
CONTINUOUS
 62
     0
 10
3586.0111219999999
 20
4866.4456630000004
 30
0.0
 11
3586.0111219999999
 21
5566.5645619999987
 31
0.0
  0
LINE
  5
7EFC
  8
3
  6
CONTINUOUS
 62
     0
 10
3121.0111219999999
 20
5526.5645619999987
 30
0.0
 11
3506.0111219999999
 21
5526.5645619999987
 31
0.0
  0
TEXT
  8
3
  40
120
  5
7F7E
  62
0
  72
0
  71
0
 10
3072.89
 20
5414.16
 30
0.000000
  1
545
  0
INSERT
  5
7EFE
  8
3
  6
CONTINUOUS
 62
     0
  2
_OPEN
 10
3041.0111219999999
 20
5526.5645619999987
 30
0.0
 41
80.0
 42
80.0
 43
80.0
 50
180.0
  0
INSERT
  5
7EFF
  8
3
  6
CONTINUOUS
 62
     0
  2
_OPEN
 10
3586.0111219999999
 20
5526.5645619999987
 30
0.0
 41
80.0
 42
80.0
 43
80.0
  0
POINT
  5
7F00
  8
DEFPOINTS
  6
CONTINUOUS
 62
     0
 10
3041.0111219999999
 20
5393.8440280000013
 30
0.0
  0
POINT
  5
7F01
  8
DEFPOINTS
  6
CONTINUOUS
 62
     0
 10
3586.0111219999999
 20
4846.4456630000004
 30
0.0
  0
POINT
  5
7F02
  8
DEFPOINTS
  6
CONTINUOUS
 62
     0
 10
3586.0111219999999
 20
5526.5645619999987
 30
0.0
  0
ENDBLK
  5
7BB8
  8
0
  0
BLOCK
  8
0
  2
*D7
 70
     1
 10
0.0
 20
0.0
 30
0.0
  3
*D7
  1

  0
LINE
  5
7F03
  8
3
  6
CONTINUOUS
 62
     0
 10
1841.0111219999999
 20
7030.5309079999997
 30
0.0
 11
1841.0111219999999
 21
6557.2764180000004
 31
0.0
  0
LINE
  5
7F04
  8
3
  6
CONTINUOUS
 62
     0
 10
3541.0111219999999
 20
7030.5309079999997
 30
0.0
 11
3541.0111219999999
 21
6557.2764180000004
 31
0.0
  0
LINE
  5
7F05
  8
3
  6
CONTINUOUS
 62
     0
 10
1921.011121999999
 20
6597.2764179999986
 30
0.0
 11
3461.0111219999999
 21
6597.2764179999986
 31
0.0
  0
INSERT
  5
7F06
  8
3
  6
CONTINUOUS
 62
     0
  2
_OPEN
 10
1841.0111219999999
 20
6597.2764179999986
 30
0.0
 41
80.0
 42
80.0
 43
80.0
 50
180.0
  0
INSERT
  5
7F07
  8
3
  6
CONTINUOUS
 62
     0
  2
_OPEN
 10
3541.0111219999999
 20
6597.2764179999986
 30
0.0
 41
80.0
 42
80.0
 43
80.0
  0
TEXT
  8
3
  40
120
  5
7F7F
  62
0
  72
0
  71
0
 10
2384.08
 20
6484.88
 30
0.000000
  1
1700
  0
POINT
  5
7F09
  8
DEFPOINTS
  6
CONTINUOUS
 62
     0
 10
1841.0111219999999
 20
7050.5309079999997
 30
0.0
  0
POINT
  5
7F0A
  8
DEFPOINTS
  6
CONTINUOUS
 62
     0
 10
3541.0111219999999
 20
7050.5309079999997
 30
0.0
  0
POINT
  5
7F0B
  8
DEFPOINTS
  6
CONTINUOUS
 62
     0
 10
3541.0111219999999
 20
6597.2764179999986
 30
0.0
  0
ENDBLK
  5
7BC4
  8
0
  0
BLOCK
  8
0
  2
*D8
 70
     1
 10
0.0
 20
0.0
 30
0.0
  3
*D8
  1

  0
LINE
  5
7F0C
  8
3
  6
CONTINUOUS
 62
     0
 10
3561.0111219999999
 20
7900.5309079999997
 30
0.0
 11
3945.0205100000021
 21
7900.5309079999997
 31
0.0
  0
LINE
  5
7F0D
  8
3
  6
CONTINUOUS
 62
     0
 10
3561.0111219999999
 20
7050.5309079999997
 30
0.0
 11
3945.0205100000012
 21
7050.5309079999997
 31
0.0
  0
LINE
  5
7F0E
  8
3
  6
CONTINUOUS
 62
     0
 10
3905.0205100000021
 20
7820.5309079999988
 30
0.0
 11
3905.0205100000012
 21
7130.5309079999997
 31
0.0
  0
INSERT
  5
7F0F
  8
3
  6
CONTINUOUS
 62
     0
  2
_OPEN
 10
3905.0205100000021
 20
7900.5309079999997
 30
0.0
 41
80.0
 42
80.0
 43
80.0
 50
90.0
  0
INSERT
  5
7F10
  8
3
  6
CONTINUOUS
 62
     0
  2
_OPEN
 10
3905.0205100000012
 20
7050.5309079999997
 30
0.0
 41
80.0
 42
80.0
 43
80.0
 50
270.0
  0
TEXT
  8
3
  40
120
  5
7F80
  62
0
  72
0
  71
0
 10
3565.02
 20
7304.10
 30
0.000000
  1
850
  0
POINT
  5
7F12
  8
DEFPOINTS
  6
CONTINUOUS
 62
     0
 10
3541.0111219999999
 20
7900.5309079999997
 30
0.0
  0
POINT
  5
7F13
  8
DEFPOINTS
  6
CONTINUOUS
 62
     0
 10
3541.0111219999999
 20
7050.5309079999997
 30
0.0
  0
POINT
  5
7F14
  8
DEFPOINTS
  6
CONTINUOUS
 62
     0
 10
3905.0205100000012
 20
7050.5309079999997
 30
0.0
  0
ENDBLK
  5
7BD1
  8
0
  0
BLOCK
  8
0
  2
*D9
 70
     1
 10
0.0
 20
0.0
 30
0.0
  3
*D9
  1

  0
LINE
  5
7F15
  8
3
  6
CONTINUOUS
 62
     0
 10
5834.0689082106592
 20
5324.9456630000013
 30
0.0
 11
5834.0689082106592
 21
5498.9715859999988
 31
0.0
  0
LINE
  5
7F16
  8
3
  6
CONTINUOUS
 62
     0
 10
6434.0689082106592
 20
5324.9456630000013
 30
0.0
 11
6434.0689082106592
 21
5498.9715859999988
 31
0.0
  0
LINE
  5
7F17
  8
3
  6
CONTINUOUS
 62
     0
 10
5914.0689082106592
 20
5458.9715859999997
 30
0.0
 11
6354.0689082106601
 21
5458.9715859999997
 31
0.0
  0
INSERT
  5
7F18
  8
3
  6
CONTINUOUS
 62
     0
  2
_OPEN
 10
5834.0689082106592
 20
5458.9715859999997
 30
0.0
 41
80.0
 42
80.0
 43
80.0
 50
180.0
  0
INSERT
  5
7F19
  8
3
  6
CONTINUOUS
 62
     0
  2
_OPEN
 10
6434.0689082106592
 20
5458.9715859999997
 30
0.0
 41
80.0
 42
80.0
 43
80.0
  0
TEXT
  8
3
  40
120
  5
7F81
  62
0
  72
0
  71
0
 10
5868.35
 20
5346.57
 30
0.000000
  1
600
  0
POINT
  5
7F1B
  8
DEFPOINTS
  6
CONTINUOUS
 62
     0
 10
5834.0689082106592
 20
5304.9456630000013
 30
0.0
  0
POINT
  5
7F1C
  8
DEFPOINTS
  6
CONTINUOUS
 62
     0
 10
6434.0689082106592
 20
5304.9456630000013
 30
0.0
  0
POINT
  5
7F1D
  8
DEFPOINTS
  6
CONTINUOUS
 62
     0
 10
6434.0689082106592
 20
5458.9715859999997
 30
0.0
  0
ENDBLK
  5
7C14
  8
0
  0
BLOCK
  8
0
  2
*D10
 70
     1
 10
0.0
 20
0.0
 30
0.0
  3
*D10
  1

  0
LINE
  5
7D08
  8
0
  6
BYBLOCK
 62
     0
 10
6054.2537050000001
 20
5046.9456630000004
 30
0.0
 11
6054.2537050000001
 21
5792.2423133327447
 31
0.0
  0
LINE
  5
7D09
  8
0
  6
BYBLOCK
 62
     0
 10
6624.2537050000001
 20
5645.4961445424406
 30
0.0
 11
6624.2537050000001
 21
5792.2423133327447
 31
0.0
  0
LINE
  5
7D0A
  8
0
  6
BYBLOCK
 62
     0
 10
6134.2537050000001
 20
5752.2423133327447
 30
0.0
 11
6544.2537050000001
 21
5752.2423133327447
 31
0.0
  0
INSERT
  5
7D0B
  8
3
  2
*U22
 10
0.0
 20
0.0
 30
0.0
  0
INSERT
  5
7D0C
  8
0
  6
BYBLOCK
 62
     0
  2
_OPEN
 10
6054.2537050000001
 20
5752.2423133327447
 30
0.0
 41
80.0
 42
80.0
 43
80.0
 50
180.0
  0
INSERT
  5
7D0D
  8
0
  6
BYBLOCK
 62
     0
  2
_OPEN
 10
6624.2537050000001
 20
5752.2423133327447
 30
0.0
 41
80.0
 42
80.0
 43
80.0
  0
POINT
  5
7D0E
  8
DEFPOINTS
  6
BYBLOCK
 62
     0
 10
6054.2537050000001
 20
5026.9456630000013
 30
0.0
  0
POINT
  5
7D0F
  8
DEFPOINTS
  6
BYBLOCK
 62
     0
 10
6624.2537050000001
 20
5625.4961445424424
 30
0.0
  0
POINT
  5
7D10
  8
DEFPOINTS
  6
BYBLOCK
 62
     0
 10
6624.2537050000001
 20
5752.2423133327447
 30
0.0
  0
ENDBLK
  5
7D11
  8
0
  0
BLOCK
  8
0
  2
*D11
 70
     1
 10
0.0
 20
0.0
 30
0.0
  3
*D11
  1

  0
LINE
  5
7F1E
  8
3
  6
CONTINUOUS
 62
     0
 10
6517.0689082106592
 20
5286.9456630000004
 30
0.0
 11
6517.0689082106592
 21
5792.2423133327447
 31
0.0
  0
LINE
  5
7F1F
  8
3
  6
CONTINUOUS
 62
     0
 10
6214.0689082106592
 20
5752.2423133327447
 30
0.0
 11
6437.0689082106592
 21
5752.2423133327447
 31
0.0
  0
TEXT
  8
3
  40
120
  5
7F82
  62
0
  72
0
  71
0
 10
6067.22
 20
5634.41
 30
0.000000
  1
383
  0
INSERT
  5
7F21
  8
3
  6
CONTINUOUS
 62
     0
  2
_OPEN
 10
6134.0689082106592
 20
5752.2423133327447
 30
0.0
 41
80.0
 42
80.0
 43
80.0
 50
180.0
  0
INSERT
  5
7F22
  8
3
  6
CONTINUOUS
 62
     0
  2
_OPEN
 10
6517.0689082106592
 20
5752.2423133327447
 30
0.0
 41
80.0
 42
80.0
 43
80.0
  0
POINT
  5
7F23
  8
DEFPOINTS
  6
CONTINUOUS
 62
     0
 10
6134.0689082106592
 20
5625.4961445424424
 30
0.0
  0
POINT
  5
7F24
  8
DEFPOINTS
  6
CONTINUOUS
 62
     0
 10
6517.0689082106592
 20
5266.9456630000013
 30
0.0
  0
POINT
  5
7F25
  8
DEFPOINTS
  6
CONTINUOUS
 62
     0
 10
6517.0689082106592
 20
5752.2423133327447
 30
0.0
  0
ENDBLK
  5
7D06
  8
0
  0
BLOCK
  8
0
  2
*D12
 70
     1
 10
0.0
 20
0.0
 30
0.0
  3
*D12
  1

  0
LINE
  5
7F26
  8
3
  6
CONTINUOUS
 62
     0
 10
6537.0689082106601
 20
5226.9456630000013
 30
0.0
 11
6854.7609322106609
 21
5226.9456630000013
 31
0.0
  0
LINE
  5
7F27
  8
3
  6
CONTINUOUS
 62
     0
 10
6537.0689082106601
 20
4426.9456630000004
 30
0.0
 11
6854.7609322106609
 21
4426.9456630000004
 31
0.0
  0
LINE
  5
7F28
  8
3
  6
CONTINUOUS
 62
     0
 10
6814.76093221066
 20
5146.9456630000004
 30
0.0
 11
6814.76093221066
 21
4506.9456630000004
 31
0.0
  0
INSERT
  5
7F29
  8
3
  6
CONTINUOUS
 62
     0
  2
_OPEN
 10
6814.76093221066
 20
5226.9456630000013
 30
0.0
 41
80.0
 42
80.0
 43
80.0
 50
90.0
  0
INSERT
  5
7F2A
  8
3
  6
CONTINUOUS
 62
     0
  2
_OPEN
 10
6814.76093221066
 20
4426.9456630000004
 30
0.0
 41
80.0
 42
80.0
 43
80.0
 50
270.0
  0
TEXT
  8
3
  40
120
  5
7F83
  62
0
  72
0
  71
0
 10
6474.76
 20
4560.83
 30
0.000000
  1
φ800
  0
POINT
  5
7F2C
  8
DEFPOINTS
  6
CONTINUOUS
 62
     0
 10
6517.0689082106592
 20
5226.9456630000013
 30
0.0
  0
POINT
  5
7F2D
  8
DEFPOINTS
  6
CONTINUOUS
 62
     0
 10
6517.0689082106592
 20
4426.9456630000004
 30
0.0
  0
POINT
  5
7F2E
  8
DEFPOINTS
  6
CONTINUOUS
 62
     0
 10
6814.76093221066
 20
4426.9456630000004
 30
0.0
  0
ENDBLK
  5
7CD1
  8
0
  0
BLOCK
  8
0
  2
*D13
 70
     1
 10
0.0
 20
0.0
 30
0.0
  3
*D13
  1

  0
LINE
  5
7F34
  8
3
 62
     0
 10
3586.0111219999999
 20
4866.4456630000004
 30
0.0
 11
3586.0111219999999
 21
5816.4948015116934
 31
0.0
  0
LINE
  5
7F35
  8
3
 62
     0
 10
1841.0111219999999
 20
3986.945663
 30
0.0
 11
1841.0111219999999
 21
5816.4948015116934
 31
0.0
  0
LINE
  5
7F36
  8
3
 62
     0
 10
3506.0111219999999
 20
5776.4948015116934
 30
0.0
 11
1921.011121999999
 21
5776.4948015116934
 31
0.0
  0
INSERT
  5
7F37
  8
3
 62
     0
  2
_OPEN
 10
3586.0111219999999
 20
5776.4948015116934
 30
0.0
 41
80.0
 42
80.0
 43
80.0
  0
INSERT
  5
7F38
  8
3
 62
     0
  2
_OPEN
 10
1841.0111219999999
 20
5776.4948015116934
 30
0.0
 41
80.0
 42
80.0
 43
80.0
 50
180.0
  0
TEXT
  8
3
  40
120
  5
7F84
  62
0
  72
0
  71
0
 10
2405.87
 20
5664.09
 30
0.000000
  1
1745
  0
POINT
  5
7F3A
  8
DEFPOINTS
 62
     0
 10
3586.0111219999999
 20
4846.4456630000004
 30
0.0
  0
POINT
  5
7F3B
  8
DEFPOINTS
 62
     0
 10
1841.0111219999999
 20
3966.945663
 30
0.0
  0
POINT
  5
7F3C
  8
DEFPOINTS
 62
     0
 10
1841.0111219999999
 20
5776.4948015116934
 30
0.0
  0
ENDBLK
  5
7D32
  8
0
  0
BLOCK
  8
0
  2
*D14
 70
     1
 10
0.0
 20
0.0
 30
0.0
  3
*D14
  1

  0
LINE
  5
7F3D
  8
3
 62
     0
 10
1841.0111219999999
 20
3651.9456630000009
 30
0.0
 11
1841.0111219999999
 21
3348.1368076438589
 31
0.0
  0
LINE
  5
7F3E
  8
3
 62
     0
 10
3041.011121999999
 20
3651.9456630000009
 30
0.0
 11
3041.011121999999
 21
3348.1368076438589
 31
0.0
  0
LINE
  5
7F3F
  8
3
 62
     0
 10
1921.011121999999
 20
3388.1368076438589
 30
0.0
 11
2961.011121999999
 21
3388.1368076438589
 31
0.0
  0
INSERT
  5
7F40
  8
3
 62
     0
  2
_OPEN
 10
1841.0111219999999
 20
3388.1368076438589
 30
0.0
 41
80.0
 42
80.0
 43
80.0
 50
180.0
  0
INSERT
  5
7F41
  8
3
 62
     0
  2
_OPEN
 10
3041.011121999999
 20
3388.1368076438589
 30
0.0
 41
80.0
 42
80.0
 43
80.0
  0
TEXT
  8
3
  40
120
  5
7F85
  62
0
  72
0
  71
0
 10
2201.01
 20
3275.74
 30
0.000000
  1
1200
  0
POINT
  5
7F43
  8
DEFPOINTS
 62
     0
 10
1841.0111219999999
 20
3671.945663
 30
0.0
  0
POINT
  5
7F44
  8
DEFPOINTS
 62
     0
 10
3041.011121999999
 20
3671.945663
 30
0.0
  0
POINT
  5
7F45
  8
DEFPOINTS
 62
     0
 10
3041.011121999999
 20
3388.1368076438589
 30
0.0
  0
ENDBLK
  5
7D6E
  8
0
  0
BLOCK
  8
0
  2
*D15
 70
     1
 10
0.0
 20
0.0
 30
0.0
  3
*D15
  1

  0
LINE
  5
7F46
  8
3
 62
     0
 10
3041.011121999999
 20
3651.9456630000009
 30
0.0
 11
3041.011121999999
 21
3348.1368076438589
 31
0.0
  0
LINE
  5
7F47
  8
3
 62
     0
 10
3541.0111219999999
 20
3651.9456630000009
 30
0.0
 11
3541.0111219999999
 21
3348.1368076438589
 31
0.0
  0
LINE
  5
7F48
  8
3
 62
     0
 10
3121.011121999999
 20
3388.1368076438589
 30
0.0
 11
3461.0111219999999
 21
3388.1368076438589
 31
0.0
  0
INSERT
  5
7F49
  8
3
 62
     0
  2
_OPEN
 10
3041.011121999999
 20
3388.1368076438589
 30
0.0
 41
80.0
 42
80.0
 43
80.0
 50
180.0
  0
INSERT
  5
7F4A
  8
3
 62
     0
  2
_OPEN
 10
3541.0111219999999
 20
3388.1368076438589
 30
0.0
 41
80.0
 42
80.0
 43
80.0
  0
TEXT
  8
3
  40
120
  5
7F86
  62
0
  72
0
  71
0
 10
3051.01
 20
3275.74
 30
0.000000
  1
500
  0
POINT
  5
7F4C
  8
DEFPOINTS
 62
     0
 10
3041.011121999999
 20
3671.945663
 30
0.0
  0
POINT
  5
7F4D
  8
DEFPOINTS
 62
     0
 10
3541.0111219999999
 20
3671.945663
 30
0.0
  0
POINT
  5
7F4E
  8
DEFPOINTS
 62
     0
 10
3541.0111219999999
 20
3388.1368076438589
 30
0.0
  0
ENDBLK
  5
7D7D
  8
0
  0
BLOCK
  8
0
  2
*D16
 70
     1
 10
0.0
 20
0.0
 30
0.0
  3
*D16
  1

  0
LINE
  5
7F4F
  8
3
 62
     0
 10
5637.0689082106592
 20
3651.9456630000009
 30
0.0
 11
5637.0689082106592
 21
3348.1368076438589
 31
0.0
  0
LINE
  5
7F50
  8
3
 62
     0
 10
6134.0689082106592
 20
3651.9456630000009
 30
0.0
 11
6134.0689082106592
 21
3348.1368076438589
 31
0.0
  0
LINE
  5
7F51
  8
3
 62
     0
 10
5717.0689082106592
 20
3388.1368076438589
 30
0.0
 11
6054.0689082106592
 21
3388.1368076438589
 31
0.0
  0
INSERT
  5
7F52
  8
3
 62
     0
  2
_OPEN
 10
5637.0689082106592
 20
3388.1368076438589
 30
0.0
 41
80.0
 42
80.0
 43
80.0
 50
180.0
  0
INSERT
  5
7F53
  8
3
 62
     0
  2
_OPEN
 10
6134.0689082106592
 20
3388.1368076438589
 30
0.0
 41
80.0
 42
80.0
 43
80.0
  0
TEXT
  8
3
  40
120
  5
7F87
  62
0
  72
0
  71
0
 10
5645.57
 20
3275.74
 30
0.000000
  1
497
  0
POINT
  5
7F55
  8
DEFPOINTS
 62
     0
 10
5637.0689082106592
 20
3671.945663
 30
0.0
  0
POINT
  5
7F56
  8
DEFPOINTS
 62
     0
 10
6134.0689082106592
 20
3671.945663
 30
0.0
  0
POINT
  5
7F57
  8
DEFPOINTS
 62
     0
 10
6134.0689082106592
 20
3388.1368076438589
 30
0.0
  0
ENDBLK
  5
7D8C
  8
0
  0
BLOCK
  8
0
  2
*D17
 70
     1
 10
0.0
 20
0.0
 30
0.0
  3
*D17
  1

  0
LINE
  5
7F58
  8
3
 62
     0
 10
6134.0689082106592
 20
3651.9456630000009
 30
0.0
 11
6134.0689082106592
 21
3348.1368076438589
 31
0.0
  0
LINE
  5
7F59
  8
3
 62
     0
 10
6487.0689082106592
 20
3651.9456630000009
 30
0.0
 11
6487.0689082106592
 21
3348.1368076438589
 31
0.0
  0
LINE
  5
7F5A
  8
3
 62
     0
 10
6214.0689082106592
 20
3388.1368076438589
 30
0.0
 11
6407.0689082106601
 21
3388.1368076438589
 31
0.0
  0
LINE
  5
7F5B
  8
3
 62
     0
 10
6487.0689082106592
 20
3388.1368076438589
 30
0.0
 11
6955.6403367820876
 21
3388.1368076438589
 31
0.0
  0
INSERT
  5
7F5C
  8
3
 62
     0
  2
_OPEN
 10
6134.0689082106592
 20
3388.1368076438589
 30
0.0
 41
80.0
 42
80.0
 43
80.0
 50
180.0
  0
INSERT
  5
7F5D
  8
3
 62
     0
  2
_OPEN
 10
6487.0689082106592
 20
3388.1368076438589
 30
0.0
 41
80.0
 42
80.0
 43
80.0
  0
TEXT
  8
3
  40
120
  5
7F88
  62
0
  72
0
  71
0
 10
6521.35
 20
3275.74
 30
0.000000
  1
353
  0
POINT
  5
7F5F
  8
DEFPOINTS
 62
     0
 10
6134.0689082106592
 20
3671.945663
 30
0.0
  0
POINT
  5
7F60
  8
DEFPOINTS
 62
     0
 10
6487.0689082106592
 20
3671.945663
 30
0.0
  0
POINT
  5
7F61
  8
DEFPOINTS
 62
     0
 10
6487.0689082106592
 20
3388.1368076438589
 30
0.0
  0
ENDBLK
  5
7D9A
  8
0
  0
BLOCK
  8
0
  2
_DOT
 70
     0
 10
0.0
 20
0.0
 30
0.0
  3
_DOT
  1

  0
POLYLINE
  5
7D9E
  8
0
  6
BYBLOCK
 62
     0
 66
     1
 10
0.0
 20
0.0
 30
0.0
 70
     1
 40
0.5
 41
0.5
  0
VERTEX
  5
7F62
  8
0
  6
BYBLOCK
 62
     0
 10
-0.25
 20
0.0
 30
0.0
 42
1.0
  0
VERTEX
  5
7F63
  8
0
  6
BYBLOCK
 62
     0
 10
0.25
 20
0.0
 30
0.0
 42
1.0
  0
SEQEND
  5
7F64
  8
0
  6
BYBLOCK
 62
     0
  0
LINE
  5
7DA2
  8
0
  6
BYBLOCK
 62
     0
 10
-0.5
 20
0.0
 30
0.0
 11
-1.0
 21
0.0
 31
0.0
  0
ENDBLK
  5
7DA3
  8
0
  0
BLOCK
  8
0
  2
*D19
 70
     1
 10
0.0
 20
0.0
 30
0.0
  3
*D19
  1

  0
LINE
  5
7F65
  8
3
 62
     0
 10
3561.0111219999999
 20
3771.945663
 30
0.0
 11
4420.0247362329465
 21
3771.945663
 31
0.0
  0
LINE
  5
7F66
  8
3
 62
     0
 10
3561.0111219999999
 20
3671.945663
 30
0.0
 11
4420.0247362329465
 21
3671.945663
 31
0.0
  0
LINE
  5
7F67
  8
3
 62
     0
 10
4380.0247362329465
 20
3851.945663
 30
0.0
 11
4380.0247362329465
 21
3931.945663
 31
0.0
  0
LINE
  5
7F68
  8
3
 62
     0
 10
4380.0247362329465
 20
3591.945663
 30
0.0
 11
4380.0247362329465
 21
3146.2313772857142
 31
0.0
  0
LINE
  5
7F69
  8
3
 62
     0
 10
4380.0247362329465
 20
3771.945663
 30
0.0
 11
4380.0247362329465
 21
3671.945663
 31
0.0
  0
INSERT
  5
7F6A
  8
3
 62
     0
  2
_DOT
 10
4380.0247362329465
 20
3771.945663
 30
0.0
 41
80.0
 42
80.0
 43
80.0
 50
270.0
  0
INSERT
  5
7F6B
  8
3
 62
     0
  2
_OPEN
 10
4380.0247362329465
 20
3671.945663
 30
0.0
 41
80.0
 42
80.0
 43
80.0
 50
90.0
  0
TEXT
  8
3
  40
120
  5
7F89
  62
0
  72
0
  71
0
 10
4040.02
 20
3116.69
 30
0.000000
  1
100
  0
POINT
  5
7F6D
  8
DEFPOINTS
 62
     0
 10
3541.0111219999999
 20
3771.945663
 30
0.0
  0
POINT
  5
7F6E
  8
DEFPOINTS
 62
     0
 10
3541.0111219999999
 20
3671.945663
 30
0.0
  0
POINT
  5
7F6F
  8
DEFPOINTS
 62
     0
 10
4380.0247362329465
 20
3671.945663
 30
0.0
  0
ENDBLK
  5
7DB1
  8
0
  0
BLOCK
  8
0
  2
*D20
 70
     1
 10
0.0
 20
0.0
 30
0.0
  3
*D20
  1

  0
LINE
  5
7DB5
  8
0
  6
BYBLOCK
 62
     0
 10
3561.0111219999999
 20
3771.945663
 30
0.0
 11
4420.0247362329465
 21
3771.945663
 31
0.0
  0
LINE
  5
7DB6
  8
0
  6
BYBLOCK
 62
     0
 10
3561.0111219999999
 20
3866.945663
 30
0.0
 11
4420.0247362329465
 21
3866.945663
 31
0.0
  0
LINE
  5
7DB7
  8
0
  6
BYBLOCK
 62
     0
 10
4380.0247362329465
 20
3691.945663
 30
0.0
 11
4380.0247362329465
 21
3611.945663
 31
0.0
  0
LINE
  5
7DB8
  8
0
  6
BYBLOCK
 62
     0
 10
4380.0247362329465
 20
3946.945663
 30
0.0
 11
4380.0247362329465
 21
4026.9456630000009
 31
0.0
  0
TEXT
  5
7DB9
  8
3
 62
     0
 10
4611.453307661518
 20
3645.1599487142862
 30
0.0
 40
120.0
  1
(95)
 50
90.0
  0
LINE
  5
7DBA
  8
0
  6
BYBLOCK
 62
     0
 10
4380.0247362329465
 20
3771.945663
 30
0.0
 11
4380.0247362329465
 21
3866.945663
 31
0.0
  0
INSERT
  5
7DBB
  8
0
  6
BYBLOCK
 62
     0
  2
_DOT
 10
4380.0247362329465
 20
3771.945663
 30
0.0
 41
80.0
 42
80.0
 43
80.0
 50
90.0
  0
INSERT
  5
7DBC
  8
0
  6
BYBLOCK
 62
     0
  2
_OPEN
 10
4380.0247362329465
 20
3866.945663
 30
0.0
 41
80.0
 42
80.0
 43
80.0
 50
270.0
  0
POINT
  5
7DBD
  8
DEFPOINTS
  6
BYBLOCK
 62
     0
 10
3541.0111219999999
 20
3771.945663
 30
0.0
  0
POINT
  5
7DBE
  8
DEFPOINTS
  6
BYBLOCK
 62
     0
 10
3541.0111219999999
 20
3866.945663
 30
0.0
  0
POINT
  5
7DBF
  8
DEFPOINTS
  6
BYBLOCK
 62
     0
 10
4380.0247362329465
 20
3866.945663
 30
0.0
  0
ENDBLK
  5
7DC0
  8
0
  0
BLOCK
  8
0
  2
*D21
 70
     1
 10
0.0
 20
0.0
 30
0.0
  3
*D21
  1

  0
LINE
  5
7F70
  8
3
 62
     0
 10
3081.0111219999999
 20
5394.9456630000013
 30
0.0
 11
4806.8712365528263
 21
5394.9456630000013
 31
0.0
  0
LINE
  5
7F71
  8
3
 62
     0
 10
3561.0111219999999
 20
3671.945663
 30
0.0
 11
4806.8712365528263
 21
3671.945663
 31
0.0
  0
LINE
  5
7F72
  8
3
 62
     0
 10
4766.8712365528263
 20
5314.9456630000004
 30
0.0
 11
4766.8712365528263
 21
3751.945663
 31
0.0
  0
INSERT
  5
7F73
  8
3
 62
     0
  2
_OPEN
 10
4766.8712365528263
 20
5394.9456630000013
 30
0.0
 41
80.0
 42
80.0
 43
80.0
 50
90.0
  0
INSERT
  5
7F74
  8
3
 62
     0
  2
_OPEN
 10
4766.8712365528263
 20
3671.945663
 30
0.0
 41
80.0
 42
80.0
 43
80.0
 50
270.0
  0
TEXT
  8
3
  40
120
  5
7F8A
  62
0
  72
0
  71
0
 10
4395.44
 20
4321.05
 30
0.000000
  1
(1723)
  0
POINT
  5
7F76
  8
DEFPOINTS
 62
     0
 10
3061.0111219999999
 20
5394.9456630000013
 30
0.0
  0
POINT
  5
7F77
  8
DEFPOINTS
 62
     0
 10
3541.0111219999999
 20
3671.945663
 30
0.0
  0
POINT
  5
7F78
  8
DEFPOINTS
 62
     0
 10
4766.8712365528263
 20
3671.945663
 30
0.0
  0
ENDBLK
  5
7DCD
  8
0
  0
BLOCK
  8
0
  2
*U22
 70
     1
 10
0.0
 20
0.0
 30
0.0
  3
*U22
  1

  0
TEXT
  5
7F30
  8
3
 62
     0
 10
6167.8251335714294
 20
6000.1624106426534
 30
0.0
 40
120.0
  1
MAX
  0
TEXT
  5
7F31
  8
3
 62
     0
 10
6184.9679907142863
 20
5800.1624106426534
 30
0.0
 40
120.0
  1
660
  0
ENDBLK
  5
7F33
  8
0
  0
ENDSEC
  0
SECTION
  2
ENTITIES
  0
LINE
  5
7A73
  8
1
  6
CONTINUOUS
 10
6487.0689082106592
 20
3771.945663
 30
0.0
 11
5637.0689082106592
 21
3771.945663
 31
0.0
  0
LINE
  5
7A74
  8
1
  6
CONTINUOUS
 10
6487.0689082106592
 20
3671.945663
 30
0.0
 11
5637.0689082106592
 21
3671.945663
 31
0.0
  0
LINE
  5
7A75
  8
1
  6
CONTINUOUS
 10
5834.0689082106592
 20
4803.9456630000004
 30
0.0
 11
6434.0689082106592
 21
4803.9456630000004
 31
0.0
  0
LINE
  5
7A76
  8
1
  6
CONTINUOUS
 10
6487.0689082106592
 20
3866.945663
 30
0.0
 11
5637.0689082106592
 21
3866.945663
 31
0.0
  0
LINE
  5
7A77
  8
1
  6
CONTINUOUS
 10
6487.0689082106592
 20
3966.945663
 30
0.0
 11
5637.0689082106592
 21
3966.945663
 31
0.0
  0
LINE
  5
7A78
  8
1
  6
CONTINUOUS
 10
5834.0689082106592
 20
5304.9456630000013
 30
0.0
 11
6434.0689082106592
 21
5304.9456630000013
 31
0.0
  0
LINE
  5
7A79
  8
1
  6
CONTINUOUS
 10
5834.0689082106592
 20
3978.945663
 30
0.0
 11
6434.0689082106592
 21
3978.945663
 31
0.0
  0
LINE
  5
7A7A
  8
1
  6
CONTINUOUS
 10
5834.0689082106592
 20
4803.9456630000004
 30
0.0
 11
6434.0689082106592
 21
3978.945663
 31
0.0
  0
LINE
  5
7A7B
  8
1
  6
CONTINUOUS
 10
5834.0689082106592
 20
3978.945663
 30
0.0
 11
6434.0689082106592
 21
4803.9456630000004
 31
0.0
  0
LINE
  5
7A7C
  8
1
  6
CONTINUOUS
 10
3541.0111219999999
 20
3771.945663
 30
0.0
 11
1841.0111219999999
 21
3771.945663
 31
0.0
  0
LINE
  5
7A7D
  8
1
  6
CONTINUOUS
 10
3541.0111219999999
 20
3671.945663
 30
0.0
 11
1841.0111219999999
 21
3671.945663
 31
0.0
  0
POLYLINE
  5
7A7E
  8
1
  6
CONTINUOUS
 66
     1
 10
0.0
 20
0.0
 30
0.0
  0
VERTEX
  5
7EC8
  8
1
  6
CONTINUOUS
 10
3586.0111219999999
 20
3978.945663
 30
0.0
  0
VERTEX
  5
7EC9
  8
1
  6
CONTINUOUS
 10
3041.0111219999999
 20
4022.945663
 30
0.0
 42
-0.4
  0
VERTEX
  5
7ECA
  8
1
  6
CONTINUOUS
 10
2352.7111220000002
 20
4767.9456630000004
 30
0.0
 42
-0.4
  0
VERTEX
  5
7ECB
  8
1
  6
CONTINUOUS
 10
3049.6111219999989
 20
5393.6456630000002
 30
0.0
 42
-0.4
  0
VERTEX
  5
7ECC
  8
1
  6
CONTINUOUS
 10
3515.7111219999988
 20
4874.4456630000004
 30
0.0
  0
VERTEX
  5
7ECD
  8
1
  6
CONTINUOUS
 10
3509.911122
 20
4803.9456630000004
 30
0.0
 42
-0.4
  0
SEQEND
  5
7ECE
  8
1
  6
CONTINUOUS
  0
LINE
  5
7A86
  8
1
  6
CONTINUOUS
 10
3541.0111219999999
 20
3866.945663
 30
0.0
 11
1841.0111219999999
 21
3866.945663
 31
0.0
  0
LINE
  5
7A87
  8
1
  6
CONTINUOUS
 10
3541.0111219999999
 20
3966.945663
 30
0.0
 11
1841.0111219999999
 21
3966.945663
 31
0.0
  0
CIRCLE
  5
7A88
  8
1
  6
CONTINUOUS
 10
3041.0111219999999
 20
4826.9456630000004
 30
0.0
 40
400.0
  0
CIRCLE
  5
7A89
  8
1
  6
CONTINUOUS
 10
3041.0111219999999
 20
4826.9456630000004
 30
0.0
 40
440.0
  0
LINE
  5
7A8A
  8
1
  6
CONTINUOUS
 10
3150.911122
 20
4659.8456630000001
 30
0.0
 11
2187.4111219999991
 21
4026.5456629999999
 31
0.0
  0
LINE
  5
7A8B
  8
1
  6
CONTINUOUS
 10
3095.911122
 20
4743.3456630000001
 30
0.0
 11
2132.411122
 21
4110.0456629999999
 31
0.0
  0
LINE
  5
7A8C
  8
1
  6
CONTINUOUS
 10
2925.4111219999991
 20
4990.1456630000002
 30
0.0
 11
1984.511121999999
 21
4323.8456630000001
 31
0.0
  0
LINE
  5
7A8D
  8
1
  6
CONTINUOUS
 10
2983.2111220000002
 20
4908.5456629999999
 30
0.0
 11
2042.3111220000001
 21
4242.2456630000006
 31
0.0
  0
ARC
  5
7A8E
  8
1
  6
CONTINUOUS
 10
2088.511121999999
 20
4176.9456630000004
 30
0.0
 40
180.0
 50
125.2999999999999
 51
303.30000000000001
  0
LINE
  5
7A8F
  8
1
  6
CONTINUOUS
 10
2276.011121999999
 20
4016.945663
 30
0.0
 11
1901.011121999999
 21
4016.945663
 31
0.0
  0
LINE
  5
7A90
  8
1
  6
CONTINUOUS
 10
1841.0111219999999
 20
3771.945663
 30
0.0
 11
1841.0111219999999
 21
3671.945663
 31
0.0
  0
LINE
  5
7A91
  8
1
  6
CONTINUOUS
 10
1841.0111219999999
 20
3966.945663
 30
0.0
 11
1841.0111219999999
 21
3866.945663
 31
0.0
  0
LINE
  5
7A92
  8
1
  6
CONTINUOUS
 10
1901.011121999999
 20
4016.945663
 30
0.0
 11
1891.0111219999999
 21
3966.945663
 31
0.0
  0
ARC
  5
7A93
  8
1
  6
CONTINUOUS
 10
2088.511121999999
 20
4176.9456630000004
 30
0.0
 40
162.0
 50
325.0
 51
214.99999999999989
  0
CIRCLE
  5
7A94
  8
1
  6
CONTINUOUS
 10
2088.511121999999
 20
4176.9456630000004
 30
0.0
 40
80.0
  0
LINE
  5
7A95
  8
2
  6
CENTER
 10
2008.511121999999
 20
4176.9456630000004
 30
0.0
 11
2168.511121999999
 21
4176.9456630000004
 31
0.0
  0
LINE
  5
7A96
  8
1
  6
CONTINUOUS
 10
1934.511121999999
 20
4016.945663
 30
0.0
 11
1934.511121999999
 21
4034.9456630000009
 31
0.0
  0
LINE
  5
7A97
  8
1
  6
CONTINUOUS
 10
1934.511121999999
 20
4034.9456630000009
 30
0.0
 11
1955.8111219999989
 21
4083.945663
 31
0.0
  0
LINE
  5
7A98
  8
2
  6
CENTER
 10
2088.511121999999
 20
4096.9456630000004
 30
0.0
 11
2088.511121999999
 21
4256.9456630000004
 31
0.0
  0
LINE
  5
7A99
  8
1
  6
CONTINUOUS
 10
2242.511121999999
 20
4034.9456630000009
 30
0.0
 11
2221.2111219999988
 21
4083.945663
 31
0.0
  0
LINE
  5
7A9A
  8
1
  6
CONTINUOUS
 10
2242.511121999999
 20
4016.945663
 30
0.0
 11
2242.511121999999
 21
4034.9456630000009
 31
0.0
  0
LINE
  5
7A9B
  8
1
  6
CONTINUOUS
 10
2286.0111219999999
 20
3966.945663
 30
0.0
 11
2276.011121999999
 21
4016.945663
 31
0.0
  0
CIRCLE
  5
7A9C
  8
1
  6
CONTINUOUS
 10
3041.0111219999999
 20
4826.9456630000004
 30
0.0
 40
100.0
  0
LINE
  5
7A9D
  8
2
  6
CENTER
 10
2300.540661
 20
4826.9456630000004
 30
0.0
 11
3654.8691779999999
 21
4826.9456630000004
 31
0.0
  0
ARC
  5
7A9E
  8
1
  6
CONTINUOUS
 10
3041.0111219999999
 20
4826.9456630000004
 30
0.0
 40
200.0
 50
303.30000000000001
 51
125.2999999999999
  0
LINE
  5
7A9F
  8
2
  6
CENTER
 10
3041.0111219999999
 20
8063.050628
 30
0.0
 11
3041.0111219999999
 21
6886.9876080000004
 31
0.0
  0
LINE
  5
7AA0
  8
1
  6
CONTINUOUS
 10
3586.0111219999999
 20
4846.4456630000004
 30
0.0
 11
3586.0111219999999
 21
3936.445663
 31
0.0
  0
LINE
  5
7AA1
  8
1
  6
CONTINUOUS
 10
3546.0111219999999
 20
4803.9456630000004
 30
0.0
 11
3546.0111219999999
 21
3978.945663
 31
0.0
  0
LINE
  5
7AA2
  8
1
  6
CONTINUOUS
 10
3541.0111219999999
 20
3771.945663
 30
0.0
 11
3541.0111219999999
 21
3671.945663
 31
0.0
  0
LINE
  5
7AA3
  8
1
  6
CONTINUOUS
 10
3541.0111219999999
 20
3966.945663
 30
0.0
 11
3541.0111219999999
 21
3866.945663
 31
0.0
  0
LINE
  5
7AA5
  8
1
  6
CONTINUOUS
 10
3509.911122
 20
4803.9456630000004
 30
0.0
 11
3586.0111219999999
 21
4803.9456630000004
 31
0.0
  0
LINE
  5
7AA6
  8
1
  6
CONTINUOUS
 10
5834.0689082106592
 20
5304.9456630000013
 30
0.0
 11
5834.0689082106592
 21
3966.945663
 31
0.0
  0
LINE
  5
7AA7
  8
1
  6
CONTINUOUS
 10
5564.0689082106592
 20
5026.9456630000013
 30
0.0
 11
5564.0689082106592
 21
3996.945663
 31
0.0
  0
LINE
  5
7AA8
  8
1
  6
CONTINUOUS
 10
5724.0689082106592
 20
5026.9456630000013
 30
0.0
 11
5724.0689082106592
 21
3996.945663
 31
0.0
  0
LINE
  5
7AA9
  8
1
  6
CONTINUOUS
 10
5684.0689082106592
 20
4155.9456630000004
 30
0.0
 11
5834.0689082106592
 21
4155.9456630000004
 31
0.0
  0
LINE
  5
7AAA
  8
1
  6
CONTINUOUS
 10
5684.0689082106592
 20
4197.9456630000013
 30
0.0
 11
5834.0689082106592
 21
4197.9456630000013
 31
0.0
  0
LINE
  5
7AAD
  8
1
  6
CONTINUOUS
 10
5637.0689082106592
 20
3771.945663
 30
0.0
 11
5637.0689082106592
 21
3671.945663
 31
0.0
  0
LINE
  5
7AAF
  8
1
  6
CONTINUOUS
 10
5564.0689082106592
 20
3996.945663
 30
0.0
 11
5724.0689082106592
 21
3996.945663
 31
0.0
  0
LINE
  5
7AB0
  8
1
  6
CONTINUOUS
 10
5637.0689082106592
 20
3966.945663
 30
0.0
 11
5637.0689082106592
 21
3866.945663
 31
0.0
  0
LINE
  5
7AB1
  8
1
  6
CONTINUOUS
 10
5604.0689082106601
 20
4096.9456630000004
 30
0.0
 11
5684.0689082106592
 21
4096.9456630000004
 31
0.0
  0
LINE
  5
7AB2
  8
1
  6
CONTINUOUS
 10
5604.0689082106601
 20
4256.9456630000004
 30
0.0
 11
5684.0689082106592
 21
4256.9456630000004
 31
0.0
  0
LINE
  5
7AB3
  8
1
  6
CONTINUOUS
 10
5604.0689082106601
 20
4256.9456630000004
 30
0.0
 11
5604.0689082106601
 21
4096.9456630000004
 31
0.0
  0
LINE
  5
7AB4
  8
1
  6
CONTINUOUS
 10
5684.0689082106592
 20
4256.9456630000004
 30
0.0
 11
5684.0689082106592
 21
4096.9456630000004
 31
0.0
  0
LINE
  5
7AB5
  8
1
  6
CONTINUOUS
 10
5684.0689082106592
 20
4847.9456630000004
 30
0.0
 11
5834.0689082106592
 21
4847.9456630000004
 31
0.0
  0
LINE
  5
7AB6
  8
1
  6
CONTINUOUS
 10
5684.0689082106592
 20
4805.9456630000013
 30
0.0
 11
5834.0689082106592
 21
4805.9456630000013
 31
0.0
  0
LINE
  5
7AB7
  8
1
  6
CONTINUOUS
 10
5564.0689082106592
 20
5026.9456630000013
 30
0.0
 11
5724.0689082106592
 21
5026.9456630000013
 31
0.0
  0
LINE
  5
7AB8
  8
1
  6
CONTINUOUS
 10
5604.0689082106601
 20
4926.9456630000013
 30
0.0
 11
5684.0689082106592
 21
4926.9456630000013
 31
0.0
  0
LINE
  5
7AB9
  8
1
  6
CONTINUOUS
 10
5604.0689082106601
 20
4726.9456630000013
 30
0.0
 11
5684.0689082106592
 21
4726.9456630000013
 31
0.0
  0
LINE
  5
7ABA
  8
1
  6
CONTINUOUS
 10
5684.0689082106592
 20
4926.9456630000013
 30
0.0
 11
5684.0689082106592
 21
4726.9456630000013
 31
0.0
  0
LINE
  5
7ABB
  8
1
  6
CONTINUOUS
 10
5604.0689082106601
 20
4926.9456630000013
 30
0.0
 11
5604.0689082106601
 21
4726.9456630000013
 31
0.0
  0
LINE
  5
7ABC
  8
1
  6
CONTINUOUS
 10
3541.0111219999999
 20
7050.5309079999997
 30
0.0
 11
3141.0111219999999
 21
7050.5309079999997
 31
0.0
  0
LINE
  5
7ABD
  8
1
  6
CONTINUOUS
 10
3586.0111219999999
 20
7847.5309079999997
 30
0.0
 11
2352.7111220000002
 21
7847.5309079999997
 31
0.0
  0
LINE
  5
7ABE
  8
1
  6
CONTINUOUS
 10
3586.0111219999999
 20
7247.5309079999997
 30
0.0
 11
2352.7111220000002
 21
7247.5309079999997
 31
0.0
  0
LINE
  5
7ABF
  8
1
  6
CONTINUOUS
 10
3481.0111219999999
 20
7930.5309079999997
 30
0.0
 11
2601.0111219999999
 21
7930.5309079999997
 31
0.0
  0
LINE
  5
7AC0
  8
1
  6
CONTINUOUS
 10
2941.0111219999999
 20
7050.5309079999997
 30
0.0
 11
2168.511121999999
 21
7050.5309079999997
 31
0.0
  0
LINE
  5
7AC1
  8
1
  6
CONTINUOUS
 10
2641.0111219999999
 20
7900.5309079999997
 30
0.0
 11
1841.0111219999999
 21
7900.5309079999997
 31
0.0
  0
LINE
  5
7AC2
  8
1
  6
CONTINUOUS
 10
3241.011121999999
 20
6977.5309079999997
 30
0.0
 11
1908.511121999999
 21
6977.5309079999997
 31
0.0
  0
LINE
  5
7AC3
  8
1
  6
CONTINUOUS
 10
3241.011121999999
 20
7137.5309079999988
 30
0.0
 11
1908.511121999999
 21
7137.5309079999988
 31
0.0
  0
LINE
  5
7AC4
  8
1
  6
CONTINUOUS
 10
2008.511121999999
 20
7050.5309079999997
 30
0.0
 11
1841.0111219999999
 21
7050.5309079999997
 31
0.0
  0
LINE
  5
7AC5
  8
1
  6
CONTINUOUS
 10
1841.0111219999999
 20
7900.5309079999997
 30
0.0
 11
1841.0111219999999
 21
7050.5309079999997
 31
0.0
  0
LINE
  5
7AC6
  8
1
  6
CONTINUOUS
 10
2250.5111219999999
 20
7189.2309080000005
 30
0.0
 11
2250.5111219999999
 21
7674.2309080000005
 31
0.0
  0
LINE
  5
7AC7
  8
1
  6
CONTINUOUS
 10
1926.511121999999
 20
7189.2309080000005
 30
0.0
 11
1926.511121999999
 21
7674.2309080000005
 31
0.0
  0
LINE
  5
7AC8
  8
1
  6
CONTINUOUS
 10
1926.511121999999
 20
7189.2309080000005
 30
0.0
 11
2250.5111219999999
 21
7189.2309080000005
 31
0.0
  0
LINE
  5
7AC9
  8
1
  6
CONTINUOUS
 10
2168.511121999999
 20
7010.5309079999988
 30
0.0
 11
2008.511121999999
 21
7010.5309079999988
 31
0.0
  0
LINE
  5
7ACA
  8
1
  6
CONTINUOUS
 10
2168.511121999999
 20
7090.5309079999988
 30
0.0
 11
2008.511121999999
 21
7090.5309079999988
 31
0.0
  0
LINE
  5
7ACB
  8
1
  6
CONTINUOUS
 10
2109.5111219999999
 20
7090.5309079999988
 30
0.0
 11
2109.5111219999999
 21
7189.2309080000005
 31
0.0
  0
LINE
  5
7ACC
  8
1
  6
CONTINUOUS
 10
2067.511121999999
 20
7090.5309079999988
 30
0.0
 11
2067.511121999999
 21
7189.2309080000005
 31
0.0
  0
LINE
  5
7ACD
  8
1
  6
CONTINUOUS
 10
1908.511121999999
 20
6977.5309079999997
 30
0.0
 11
1908.511121999999
 21
7137.5309079999988
 31
0.0
  0
LINE
  5
7ACE
  8
1
  6
CONTINUOUS
 10
2008.511121999999
 20
7010.5309079999988
 30
0.0
 11
2008.511121999999
 21
7090.5309079999988
 31
0.0
  0
LINE
  5
7ACF
  8
1
  6
CONTINUOUS
 10
2168.511121999999
 20
7010.5309079999988
 30
0.0
 11
2168.511121999999
 21
7090.5309079999988
 31
0.0
  0
LINE
  5
7AD0
  8
1
  6
CONTINUOUS
 10
1926.511121999999
 20
7674.2309080000005
 30
0.0
 11
2250.5111219999999
 21
7674.2309080000005
 31
0.0
  0
LINE
  5
7AD1
  8
1
  6
CONTINUOUS
 10
2352.7111220000002
 20
7247.5309079999997
 30
0.0
 11
2352.7111220000002
 21
7847.5309079999997
 31
0.0
  0
LINE
  5
7AD2
  8
1
  6
CONTINUOUS
 10
2641.0111219999999
 20
7847.5309079999997
 30
0.0
 11
2641.0111219999999
 21
7930.5309079999997
 31
0.0
  0
LINE
  5
7AD3
  8
1
  6
CONTINUOUS
 10
3020.0111219999999
 20
7090.5309079999988
 30
0.0
 11
3020.0111219999999
 21
7247.5309079999997
 31
0.0
  0
LINE
  5
7AD4
  8
1
  6
CONTINUOUS
 10
3062.011121999999
 20
7090.5309079999988
 30
0.0
 11
3062.011121999999
 21
7247.5309079999997
 31
0.0
  0
LINE
  5
7AD5
  8
1
  6
CONTINUOUS
 10
3141.0111219999999
 20
7090.5309079999988
 30
0.0
 11
2941.0111219999999
 21
7090.5309079999988
 31
0.0
  0
LINE
  5
7AD6
  8
1
  6
CONTINUOUS
 10
3141.0111219999999
 20
7010.5309079999988
 30
0.0
 11
2941.0111219999999
 21
7010.5309079999988
 31
0.0
  0
LINE
  5
7AD7
  8
1
  6
CONTINUOUS
 10
2941.0111219999999
 20
7010.5309079999988
 30
0.0
 11
2941.0111219999999
 21
7090.5309079999988
 31
0.0
  0
LINE
  5
7AD8
  8
1
  6
CONTINUOUS
 10
3241.011121999999
 20
6977.5309079999997
 30
0.0
 11
3241.011121999999
 21
7137.5309079999988
 31
0.0
  0
LINE
  5
7AD9
  8
1
  6
CONTINUOUS
 10
3141.0111219999999
 20
7010.5309079999988
 30
0.0
 11
3141.0111219999999
 21
7090.5309079999988
 31
0.0
  0
LINE
  5
7ADA
  8
1
  6
CONTINUOUS
 10
3441.011121999999
 20
7847.5309079999997
 30
0.0
 11
3441.011121999999
 21
7930.5309079999997
 31
0.0
  0
LINE
  5
7ADB
  8
1
  6
CONTINUOUS
 10
3541.0111219999999
 20
7247.5309079999997
 30
0.0
 11
3541.0111219999999
 21
7050.5309079999997
 31
0.0
  0
LINE
  5
7ADC
  8
1
  6
CONTINUOUS
 10
3586.0111219999999
 20
7207.5309079999988
 30
0.0
 11
3586.0111219999999
 21
7887.5309079999988
 31
0.0
  0
LINE
  5
7ADD
  8
1
  6
CONTINUOUS
 10
3541.0111219999999
 20
7900.5309079999997
 30
0.0
 11
3441.011121999999
 21
7900.5309079999997
 31
0.0
  0
LINE
  5
7ADE
  8
1
  6
CONTINUOUS
 10
3541.0111219999999
 20
7900.5309079999997
 30
0.0
 11
3541.0111219999999
 21
7847.5309079999997
 31
0.0
  0
LINE
  5
7ADF
  8
1
  6
CONTINUOUS
 10
3546.0111219999999
 20
7247.5309079999997
 30
0.0
 11
3546.0111219999999
 21
7847.5309079999997
 31
0.0
  0
LINE
  5
7AE0
  8
1
  6
CONTINUOUS
 10
6434.0689082106592
 20
5304.9456630000013
 30
0.0
 11
6434.0689082106592
 21
3966.945663
 31
0.0
  0
LINE
  5
7AE1
  8
1
  6
CONTINUOUS
 10
6517.0689082106592
 20
5266.9456630000013
 30
0.0
 11
6517.0689082106592
 21
4386.9456630000004
 31
0.0
  0
LINE
  5
7AE2
  8
1
  6
CONTINUOUS
 10
6487.0689082106592
 20
3771.945663
 30
0.0
 11
6487.0689082106592
 21
3671.945663
 31
0.0
  0
LINE
  5
7AE3
  8
1
  6
CONTINUOUS
 10
6434.0689082106592
 20
4426.9456630000004
 30
0.0
 11
6517.0689082106592
 21
4426.9456630000004
 31
0.0
  0
LINE
  5
7AE4
  8
1
  6
CONTINUOUS
 10
6487.0689082106592
 20
3966.945663
 30
0.0
 11
6487.0689082106592
 21
3866.945663
 31
0.0
  0
LINE
  5
7AE5
  8
1
  6
CONTINUOUS
 10
6434.0689082106592
 20
5226.9456630000013
 30
0.0
 11
6517.0689082106592
 21
5226.9456630000013
 31
0.0
  0
DIMENSION
  5
7B2A
  8
3
  6
CONTINUOUS
  2
*D1
 10
3879.645051
 20
3978.945663
 30
0.0
 11
3879.645051
 21
4425.07395
 31
0.0
 70
   128
 13
3586.0111219999999
 23
4803.9456630000004
 33
0.0
 14
3586.0111219999999
 24
3978.945663
 34
0.0
 50
90.0
1001
ACAD
1000
DSTYLE
1002
{
1070
   287
1070
     3
1070
   287
1070
     3
1070
    40
1040
40.0
1070
   143
1040
0.039
1070
   172
1070
     1
1070
   271
1070
     0
1070
   279
1070
     0
1070
   288
1070
     1
1002
}
  0
DIMENSION
  5
7B37
  8
3
  6
CONTINUOUS
  2
*D2
 10
4146.707421000001
 20
4826.9456630000004
 30
0.0
 11
4146.7074210000001
 21
4431.1096070000003
 31
0.0
 70
   128
 13
3586.0111219999999
 23
3978.945663
 33
0.0
 14
3511.8033209999999
 24
4826.9456630000004
 34
0.0
 50
90.0
1001
ACAD
1000
DSTYLE
1002
{
1070
   287
1070
     3
1070
   287
1070
     3
1070
    40
1040
40.0
1070
   143
1040
0.039
1070
   172
1070
     1
1070
   271
1070
     0
1070
   279
1070
     0
1070
   288
1070
     1
1002
}
  0
DIMENSION
  5
7B44
  8
3
  6
CONTINUOUS
  2
*D3
 10
4382.3522110000013
 20
4826.9456630000004
 30
0.0
 11
4382.3522110000004
 21
5120.6599487142857
 31
0.0
 70
   128
 13
3041.0111219999999
 23
5394.9456630000013
 33
0.0
 14
3511.8033209999999
 24
4826.9456630000004
 34
0.0
 50
90.0
1001
ACAD
1000
DSTYLE
1002
{
1070
   287
1070
     3
1070
   287
1070
     3
1070
    40
1040
40.0
1070
   143
1040
0.039
1070
   172
1070
     1
1070
   271
1070
     0
1070
   279
1070
     0
1070
   288
1070
     1
1002
}
  0
DIMENSION
  5
7B50
  8
3
  6
CONTINUOUS
  2
*D4
 10
4382.3522110000004
 20
3866.945663
 30
0.0
 11
4282.3522109999994
 21
4346.9456630000022
 31
0.0
 70
     0
 13
3511.8033209999999
 23
4826.9456630000004
 33
0.0
 14
3541.0111219999999
 24
3866.945663
 34
0.0
 50
90.0
1001
ACAD
1000
DSTYLE
1002
{
1070
   287
1070
     4
1070
   287
1070
     4
1070
    40
1040
40.0
1070
    75
1070
     1
1070
   143
1040
0.039
1070
   172
1070
     1
1070
   271
1070
     0
1070
   279
1070
     1
1070
   288
1070
     1
1002
}
  0
DIMENSION
  5
7B94
  8
3
  6
CONTINUOUS
  2
*D5
 10
3041.0111219999999
 20
5526.5645619999987
 30
0.0
 11
2678.4591110000001
 21
5526.5645619999987
 31
0.0
 70
   128
 13
2355.0111219999999
 23
4826.9456630000004
 33
0.0
 14
3041.0111219999999
 24
5393.8440280000013
 34
0.0
1001
ACAD
1000
DSTYLE
1002
{
1070
   287
1070
     3
1070
   287
1070
     3
1070
    40
1040
40.0
1070
   143
1040
0.039
1070
   172
1070
     1
1070
   271
1070
     0
1070
   279
1070
     0
1070
   288
1070
     1
1002
}
  0
DIMENSION
  5
7BA2
  8
3
  6
CONTINUOUS
  2
*D6
 10
3586.0111219999999
 20
5526.5645619999987
 30
0.0
 11
3312.8874030000002
 21
5526.5645619999987
 31
0.0
 70
   128
 13
3041.0111219999999
 23
5393.8440280000013
 33
0.0
 14
3586.0111219999999
 24
4846.4456630000004
 34
0.0
1001
ACAD
1000
DSTYLE
1002
{
1070
   287
1070
     4
1070
   287
1070
     4
1070
    40
1040
40.0
1070
    75
1070
     1
1070
   143
1040
0.039
1070
   172
1070
     1
1070
   271
1070
     0
1070
   279
1070
     1
1070
   288
1070
     1
1002
}
  0
DIMENSION
  5
7BC5
  8
3
  6
CONTINUOUS
  2
*D7
 10
3541.0111219999999
 20
6597.2764179999986
 30
0.0
 11
2624.0795880000001
 21
6597.2764179999986
 31
0.0
 70
   128
 13
1841.0111219999999
 23
7050.5309079999997
 33
0.0
 14
3541.0111219999999
 24
7050.5309079999997
 34
0.0
1001
ACAD
1000
DSTYLE
1002
{
1070
   287
1070
     3
1070
   287
1070
     3
1070
    40
1040
40.0
1070
   143
1040
0.039
1070
   172
1070
     1
1070
   271
1070
     0
1070
   279
1070
     0
1070
   288
1070
     1
1002
}
  0
DIMENSION
  5
7BD2
  8
3
  6
CONTINUOUS
  2
*D8
 10
3905.0205100000012
 20
7050.5309079999997
 30
0.0
 11
3905.0205099999998
 21
7516.496576999999
 31
0.0
 70
   128
 13
3541.0111219999999
 23
7900.5309079999997
 33
0.0
 14
3541.0111219999999
 24
7050.5309079999997
 34
0.0
 50
90.0
1001
ACAD
1000
DSTYLE
1002
{
1070
   287
1070
     3
1070
   287
1070
     3
1070
    40
1040
40.0
1070
   143
1040
0.039
1070
   172
1070
     1
1070
   271
1070
     0
1070
   279
1070
     0
1070
   288
1070
     1
1002
}
  0
LINE
  5
7BD3
  8
2
  6
CENTER
 10
2129.1506709999999
 20
7547.5309079999997
 30
0.0
 11
3648.7802879999999
 21
7547.5309079999997
 31
0.0
  0
LINE
  5
7BD4
  8
2
  6
CENTER
 10
3041.0111219999999
 20
5432.3960530000013
 30
0.0
 11
3041.011121999999
 21
3671.945663
 31
0.0
  0
LINE
  5
7BD5
  8
2
  6
CENTER
 10
6134.0689082106592
 20
5344.8947189999999
 30
0.0
 11
6134.0689082106592
 21
3671.945663
 31
0.0
  0
DIMENSION
  5
7C15
  8
3
  6
CONTINUOUS
  2
*D9
 10
6434.0689082106592
 20
5458.9715859999997
 30
0.0
 11
6108.3546232106592
 21
5458.9715859999997
 31
0.0
 70
   128
 13
5834.0689082106592
 23
5304.9456630000013
 33
0.0
 14
6434.0689082106592
 24
5304.9456630000013
 34
0.0
1001
ACAD
1000
DSTYLE
1002
{
1070
   287
1070
     3
1070
   287
1070
     3
1070
    40
1040
40.0
1070
   143
1040
0.039
1070
   172
1070
     1
1070
   271
1070
     0
1070
   279
1070
     0
1070
   288
1070
     1
1002
}
  0
DIMENSION
  5
7C23
  8
3
  6
CONTINUOUS
  2
*D10
 10
6134.0689082106592
 20
5752.2423133327447
 30
0.0
 11
5849.0689082106592
 21
5960.1624106426534
 31
0.0
 12
-490.18479678934091
 22
0.0
 32
0.0
 70
   128
  1
MAX\P660
 13
5564.0689082106592
 23
5026.9456630000013
 33
0.0
 14
6134.0689082106592
 24
5625.4961445424424
 34
0.0
1001
ACAD
1000
DSTYLE
1002
{
1070
   288
1070
     1
1070
   172
1070
     1
1070
    40
1040
40.0
1070
   271
1070
     0
1070
   143
1040
0.039
1002
}
  0
DIMENSION
  5
7C31
  8
3
  6
CONTINUOUS
  2
*D11
 10
6517.0689082106592
 20
5752.2423133327447
 30
0.0
 11
6307.2182892106593
 21
5746.8071563327449
 31
0.0
 70
   128
 13
6134.0689082106592
 23
5625.4961445424424
 33
0.0
 14
6517.0689082106592
 24
5266.9456630000013
 34
0.0
1001
ACAD
1000
DSTYLE
1002
{
1070
   287
1070
     4
1070
   287
1070
     4
1070
    40
1040
40.0
1070
    75
1070
     1
1070
   143
1040
0.039
1070
   172
1070
     1
1070
   271
1070
     0
1070
   279
1070
     1
1070
   288
1070
     1
1002
}
  0
DIMENSION
  5
7C54
  8
3
  6
CONTINUOUS
  2
*D12
 10
6814.76093221066
 20
4426.9456630000004
 30
0.0
 11
6814.76093221066
 21
4773.2313772857151
 31
0.0
 70
   128
 13
6517.0689082106592
 23
5226.9456630000013
 33
0.0
 14
6517.0689082106592
 24
4426.9456630000004
 34
0.0
 50
90.0
1001
ACAD
1000
DSTYLE
1002
{
1070
   287
1070
     3
1070
   287
1070
     3
1070
     3
1000
φ<>
1070
    40
1040
40.0
1070
   143
1040
0.039
1070
   172
1070
     1
1070
   271
1070
     0
1070
   279
1070
     0
1070
   288
1070
     1
1002
}
  0
LINE
  5
7C56
  8
2
  6
CENTER
 10
5484.8793132106593
 20
4826.9456630000004
 30
0.0
 11
6586.6948122106587
 21
4826.9456630000004
 31
0.0
  0
LINE
  5
7C57
  8
4
  6
CONTINUOUS
 10
7400.0
 20
2000.0
 30
0.0
 11
7400.0
 21
1200.0
 31
0.0
  0
LINE
  5
7C58
  8
4
  6
CONTINUOUS
 10
4600.0
 20
2000.0
 30
0.0
 11
4600.0
 21
1200.0
 31
0.0
  0
LINE
  5
7C59
  8
4
  6
CONTINUOUS
 10
2600.0
 20
2000.0
 30
0.0
 11
2600.0
 21
1200.0
 31
0.0
  0
LINE
  5
7C5C
  8
4
  6
CONTINUOUS
 10
2600.0
 20
1200.0
 30
0.0
 11
7400.0
 21
1200.0
 31
0.0
  0
LINE
  5
7C5D
  8
4
  6
CONTINUOUS
 10
2600.0
 20
1600.0
 30
0.0
 11
7400.0
 21
1600.0
 31
0.0
  0
TEXT
  5
7C5E
  8
4
  6
CONTINUOUS
 10
2754.008323
 20
1726.1721030000001
 30
0.0
 40
200.0
  1
機器名称
  0
TEXT
  5
7C5F
  8
4
  6
CONTINUOUS
 10
2745.032424
 20
1286.580627
 30
0.0
 40
200.0
  1
機器型番
  0
TEXT
  5
7C60
  8
4
  6
CONTINUOUS
 10
4710.7149820000004
 20
1690.2870760000001
 30
0.0
 40
160.0
  1
ミツヤリミットロードファン
  0
TEXT
  5
7C61
  8
4
  6
CONTINUOUS
 10
4746.6179819999998
 20
1268.6383370000001
 30
0.0
 40
200.0
  1
LLE#5-4
  0
TEXT
  5
7C63
  8
4
  6
CONTINUOUS
 10
2957.8692070000002
 20
9533.715365
 30
0.0
 40
216.0
  1
床置防振ベット
  0
TEXT
  5
7C64
  8
4
  6
CONTINUOUS
 10
1264.6703729999999
 20
10135.523905
 30
0.0
 40
240.0
  1
ベルト駆動式片吸込両持排煙ファン
  0
LINE
  5
7C65
  8
4
  6
CONTINUOUS
 10
1000.0
 20
9877.6350170000005
 30
0.0
 11
7400.0
 21
9877.6350170000005
 31
0.0
  0
LINE
  5
7C66
  8
4
  6
CONTINUOUS
 10
1000.0
 20
10677.635017000001
 30
0.0
 11
7400.0
 21
10677.635017000001
 31
0.0
  0
LINE
  5
7C67
  8
4
  6
CONTINUOUS
 10
2600.0
 20
2000.0
 30
0.0
 11
7400.0
 21
2000.0
 31
0.0
  0
LINE
  5
7C68
  8
4
  6
CONTINUOUS
 10
1000.0
 20
10677.635017000001
 30
0.0
 11
1000.0
 21
9877.6350170000005
 31
0.0
  0
TEXT
  5
7C69
  8
4
  6
CONTINUOUS
 10
1214.4338779999989
 20
9529.2779099999989
 30
0.0
 40
216.0
  1
左回転右横向
  0
TEXT
  5
7C6A
  8
4
  6
CONTINUOUS
 10
5875.8782369999999
 20
10824.244326
 30
0.0
 40
224.0
  1
No.
  0
TEXT
  5
7C6B
  8
4
  6
CONTINUOUS
 10
5245.1842500000012
 20
9533.715365
 30
0.0
 40
216.0
  1
縮尺：1/40
  0
LINE
  5
7C6C
  8
4
  6
CONTINUOUS
 10
7400.0
 20
10677.635017000001
 30
0.0
 11
7400.0
 21
9877.6350170000005
 31
0.0
  0
LINE
  5
7C6E
  8
4
  6
CONTINUOUS
 10
5762.4696889999996
 20
10725.054333
 30
0.0
 11
5762.4696889999996
 21
11146.609046
 31
0.0
  0
LINE
  5
7C6F
  8
4
  6
CONTINUOUS
 10
5762.4696889999996
 20
11146.609046
 30
0.0
 11
7400.0
 21
11146.609046
 31
0.0
  0
LINE
  5
7C70
  8
4
  6
CONTINUOUS
 10
7400.0
 20
11146.609046
 30
0.0
 11
7400.0
 21
10725.054333
 31
0.0
  0
LINE
  5
7C71
  8
4
  6
CONTINUOUS
 10
7400.0
 20
10725.054333
 30
0.0
 11
5762.4696889999996
 21
10725.054333
 31
0.0
  0
DIMENSION
  5
7D33
  8
3
  2
*D13
 10
1841.0111219999999
 20
5776.4948015116934
 30
0.0
 11
2645.8736570572
 21
5776.4948015116934
 31
0.0
 70
   128
 13
3586.0111219999999
 23
4846.4456630000004
 33
0.0
 14
1841.0111219999999
 24
3966.945663
 34
0.0
1001
ACAD
1000
DSTYLE
1002
{
1070
   287
1070
     3
1070
   287
1070
     3
1070
    40
1040
40.0
1070
   143
1040
0.039
1070
   172
1070
     1
1070
   271
1070
     0
1070
   279
1070
     0
1070
   288
1070
     1
1002
}
  0
DIMENSION
  5
7D6F
  8
3
  2
*D14
 10
3041.011121999999
 20
3388.1368076438589
 30
0.0
 11
2441.0111219999999
 21
3488.1368076438598
 31
0.0
 70
     0
 13
1841.0111219999999
 23
3671.945663
 33
0.0
 14
3041.011121999999
 24
3671.945663
 34
0.0
1001
ACAD
1000
DSTYLE
1002
{
1070
   287
1070
     3
1070
   287
1070
     3
1070
    40
1040
40.0
1070
   143
1040
0.039
1070
   172
1070
     1
1070
   271
1070
     0
1070
   279
1070
     0
1002
}
  0
DIMENSION
  5
7D7E
  8
3
  2
*D15
 10
3541.0111219999999
 20
3388.1368076438589
 30
0.0
 11
3291.0111219999999
 21
3488.1368076438598
 31
0.0
 70
     0
 13
3041.011121999999
 23
3671.945663
 33
0.0
 14
3541.0111219999999
 24
3671.945663
 34
0.0
1001
ACAD
1000
DSTYLE
1002
{
1070
   287
1070
     3
1070
   287
1070
     3
1070
    40
1040
40.0
1070
   143
1040
0.039
1070
   172
1070
     1
1070
   271
1070
     0
1070
   279
1070
     0
1002
}
  0
DIMENSION
  5
7D8D
  8
3
  2
*D16
 10
6134.0689082106592
 20
3388.1368076438589
 30
0.0
 11
5885.5689082106592
 21
3488.1368076438598
 31
0.0
 70
     0
 13
5637.0689082106592
 23
3671.945663
 33
0.0
 14
6134.0689082106592
 24
3671.945663
 34
0.0
1001
ACAD
1000
DSTYLE
1002
{
1070
   287
1070
     3
1070
   287
1070
     3
1070
    40
1040
40.0
1070
   143
1040
0.039
1070
   172
1070
     1
1070
   271
1070
     0
1070
   279
1070
     0
1002
}
  0
DIMENSION
  5
7D9B
  8
3
  2
*D17
 10
6487.0689082106592
 20
3388.1368076438589
 30
0.0
 11
6761.3546224963738
 21
3488.1368076438598
 31
0.0
 70
     0
 13
6134.0689082106592
 23
3671.945663
 33
0.0
 14
6487.0689082106592
 24
3671.945663
 34
0.0
1001
ACAD
1000
DSTYLE
1002
{
1070
   287
1070
     3
1070
   287
1070
     3
1070
    40
1040
40.0
1070
   143
1040
0.039
1070
   172
1070
     1
1070
   271
1070
     0
1070
   279
1070
     0
1002
}
  0
DIMENSION
  5
7DB2
  8
3
  2
*D19
 10
4380.0247362329465
 20
3671.945663
 30
0.0
 11
4280.0247362329446
 21
3329.0885201428582
 31
0.0
 70
     0
 13
3541.0111219999999
 23
3771.945663
 33
0.0
 14
3541.0111219999999
 24
3671.945663
 34
0.0
 50
90.0
1001
ACAD
1000
DSTYLE
1002
{
1070
   287
1070
     3
1070
   287
1070
     3
1070
    40
1040
40.0
1070
   143
1040
0.039
1070
   172
1070
     1
1070
   271
1070
     0
1070
   279
1070
     0
1070
     6
1000
DOT
1002
}
  0
DIMENSION
  5
7DC1
  8
3
  2
*D20
 10
4380.0247362329465
 20
3866.945663
 30
0.0
 11
4571.453307661518
 21
3819.445663
 31
0.0
 70
     0
 13
3541.0111219999999
 23
3771.945663
 33
0.0
 14
3541.0111219999999
 24
3866.945663
 34
0.0
 50
90.0
1001
ACAD
1000
DSTYLE
1002
{
1070
   172
1070
     1
1070
    40
1040
40.0
1070
     3
1000
(<>)
1070
   271
1070
     0
1070
     6
1000
_DOT
1070
   143
1040
0.039
1002
}
  0
DIMENSION
  5
7DCE
  8
3
  2
*D21
 10
4766.8712365528263
 20
3671.945663
 30
0.0
 11
4635.4426651242538
 21
4533.4456630000013
 31
0.0
 70
     0
 13
3061.0111219999999
 23
5394.9456630000013
 33
0.0
 14
3541.0111219999999
 24
3671.945663
 34
0.0
 50
90.0
1001
ACAD
1000
DSTYLE
1002
{
1070
   287
1070
     3
1070
   287
1070
     3
1070
     3
1000
(<>)
1070
    40
1040
40.0
1070
   143
1040
0.039
1070
   172
1070
     1
1070
   271
1070
     0
1070
   279
1070
     0
1002
}
  0
ENDSEC
  0
EOF
