  0
SECTION
  2
HEADER
  9
$ACADVER
  1
AC1009
  9
$INSBASE
 10
0.0
 20
0.0
 30
0.0
  9
$EXTMIN
 10
-3377.6569140000001
 20
-10169.61743199999
 30
0.0
  9
$EXTMAX
 10
3022.3430859999999
 20
-223.00838599999989
 30
0.0
  9
$LIMMIN
 10
0.0
 20
0.0
  9
$LIMMAX
 10
297.0
 20
210.0
  9
$ORTHOMODE
 70
     0
  9
$REGENMODE
 70
     1
  9
$FILLMODE
 70
     0
  9
$QTEXTMODE
 70
     0
  9
$MIRRTEXT
 70
     1
  9
$DRAGMODE
 70
     2
  9
$LTSCALE
 40
100.0
  9
$OSMODE
 70
    37
  9
$ATTMODE
 70
     1
  9
$TEXTSIZE
 40
180.0
  9
$TRACEWID
 40
0.05
  9
$TEXTSTYLE
  7
STANDARD
  9
$CLAYER
  8
3
  9
$CELTYPE
  6
BYLAYER
  9
$CECOLOR
 62
   256
  9
$DIMSCALE
 40
40.0
  9
$DIMASZ
 40
2.0
  9
$DIMEXO
 40
0.5
  9
$DIMDLI
 40
10.0
  9
$DIMRND
 40
0.0
  9
$DIMDLE
 40
0.0
  9
$DIMEXE
 40
1.0
  9
$DIMTP
 40
1.0
  9
$DIMTM
 40
1.0
  9
$DIMTXT
 40
3.0
  9
$DIMCEN
 40
0.0
  9
$DIMTSZ
 40
0.0
  9
$DIMTOL
 70
     0
  9
$DIMLIM
 70
     0
  9
$DIMTIH
 70
     0
  9
$DIMTOH
 70
     0
  9
$DIMSE1
 70
     0
  9
$DIMSE2
 70
     0
  9
$DIMTAD
 70
     1
  9
$DIMZIN
 70
     8
  9
$DIMBLK
  1

  9
$DIMASO
 70
     1
  9
$DIMSHO
 70
     1
  9
$DIMPOST
  1
(<>)
  9
$DIMAPOST
  1

  9
$DIMALT
 70
     0
  9
$DIMALTD
 70
     2
  9
$DIMALTF
 40
0.039
  9
$DIMLFAC
 40
1.0
  9
$DIMTOFL
 70
     1
  9
$DIMTVP
 40
0.0
  9
$DIMTIX
 70
     0
  9
$DIMSOXD
 70
     0
  9
$DIMSAH
 70
     1
  9
$DIMBLK1
  1
OPEN
  9
$DIMBLK2
  1
OPEN
  9
$DIMSTYLE
  2
IGA
  9
$DIMCLRD
 70
     0
  9
$DIMCLRE
 70
     0
  9
$DIMCLRT
 70
     0
  9
$DIMTFAC
 40
10.0
  9
$DIMGAP
 40
1.0
  9
$LUNITS
 70
     2
  9
$LUPREC
 70
     3
  9
$SKETCHINC
 40
0.1
  9
$FILLETRAD
 40
50.0
  9
$AUNITS
 70
     0
  9
$AUPREC
 70
     0
  9
$MENU
  1
acad
  9
$ELEVATION
 40
0.0
  9
$PELEVATION
 40
0.0
  9
$THICKNESS
 40
0.0
  9
$LIMCHECK
 70
     0
  9
$BLIPMODE
 70
     0
  9
$CHAMFERA
 40
0.5
  9
$CHAMFERB
 40
0.5
  9
$SKPOLY
 70
     0
  9
$TDCREATE
 40
2450752.686358796
  9
$TDUPDATE
 40
2454953.685303275
  9
$TDINDWG
 40
0.0148332523
  9
$TDUSRTIMER
 40
0.0148332523
  9
$USRTIMER
 70
     1
  9
$ANGBASE
 50
0.0
  9
$ANGDIR
 70
     0
  9
$PDMODE
 70
     0
  9
$PDSIZE
 40
0.0
  9
$PLINEWID
 40
0.0
  9
$COORDS
 70
     1
  9
$SPLFRAME
 70
     0
  9
$SPLINETYPE
 70
     6
  9
$SPLINESEGS
 70
     8
  9
$ATTDIA
 70
     0
  9
$ATTREQ
 70
     1
  9
$HANDLING
 70
 10241
  9
$HANDSEED
  5
7F05
  9
$SURFTAB1
 70
     6
  9
$SURFTAB2
 70
     6
  9
$SURFTYPE
 70
     6
  9
$SURFU
 70
     6
  9
$SURFV
 70
     6
  9
$UCSNAME
  2

  9
$UCSORG
 10
0.0
 20
0.0
 30
0.0
  9
$UCSXDIR
 10
1.0
 20
0.0
 30
0.0
  9
$UCSYDIR
 10
0.0
 20
1.0
 30
0.0
  9
$PUCSNAME
  2

  9
$PUCSORG
 10
0.0
 20
0.0
 30
0.0
  9
$PUCSXDIR
 10
1.0
 20
0.0
 30
0.0
  9
$PUCSYDIR
 10
0.0
 20
1.0
 30
0.0
  9
$USERI1
 70
     0
  9
$USERI2
 70
     0
  9
$USERI3
 70
     0
  9
$USERI4
 70
     0
  9
$USERI5
 70
     0
  9
$USERR1
 40
0.0
  9
$USERR2
 40
0.0
  9
$USERR3
 40
0.0
  9
$USERR4
 40
0.0
  9
$USERR5
 40
0.0
  9
$WORLDVIEW
 70
     1
  9
$SHADEDGE
 70
     3
  9
$SHADEDIF
 70
    70
  9
$TILEMODE
 70
     1
  9
$MAXACTVP
 70
    16
  9
$PLIMCHECK
 70
     0
  9
$PEXTMIN
 10
1.0000000000000000E+020
 20
1.0000000000000000E+020
 30
1.0000000000000000E+020
  9
$PEXTMAX
 10
-1.0000000000000000E+020
 20
-1.0000000000000000E+020
 30
-1.0000000000000000E+020
  9
$PLIMMIN
 10
0.0
 20
0.0
  9
$PLIMMAX
 10
12.0
 20
9.0
  9
$UNITMODE
 70
     0
  9
$VISRETAIN
 70
     0
  9
$PLINEGEN
 70
     0
  9
$PSLTSCALE
 70
     1
  0
ENDSEC
  0
SECTION
  2
TABLES
  0
TABLE
  2
VPORT
 70
     2
  0
VPORT
  2
*ACTIVE
 70
     0
 10
0.0
 20
0.0
 11
1.0
 21
1.0
 12
14676.69626768116
 22
-5359.4387830957721
 13
0.0
 23
0.0
 14
10.0
 24
10.0
 15
10.0
 25
10.0
 16
0.0
 26
0.0
 36
1.0
 17
0.0
 27
0.0
 37
0.0
 40
15970.847035556009
 41
3.1666666666666661
 42
50.0
 43
0.0
 44
0.0
 50
0.0
 51
0.0
 71
     0
 72
   100
 73
     1
 74
     0
 75
     0
 76
     0
 77
     0
 78
     0
  0
ENDTAB
  0
TABLE
  2
LTYPE
 70
     2
  0
LTYPE
  2
CONTINUOUS
 70
     0
  3
Solid line
 72
    65
 73
     0
 40
0.0
  0
LTYPE
  2
CENTER
 70
     0
  3
____ _ ____ _ ____ _ ____ _ ____ _ ____ _ ____ 
 72
    65
 73
     4
 40
2.0
 49
1.25
 49
-0.25
 49
0.25
 49
-0.25
  0
ENDTAB
  0
TABLE
  2
LAYER
 70
     6
  0
LAYER
  2
0
 70
     0
 62
     7
  6
CONTINUOUS
  0
LAYER
  2
3
 70
     0
 62
     2
  6
CONTINUOUS
  0
LAYER
  2
2
 70
     0
 62
     3
  6
CENTER
  0
LAYER
  2
1
 70
     0
 62
     4
  6
CONTINUOUS
  0
LAYER
  2
4
 70
     0
 62
     7
  6
CONTINUOUS
  0
LAYER
  2
DEFPOINTS
 70
     0
 62
     7
  6
CONTINUOUS
  0
ENDTAB
  0
TABLE
  2
STYLE
 70
     1
  0
STYLE
  2
STANDARD
 70
     0
 40
0.0
 41
1.0
 50
0.0
 71
     0
 42
180.0
  3
simplex.shx
  4
extfont.shx
  0
ENDTAB
  0
TABLE
  2
VIEW
 70
     0
  0
ENDTAB
  0
TABLE
  2
UCS
 70
     0
  0
ENDTAB
  0
TABLE
  2
APPID
 70
     1
  0
APPID
  2
ACAD
 70
     0
  0
ENDTAB
  0
TABLE
  2
DIMSTYLE
 70
     1
  0
DIMSTYLE
  2
IGA
 70
     0
  3

  4

  5

  6
OPEN
  7
OPEN
 40
2.0
 41
2.0
 42
0.5
 43
10.0
 44
1.0
 45
0.0
 46
0.0
 47
1.0
 48
1.0
140
3.0
141
0.0
142
0.0
143
0.03937
144
1.0
145
0.0
146
10.0
147
1.0
 71
     0
 72
     0
 73
     0
 74
     0
 75
     0
 76
     0
 77
     1
 78
     8
170
     0
171
     2
172
     0
173
     1
174
     0
175
     0
176
     0
177
     0
178
     0
  0
ENDTAB
  0
ENDSEC
  0
SECTION
  2
BLOCKS
  0
BLOCK
  8
0
  2
$MODEL_SPACE
 70
     0
 10
0.0
 20
0.0
 30
0.0
  3
$MODEL_SPACE
  1

  0
ENDBLK
  5
1B
  8
0
  0
BLOCK
 67
     1
  8
0
  2
$PAPER_SPACE
 70
     0
 10
0.0
 20
0.0
 30
0.0
  3
$PAPER_SPACE
  1

  0
ENDBLK
  5
18
 67
     1
  8
0
  0
BLOCK
  8
0
  2
_OPEN
 70
     0
 10
0.0
 20
0.0
 30
0.0
  3
_OPEN
  1

  0
LINE
  5
7AE2
  8
0
  6
BYBLOCK
 62
     0
 10
-1.0
 20
0.166667
 30
0.0
 11
0.0
 21
0.0
 31
0.0
  0
LINE
  5
7AE3
  8
0
  6
BYBLOCK
 62
     0
 10
0.0
 20
0.0
 30
0.0
 11
-1.0
 21
-0.166667
 31
0.0
  0
LINE
  5
7AE4
  8
0
  6
BYBLOCK
 62
     0
 10
0.0
 20
0.0
 30
0.0
 11
-1.0
 21
0.0
 31
0.0
  0
ENDBLK
  5
7AE5
  8
0
  0
BLOCK
  8
0
  2
*D1
 70
     1
 10
0.0
 20
0.0
 30
0.0
  3
*D1
  1

  0
LINE
  5
7E5B
  8
3
  6
CONTINUOUS
 62
     0
 10
-2137.2093100000002
 20
-5929.9126889999998
 30
0.0
 11
-2369.9751190000011
 21
-5929.9126889999998
 31
0.0
  0
LINE
  5
7E5C
  8
3
  6
CONTINUOUS
 62
     0
 10
-2137.2093100000002
 20
-6754.9126889999998
 30
0.0
 11
-2369.9751190000011
 21
-6754.9126889999998
 31
0.0
  0
LINE
  5
7E5D
  8
3
  6
CONTINUOUS
 62
     0
 10
-2329.9751190000011
 20
-6009.9126889999998
 30
0.0
 11
-2329.9751190000011
 21
-6674.9126889999998
 31
0.0
  0
INSERT
  5
7E5E
  8
3
  6
CONTINUOUS
 62
     0
  2
_OPEN
 10
-2329.9751190000011
 20
-5929.9126889999998
 30
0.0
 41
80.0
 42
80.0
 43
80.0
 50
90.0
  0
INSERT
  5
7E5F
  8
3
  6
CONTINUOUS
 62
     0
  2
_OPEN
 10
-2329.9751190000011
 20
-6754.9126889999998
 30
0.0
 41
80.0
 42
80.0
 43
80.0
 50
270.0
  0
TEXT
  8
3
  40
120
  5
7EF5
  62
0
  72
0
  71
0
 10
-2669.98
 20
-6517.36
 30
0.000000
  1
825
  0
POINT
  5
7E61
  8
DEFPOINTS
  6
CONTINUOUS
 62
     0
 10
-2117.2093100000002
 20
-5929.9126889999998
 30
0.0
  0
POINT
  5
7E62
  8
DEFPOINTS
  6
CONTINUOUS
 62
     0
 10
-2117.2093100000002
 20
-6754.9126889999998
 30
0.0
  0
POINT
  5
7E63
  8
DEFPOINTS
  6
CONTINUOUS
 62
     0
 10
-2329.9751190000011
 20
-6754.9126889999998
 30
0.0
  0
ENDBLK
  5
7B0D
  8
0
  0
BLOCK
  8
0
  2
*D2
 70
     1
 10
0.0
 20
0.0
 30
0.0
  3
*D2
  1

  0
LINE
  5
7E64
  8
3
  6
CONTINUOUS
 62
     0
 10
-2137.2093100000002
 20
-5929.9126889999998
 30
0.0
 11
-2567.2703850000012
 21
-5929.9126889999998
 31
0.0
  0
LINE
  5
7E65
  8
3
  6
CONTINUOUS
 62
     0
 10
-2063.0015089999988
 20
-6777.912688999998
 30
0.0
 11
-2567.2703850000012
 21
-6777.912688999998
 31
0.0
  0
LINE
  5
7E66
  8
3
  6
CONTINUOUS
 62
     0
 10
-2527.2703850000012
 20
-6009.9126889999998
 30
0.0
 11
-2527.2703850000012
 21
-6697.912688999998
 31
0.0
  0
INSERT
  5
7E67
  8
3
  6
CONTINUOUS
 62
     0
  2
_OPEN
 10
-2527.2703850000012
 20
-5929.9126889999998
 30
0.0
 41
80.0
 42
80.0
 43
80.0
 50
90.0
  0
INSERT
  5
7E68
  8
3
  6
CONTINUOUS
 62
     0
  2
_OPEN
 10
-2527.2703850000012
 20
-6777.912688999998
 30
0.0
 41
80.0
 42
80.0
 43
80.0
 50
270.0
  0
TEXT
  8
3
  40
120
  5
7EF6
  62
0
  72
0
  71
0
 10
-2867.27
 20
-6535.84
 30
0.000000
  1
848
  0
POINT
  5
7E6A
  8
DEFPOINTS
  6
CONTINUOUS
 62
     0
 10
-2117.2093100000002
 20
-5929.9126889999998
 30
0.0
  0
POINT
  5
7E6B
  8
DEFPOINTS
  6
CONTINUOUS
 62
     0
 10
-2043.0015089999999
 20
-6777.9126889999998
 30
0.0
  0
POINT
  5
7E6C
  8
DEFPOINTS
  6
CONTINUOUS
 62
     0
 10
-2527.2703850000012
 20
-6777.912688999998
 30
0.0
  0
ENDBLK
  5
7B1A
  8
0
  0
BLOCK
  8
0
  2
*D3
 70
     1
 10
0.0
 20
0.0
 30
0.0
  3
*D3
  1

  0
LINE
  5
7E6D
  8
3
  6
CONTINUOUS
 62
     0
 10
-2092.2093100000002
 20
-7367.9126889999998
 30
0.0
 11
-2567.2703849999998
 21
-7367.9126889999998
 31
0.0
  0
LINE
  5
7E6E
  8
3
  6
CONTINUOUS
 62
     0
 10
-2527.2703849999998
 20
-6857.9126889999989
 30
0.0
 11
-2527.2703849999998
 21
-7287.9126889999989
 31
0.0
  0
INSERT
  5
7E6F
  8
3
  6
CONTINUOUS
 62
     0
  2
_OPEN
 10
-2527.2703849999998
 20
-6777.912688999998
 30
0.0
 41
80.0
 42
80.0
 43
80.0
 50
90.0
  0
INSERT
  5
7E70
  8
3
  6
CONTINUOUS
 62
     0
  2
_OPEN
 10
-2527.2703849999998
 20
-7367.9126889999998
 30
0.0
 41
80.0
 42
80.0
 43
80.0
 50
270.0
  0
TEXT
  8
3
  40
120
  5
7EF7
  62
0
  72
0
  71
0
 10
-2867.27
 20
-7285.31
 30
0.000000
  1
590
  0
POINT
  5
7E72
  8
DEFPOINTS
  6
CONTINUOUS
 62
     0
 10
-2043.0015089999999
 20
-6777.9126889999998
 30
0.0
  0
POINT
  5
7E73
  8
DEFPOINTS
  6
CONTINUOUS
 62
     0
 10
-2072.2093100000002
 20
-7367.9126889999998
 30
0.0
  0
POINT
  5
7E74
  8
DEFPOINTS
  6
CONTINUOUS
 62
     0
 10
-2527.2703849999998
 20
-7367.9126889999998
 30
0.0
  0
ENDBLK
  5
7B26
  8
0
  0
BLOCK
  8
0
  2
*D4
 70
     1
 10
0.0
 20
0.0
 30
0.0
  3
*D4
  1

  0
LINE
  5
7C87
  8
0
  6
BYBLOCK
 62
     0
 10
-2117.2093100000002
 20
-5867.4126889999998
 30
0.0
 11
-2117.2093100000002
 21
-5698.352457
 31
0.0
  0
LINE
  5
7C88
  8
0
  6
BYBLOCK
 62
     0
 10
-1572.20931
 20
-5953.9126889999998
 30
0.0
 11
-1572.20931
 21
-5698.352457
 31
0.0
  0
LINE
  5
7C89
  8
0
  6
BYBLOCK
 62
     0
 10
-2037.20931
 20
-5738.352457
 30
0.0
 11
-1652.209309999999
 21
-5738.352457
 31
0.0
  0
TEXT
  5
7C8A
  8
3
 62
     0
 10
-1998.995024285714
 20
-5674.8785712604731
 30
0.0
 40
120.0
  1
545
  0
INSERT
  5
7C8B
  8
0
  6
BYBLOCK
 62
     0
  2
_OPEN
 10
-2117.2093100000002
 20
-5738.352457
 30
0.0
 41
80.0
 42
80.0
 43
80.0
 50
180.0
  0
INSERT
  5
7C8C
  8
0
  6
BYBLOCK
 62
     0
  2
_OPEN
 10
-1572.20931
 20
-5738.352457
 30
0.0
 41
80.0
 42
80.0
 43
80.0
  0
POINT
  5
7C8D
  8
DEFPOINTS
  6
BYBLOCK
 62
     0
 10
-2117.2093100000002
 20
-5887.4126889999998
 30
0.0
  0
POINT
  5
7C8E
  8
DEFPOINTS
  6
BYBLOCK
 62
     0
 10
-1572.20931
 20
-5973.9126889999998
 30
0.0
  0
POINT
  5
7C8F
  8
DEFPOINTS
  6
BYBLOCK
 62
     0
 10
-1572.20931
 20
-5738.352457
 30
0.0
  0
ENDBLK
  5
7C90
  8
0
  0
BLOCK
  8
0
  2
*D5
 70
     1
 10
0.0
 20
0.0
 30
0.0
  3
*D5
  1

  0
LINE
  5
7E75
  8
3
  6
CONTINUOUS
 62
     0
 10
-886.20930999999985
 20
-6757.9126889999998
 30
0.0
 11
-886.20930999999985
 21
-5698.352457
 31
0.0
  0
LINE
  5
7E76
  8
3
  6
CONTINUOUS
 62
     0
 10
-1492.209309999999
 20
-5738.352457
 30
0.0
 11
-966.20930999999985
 21
-5738.352457
 31
0.0
  0
INSERT
  5
7E77
  8
3
  6
CONTINUOUS
 62
     0
  2
_OPEN
 10
-1572.20931
 20
-5738.352457
 30
0.0
 41
80.0
 42
80.0
 43
80.0
 50
180.0
  0
INSERT
  5
7E78
  8
3
  6
CONTINUOUS
 62
     0
  2
_OPEN
 10
-886.20930999999985
 20
-5738.352457
 30
0.0
 41
80.0
 42
80.0
 43
80.0
  0
TEXT
  8
3
  40
120
  5
7EF8
  62
0
  72
0
  71
0
 10
-1469.21
 20
-5850.75
 30
0.000000
  1
686
  0
POINT
  5
7E7A
  8
DEFPOINTS
  6
CONTINUOUS
 62
     0
 10
-1572.20931
 20
-5973.9126889999998
 30
0.0
  0
POINT
  5
7E7B
  8
DEFPOINTS
  6
CONTINUOUS
 62
     0
 10
-886.20930999999985
 20
-6777.9126889999998
 30
0.0
  0
POINT
  5
7E7C
  8
DEFPOINTS
  6
CONTINUOUS
 62
     0
 10
-886.20930999999985
 20
-5738.352457
 30
0.0
  0
ENDBLK
  5
7CEC
  8
0
  0
BLOCK
  8
0
  2
*D6
 70
     1
 10
0.0
 20
0.0
 30
0.0
  3
*D6
  1

  0
LINE
  5
7E7D
  8
3
  6
CONTINUOUS
 62
     0
 10
-2072.2093100000002
 20
-4025.0757159999989
 30
0.0
 11
-2072.2093100000002
 21
-4510.8768630000004
 31
0.0
  0
LINE
  5
7E7E
  8
3
  6
CONTINUOUS
 62
     0
 10
-372.20931000000002
 20
-4025.0757159999989
 30
0.0
 11
-372.20931000000002
 21
-4510.8768630000004
 31
0.0
  0
LINE
  5
7E7F
  8
3
  6
CONTINUOUS
 62
     0
 10
-1992.20931
 20
-4470.8768629999986
 30
0.0
 11
-452.20931000000007
 21
-4470.8768629999986
 31
0.0
  0
INSERT
  5
7E80
  8
3
  6
CONTINUOUS
 62
     0
  2
_OPEN
 10
-2072.2093100000002
 20
-4470.8768629999986
 30
0.0
 41
80.0
 42
80.0
 43
80.0
 50
180.0
  0
INSERT
  5
7E81
  8
3
  6
CONTINUOUS
 62
     0
  2
_OPEN
 10
-372.20931000000002
 20
-4470.8768629999986
 30
0.0
 41
80.0
 42
80.0
 43
80.0
  0
TEXT
  8
3
  40
120
  5
7EF9
  62
0
  72
0
  71
0
 10
-1454.02
 20
-4583.28
 30
0.000000
  1
1700
  0
POINT
  5
7E83
  8
DEFPOINTS
  6
CONTINUOUS
 62
     0
 10
-2072.2093100000002
 20
-4005.0757159999989
 30
0.0
  0
POINT
  5
7E84
  8
DEFPOINTS
  6
CONTINUOUS
 62
     0
 10
-372.20931000000002
 20
-4005.0757159999989
 30
0.0
  0
POINT
  5
7E85
  8
DEFPOINTS
  6
CONTINUOUS
 62
     0
 10
-372.20931000000002
 20
-4470.8768629999986
 30
0.0
  0
ENDBLK
  5
7B85
  8
0
  0
BLOCK
  8
0
  2
*D7
 70
     1
 10
0.0
 20
0.0
 30
0.0
  3
*D7
  1

  0
LINE
  5
7E86
  8
3
  6
CONTINUOUS
 62
     0
 10
-352.20931000000002
 20
-3155.0757159999998
 30
0.0
 11
22.078836999999488
 21
-3155.0757159999998
 31
0.0
  0
LINE
  5
7E87
  8
3
  6
CONTINUOUS
 62
     0
 10
-352.20931000000002
 20
-4005.0757159999989
 30
0.0
 11
22.0788369999993
 21
-4005.0757159999989
 31
0.0
  0
LINE
  5
7E88
  8
3
  6
CONTINUOUS
 62
     0
 10
-17.921163000000501
 20
-3235.0757159999998
 30
0.0
 11
-17.92116300000065
 21
-3925.0757159999998
 31
0.0
  0
INSERT
  5
7E89
  8
3
  6
CONTINUOUS
 62
     0
  2
_OPEN
 10
-17.92116300000048
 20
-3155.0757159999998
 30
0.0
 41
80.0
 42
80.0
 43
80.0
 50
90.0
  0
INSERT
  5
7E8A
  8
3
  6
CONTINUOUS
 62
     0
  2
_OPEN
 10
-17.921163000000671
 20
-4005.0757159999989
 30
0.0
 41
80.0
 42
80.0
 43
80.0
 50
270.0
  0
TEXT
  8
3
  40
120
  5
7EFA
  62
0
  72
0
  71
0
 10
-357.921
 20
-3776.70
 30
0.000000
  1
850
  0
POINT
  5
7E8C
  8
DEFPOINTS
  6
CONTINUOUS
 62
     0
 10
-372.20931000000002
 20
-3155.0757159999998
 30
0.0
  0
POINT
  5
7E8D
  8
DEFPOINTS
  6
CONTINUOUS
 62
     0
 10
-372.20931000000002
 20
-4005.0757159999989
 30
0.0
  0
POINT
  5
7E8E
  8
DEFPOINTS
  6
CONTINUOUS
 62
     0
 10
-17.921163000000671
 20
-4005.0757159999989
 30
0.0
  0
ENDBLK
  5
7B92
  8
0
  0
BLOCK
  8
0
  2
*D8
 70
     1
 10
0.0
 20
0.0
 30
0.0
  3
*D8
  1

  0
LINE
  5
7E8F
  8
3
  6
CONTINUOUS
 62
     0
 10
2053.8038729999998
 20
-6377.9126890000007
 30
0.0
 11
2386.1284549999991
 21
-6377.9126890000007
 31
0.0
  0
LINE
  5
7E90
  8
3
  6
CONTINUOUS
 62
     0
 10
2053.8038729999998
 20
-7177.9126890000016
 30
0.0
 11
2386.1284549999982
 21
-7177.9126890000016
 31
0.0
  0
LINE
  5
7E91
  8
3
  6
CONTINUOUS
 62
     0
 10
2346.1284549999991
 20
-6457.9126890000007
 30
0.0
 11
2346.1284549999991
 21
-7097.9126890000007
 31
0.0
  0
INSERT
  5
7E92
  8
3
  6
CONTINUOUS
 62
     0
  2
_OPEN
 10
2346.1284549999991
 20
-6377.9126890000007
 30
0.0
 41
80.0
 42
80.0
 43
80.0
 50
90.0
  0
INSERT
  5
7E93
  8
3
  6
CONTINUOUS
 62
     0
  2
_OPEN
 10
2346.1284549999982
 20
-7177.9126890000016
 30
0.0
 41
80.0
 42
80.0
 43
80.0
 50
270.0
  0
TEXT
  8
3
  40
120
  5
7EFB
  62
0
  72
0
  71
0
 10
2006.13
 20
-6993.77
 30
0.000000
  1
φ800
  0
POINT
  5
7E95
  8
DEFPOINTS
  6
CONTINUOUS
 62
     0
 10
2033.8038730000001
 20
-6377.9126889999998
 30
0.0
  0
POINT
  5
7E96
  8
DEFPOINTS
  6
CONTINUOUS
 62
     0
 10
2033.8038730000001
 20
-7177.9126889999998
 30
0.0
  0
POINT
  5
7E97
  8
DEFPOINTS
  6
CONTINUOUS
 62
     0
 10
2346.1284549999982
 20
-7177.9126890000016
 30
0.0
  0
ENDBLK
  5
7CD4
  8
0
  0
BLOCK
  8
0
  2
*D9
 70
     1
 10
0.0
 20
0.0
 30
0.0
  3
*D9
  1

  0
LINE
  5
7E98
  8
3
  6
CONTINUOUS
 62
     0
 10
1350.8038730000001
 20
-5909.9126889999998
 30
0.0
 11
1350.8038730000001
 21
-5712.0126600000003
 31
0.0
  0
LINE
  5
7E99
  8
3
  6
CONTINUOUS
 62
     0
 10
1950.8038730000001
 20
-5909.9126889999998
 30
0.0
 11
1950.8038730000001
 21
-5712.0126600000003
 31
0.0
  0
LINE
  5
7E9A
  8
3
  6
CONTINUOUS
 62
     0
 10
1270.8038730000001
 20
-5752.0126600000003
 30
0.0
 11
1190.8038730000001
 21
-5752.0126600000003
 31
0.0
  0
LINE
  5
7E9B
  8
3
  6
CONTINUOUS
 62
     0
 10
2030.8038729999989
 20
-5752.0126600000003
 30
0.0
 11
2110.8038729999998
 21
-5752.0126600000003
 31
0.0
  0
LINE
  5
7E9C
  8
3
  6
CONTINUOUS
 62
     0
 10
1350.8038730000001
 20
-5752.0126600000003
 30
0.0
 11
1950.8038730000001
 21
-5752.0126600000003
 31
0.0
  0
INSERT
  5
7E9D
  8
3
  6
CONTINUOUS
 62
     0
  2
_OPEN
 10
1350.8038730000001
 20
-5752.0126600000003
 30
0.0
 41
80.0
 42
80.0
 43
80.0
  0
INSERT
  5
7E9E
  8
3
  6
CONTINUOUS
 62
     0
  2
_OPEN
 10
1950.8038730000001
 20
-5752.0126600000003
 30
0.0
 41
80.0
 42
80.0
 43
80.0
 50
180.0
  0
TEXT
  8
3
  40
120
  5
7EFC
  62
0
  72
0
  71
0
 10
1385.09
 20
-5864.41
 30
0.000000
  1
600
  0
POINT
  5
7EA0
  8
DEFPOINTS
  6
CONTINUOUS
 62
     0
 10
1350.8038730000001
 20
-5929.9126889999998
 30
0.0
  0
POINT
  5
7EA1
  8
DEFPOINTS
  6
CONTINUOUS
 62
     0
 10
1950.8038730000001
 20
-5929.9126889999998
 30
0.0
  0
POINT
  5
7EA2
  8
DEFPOINTS
  6
CONTINUOUS
 62
     0
 10
1950.8038730000001
 20
-5752.0126600000003
 30
0.0
  0
ENDBLK
  5
7BE6
  8
0
  0
BLOCK
  8
0
  2
*D10
 70
     1
 10
0.0
 20
0.0
 30
0.0
  3
*D10
  1

  0
LINE
  5
7CB5
  8
0
  6
BYBLOCK
 62
     0
 10
1080.8038730000001
 20
-6557.9126889999998
 30
0.0
 11
1080.8038730000001
 21
-5427.2338520000003
 31
0.0
  0
LINE
  5
7CB6
  8
0
  6
BYBLOCK
 62
     0
 10
1650.8038730000001
 20
-5490.6746899999998
 30
0.0
 11
1650.8038730000001
 21
-5427.2338520000003
 31
0.0
  0
LINE
  5
7CB7
  8
0
  6
BYBLOCK
 62
     0
 10
1160.8038730000001
 20
-5467.2338520000003
 30
0.0
 11
1570.8038730000001
 21
-5467.2338520000003
 31
0.0
  0
INSERT
  5
7CB8
  8
3
  2
*U21
 10
0.0
 20
0.0
 30
0.0
  0
INSERT
  5
7CB9
  8
0
  6
BYBLOCK
 62
     0
  2
_OPEN
 10
1080.8038730000001
 20
-5467.2338520000003
 30
0.0
 41
80.0
 42
80.0
 43
80.0
 50
180.0
  0
INSERT
  5
7CBA
  8
0
  6
BYBLOCK
 62
     0
  2
_OPEN
 10
1650.8038730000001
 20
-5467.2338520000003
 30
0.0
 41
80.0
 42
80.0
 43
80.0
  0
POINT
  5
7CBB
  8
DEFPOINTS
  6
BYBLOCK
 62
     0
 10
1080.8038730000001
 20
-6577.9126889999998
 30
0.0
  0
POINT
  5
7CBC
  8
DEFPOINTS
  6
BYBLOCK
 62
     0
 10
1650.8038730000001
 20
-5510.6746899999998
 30
0.0
  0
POINT
  5
7CBD
  8
DEFPOINTS
  6
BYBLOCK
 62
     0
 10
1650.8038730000001
 20
-5467.2338520000003
 30
0.0
  0
ENDBLK
  5
7CBE
  8
0
  0
BLOCK
  8
0
  2
*D11
 70
     1
 10
0.0
 20
0.0
 30
0.0
  3
*D11
  1

  0
LINE
  5
7EA3
  8
3
  6
CONTINUOUS
 62
     0
 10
2033.8038730000001
 20
-6317.9126889999989
 30
0.0
 11
2033.8038730000001
 21
-5427.2338520000003
 31
0.0
  0
LINE
  5
7EA4
  8
3
  6
CONTINUOUS
 62
     0
 10
1730.8038730000001
 20
-5467.2338520000003
 30
0.0
 11
1953.8038730000001
 21
-5467.2338520000003
 31
0.0
  0
TEXT
  8
3
  40
120
  5
7EFD
  62
0
  72
0
  71
0
 10
1603.60
 20
-5579.15
 30
0.000000
  1
383
  0
INSERT
  5
7EA6
  8
3
  6
CONTINUOUS
 62
     0
  2
_OPEN
 10
1650.8038730000001
 20
-5467.2338520000003
 30
0.0
 41
80.0
 42
80.0
 43
80.0
 50
180.0
  0
INSERT
  5
7EA7
  8
3
  6
CONTINUOUS
 62
     0
  2
_OPEN
 10
2033.8038730000001
 20
-5467.2338520000003
 30
0.0
 41
80.0
 42
80.0
 43
80.0
  0
POINT
  5
7EA8
  8
DEFPOINTS
  6
CONTINUOUS
 62
     0
 10
1650.8038730000001
 20
-5510.6746899999998
 30
0.0
  0
POINT
  5
7EA9
  8
DEFPOINTS
  6
CONTINUOUS
 62
     0
 10
2033.8038730000001
 20
-6337.9126889999998
 30
0.0
  0
POINT
  5
7EAA
  8
DEFPOINTS
  6
CONTINUOUS
 62
     0
 10
2033.8038730000001
 20
-5467.2338520000003
 30
0.0
  0
ENDBLK
  5
7C1A
  8
0
  0
BLOCK
  8
0
  2
*D12
 70
     1
 10
0.0
 20
0.0
 30
0.0
  3
*D12
  1

  0
LINE
  5
7EB0
  8
3
 62
     0
 10
-2117.2093100000002
 20
-5867.4126889999998
 30
0.0
 11
-2117.2093100000002
 21
-5448.0863317888316
 31
0.0
  0
LINE
  5
7EB1
  8
3
 62
     0
 10
-372.2093099999999
 20
-7247.9126889999998
 30
0.0
 11
-372.20930999999979
 21
-5448.0863317888316
 31
0.0
  0
LINE
  5
7EB2
  8
3
 62
     0
 10
-2037.20931
 20
-5488.0863317888316
 30
0.0
 11
-452.20930999999979
 21
-5488.0863317888316
 31
0.0
  0
INSERT
  5
7EB3
  8
3
 62
     0
  2
_OPEN
 10
-2117.2093100000002
 20
-5488.0863317888316
 30
0.0
 41
80.0
 42
80.0
 43
80.0
 50
180.0
  0
INSERT
  5
7EB4
  8
3
 62
     0
  2
_OPEN
 10
-372.20930999999979
 20
-5488.0863317888316
 30
0.0
 41
80.0
 42
80.0
 43
80.0
  0
TEXT
  8
3
  40
120
  5
7EFE
  62
0
  72
0
  71
0
 10
-1476.54
 20
-5600.49
 30
0.000000
  1
1745
  0
POINT
  5
7EB6
  8
DEFPOINTS
 62
     0
 10
-2117.2093100000002
 20
-5887.4126889999998
 30
0.0
  0
POINT
  5
7EB7
  8
DEFPOINTS
 62
     0
 10
-372.2093099999999
 20
-7267.9126889999998
 30
0.0
  0
POINT
  5
7EB8
  8
DEFPOINTS
 62
     0
 10
-372.20930999999979
 20
-5488.0863317888316
 30
0.0
  0
ENDBLK
  5
7CF8
  8
0
  0
BLOCK
  8
0
  2
*D13
 70
     1
 10
0.0
 20
0.0
 30
0.0
  3
*D13
  1

  0
LINE
  5
7EB9
  8
3
 62
     0
 10
-2072.2093100000002
 20
-7582.9126889999998
 30
0.0
 11
-2072.2093100000002
 21
-7856.9638069487482
 31
0.0
  0
LINE
  5
7EBA
  8
3
 62
     0
 10
-1572.20931
 20
-7582.9126889999998
 30
0.0
 11
-1572.20931
 21
-7856.9638069487482
 31
0.0
  0
LINE
  5
7EBB
  8
3
 62
     0
 10
-1992.20931
 20
-7816.9638069487492
 30
0.0
 11
-1652.209309999999
 21
-7816.9638069487492
 31
0.0
  0
INSERT
  5
7EBC
  8
3
 62
     0
  2
_OPEN
 10
-2072.2093100000002
 20
-7816.9638069487492
 30
0.0
 41
80.0
 42
80.0
 43
80.0
 50
180.0
  0
INSERT
  5
7EBD
  8
3
 62
     0
  2
_OPEN
 10
-1572.20931
 20
-7816.9638069487492
 30
0.0
 41
80.0
 42
80.0
 43
80.0
  0
TEXT
  8
3
  40
120
  5
7EFF
  62
0
  72
0
  71
0
 10
-2062.21
 20
-7929.36
 30
0.000000
  1
500
  0
POINT
  5
7EBF
  8
DEFPOINTS
 62
     0
 10
-2072.2093100000002
 20
-7562.9126889999998
 30
0.0
  0
POINT
  5
7EC0
  8
DEFPOINTS
 62
     0
 10
-1572.20931
 20
-7562.9126889999998
 30
0.0
  0
POINT
  5
7EC1
  8
DEFPOINTS
 62
     0
 10
-1572.20931
 20
-7816.9638069487492
 30
0.0
  0
ENDBLK
  5
7D0F
  8
0
  0
BLOCK
  8
0
  2
*D14
 70
     1
 10
0.0
 20
0.0
 30
0.0
  3
*D14
  1

  0
LINE
  5
7EC2
  8
3
 62
     0
 10
-1572.20931
 20
-7582.9126889999998
 30
0.0
 11
-1572.20931
 21
-7856.9638069487482
 31
0.0
  0
LINE
  5
7EC3
  8
3
 62
     0
 10
-372.2093099999999
 20
-7582.9126889999998
 30
0.0
 11
-372.2093099999999
 21
-7856.9638069487482
 31
0.0
  0
LINE
  5
7EC4
  8
3
 62
     0
 10
-1492.209309999999
 20
-7816.9638069487492
 30
0.0
 11
-452.2093099999999
 21
-7816.9638069487492
 31
0.0
  0
INSERT
  5
7EC5
  8
3
 62
     0
  2
_OPEN
 10
-1572.20931
 20
-7816.9638069487492
 30
0.0
 41
80.0
 42
80.0
 43
80.0
 50
180.0
  0
INSERT
  5
7EC6
  8
3
 62
     0
  2
_OPEN
 10
-372.2093099999999
 20
-7816.9638069487492
 30
0.0
 41
80.0
 42
80.0
 43
80.0
  0
TEXT
  8
3
  40
120
  5
7F00
  62
0
  72
0
  71
0
 10
-1212.21
 20
-7929.36
 30
0.000000
  1
1200
  0
POINT
  5
7EC8
  8
DEFPOINTS
 62
     0
 10
-1572.20931
 20
-7562.9126889999998
 30
0.0
  0
POINT
  5
7EC9
  8
DEFPOINTS
 62
     0
 10
-372.2093099999999
 20
-7562.9126889999998
 30
0.0
  0
POINT
  5
7ECA
  8
DEFPOINTS
 62
     0
 10
-372.2093099999999
 20
-7816.9638069487492
 30
0.0
  0
ENDBLK
  5
7D1C
  8
0
  0
BLOCK
  8
0
  2
*D15
 70
     1
 10
0.0
 20
0.0
 30
0.0
  3
*D15
  1

  0
LINE
  5
7ECB
  8
3
 62
     0
 10
1153.8038729999989
 20
-7582.9126889999998
 30
0.0
 11
1153.8038729999989
 21
-7856.9638069487482
 31
0.0
  0
LINE
  5
7ECC
  8
3
 62
     0
 10
1650.8038730000001
 20
-7582.9126890000007
 30
0.0
 11
1650.8038730000001
 21
-7856.9638069487482
 31
0.0
  0
LINE
  5
7ECD
  8
3
 62
     0
 10
1233.8038730000001
 20
-7816.9638069487492
 30
0.0
 11
1570.8038730000001
 21
-7816.9638069487492
 31
0.0
  0
INSERT
  5
7ECE
  8
3
 62
     0
  2
_OPEN
 10
1153.8038729999989
 20
-7816.9638069487492
 30
0.0
 41
80.0
 42
80.0
 43
80.0
 50
180.0
  0
INSERT
  5
7ECF
  8
3
 62
     0
  2
_OPEN
 10
1650.8038730000001
 20
-7816.9638069487492
 30
0.0
 41
80.0
 42
80.0
 43
80.0
  0
TEXT
  8
3
  40
120
  5
7F01
  62
0
  72
0
  71
0
 10
1162.30
 20
-7929.36
 30
0.000000
  1
497
  0
POINT
  5
7ED1
  8
DEFPOINTS
 62
     0
 10
1153.8038729999989
 20
-7562.9126889999998
 30
0.0
  0
POINT
  5
7ED2
  8
DEFPOINTS
 62
     0
 10
1650.8038730000001
 20
-7562.9126889999998
 30
0.0
  0
POINT
  5
7ED3
  8
DEFPOINTS
 62
     0
 10
1650.8038730000001
 20
-7816.9638069487492
 30
0.0
  0
ENDBLK
  5
7D2B
  8
0
  0
BLOCK
  8
0
  2
*D16
 70
     1
 10
0.0
 20
0.0
 30
0.0
  3
*D16
  1

  0
LINE
  5
7ED4
  8
3
 62
     0
 10
1650.8038730000001
 20
-7582.9126890000007
 30
0.0
 11
1650.8038730000001
 21
-7856.9638069487482
 31
0.0
  0
LINE
  5
7ED5
  8
3
 62
     0
 10
2003.8038730000001
 20
-7582.9126889999998
 30
0.0
 11
2003.8038730000001
 21
-7856.9638069487482
 31
0.0
  0
LINE
  5
7ED6
  8
3
 62
     0
 10
1730.8038730000001
 20
-7816.9638069487492
 30
0.0
 11
1923.8038729999989
 21
-7816.9638069487492
 31
0.0
  0
LINE
  5
7ED7
  8
3
 62
     0
 10
2003.8038730000001
 20
-7816.9638069487492
 30
0.0
 11
2472.3753015714278
 21
-7816.9638069487492
 31
0.0
  0
INSERT
  5
7ED8
  8
3
 62
     0
  2
_OPEN
 10
1650.8038730000001
 20
-7816.9638069487492
 30
0.0
 41
80.0
 42
80.0
 43
80.0
 50
180.0
  0
INSERT
  5
7ED9
  8
3
 62
     0
  2
_OPEN
 10
2003.8038730000001
 20
-7816.9638069487492
 30
0.0
 41
80.0
 42
80.0
 43
80.0
  0
TEXT
  8
3
  40
120
  5
7F02
  62
0
  72
0
  71
0
 10
2038.09
 20
-7929.36
 30
0.000000
  1
353
  0
POINT
  5
7EDB
  8
DEFPOINTS
 62
     0
 10
1650.8038730000001
 20
-7562.9126889999998
 30
0.0
  0
POINT
  5
7EDC
  8
DEFPOINTS
 62
     0
 10
2003.8038730000001
 20
-7562.9126889999998
 30
0.0
  0
POINT
  5
7EDD
  8
DEFPOINTS
 62
     0
 10
2003.8038730000001
 20
-7816.9638069487492
 30
0.0
  0
ENDBLK
  5
7D39
  8
0
  0
BLOCK
  8
0
  2
_DOT
 70
     0
 10
0.0
 20
0.0
 30
0.0
  3
_DOT
  1

  0
POLYLINE
  5
7D3D
  8
0
  6
BYBLOCK
 62
     0
 66
     1
 10
0.0
 20
0.0
 30
0.0
 70
     1
 40
0.5
 41
0.5
  0
VERTEX
  5
7EDE
  8
0
  6
BYBLOCK
 62
     0
 10
-0.25
 20
0.0
 30
0.0
 42
1.0
  0
VERTEX
  5
7EDF
  8
0
  6
BYBLOCK
 62
     0
 10
0.25
 20
0.0
 30
0.0
 42
1.0
  0
SEQEND
  5
7EE0
  8
0
  6
BYBLOCK
 62
     0
  0
LINE
  5
7D41
  8
0
  6
BYBLOCK
 62
     0
 10
-0.5
 20
0.0
 30
0.0
 11
-1.0
 21
0.0
 31
0.0
  0
ENDBLK
  5
7D42
  8
0
  0
BLOCK
  8
0
  2
*D18
 70
     1
 10
0.0
 20
0.0
 30
0.0
  3
*D18
  1

  0
LINE
  5
7EE1
  8
3
 62
     0
 10
-2092.2093100000002
 20
-7462.9126889999989
 30
0.0
 11
-2564.5415830233251
 21
-7462.9126889999989
 31
0.0
  0
LINE
  5
7EE2
  8
3
 62
     0
 10
-2092.2093100000002
 20
-7562.9126889999998
 30
0.0
 11
-2564.5415830233251
 21
-7562.9126889999998
 31
0.0
  0
LINE
  5
7EE3
  8
3
 62
     0
 10
-2524.5415830233251
 20
-7382.9126889999998
 30
0.0
 11
-2524.5415830233251
 21
-7302.9126889999998
 31
0.0
  0
LINE
  5
7EE4
  8
3
 62
     0
 10
-2524.5415830233251
 20
-7642.9126889999998
 30
0.0
 11
-2524.5415830233251
 21
-8088.6269747142851
 31
0.0
  0
LINE
  5
7EE5
  8
3
 62
     0
 10
-2524.5415830233251
 20
-7462.9126889999989
 30
0.0
 11
-2524.5415830233251
 21
-7562.9126889999998
 31
0.0
  0
INSERT
  5
7EE6
  8
3
 62
     0
  2
_DOT
 10
-2524.5415830233251
 20
-7462.9126889999989
 30
0.0
 41
80.0
 42
80.0
 43
80.0
 50
270.0
  0
INSERT
  5
7EE7
  8
3
 62
     0
  2
_OPEN
 10
-2524.5415830233251
 20
-7562.9126889999998
 30
0.0
 41
80.0
 42
80.0
 43
80.0
 50
90.0
  0
TEXT
  8
3
  40
120
  5
7F03
  62
0
  72
0
  71
0
 10
-2864.54
 20
-8118.17
 30
0.000000
  1
100
  0
POINT
  5
7EE9
  8
DEFPOINTS
 62
     0
 10
-2072.2093100000002
 20
-7462.9126889999989
 30
0.0
  0
POINT
  5
7EEA
  8
DEFPOINTS
 62
     0
 10
-2072.2093100000002
 20
-7562.9126889999998
 30
0.0
  0
POINT
  5
7EEB
  8
DEFPOINTS
 62
     0
 10
-2524.5415830233251
 20
-7562.9126889999998
 30
0.0
  0
ENDBLK
  5
7D50
  8
0
  0
BLOCK
  8
0
  2
*D19
 70
     1
 10
0.0
 20
0.0
 30
0.0
  3
*D19
  1

  0
LINE
  5
7D54
  8
0
  6
BYBLOCK
 62
     0
 10
-2092.2093100000002
 20
-7462.9126889999989
 30
0.0
 11
-2564.5415830233251
 21
-7462.9126889999989
 31
0.0
  0
LINE
  5
7D55
  8
0
  6
BYBLOCK
 62
     0
 10
-2092.2093100000002
 20
-7367.9126889999998
 30
0.0
 11
-2564.5415830233251
 21
-7367.9126889999998
 31
0.0
  0
LINE
  5
7D56
  8
0
  6
BYBLOCK
 62
     0
 10
-2524.5415830233251
 20
-7542.9126890000007
 30
0.0
 11
-2524.5415830233251
 21
-7622.9126889999998
 31
0.0
  0
LINE
  5
7D57
  8
0
  6
BYBLOCK
 62
     0
 10
-2524.5415830233251
 20
-7287.9126889999989
 30
0.0
 11
-2524.5415830233251
 21
-7207.9126889999998
 31
0.0
  0
TEXT
  5
7D58
  8
3
 62
     0
 10
-2675.9701544518971
 20
-7589.6984032857154
 30
0.0
 40
120.0
  1
(95)
 50
90.0
  0
LINE
  5
7D59
  8
0
  6
BYBLOCK
 62
     0
 10
-2524.5415830233251
 20
-7462.9126889999989
 30
0.0
 11
-2524.5415830233251
 21
-7367.9126889999998
 31
0.0
  0
INSERT
  5
7D5A
  8
0
  6
BYBLOCK
 62
     0
  2
_DOT
 10
-2524.5415830233251
 20
-7462.9126889999989
 30
0.0
 41
80.0
 42
80.0
 43
80.0
 50
90.0
  0
INSERT
  5
7D5B
  8
0
  6
BYBLOCK
 62
     0
  2
_OPEN
 10
-2524.5415830233251
 20
-7367.9126889999998
 30
0.0
 41
80.0
 42
80.0
 43
80.0
 50
270.0
  0
POINT
  5
7D5C
  8
DEFPOINTS
  6
BYBLOCK
 62
     0
 10
-2072.2093100000002
 20
-7462.9126889999989
 30
0.0
  0
POINT
  5
7D5D
  8
DEFPOINTS
  6
BYBLOCK
 62
     0
 10
-2072.2093100000002
 20
-7367.9126889999998
 30
0.0
  0
POINT
  5
7D5E
  8
DEFPOINTS
  6
BYBLOCK
 62
     0
 10
-2524.5415830233251
 20
-7367.9126889999998
 30
0.0
  0
ENDBLK
  5
7D5F
  8
0
  0
BLOCK
  8
0
  2
*D20
 70
     1
 10
0.0
 20
0.0
 30
0.0
  3
*D20
  1

  0
LINE
  5
7EEC
  8
3
 62
     0
 10
-2137.2093100000002
 20
-5887.4126889999998
 30
0.0
 11
-2922.7527859388861
 21
-5887.4126889999998
 31
0.0
  0
LINE
  5
7EED
  8
3
 62
     0
 10
-2092.2093100000002
 20
-7562.9126889999998
 30
0.0
 11
-2922.7527859388861
 21
-7562.9126889999998
 31
0.0
  0
LINE
  5
7EEE
  8
3
 62
     0
 10
-2882.7527859388861
 20
-5967.4126889999989
 30
0.0
 11
-2882.7527859388861
 21
-7482.9126889999989
 31
0.0
  0
INSERT
  5
7EEF
  8
3
 62
     0
  2
_OPEN
 10
-2882.7527859388861
 20
-5887.4126889999998
 30
0.0
 41
80.0
 42
80.0
 43
80.0
 50
90.0
  0
INSERT
  5
7EF0
  8
3
 62
     0
  2
_OPEN
 10
-2882.7527859388861
 20
-7562.9126889999998
 30
0.0
 41
80.0
 42
80.0
 43
80.0
 50
270.0
  0
TEXT
  8
3
  40
120
  5
7F04
  62
0
  72
0
  71
0
 10
-3254.18
 20
-6937.56
 30
0.000000
  1
(1676)
  0
POINT
  5
7EF2
  8
DEFPOINTS
 62
     0
 10
-2117.2093100000002
 20
-5887.4126889999998
 30
0.0
  0
POINT
  5
7EF3
  8
DEFPOINTS
 62
     0
 10
-2072.2093100000002
 20
-7562.9126889999998
 30
0.0
  0
POINT
  5
7EF4
  8
DEFPOINTS
 62
     0
 10
-2882.7527859388861
 20
-7562.9126889999998
 30
0.0
  0
ENDBLK
  5
7D6C
  8
0
  0
BLOCK
  8
0
  2
*U21
 70
     1
 10
0.0
 20
0.0
 30
0.0
  3
*U21
  1

  0
TEXT
  5
7EAC
  8
3
 62
     0
 10
1194.3753015714281
 20
-5202.9546752343413
 30
0.0
 40
120.0
  1
MAX
  0
TEXT
  5
7EAD
  8
3
 62
     0
 10
1211.5181587142861
 20
-5402.9546752343413
 30
0.0
 40
120.0
  1
660
  0
ENDBLK
  5
7EAF
  8
0
  0
ENDSEC
  0
SECTION
  2
ENTITIES
  0
LINE
  5
7A70
  8
1
  6
CONTINUOUS
 10
-2072.2093100000002
 20
-7462.9126889999989
 30
0.0
 11
-372.2093099999999
 21
-7462.9126889999989
 31
0.0
  0
LINE
  5
7A71
  8
1
  6
CONTINUOUS
 10
-2072.2093100000002
 20
-7562.9126889999998
 30
0.0
 11
-372.2093099999999
 21
-7562.9126889999998
 31
0.0
  0
LINE
  5
7A72
  8
1
  6
CONTINUOUS
 10
-1472.20931
 20
-4005.0757159999989
 30
0.0
 11
-699.70930999999985
 21
-4005.0757159999989
 31
0.0
  0
POLYLINE
  5
7A73
  8
1
  6
CONTINUOUS
 66
     1
 10
0.0
 20
0.0
 30
0.0
  0
VERTEX
  5
7E54
  8
1
  6
CONTINUOUS
 10
-2117.2093100000002
 20
-5929.9126889999998
 30
0.0
  0
VERTEX
  5
7E55
  8
1
  6
CONTINUOUS
 10
-1572.20931
 20
-5973.9126889999998
 30
0.0
 42
-0.4
  0
VERTEX
  5
7E56
  8
1
  6
CONTINUOUS
 10
-883.90930999999989
 20
-6718.9126889999989
 30
0.0
 42
-0.4
  0
VERTEX
  5
7E57
  8
1
  6
CONTINUOUS
 10
-1580.8093100000001
 20
-7344.6126889999996
 30
0.0
 42
-0.4
  0
VERTEX
  5
7E58
  8
1
  6
CONTINUOUS
 10
-2046.90931
 20
-6825.4126889999998
 30
0.0
  0
VERTEX
  5
7E59
  8
1
  6
CONTINUOUS
 10
-2041.1093100000001
 20
-6754.9126889999998
 30
0.0
 42
-0.4
  0
SEQEND
  5
7E5A
  8
1
  6
CONTINUOUS
  0
LINE
  5
7A7B
  8
1
  6
CONTINUOUS
 10
-2072.2093100000002
 20
-7367.9126889999998
 30
0.0
 11
-372.20931000000002
 21
-7367.9126889999998
 31
0.0
  0
LINE
  5
7A7C
  8
1
  6
CONTINUOUS
 10
-2072.2093100000002
 20
-7267.9126889999998
 30
0.0
 11
-372.20931000000002
 21
-7267.9126889999998
 31
0.0
  0
CIRCLE
  5
7A7D
  8
1
  6
CONTINUOUS
 10
-1572.20931
 20
-6777.9126889999998
 30
0.0
 40
400.0
  0
CIRCLE
  5
7A7E
  8
1
  6
CONTINUOUS
 10
-1572.20931
 20
-6777.9126889999998
 30
0.0
 40
440.0
  0
LINE
  5
7A7F
  8
1
  6
CONTINUOUS
 10
-2117.2093100000002
 20
-3208.0757159999989
 30
0.0
 11
-883.90930999999989
 21
-3208.0757159999989
 31
0.0
  0
LINE
  5
7A80
  8
1
  6
CONTINUOUS
 10
-2117.2093100000002
 20
-3808.0757159999989
 30
0.0
 11
-883.90930999999989
 21
-3808.0757159999989
 31
0.0
  0
LINE
  5
7A81
  8
1
  6
CONTINUOUS
 10
-2012.20931
 20
-3125.0757159999998
 30
0.0
 11
-1132.20931
 21
-3125.0757159999998
 31
0.0
  0
LINE
  5
7A82
  8
1
  6
CONTINUOUS
 10
-1772.20931
 20
-4078.0757159999989
 30
0.0
 11
-439.7093099999999
 21
-4078.0757159999989
 31
0.0
  0
LINE
  5
7A83
  8
1
  6
CONTINUOUS
 10
-1772.20931
 20
-3918.0757159999998
 30
0.0
 11
-439.7093099999999
 21
-3918.0757159999998
 31
0.0
  0
LINE
  5
7A84
  8
1
  6
CONTINUOUS
 10
-595.60930999999994
 20
-6981.6126890000014
 30
0.0
 11
-1542.1093100000001
 21
-6682.512689000001
 31
0.0
  0
LINE
  5
7A85
  8
1
  6
CONTINUOUS
 10
-565.50930999999991
 20
-6886.3126890000003
 30
0.0
 11
-1511.90931
 21
-6587.2126890000009
 31
0.0
  0
LINE
  5
7A86
  8
1
  6
CONTINUOUS
 10
-640.70930999999985
 20
-7135.1126889999996
 30
0.0
 11
-1598.5093099999999
 21
-6874.4126889999998
 31
0.0
  0
LINE
  5
7A87
  8
1
  6
CONTINUOUS
 10
-667.0093099999998
 20
-7231.6126890000014
 30
0.0
 11
-1624.70931
 21
-6970.9126889999989
 31
0.0
  0
LINE
  5
7A88
  8
1
  6
CONTINUOUS
 10
-2041.1093100000001
 20
-6754.9126889999998
 30
0.0
 11
-2117.2093100000002
 21
-6754.9126889999998
 31
0.0
  0
LINE
  5
7A89
  8
1
  6
CONTINUOUS
 10
-2117.2093100000002
 20
-6797.4126889999989
 30
0.0
 11
-2117.2093100000002
 21
-5887.4126889999998
 31
0.0
  0
LINE
  5
7A8A
  8
1
  6
CONTINUOUS
 10
-2077.2093100000002
 20
-6754.9126889999998
 30
0.0
 11
-2077.2093100000002
 21
-5929.9126889999998
 31
0.0
  0
CIRCLE
  5
7A8B
  8
1
  6
CONTINUOUS
 10
-1572.20931
 20
-6777.9126889999998
 30
0.0
 40
100.0
  0
LINE
  5
7A8C
  8
2
  6
CENTER
 10
-1572.20931
 20
-7562.9126889999998
 30
0.0
 11
-1572.20931
 21
-5861.5445499999996
 31
0.0
  0
ARC
  5
7A8D
  8
1
  6
CONTINUOUS
 10
-1572.20931
 20
-6777.9126889999998
 30
0.0
 40
200.0
 50
72.5
 51
254.80000000000001
  0
LINE
  5
7A8E
  8
2
  6
CENTER
 10
2083.9029879999989
 20
-6777.9126889999998
 30
0.0
 11
950.65938900000015
 21
-6777.9126889999998
 31
0.0
  0
LINE
  5
7A8F
  8
1
  6
CONTINUOUS
 10
-2072.2093100000002
 20
-7462.9126889999989
 30
0.0
 11
-2072.2093100000002
 21
-7562.9126889999998
 31
0.0
  0
LINE
  5
7A90
  8
1
  6
CONTINUOUS
 10
-2072.2093100000002
 20
-7267.9126889999998
 30
0.0
 11
-2072.2093100000002
 21
-7367.9126889999998
 31
0.0
  0
LINE
  5
7A91
  8
1
  6
CONTINUOUS
 10
-2117.2093100000002
 20
-3848.0757159999989
 30
0.0
 11
-2117.2093100000002
 21
-3168.0757159999998
 31
0.0
  0
LINE
  5
7A92
  8
1
  6
CONTINUOUS
 10
-1972.20931
 20
-3208.0757159999989
 30
0.0
 11
-1972.20931
 21
-3125.0757159999998
 31
0.0
  0
LINE
  5
7A93
  8
1
  6
CONTINUOUS
 10
-1672.209309999999
 20
-3965.0757159999989
 30
0.0
 11
-1472.20931
 21
-3965.0757159999989
 31
0.0
  0
LINE
  5
7A94
  8
1
  6
CONTINUOUS
 10
-1672.209309999999
 20
-4045.0757159999998
 30
0.0
 11
-1472.20931
 21
-4045.0757159999998
 31
0.0
  0
LINE
  5
7A95
  8
1
  6
CONTINUOUS
 10
-2072.2093100000002
 20
-3808.0757159999989
 30
0.0
 11
-2072.2093100000002
 21
-4005.0757159999989
 31
0.0
  0
LINE
  5
7A96
  8
1
  6
CONTINUOUS
 10
-2072.2093100000002
 20
-4005.0757159999989
 30
0.0
 11
-1672.209309999999
 21
-4005.0757159999989
 31
0.0
  0
LINE
  5
7A97
  8
1
  6
CONTINUOUS
 10
-1772.20931
 20
-4078.0757159999989
 30
0.0
 11
-1772.20931
 21
-3918.0757159999998
 31
0.0
  0
LINE
  5
7A98
  8
1
  6
CONTINUOUS
 10
-1672.209309999999
 20
-4045.0757159999998
 30
0.0
 11
-1672.209309999999
 21
-3965.0757159999989
 31
0.0
  0
LINE
  5
7A99
  8
1
  6
CONTINUOUS
 10
-2072.2093100000002
 20
-3155.0757159999998
 30
0.0
 11
-2072.2093100000002
 21
-3208.0757159999989
 31
0.0
  0
LINE
  5
7A9A
  8
1
  6
CONTINUOUS
 10
-2072.2093100000002
 20
-3155.0757159999998
 30
0.0
 11
-1972.20931
 21
-3155.0757159999998
 31
0.0
  0
LINE
  5
7A9B
  8
1
  6
CONTINUOUS
 10
-2077.2093100000002
 20
-3808.0757159999989
 30
0.0
 11
-2077.2093100000002
 21
-3208.0757159999989
 31
0.0
  0
LINE
  5
7A9C
  8
1
  6
CONTINUOUS
 10
-1551.209309999999
 20
-3965.0757159999989
 30
0.0
 11
-1551.209309999999
 21
-3808.0757159999989
 31
0.0
  0
LINE
  5
7A9D
  8
1
  6
CONTINUOUS
 10
-1593.209309999999
 20
-3965.0757159999989
 30
0.0
 11
-1593.209309999999
 21
-3808.0757159999989
 31
0.0
  0
LINE
  5
7A9E
  8
1
  6
CONTINUOUS
 10
-1472.20931
 20
-4045.0757159999998
 30
0.0
 11
-1472.20931
 21
-3965.0757159999989
 31
0.0
  0
ARC
  5
7A9F
  8
1
  6
CONTINUOUS
 10
-619.70930999999996
 20
-7057.9126889999998
 30
0.0
 40
162.0
 50
325.0
 51
214.99999999999989
  0
LINE
  5
7AA0
  8
1
  6
CONTINUOUS
 10
-807.20930999999996
 20
-7217.9126890000007
 30
0.0
 11
-432.20931000000002
 21
-7217.9126890000007
 31
0.0
  0
LINE
  5
7AA1
  8
1
  6
CONTINUOUS
 10
-773.70930999999996
 20
-7199.9126889999998
 30
0.0
 11
-752.40930999999989
 21
-7150.9126889999998
 31
0.0
  0
LINE
  5
7AA2
  8
1
  6
CONTINUOUS
 10
-773.70930999999996
 20
-7217.9126890000007
 30
0.0
 11
-773.70930999999996
 21
-7199.9126889999998
 31
0.0
  0
LINE
  5
7AA3
  8
1
  6
CONTINUOUS
 10
-817.20930999999985
 20
-7267.9126889999998
 30
0.0
 11
-807.20930999999996
 21
-7217.9126890000007
 31
0.0
  0
LINE
  5
7AA4
  8
1
  6
CONTINUOUS
 10
-372.2093099999999
 20
-7462.9126889999989
 30
0.0
 11
-372.2093099999999
 21
-7562.9126889999998
 31
0.0
  0
ARC
  5
7AA5
  8
1
  6
CONTINUOUS
 10
-619.70930999999996
 20
-7057.9126889999998
 30
0.0
 40
180.0
 50
254.80000000000001
 51
72.5
  0
CIRCLE
  5
7AA6
  8
1
  6
CONTINUOUS
 10
-619.70930999999996
 20
-7057.9126889999998
 30
0.0
 40
80.0
  0
LINE
  5
7AA7
  8
2
  6
CENTER
 10
-619.70930999999996
 20
-7137.9126889999998
 30
0.0
 11
-619.70930999999996
 21
-6977.9126889999998
 31
0.0
  0
LINE
  5
7AA8
  8
2
  6
CENTER
 10
-539.70930999999985
 20
-7057.9126889999998
 30
0.0
 11
-699.70930999999985
 21
-7057.9126889999998
 31
0.0
  0
LINE
  5
7AA9
  8
1
  6
CONTINUOUS
 10
-372.20931000000002
 20
-7267.9126889999998
 30
0.0
 11
-372.20931000000002
 21
-7367.9126889999998
 31
0.0
  0
LINE
  5
7AAA
  8
1
  6
CONTINUOUS
 10
-465.7093099999999
 20
-7217.9126890000007
 30
0.0
 11
-465.7093099999999
 21
-7199.9126889999998
 31
0.0
  0
LINE
  5
7AAB
  8
1
  6
CONTINUOUS
 10
-465.7093099999999
 20
-7199.9126889999998
 30
0.0
 11
-487.00931000000003
 21
-7150.9126889999998
 31
0.0
  0
LINE
  5
7AAC
  8
1
  6
CONTINUOUS
 10
-432.20931000000002
 20
-7217.9126890000007
 30
0.0
 11
-422.2093099999999
 21
-7267.9126889999998
 31
0.0
  0
LINE
  5
7AAD
  8
1
  6
CONTINUOUS
 10
-1172.20931
 20
-3208.0757159999989
 30
0.0
 11
-1172.20931
 21
-3125.0757159999998
 31
0.0
  0
LINE
  5
7AAE
  8
1
  6
CONTINUOUS
 10
-1172.20931
 20
-3155.0757159999998
 30
0.0
 11
-372.20931000000002
 21
-3155.0757159999998
 31
0.0
  0
LINE
  5
7AAF
  8
1
  6
CONTINUOUS
 10
-457.7093099999999
 20
-3381.3757159999991
 30
0.0
 11
-781.70930999999996
 21
-3381.3757159999991
 31
0.0
  0
LINE
  5
7AB0
  8
1
  6
CONTINUOUS
 10
-457.7093099999999
 20
-3866.3757159999991
 30
0.0
 11
-781.70930999999996
 21
-3866.3757159999991
 31
0.0
  0
LINE
  5
7AB1
  8
1
  6
CONTINUOUS
 10
-781.70930999999996
 20
-3866.3757159999991
 30
0.0
 11
-781.70930999999996
 21
-3381.3757159999991
 31
0.0
  0
LINE
  5
7AB2
  8
1
  6
CONTINUOUS
 10
-883.90930999999989
 20
-3808.0757159999989
 30
0.0
 11
-883.90930999999989
 21
-3208.0757159999989
 31
0.0
  0
LINE
  5
7AB3
  8
1
  6
CONTINUOUS
 10
-457.7093099999999
 20
-3866.3757159999991
 30
0.0
 11
-457.7093099999999
 21
-3381.3757159999991
 31
0.0
  0
LINE
  5
7AB4
  8
1
  6
CONTINUOUS
 10
-372.20931000000002
 20
-3155.0757159999998
 30
0.0
 11
-372.20931000000002
 21
-4005.0757159999989
 31
0.0
  0
LINE
  5
7AB5
  8
1
  6
CONTINUOUS
 10
-539.70930999999985
 20
-4005.0757159999989
 30
0.0
 11
-372.20931000000002
 21
-4005.0757159999989
 31
0.0
  0
LINE
  5
7AB6
  8
1
  6
CONTINUOUS
 10
-640.70930999999985
 20
-3965.0757159999989
 30
0.0
 11
-640.70930999999985
 21
-3866.3757159999991
 31
0.0
  0
LINE
  5
7AB7
  8
1
  6
CONTINUOUS
 10
-598.70930999999996
 20
-3965.0757159999989
 30
0.0
 11
-598.70930999999996
 21
-3866.3757159999991
 31
0.0
  0
LINE
  5
7AB8
  8
1
  6
CONTINUOUS
 10
-539.70930999999985
 20
-4045.0757159999998
 30
0.0
 11
-539.70930999999985
 21
-3965.0757159999989
 31
0.0
  0
LINE
  5
7AB9
  8
1
  6
CONTINUOUS
 10
-699.70930999999985
 20
-4045.0757159999998
 30
0.0
 11
-699.70930999999985
 21
-3965.0757159999989
 31
0.0
  0
LINE
  5
7ABA
  8
1
  6
CONTINUOUS
 10
-699.70930999999985
 20
-4045.0757159999998
 30
0.0
 11
-539.70930999999985
 21
-4045.0757159999998
 31
0.0
  0
LINE
  5
7ABB
  8
1
  6
CONTINUOUS
 10
-699.70930999999985
 20
-3965.0757159999989
 30
0.0
 11
-539.70930999999985
 21
-3965.0757159999989
 31
0.0
  0
LINE
  5
7ABC
  8
1
  6
CONTINUOUS
 10
-439.7093099999999
 20
-4078.0757159999989
 30
0.0
 11
-439.7093099999999
 21
-3918.0757159999998
 31
0.0
  0
LINE
  5
7ABD
  8
1
  6
CONTINUOUS
 10
2003.8038730000001
 20
-7562.9126889999998
 30
0.0
 11
1153.8038729999989
 21
-7562.9126889999998
 31
0.0
  0
LINE
  5
7ABE
  8
1
  6
CONTINUOUS
 10
2003.8038730000001
 20
-7462.9126889999989
 30
0.0
 11
1153.8038729999989
 21
-7462.9126889999989
 31
0.0
  0
LINE
  5
7ABF
  8
1
  6
CONTINUOUS
 10
1350.8038730000001
 20
-6754.9126889999998
 30
0.0
 11
1950.8038730000001
 21
-5929.9126889999998
 31
0.0
  0
LINE
  5
7AC0
  8
1
  6
CONTINUOUS
 10
1350.8038730000001
 20
-5929.9126889999998
 30
0.0
 11
1950.8038730000001
 21
-6754.9126889999998
 31
0.0
  0
LINE
  5
7AC1
  8
1
  6
CONTINUOUS
 10
1350.8038730000001
 20
-6754.9126889999998
 30
0.0
 11
1950.8038730000001
 21
-6754.9126889999998
 31
0.0
  0
LINE
  5
7AC2
  8
1
  6
CONTINUOUS
 10
1350.8038730000001
 20
-5929.9126889999998
 30
0.0
 11
1950.8038730000001
 21
-5929.9126889999998
 31
0.0
  0
LINE
  5
7AC3
  8
1
  6
CONTINUOUS
 10
2003.8038730000001
 20
-7267.9126889999998
 30
0.0
 11
1153.8038729999989
 21
-7267.9126889999998
 31
0.0
  0
LINE
  5
7AC4
  8
1
  6
CONTINUOUS
 10
2003.8038730000001
 20
-7367.9126889999998
 30
0.0
 11
1153.8038729999989
 21
-7367.9126889999998
 31
0.0
  0
LINE
  5
7AC5
  8
1
  6
CONTINUOUS
 10
1120.8038730000001
 20
-6677.9126889999998
 30
0.0
 11
1120.8038730000001
 21
-6877.9126889999998
 31
0.0
  0
LINE
  5
7AC6
  8
1
  6
CONTINUOUS
 10
1200.8038730000001
 20
-6677.9126889999998
 30
0.0
 11
1200.8038730000001
 21
-6877.9126889999998
 31
0.0
  0
LINE
  5
7AC7
  8
1
  6
CONTINUOUS
 10
1240.8038730000001
 20
-6577.9126889999998
 30
0.0
 11
1240.8038730000001
 21
-7237.9126889999989
 31
0.0
  0
LINE
  5
7AC8
  8
1
  6
CONTINUOUS
 10
1080.8038730000001
 20
-6577.9126889999998
 30
0.0
 11
1080.8038730000001
 21
-7237.9126889999989
 31
0.0
  0
LINE
  5
7AC9
  8
1
  6
CONTINUOUS
 10
1350.8038730000001
 20
-5929.9126889999998
 30
0.0
 11
1350.8038730000001
 21
-7267.9126889999998
 31
0.0
  0
LINE
  5
7ACA
  8
1
  6
CONTINUOUS
 10
1200.8038730000001
 20
-7036.9126890000007
 30
0.0
 11
1350.8038730000001
 21
-7036.9126890000007
 31
0.0
  0
LINE
  5
7ACB
  8
1
  6
CONTINUOUS
 10
1200.8038730000001
 20
-7078.9126889999998
 30
0.0
 11
1350.8038730000001
 21
-7078.9126889999998
 31
0.0
  0
LINE
  5
7ACC
  8
1
  6
CONTINUOUS
 10
1200.8038730000001
 20
-6798.9126889999989
 30
0.0
 11
1350.8038730000001
 21
-6798.9126889999989
 31
0.0
  0
LINE
  5
7ACD
  8
1
  6
CONTINUOUS
 10
1200.8038730000001
 20
-6756.9126889999989
 30
0.0
 11
1350.8038730000001
 21
-6756.9126889999989
 31
0.0
  0
LINE
  5
7ACE
  8
1
  6
CONTINUOUS
 10
1080.8038730000001
 20
-7237.9126889999989
 30
0.0
 11
1240.8038730000001
 21
-7237.9126889999989
 31
0.0
  0
LINE
  5
7AD0
  8
1
  6
CONTINUOUS
 10
1153.8038729999989
 20
-7462.9126889999989
 30
0.0
 11
1153.8038729999989
 21
-7562.9126889999998
 31
0.0
  0
LINE
  5
7AD2
  8
1
  6
CONTINUOUS
 10
1200.8038730000001
 20
-6977.9126889999998
 30
0.0
 11
1200.8038730000001
 21
-7137.9126889999998
 31
0.0
  0
LINE
  5
7AD3
  8
1
  6
CONTINUOUS
 10
1120.8038730000001
 20
-6977.9126889999998
 30
0.0
 11
1120.8038730000001
 21
-7137.9126889999998
 31
0.0
  0
LINE
  5
7AD4
  8
1
  6
CONTINUOUS
 10
1120.8038730000001
 20
-6977.9126889999998
 30
0.0
 11
1200.8038730000001
 21
-6977.9126889999998
 31
0.0
  0
LINE
  5
7AD5
  8
1
  6
CONTINUOUS
 10
1120.8038730000001
 20
-7137.9126889999998
 30
0.0
 11
1200.8038730000001
 21
-7137.9126889999998
 31
0.0
  0
LINE
  5
7AD6
  8
1
  6
CONTINUOUS
 10
1120.8038730000001
 20
-6877.9126889999998
 30
0.0
 11
1200.8038730000001
 21
-6877.9126889999998
 31
0.0
  0
LINE
  5
7AD7
  8
1
  6
CONTINUOUS
 10
1153.8038729999989
 20
-7267.9126889999998
 30
0.0
 11
1153.8038729999989
 21
-7367.9126889999998
 31
0.0
  0
LINE
  5
7AD8
  8
1
  6
CONTINUOUS
 10
1080.8038730000001
 20
-6577.9126889999998
 30
0.0
 11
1240.8038730000001
 21
-6577.9126889999998
 31
0.0
  0
LINE
  5
7AD9
  8
1
  6
CONTINUOUS
 10
1120.8038730000001
 20
-6677.9126889999998
 30
0.0
 11
1200.8038730000001
 21
-6677.9126889999998
 31
0.0
  0
LINE
  5
7ADA
  8
1
  6
CONTINUOUS
 10
2033.8038730000001
 20
-6337.9126889999998
 30
0.0
 11
2033.8038730000001
 21
-7217.9126890000007
 31
0.0
  0
LINE
  5
7ADB
  8
1
  6
CONTINUOUS
 10
1950.8038730000001
 20
-5929.9126889999998
 30
0.0
 11
1950.8038730000001
 21
-7267.9126889999998
 31
0.0
  0
LINE
  5
7ADC
  8
1
  6
CONTINUOUS
 10
2003.8038730000001
 20
-7462.9126889999989
 30
0.0
 11
2003.8038730000001
 21
-7562.9126889999998
 31
0.0
  0
LINE
  5
7ADD
  8
1
  6
CONTINUOUS
 10
1950.8038730000001
 20
-7177.9126889999998
 30
0.0
 11
2033.8038730000001
 21
-7177.9126889999998
 31
0.0
  0
LINE
  5
7ADE
  8
1
  6
CONTINUOUS
 10
2003.8038730000001
 20
-7267.9126889999998
 30
0.0
 11
2003.8038730000001
 21
-7367.9126889999998
 31
0.0
  0
LINE
  5
7ADF
  8
1
  6
CONTINUOUS
 10
1950.8038730000001
 20
-6377.9126889999998
 30
0.0
 11
2033.8038730000001
 21
-6377.9126889999998
 31
0.0
  0
DIMENSION
  5
7B0E
  8
3
  6
CONTINUOUS
  2
*D1
 10
-2329.9751190000011
 20
-6754.9126889999998
 30
0.0
 11
-2329.9751190000002
 21
-6304.9638469999991
 31
0.0
 70
   128
 13
-2117.2093100000002
 23
-5929.9126889999998
 33
0.0
 14
-2117.2093100000002
 24
-6754.9126889999998
 34
0.0
 50
90.0
1001
ACAD
1000
DSTYLE
1002
{
1070
   287
1070
     3
1070
   287
1070
     3
1070
    40
1040
40.0
1070
   143
1040
0.039
1070
   172
1070
     1
1070
   271
1070
     0
1070
   279
1070
     0
1070
   288
1070
     1
1002
}
  0
DIMENSION
  5
7B1B
  8
3
  6
CONTINUOUS
  2
*D2
 10
-2527.2703850000012
 20
-6777.912688999998
 30
0.0
 11
-2527.2703849999998
 21
-6323.4403130000001
 31
0.0
 70
   128
 13
-2117.2093100000002
 23
-5929.9126889999998
 33
0.0
 14
-2043.0015089999999
 24
-6777.9126889999998
 34
0.0
 50
90.0
1001
ACAD
1000
DSTYLE
1002
{
1070
   287
1070
     3
1070
   287
1070
     3
1070
    40
1040
40.0
1070
   143
1040
0.039
1070
   172
1070
     1
1070
   271
1070
     0
1070
   279
1070
     0
1070
   288
1070
     1
1002
}
  0
DIMENSION
  5
7B27
  8
3
  6
CONTINUOUS
  2
*D3
 10
-2527.2703849999998
 20
-7367.9126889999998
 30
0.0
 11
-2627.2703849999989
 21
-7072.9126889999998
 31
0.0
 70
     0
 13
-2043.0015089999999
 23
-6777.9126889999998
 33
0.0
 14
-2072.2093100000002
 24
-7367.9126889999998
 34
0.0
 50
90.0
1001
ACAD
1000
DSTYLE
1002
{
1070
   287
1070
     4
1070
   287
1070
     4
1070
    40
1040
40.0
1070
    75
1070
     1
1070
   143
1040
0.039
1070
   172
1070
     1
1070
   271
1070
     0
1070
   279
1070
     1
1070
   288
1070
     1
1002
}
  0
DIMENSION
  5
7B6D
  8
3
  6
CONTINUOUS
  2
*D4
 10
-1572.20931
 20
-5738.352457
 30
0.0
 11
-1844.70931
 21
-5614.8785712604731
 31
0.0
 70
   128
 13
-2117.2093100000002
 23
-5887.4126889999998
 33
0.0
 14
-1572.20931
 24
-5973.9126889999998
 34
0.0
1001
ACAD
1000
DSTYLE
1002
{
1070
   288
1070
     1
1070
   172
1070
     1
1070
    40
1040
40.0
1070
   271
1070
     0
1070
   143
1040
0.039
1002
}
  0
DIMENSION
  5
7B79
  8
3
  6
CONTINUOUS
  2
*D5
 10
-886.20930999999985
 20
-5738.352457
 30
0.0
 11
-1229.20931
 21
-5638.352456999999
 31
0.0
 70
     0
 13
-1572.20931
 23
-5973.9126889999998
 33
0.0
 14
-886.20930999999985
 24
-6777.9126889999998
 34
0.0
1001
ACAD
1000
DSTYLE
1002
{
1070
   287
1070
     4
1070
   287
1070
     4
1070
    40
1040
40.0
1070
    75
1070
     1
1070
   143
1040
0.039
1070
   172
1070
     1
1070
   271
1070
     0
1070
   279
1070
     1
1070
   288
1070
     1
1002
}
  0
DIMENSION
  5
7B86
  8
3
  6
CONTINUOUS
  2
*D6
 10
-372.20931000000002
 20
-4470.8768629999986
 30
0.0
 11
-1214.023721
 21
-4470.8768629999986
 31
0.0
 70
   128
 13
-2072.2093100000002
 23
-4005.0757159999989
 33
0.0
 14
-372.20931000000002
 24
-4005.0757159999989
 34
0.0
1001
ACAD
1000
DSTYLE
1002
{
1070
   287
1070
     3
1070
   287
1070
     3
1070
    40
1040
40.0
1070
   143
1040
0.039
1070
   172
1070
     1
1070
   271
1070
     0
1070
   279
1070
     0
1070
   288
1070
     1
1002
}
  0
DIMENSION
  5
7B93
  8
3
  6
CONTINUOUS
  2
*D7
 10
-17.921163000000671
 20
-4005.0757159999989
 30
0.0
 11
-17.921162999999989
 21
-3564.3049030000002
 31
0.0
 70
   128
 13
-372.20931000000002
 23
-3155.0757159999998
 33
0.0
 14
-372.20931000000002
 24
-4005.0757159999989
 34
0.0
 50
90.0
1001
ACAD
1000
DSTYLE
1002
{
1070
   287
1070
     3
1070
   287
1070
     3
1070
    40
1040
40.0
1070
   143
1040
0.039
1070
   172
1070
     1
1070
   271
1070
     0
1070
   279
1070
     0
1070
   288
1070
     1
1002
}
  0
LINE
  5
7B98
  8
2
  6
CENTER
 10
-698.94500599999992
 20
-3508.0757159999998
 30
0.0
 11
-2336.1405539999992
 21
-3508.0757159999998
 31
0.0
  0
LINE
  5
7B99
  8
2
  6
CENTER
 10
-1572.20931
 20
-4198.6633110000002
 30
0.0
 11
-1572.20931
 21
-3049.1743409999999
 31
0.0
  0
DIMENSION
  5
7BA7
  8
3
  6
CONTINUOUS
  2
*D8
 10
2346.1284549999982
 20
-7177.9126890000016
 30
0.0
 11
2346.128455
 21
-6781.3671936716546
 31
0.0
 70
   128
 13
2033.8038730000001
 23
-6377.9126889999998
 33
0.0
 14
2033.8038730000001
 24
-7177.9126889999998
 34
0.0
 50
90.0
1001
ACAD
1000
DSTYLE
1002
{
1070
   287
1070
     3
1070
   287
1070
     3
1070
     3
1000
φ<>
1070
    40
1040
40.0
1070
   143
1040
0.039
1070
   172
1070
     1
1070
   271
1070
     0
1070
   279
1070
     0
1070
   288
1070
     1
1002
}
  0
DIMENSION
  5
7BE7
  8
3
  6
CONTINUOUS
  2
*D9
 10
1950.8038730000001
 20
-5752.0126600000003
 30
0.0
 11
1625.0895869999999
 21
-5752.0126600000003
 31
0.0
 70
   128
 13
1350.8038730000001
 23
-5929.9126889999998
 33
0.0
 14
1950.8038730000001
 24
-5929.9126889999998
 34
0.0
1001
ACAD
1000
DSTYLE
1002
{
1070
   287
1070
     3
1070
   287
1070
     3
1070
    40
1040
40.0
1070
   143
1040
0.039
1070
   172
1070
     1
1070
   271
1070
     0
1070
   279
1070
     0
1070
   288
1070
     1
1002
}
  0
DIMENSION
  5
7BF6
  8
3
  6
CONTINUOUS
  2
*D10
 10
1650.8038730000001
 20
-5467.2338520000003
 30
0.0
 11
1365.8038730000001
 21
-5242.9546752343413
 31
0.0
 70
   128
  1
MAX\P660
 13
1080.8038730000001
 23
-6577.9126889999998
 33
0.0
 14
1650.8038730000001
 24
-5510.6746899999998
 34
0.0
1001
ACAD
1000
DSTYLE
1002
{
1070
   288
1070
     1
1070
   172
1070
     1
1070
    40
1040
40.0
1070
   271
1070
     0
1070
   143
1040
0.039
1002
}
  0
DIMENSION
  5
7C04
  8
3
  6
CONTINUOUS
  2
*D11
 10
2033.8038730000001
 20
-5467.2338520000003
 30
0.0
 11
1843.6028570000001
 21
-5466.7536689999997
 31
0.0
 70
   128
 13
1650.8038730000001
 23
-5510.6746899999998
 33
0.0
 14
2033.8038730000001
 24
-6337.9126889999998
 34
0.0
1001
ACAD
1000
DSTYLE
1002
{
1070
   287
1070
     4
1070
   287
1070
     4
1070
    40
1040
40.0
1070
    75
1070
     1
1070
   143
1040
0.039
1070
   172
1070
     1
1070
   271
1070
     0
1070
   279
1070
     1
1070
   288
1070
     1
1002
}
  0
LINE
  5
7C1B
  8
2
  6
CENTER
 10
-672.81975699999987
 20
-6777.9126889999998
 30
0.0
 11
-2282.5915209999998
 21
-6777.9126889999998
 31
0.0
  0
LINE
  5
7C1C
  8
4
  6
CONTINUOUS
 10
3022.3430859999999
 20
-9369.6174319999991
 30
0.0
 11
3022.3430859999999
 21
-10169.61743199999
 31
0.0
  0
LINE
  5
7C1D
  8
4
  6
CONTINUOUS
 10
222.343086
 20
-9369.6174319999991
 30
0.0
 11
222.34308599999989
 21
-10169.61743199999
 31
0.0
  0
LINE
  5
7C1E
  8
4
  6
CONTINUOUS
 10
-1777.6569139999999
 20
-9369.6174319999991
 30
0.0
 11
-1777.6569139999999
 21
-10169.61743199999
 31
0.0
  0
LINE
  5
7C21
  8
4
  6
CONTINUOUS
 10
-1777.6569139999999
 20
-10169.61743199999
 30
0.0
 11
3022.3430859999999
 21
-10169.61743199999
 31
0.0
  0
LINE
  5
7C22
  8
4
  6
CONTINUOUS
 10
-1777.6569139999999
 20
-9769.6174319999991
 30
0.0
 11
3022.3430859999999
 21
-9769.6174319999991
 31
0.0
  0
TEXT
  5
7C23
  8
4
  6
CONTINUOUS
 10
-1623.6485909999999
 20
-9643.4453290000019
 30
0.0
 40
200.0
  1
機器名称
  0
TEXT
  5
7C24
  8
4
  6
CONTINUOUS
 10
-1632.6244899999999
 20
-10083.036805
 30
0.0
 40
200.0
  1
機器型番
  0
TEXT
  5
7C25
  8
4
  6
CONTINUOUS
 10
333.05806799999999
 20
-9679.3303560000004
 30
0.0
 40
160.0
  1
ミツヤリミットロードファン
  0
TEXT
  5
7C26
  8
4
  6
CONTINUOUS
 10
368.96106800000001
 20
-10100.979095000001
 30
0.0
 40
200.0
  1
LLE#5-4
  0
TEXT
  5
7C28
  8
4
  6
CONTINUOUS
 10
-1290.8953349999999
 20
-1835.902067
 30
0.0
 40
216.0
  1
床置防振ベット
  0
TEXT
  5
7C29
  8
4
  6
CONTINUOUS
 10
-3112.9865410000002
 20
-1234.093527
 30
0.0
 40
240.0
  1
ベルト駆動式片吸込両持排煙ファン
  0
LINE
  5
7C2A
  8
4
  6
CONTINUOUS
 10
-3377.6569140000001
 20
-1491.9824149999999
 30
0.0
 11
3022.3430859999999
 21
-1491.9824149999999
 31
0.0
  0
LINE
  5
7C2B
  8
4
  6
CONTINUOUS
 10
-3377.6569140000001
 20
-691.98241500000006
 30
0.0
 11
3022.3430859999999
 21
-691.98241500000006
 31
0.0
  0
LINE
  5
7C2C
  8
4
  6
CONTINUOUS
 10
-1777.6569139999999
 20
-9369.6174319999991
 30
0.0
 11
3022.3430859999999
 21
-9369.6174319999991
 31
0.0
  0
LINE
  5
7C2D
  8
4
  6
CONTINUOUS
 10
-3377.6569140000001
 20
-691.98241500000006
 30
0.0
 11
-3377.6569140000001
 21
-1491.9824149999999
 31
0.0
  0
TEXT
  5
7C2E
  8
4
  6
CONTINUOUS
 10
-3034.3306640000001
 20
-1840.339522
 30
0.0
 40
216.0
  1
左回転左横向
  0
TEXT
  5
7C2F
  8
4
  6
CONTINUOUS
 10
1498.221323
 20
-545.37310599999989
 30
0.0
 40
224.0
  1
No.
  0
TEXT
  5
7C30
  8
4
  6
CONTINUOUS
 10
867.52733599999999
 20
-1835.902067
 30
0.0
 40
216.0
  1
縮尺：1/40
  0
LINE
  5
7C31
  8
4
  6
CONTINUOUS
 10
3022.3430859999999
 20
-691.98241500000006
 30
0.0
 11
3022.3430859999999
 21
-1491.9824149999999
 31
0.0
  0
LINE
  5
7C33
  8
4
  6
CONTINUOUS
 10
1384.8127750000001
 20
-644.56309999999985
 30
0.0
 11
1384.8127750000001
 21
-223.00838599999989
 31
0.0
  0
LINE
  5
7C34
  8
4
  6
CONTINUOUS
 10
1384.8127750000001
 20
-223.00838599999989
 30
0.0
 11
3022.3430859999999
 21
-223.00838599999989
 31
0.0
  0
LINE
  5
7C35
  8
4
  6
CONTINUOUS
 10
3022.3430859999999
 20
-223.00838599999989
 30
0.0
 11
3022.3430859999999
 21
-644.56309999999985
 31
0.0
  0
LINE
  5
7C36
  8
4
  6
CONTINUOUS
 10
3022.3430859999999
 20
-644.56309999999985
 30
0.0
 11
1384.8127750000001
 21
-644.56309999999985
 31
0.0
  0
LINE
  5
7C45
  8
2
  6
CENTER
 10
1650.8038730000001
 20
-5742.2735149999999
 30
0.0
 11
1650.8038730000001
 21
-7562.9126889999998
 31
0.0
  0
DIMENSION
  5
7CF9
  8
3
  2
*D12
 10
-372.20930999999979
 20
-5488.0863317888316
 30
0.0
 11
-1236.542689137153
 21
-5488.0863317888316
 31
0.0
 70
   128
 13
-2117.2093100000002
 23
-5887.4126889999998
 33
0.0
 14
-372.2093099999999
 24
-7267.9126889999998
 34
0.0
1001
ACAD
1000
DSTYLE
1002
{
1070
   287
1070
     3
1070
   287
1070
     3
1070
    40
1040
40.0
1070
   143
1040
0.039
1070
   172
1070
     1
1070
   271
1070
     0
1070
   279
1070
     0
1070
   288
1070
     1
1002
}
  0
DIMENSION
  5
7D10
  8
3
  2
*D13
 10
-1572.20931
 20
-7816.9638069487492
 30
0.0
 11
-1822.20931
 21
-7716.9638069487492
 31
0.0
 70
     0
 13
-2072.2093100000002
 23
-7562.9126889999998
 33
0.0
 14
-1572.20931
 24
-7562.9126889999998
 34
0.0
1001
ACAD
1000
DSTYLE
1002
{
1070
   287
1070
     3
1070
   287
1070
     3
1070
    40
1040
40.0
1070
   143
1040
0.039
1070
   172
1070
     1
1070
   271
1070
     0
1070
   279
1070
     0
1002
}
  0
DIMENSION
  5
7D1D
  8
3
  2
*D14
 10
-372.2093099999999
 20
-7816.9638069487492
 30
0.0
 11
-972.20930999999996
 21
-7716.9638069487492
 31
0.0
 70
     0
 13
-1572.20931
 23
-7562.9126889999998
 33
0.0
 14
-372.2093099999999
 24
-7562.9126889999998
 34
0.0
1001
ACAD
1000
DSTYLE
1002
{
1070
   287
1070
     3
1070
   287
1070
     3
1070
    40
1040
40.0
1070
   143
1040
0.039
1070
   172
1070
     1
1070
   271
1070
     0
1070
   279
1070
     0
1002
}
  0
DIMENSION
  5
7D2C
  8
3
  2
*D15
 10
1650.8038730000001
 20
-7816.9638069487492
 30
0.0
 11
1402.3038730000001
 21
-7716.9638069487492
 31
0.0
 70
     0
 13
1153.8038729999989
 23
-7562.9126889999998
 33
0.0
 14
1650.8038730000001
 24
-7562.9126889999998
 34
0.0
1001
ACAD
1000
DSTYLE
1002
{
1070
   287
1070
     3
1070
   287
1070
     3
1070
    40
1040
40.0
1070
   143
1040
0.039
1070
   172
1070
     1
1070
   271
1070
     0
1070
   279
1070
     0
1002
}
  0
DIMENSION
  5
7D3A
  8
3
  2
*D16
 10
2003.8038730000001
 20
-7816.9638069487492
 30
0.0
 11
2278.0895872857141
 21
-7716.9638069487492
 31
0.0
 70
     0
 13
1650.8038730000001
 23
-7562.9126889999998
 33
0.0
 14
2003.8038730000001
 24
-7562.9126889999998
 34
0.0
1001
ACAD
1000
DSTYLE
1002
{
1070
   287
1070
     3
1070
   287
1070
     3
1070
    40
1040
40.0
1070
   143
1040
0.039
1070
   172
1070
     1
1070
   271
1070
     0
1070
   279
1070
     0
1002
}
  0
DIMENSION
  5
7D51
  8
3
  2
*D18
 10
-2524.5415830233251
 20
-7562.9126889999998
 30
0.0
 11
-2624.5415830233242
 21
-7905.7698318571438
 31
0.0
 70
     0
 13
-2072.2093100000002
 23
-7462.9126889999989
 33
0.0
 14
-2072.2093100000002
 24
-7562.9126889999998
 34
0.0
 50
90.0
1001
ACAD
1000
DSTYLE
1002
{
1070
   287
1070
     3
1070
   287
1070
     3
1070
    40
1040
40.0
1070
   143
1040
0.039
1070
   172
1070
     1
1070
   271
1070
     0
1070
   279
1070
     0
1070
     6
1000
DOT
1002
}
  0
DIMENSION
  5
7D60
  8
3
  2
*D19
 10
-2524.5415830233251
 20
-7367.9126889999998
 30
0.0
 11
-2715.9701544518971
 21
-7415.4126889999998
 31
0.0
 70
     0
 13
-2072.2093100000002
 23
-7462.9126889999989
 33
0.0
 14
-2072.2093100000002
 24
-7367.9126889999998
 34
0.0
 50
90.0
1001
ACAD
1000
DSTYLE
1002
{
1070
   172
1070
     1
1070
    40
1040
40.0
1070
     3
1000
(<>)
1070
   271
1070
     0
1070
     6
1000
_DOT
1070
   143
1040
0.039
1002
}
  0
DIMENSION
  5
7D6D
  8
3
  2
*D20
 10
-2882.7527859388861
 20
-7562.9126889999998
 30
0.0
 11
-3014.1813573674572
 21
-6725.1626890000007
 31
0.0
 70
     0
 13
-2117.2093100000002
 23
-5887.4126889999998
 33
0.0
 14
-2072.2093100000002
 24
-7562.9126889999998
 34
0.0
 50
90.0
1001
ACAD
1000
DSTYLE
1002
{
1070
   287
1070
     3
1070
   287
1070
     3
1070
     3
1000
(<>)
1070
    40
1040
40.0
1070
   143
1040
0.039
1070
   172
1070
     1
1070
   271
1070
     0
1070
   279
1070
     0
1002
}
  0
ENDSEC
  0
EOF
