  0
SECTION
  2
HEADER
  9
$ACADVER
  1
AC1009
  9
$INSBASE
 10
0.0
 20
0.0
 30
0.0
  9
$EXTMIN
 10
1000.0
 20
1200.0
 30
0.0
  9
$EXTMAX
 10
7400.0
 20
11146.609046
 30
0.0
  9
$LIMMIN
 10
0.0
 20
0.0
  9
$LIMMAX
 10
297.0
 20
210.0
  9
$ORTHOMODE
 70
     0
  9
$REGENMODE
 70
     1
  9
$FILLMODE
 70
     0
  9
$QTEXTMODE
 70
     0
  9
$MIRRTEXT
 70
     1
  9
$DRAGMODE
 70
     2
  9
$LTSCALE
 40
100.0
  9
$OSMODE
 70
    37
  9
$ATTMODE
 70
     1
  9
$TEXTSIZE
 40
180.0
  9
$TRACEWID
 40
0.05
  9
$TEXTSTYLE
  7
STANDARD
  9
$CLAYER
  8
3
  9
$CELTYPE
  6
BYLAYER
  9
$CECOLOR
 62
   256
  9
$DIMSCALE
 40
40.0
  9
$DIMASZ
 40
2.0
  9
$DIMEXO
 40
0.5
  9
$DIMDLI
 40
10.0
  9
$DIMRND
 40
0.0
  9
$DIMDLE
 40
0.0
  9
$DIMEXE
 40
1.0
  9
$DIMTP
 40
1.0
  9
$DIMTM
 40
1.0
  9
$DIMTXT
 40
3.0
  9
$DIMCEN
 40
0.0
  9
$DIMTSZ
 40
0.0
  9
$DIMTOL
 70
     0
  9
$DIMLIM
 70
     0
  9
$DIMTIH
 70
     0
  9
$DIMTOH
 70
     0
  9
$DIMSE1
 70
     0
  9
$DIMSE2
 70
     0
  9
$DIMTAD
 70
     1
  9
$DIMZIN
 70
     8
  9
$DIMBLK
  1

  9
$DIMASO
 70
     1
  9
$DIMSHO
 70
     1
  9
$DIMPOST
  1

  9
$DIMAPOST
  1

  9
$DIMALT
 70
     0
  9
$DIMALTD
 70
     2
  9
$DIMALTF
 40
0.039
  9
$DIMLFAC
 40
1.0
  9
$DIMTOFL
 70
     1
  9
$DIMTVP
 40
0.0
  9
$DIMTIX
 70
     0
  9
$DIMSOXD
 70
     0
  9
$DIMSAH
 70
     1
  9
$DIMBLK1
  1
OPEN
  9
$DIMBLK2
  1
OPEN
  9
$DIMSTYLE
  2
IGA
  9
$DIMCLRD
 70
     0
  9
$DIMCLRE
 70
     0
  9
$DIMCLRT
 70
     0
  9
$DIMTFAC
 40
10.0
  9
$DIMGAP
 40
1.0
  9
$LUNITS
 70
     2
  9
$LUPREC
 70
     3
  9
$SKETCHINC
 40
0.1
  9
$FILLETRAD
 40
50.0
  9
$AUNITS
 70
     0
  9
$AUPREC
 70
     0
  9
$MENU
  1
acad
  9
$ELEVATION
 40
0.0
  9
$PELEVATION
 40
0.0
  9
$THICKNESS
 40
0.0
  9
$LIMCHECK
 70
     0
  9
$BLIPMODE
 70
     0
  9
$CHAMFERA
 40
0.5
  9
$CHAMFERB
 40
0.5
  9
$SKPOLY
 70
     0
  9
$TDCREATE
 40
2450753.3798752311
  9
$TDUPDATE
 40
2454953.685148831
  9
$TDINDWG
 40
0.0048706134
  9
$TDUSRTIMER
 40
0.0048706134
  9
$USRTIMER
 70
     1
  9
$ANGBASE
 50
0.0
  9
$ANGDIR
 70
     0
  9
$PDMODE
 70
     0
  9
$PDSIZE
 40
0.0
  9
$PLINEWID
 40
0.0
  9
$COORDS
 70
     1
  9
$SPLFRAME
 70
     0
  9
$SPLINETYPE
 70
     6
  9
$SPLINESEGS
 70
     8
  9
$ATTDIA
 70
     0
  9
$ATTREQ
 70
     1
  9
$HANDLING
 70
 10241
  9
$HANDSEED
  5
7E94
  9
$SURFTAB1
 70
     6
  9
$SURFTAB2
 70
     6
  9
$SURFTYPE
 70
     6
  9
$SURFU
 70
     6
  9
$SURFV
 70
     6
  9
$UCSNAME
  2

  9
$UCSORG
 10
0.0
 20
0.0
 30
0.0
  9
$UCSXDIR
 10
1.0
 20
0.0
 30
0.0
  9
$UCSYDIR
 10
0.0
 20
1.0
 30
0.0
  9
$PUCSNAME
  2

  9
$PUCSORG
 10
0.0
 20
0.0
 30
0.0
  9
$PUCSXDIR
 10
1.0
 20
0.0
 30
0.0
  9
$PUCSYDIR
 10
0.0
 20
1.0
 30
0.0
  9
$USERI1
 70
     0
  9
$USERI2
 70
     0
  9
$USERI3
 70
     0
  9
$USERI4
 70
     0
  9
$USERI5
 70
     0
  9
$USERR1
 40
0.0
  9
$USERR2
 40
0.0
  9
$USERR3
 40
0.0
  9
$USERR4
 40
0.0
  9
$USERR5
 40
0.0
  9
$WORLDVIEW
 70
     1
  9
$SHADEDGE
 70
     3
  9
$SHADEDIF
 70
    70
  9
$TILEMODE
 70
     1
  9
$MAXACTVP
 70
    16
  9
$PLIMCHECK
 70
     0
  9
$PEXTMIN
 10
1.0000000000000000E+020
 20
1.0000000000000000E+020
 30
1.0000000000000000E+020
  9
$PEXTMAX
 10
-1.0000000000000000E+020
 20
-1.0000000000000000E+020
 30
-1.0000000000000000E+020
  9
$PLIMMIN
 10
0.0
 20
0.0
  9
$PLIMMAX
 10
12.0
 20
9.0
  9
$UNITMODE
 70
     0
  9
$VISRETAIN
 70
     0
  9
$PLINEGEN
 70
     0
  9
$PSLTSCALE
 70
     1
  0
ENDSEC
  0
SECTION
  2
TABLES
  0
TABLE
  2
VPORT
 70
     2
  0
VPORT
  2
*ACTIVE
 70
     0
 10
0.0
 20
0.0
 11
1.0
 21
1.0
 12
16011.28676996367
 22
6040.9981754934051
 13
0.0
 23
0.0
 14
10.0
 24
10.0
 15
10.0
 25
10.0
 16
0.0
 26
0.0
 36
1.0
 17
0.0
 27
0.0
 37
0.0
 40
11151.40306791609
 41
3.1666666666666661
 42
50.0
 43
0.0
 44
0.0
 50
0.0
 51
0.0
 71
     0
 72
   100
 73
     1
 74
     0
 75
     0
 76
     0
 77
     0
 78
     0
  0
ENDTAB
  0
TABLE
  2
LTYPE
 70
     2
  0
LTYPE
  2
CONTINUOUS
 70
     0
  3
Solid line
 72
    65
 73
     0
 40
0.0
  0
LTYPE
  2
CENTER
 70
     0
  3
____ _ ____ _ ____ _ ____ _ ____ _ ____ _ ____ 
 72
    65
 73
     4
 40
2.0
 49
1.25
 49
-0.25
 49
0.25
 49
-0.25
  0
ENDTAB
  0
TABLE
  2
LAYER
 70
     6
  0
LAYER
  2
0
 70
     0
 62
     7
  6
CONTINUOUS
  0
LAYER
  2
3
 70
     0
 62
     2
  6
CONTINUOUS
  0
LAYER
  2
2
 70
     0
 62
     3
  6
CENTER
  0
LAYER
  2
1
 70
     0
 62
     4
  6
CONTINUOUS
  0
LAYER
  2
4
 70
     0
 62
     7
  6
CONTINUOUS
  0
LAYER
  2
DEFPOINTS
 70
     0
 62
     7
  6
CONTINUOUS
  0
ENDTAB
  0
TABLE
  2
STYLE
 70
     1
  0
STYLE
  2
STANDARD
 70
     0
 40
0.0
 41
1.0
 50
0.0
 71
     0
 42
180.0
  3
simplex.shx
  4
extfont.shx
  0
ENDTAB
  0
TABLE
  2
VIEW
 70
     0
  0
ENDTAB
  0
TABLE
  2
UCS
 70
     0
  0
ENDTAB
  0
TABLE
  2
APPID
 70
     1
  0
APPID
  2
ACAD
 70
     0
  0
ENDTAB
  0
TABLE
  2
DIMSTYLE
 70
     1
  0
DIMSTYLE
  2
IGA
 70
     0
  3

  4

  5

  6
OPEN
  7
OPEN
 40
2.0
 41
2.0
 42
0.5
 43
10.0
 44
1.0
 45
0.0
 46
0.0
 47
1.0
 48
1.0
140
3.0
141
0.0
142
0.0
143
0.03937
144
1.0
145
0.0
146
10.0
147
1.0
 71
     0
 72
     0
 73
     0
 74
     0
 75
     0
 76
     0
 77
     1
 78
     8
170
     0
171
     2
172
     0
173
     1
174
     0
175
     0
176
     0
177
     0
178
     0
  0
ENDTAB
  0
ENDSEC
  0
SECTION
  2
BLOCKS
  0
BLOCK
  8
0
  2
$MODEL_SPACE
 70
     0
 10
0.0
 20
0.0
 30
0.0
  3
$MODEL_SPACE
  1

  0
ENDBLK
  5
1B
  8
0
  0
BLOCK
 67
     1
  8
0
  2
$PAPER_SPACE
 70
     0
 10
0.0
 20
0.0
 30
0.0
  3
$PAPER_SPACE
  1

  0
ENDBLK
  5
18
 67
     1
  8
0
  0
BLOCK
  8
0
  2
_OPEN
 70
     0
 10
0.0
 20
0.0
 30
0.0
  3
_OPEN
  1

  0
LINE
  5
7AE2
  8
0
  6
BYBLOCK
 62
     0
 10
-1.0
 20
0.166667
 30
0.0
 11
0.0
 21
0.0
 31
0.0
  0
LINE
  5
7AE3
  8
0
  6
BYBLOCK
 62
     0
 10
0.0
 20
0.0
 30
0.0
 11
-1.0
 21
-0.166667
 31
0.0
  0
LINE
  5
7AE4
  8
0
  6
BYBLOCK
 62
     0
 10
0.0
 20
0.0
 30
0.0
 11
-1.0
 21
0.0
 31
0.0
  0
ENDBLK
  5
7AE5
  8
0
  0
BLOCK
  8
0
  2
*D1
 70
     1
 10
0.0
 20
0.0
 30
0.0
  3
*D1
  1

  0
LINE
  5
7DF0
  8
3
  6
CONTINUOUS
 62
     0
 10
1835.807689
 20
3493.5820723677421
 30
0.0
 11
1835.807689
 21
3134.5248033677422
 31
0.0
  0
LINE
  5
7DF1
  8
3
  6
CONTINUOUS
 62
     0
 10
3035.8076890000002
 20
3402.224348367743
 30
0.0
 11
3035.8076890000002
 21
3134.5248033677422
 31
0.0
  0
LINE
  5
7DF2
  8
3
  6
CONTINUOUS
 62
     0
 10
1915.807689
 20
3174.5248033677422
 30
0.0
 11
2955.8076890000002
 21
3174.5248033677422
 31
0.0
  0
INSERT
  5
7DF3
  8
3
  6
CONTINUOUS
 62
     0
  2
_OPEN
 10
1835.807689
 20
3174.5248033677422
 30
0.0
 41
80.0
 42
80.0
 43
80.0
 50
180.0
  0
INSERT
  5
7DF4
  8
3
  6
CONTINUOUS
 62
     0
  2
_OPEN
 10
3035.8076890000002
 20
3174.5248033677422
 30
0.0
 41
80.0
 42
80.0
 43
80.0
  0
TEXT
  8
3
  40
120
  5
7E84
  62
0
  72
0
  71
0
 10
2206.74
 20
3062.12
 30
0.000000
  1
1200
  0
POINT
  5
7DF6
  8
DEFPOINTS
  6
CONTINUOUS
 62
     0
 10
1835.807689
 20
3513.5820723677421
 30
0.0
  0
POINT
  5
7DF7
  8
DEFPOINTS
  6
CONTINUOUS
 62
     0
 10
3035.8076890000002
 20
3422.2243483677421
 30
0.0
  0
POINT
  5
7DF8
  8
DEFPOINTS
  6
CONTINUOUS
 62
     0
 10
3035.8076890000002
 20
3174.5248033677422
 30
0.0
  0
ENDBLK
  5
7AF2
  8
0
  0
BLOCK
  8
0
  2
*D2
 70
     1
 10
0.0
 20
0.0
 30
0.0
  3
*D2
  1

  0
LINE
  5
7DF9
  8
3
  6
CONTINUOUS
 62
     0
 10
3535.8076890000002
 20
3493.5820723677421
 30
0.0
 11
3535.8076890000002
 21
3134.5248033677422
 31
0.0
  0
LINE
  5
7DFA
  8
3
  6
CONTINUOUS
 62
     0
 10
3115.8076890000002
 20
3174.5248033677422
 30
0.0
 11
3455.8076890000002
 21
3174.5248033677422
 31
0.0
  0
TEXT
  8
3
  40
120
  5
7E85
  62
0
  72
0
  71
0
 10
3074.06
 20
3063.51
 30
0.000000
  1
500
  0
INSERT
  5
7DFC
  8
3
  6
CONTINUOUS
 62
     0
  2
_OPEN
 10
3035.8076890000002
 20
3174.5248033677422
 30
0.0
 41
80.0
 42
80.0
 43
80.0
 50
180.0
  0
INSERT
  5
7DFD
  8
3
  6
CONTINUOUS
 62
     0
  2
_OPEN
 10
3535.8076890000002
 20
3174.5248033677422
 30
0.0
 41
80.0
 42
80.0
 43
80.0
  0
POINT
  5
7DFE
  8
DEFPOINTS
  6
CONTINUOUS
 62
     0
 10
3035.8076890000002
 20
3422.2243483677421
 30
0.0
  0
POINT
  5
7DFF
  8
DEFPOINTS
  6
CONTINUOUS
 62
     0
 10
3535.8076890000002
 20
3513.5820723677421
 30
0.0
  0
POINT
  5
7E00
  8
DEFPOINTS
  6
CONTINUOUS
 62
     0
 10
3535.8076890000002
 20
3174.5248033677422
 30
0.0
  0
ENDBLK
  5
7B17
  8
0
  0
BLOCK
  8
0
  2
*D3
 70
     1
 10
0.0
 20
0.0
 30
0.0
  3
*D3
  1

  0
LINE
  5
7E01
  8
3
  6
CONTINUOUS
 62
     0
 10
3600.8076890000002
 20
5071.5820723677434
 30
0.0
 11
3946.0360900000001
 21
5071.5820723677434
 31
0.0
  0
LINE
  5
7E02
  8
3
  6
CONTINUOUS
 62
     0
 10
3600.8076890000002
 20
4246.5820723677416
 30
0.0
 11
3946.0360900000001
 21
4246.5820723677416
 31
0.0
  0
LINE
  5
7E03
  8
3
  6
CONTINUOUS
 62
     0
 10
3906.0360900000001
 20
4991.5820723677434
 30
0.0
 11
3906.0360900000001
 21
4326.5820723677434
 31
0.0
  0
INSERT
  5
7E04
  8
3
  6
CONTINUOUS
 62
     0
  2
_OPEN
 10
3906.0360900000001
 20
5071.5820723677434
 30
0.0
 41
80.0
 42
80.0
 43
80.0
 50
90.0
  0
INSERT
  5
7E05
  8
3
  6
CONTINUOUS
 62
     0
  2
_OPEN
 10
3906.0360900000001
 20
4246.5820723677416
 30
0.0
 41
80.0
 42
80.0
 43
80.0
 50
270.0
  0
TEXT
  8
3
  40
120
  5
7E86
  62
0
  72
0
  71
0
 10
3566.04
 20
4509.24
 30
0.000000
  1
825
  0
POINT
  5
7E07
  8
DEFPOINTS
  6
CONTINUOUS
 62
     0
 10
3580.8076890000002
 20
5071.5820723677434
 30
0.0
  0
POINT
  5
7E08
  8
DEFPOINTS
  6
CONTINUOUS
 62
     0
 10
3580.8076890000002
 20
4246.5820723677416
 30
0.0
  0
POINT
  5
7E09
  8
DEFPOINTS
  6
CONTINUOUS
 62
     0
 10
3906.0360900000001
 20
4246.5820723677416
 30
0.0
  0
ENDBLK
  5
7B23
  8
0
  0
BLOCK
  8
0
  2
*D4
 70
     1
 10
0.0
 20
0.0
 30
0.0
  3
*D4
  1

  0
LINE
  5
7E0A
  8
3
  6
CONTINUOUS
 62
     0
 10
3600.8076890000002
 20
5071.5820723677434
 30
0.0
 11
4228.2591300000004
 21
5071.5820723677434
 31
0.0
  0
LINE
  5
7E0B
  8
3
  6
CONTINUOUS
 62
     0
 10
3526.5998880000002
 20
4223.5820723677434
 30
0.0
 11
4228.2591300000004
 21
4223.5820723677434
 31
0.0
  0
LINE
  5
7E0C
  8
3
  6
CONTINUOUS
 62
     0
 10
4188.2591300000004
 20
4991.5820723677434
 30
0.0
 11
4188.2591300000004
 21
4303.5820723677416
 31
0.0
  0
INSERT
  5
7E0D
  8
3
  6
CONTINUOUS
 62
     0
  2
_OPEN
 10
4188.2591300000004
 20
5071.5820723677434
 30
0.0
 41
80.0
 42
80.0
 43
80.0
 50
90.0
  0
INSERT
  5
7E0E
  8
3
  6
CONTINUOUS
 62
     0
  2
_OPEN
 10
4188.2591300000004
 20
4223.5820723677434
 30
0.0
 41
80.0
 42
80.0
 43
80.0
 50
270.0
  0
TEXT
  8
3
  40
120
  5
7E87
  62
0
  72
0
  71
0
 10
3848.26
 20
4474.86
 30
0.000000
  1
848
  0
POINT
  5
7E10
  8
DEFPOINTS
  6
CONTINUOUS
 62
     0
 10
3580.8076890000002
 20
5071.5820723677434
 30
0.0
  0
POINT
  5
7E11
  8
DEFPOINTS
  6
CONTINUOUS
 62
     0
 10
3506.5998880000011
 20
4223.5820723677434
 30
0.0
  0
POINT
  5
7E12
  8
DEFPOINTS
  6
CONTINUOUS
 62
     0
 10
4188.2591300000004
 20
4223.5820723677434
 30
0.0
  0
ENDBLK
  5
7B30
  8
0
  0
BLOCK
  8
0
  2
*D5
 70
     1
 10
0.0
 20
0.0
 30
0.0
  3
*D5
  1

  0
LINE
  5
7E13
  8
3
  6
CONTINUOUS
 62
     0
 10
3555.8076890000002
 20
3633.5820723677421
 30
0.0
 11
4228.2591299999985
 21
3633.5820723677421
 31
0.0
  0
LINE
  5
7E14
  8
3
  6
CONTINUOUS
 62
     0
 10
4188.2591299999985
 20
4143.5820723677416
 30
0.0
 11
4188.2591299999985
 21
3713.5820723677421
 31
0.0
  0
INSERT
  5
7E15
  8
3
  6
CONTINUOUS
 62
     0
  2
_OPEN
 10
4188.2591299999985
 20
4223.5820723677434
 30
0.0
 41
80.0
 42
80.0
 43
80.0
 50
90.0
  0
INSERT
  5
7E16
  8
3
  6
CONTINUOUS
 62
     0
  2
_OPEN
 10
4188.2591299999985
 20
3633.5820723677421
 30
0.0
 41
80.0
 42
80.0
 43
80.0
 50
270.0
  0
TEXT
  8
3
  40
120
  5
7E88
  62
0
  72
0
  71
0
 10
3848.26
 20
3716.18
 30
0.000000
  1
590
  0
POINT
  5
7E18
  8
DEFPOINTS
  6
CONTINUOUS
 62
     0
 10
3506.5998880000011
 20
4223.5820723677434
 30
0.0
  0
POINT
  5
7E19
  8
DEFPOINTS
  6
CONTINUOUS
 62
     0
 10
3535.8076890000002
 20
3633.5820723677421
 30
0.0
  0
POINT
  5
7E1A
  8
DEFPOINTS
  6
CONTINUOUS
 62
     0
 10
4188.2591299999985
 20
3633.5820723677421
 30
0.0
  0
ENDBLK
  5
7B3C
  8
0
  0
BLOCK
  8
0
  2
*D6
 70
     1
 10
0.0
 20
0.0
 30
0.0
  3
*D6
  1

  0
LINE
  5
7E1B
  8
3
  6
CONTINUOUS
 62
     0
 10
3555.8076890000002
 20
3633.5820723677421
 30
0.0
 11
4228.2591300000004
 21
3633.5820723677421
 31
0.0
  0
LINE
  5
7E1C
  8
3
  6
CONTINUOUS
 62
     0
 10
3555.8076890000002
 20
3513.5820723677421
 30
0.0
 11
4228.2591300000004
 21
3513.5820723677421
 31
0.0
  0
LINE
  5
7E1D
  8
3
  6
CONTINUOUS
 62
     0
 10
4188.2591300000004
 20
3713.5820723677421
 30
0.0
 11
4188.2591300000004
 21
3793.5820723677421
 31
0.0
  0
LINE
  5
7E1E
  8
3
  6
CONTINUOUS
 62
     0
 10
4188.2591300000004
 20
3433.582072367743
 30
0.0
 11
4188.2591300000004
 21
2987.8677866534558
 31
0.0
  0
LINE
  5
7E1F
  8
3
  6
CONTINUOUS
 62
     0
 10
4188.2591300000004
 20
3633.5820723677421
 30
0.0
 11
4188.2591300000004
 21
3513.5820723677421
 31
0.0
  0
INSERT
  5
7E20
  8
3
  6
CONTINUOUS
 62
     0
  2
_OPEN
 10
4188.2591300000004
 20
3633.5820723677421
 30
0.0
 41
80.0
 42
80.0
 43
80.0
 50
270.0
  0
INSERT
  5
7E21
  8
3
  6
CONTINUOUS
 62
     0
  2
_OPEN
 10
4188.2591300000004
 20
3513.5820723677421
 30
0.0
 41
80.0
 42
80.0
 43
80.0
 50
90.0
  0
TEXT
  8
3
  40
120
  5
7E89
  62
0
  72
0
  71
0
 10
3848.26
 20
2958.32
 30
0.000000
  1
120
  0
POINT
  5
7E23
  8
DEFPOINTS
  6
CONTINUOUS
 62
     0
 10
3535.8076890000002
 20
3633.5820723677421
 30
0.0
  0
POINT
  5
7E24
  8
DEFPOINTS
  6
CONTINUOUS
 62
     0
 10
3535.8076890000002
 20
3513.5820723677421
 30
0.0
  0
POINT
  5
7E25
  8
DEFPOINTS
  6
CONTINUOUS
 62
     0
 10
4188.2591300000004
 20
3513.5820723677421
 30
0.0
  0
ENDBLK
  5
7CB1
  8
0
  0
BLOCK
  8
0
  2
*D7
 70
     1
 10
0.0
 20
0.0
 30
0.0
  3
*D7
  1

  0
LINE
  5
7E26
  8
3
  6
CONTINUOUS
 62
     0
 10
3600.8076890000002
 20
5114.0820723677434
 30
0.0
 11
4517.3657080000012
 21
5114.0820723677434
 31
0.0
  0
LINE
  5
7E27
  8
3
  6
CONTINUOUS
 62
     0
 10
3555.8076890000002
 20
3513.5820723677421
 30
0.0
 11
4517.3657080000012
 21
3513.5820723677421
 31
0.0
  0
LINE
  5
7E28
  8
3
  6
CONTINUOUS
 62
     0
 10
4477.3657080000012
 20
5034.0820723677416
 30
0.0
 11
4477.3657080000012
 21
3593.5820723677421
 31
0.0
  0
INSERT
  5
7E29
  8
3
  6
CONTINUOUS
 62
     0
  2
_OPEN
 10
4477.3657080000012
 20
5114.0820723677434
 30
0.0
 41
80.0
 42
80.0
 43
80.0
 50
90.0
  0
INSERT
  5
7E2A
  8
3
  6
CONTINUOUS
 62
     0
  2
_OPEN
 10
4477.3657080000012
 20
3513.5820723677421
 30
0.0
 41
80.0
 42
80.0
 43
80.0
 50
270.0
  0
TEXT
  8
3
  40
120
  5
7E8A
  62
0
  72
0
  71
0
 10
4137.37
 20
3966.03
 30
0.000000
  1
1601
  0
POINT
  5
7E2C
  8
DEFPOINTS
  6
CONTINUOUS
 62
     0
 10
3580.8076890000002
 20
5114.0820723677434
 30
0.0
  0
POINT
  5
7E2D
  8
DEFPOINTS
  6
CONTINUOUS
 62
     0
 10
3535.8076890000002
 20
3513.5820723677421
 30
0.0
  0
POINT
  5
7E2E
  8
DEFPOINTS
  6
CONTINUOUS
 62
     0
 10
4477.3657080000012
 20
3513.5820723677421
 30
0.0
  0
ENDBLK
  5
7B73
  8
0
  0
BLOCK
  8
0
  2
*D8
 70
     1
 10
0.0
 20
0.0
 30
0.0
  3
*D8
  1

  0
LINE
  5
7E2F
  8
3
  6
CONTINUOUS
 62
     0
 10
2349.8076890000002
 20
4243.5820723677416
 30
0.0
 11
2349.8076890000002
 21
5256.7134953677423
 31
0.0
  0
LINE
  5
7E30
  8
3
  6
CONTINUOUS
 62
     0
 10
3035.8076890000002
 20
5047.5820723677434
 30
0.0
 11
3035.8076890000002
 21
5256.7134953677423
 31
0.0
  0
LINE
  5
7E31
  8
3
  6
CONTINUOUS
 62
     0
 10
2429.8076890000002
 20
5216.7134953677423
 30
0.0
 11
2955.8076890000002
 21
5216.7134953677423
 31
0.0
  0
INSERT
  5
7E32
  8
3
  6
CONTINUOUS
 62
     0
  2
_OPEN
 10
2349.8076890000002
 20
5216.7134953677423
 30
0.0
 41
80.0
 42
80.0
 43
80.0
 50
180.0
  0
INSERT
  5
7E33
  8
3
  6
CONTINUOUS
 62
     0
  2
_OPEN
 10
3035.8076890000002
 20
5216.7134953677423
 30
0.0
 41
80.0
 42
80.0
 43
80.0
  0
TEXT
  8
3
  40
120
  5
7E8B
  62
0
  72
0
  71
0
 10
2468.31
 20
5104.31
 30
0.000000
  1
686
  0
POINT
  5
7E35
  8
DEFPOINTS
  6
CONTINUOUS
 62
     0
 10
2349.8076890000002
 20
4223.5820723677434
 30
0.0
  0
POINT
  5
7E36
  8
DEFPOINTS
  6
CONTINUOUS
 62
     0
 10
3035.8076890000002
 20
5027.5820723677416
 30
0.0
  0
POINT
  5
7E37
  8
DEFPOINTS
  6
CONTINUOUS
 62
     0
 10
3035.8076890000002
 20
5216.7134953677423
 30
0.0
  0
ENDBLK
  5
7D04
  8
0
  0
BLOCK
  8
0
  2
*D9
 70
     1
 10
0.0
 20
0.0
 30
0.0
  3
*D9
  1

  0
LINE
  5
7E38
  8
3
  6
CONTINUOUS
 62
     0
 10
3580.8076890000002
 20
5134.0820723677434
 30
0.0
 11
3580.8076890000002
 21
5256.7134953677423
 31
0.0
  0
LINE
  5
7E39
  8
3
  6
CONTINUOUS
 62
     0
 10
3115.8076890000002
 20
5216.7134953677423
 30
0.0
 11
3500.8076890000002
 21
5216.7134953677423
 31
0.0
  0
TEXT
  8
3
  40
120
  5
7E8C
  62
0
  72
0
  71
0
 10
3060.29
 20
5104.31
 30
0.000000
  1
545
  0
INSERT
  5
7E3B
  8
3
  6
CONTINUOUS
 62
     0
  2
_OPEN
 10
3035.8076890000002
 20
5216.7134953677423
 30
0.0
 41
80.0
 42
80.0
 43
80.0
 50
180.0
  0
INSERT
  5
7E3C
  8
3
  6
CONTINUOUS
 62
     0
  2
_OPEN
 10
3580.8076890000002
 20
5216.7134953677423
 30
0.0
 41
80.0
 42
80.0
 43
80.0
  0
POINT
  5
7E3D
  8
DEFPOINTS
  6
CONTINUOUS
 62
     0
 10
3035.8076890000002
 20
5027.5820723677416
 30
0.0
  0
POINT
  5
7E3E
  8
DEFPOINTS
  6
CONTINUOUS
 62
     0
 10
3580.8076890000002
 20
5114.0820723677434
 30
0.0
  0
POINT
  5
7E3F
  8
DEFPOINTS
  6
CONTINUOUS
 62
     0
 10
3580.8076890000002
 20
5216.7134953677423
 30
0.0
  0
ENDBLK
  5
7BA5
  8
0
  0
BLOCK
  8
0
  2
*D10
 70
     1
 10
0.0
 20
0.0
 30
0.0
  3
*D10
  1

  0
LINE
  5
7E40
  8
3
  6
CONTINUOUS
 62
     0
 10
1835.807689
 20
7189.5966480000006
 30
0.0
 11
1835.807689
 21
6722.4761099999987
 31
0.0
  0
LINE
  5
7E41
  8
3
  6
CONTINUOUS
 62
     0
 10
3535.8076890000002
 20
7189.5966480000006
 30
0.0
 11
3535.8076890000002
 21
6722.4761099999987
 31
0.0
  0
LINE
  5
7E42
  8
3
  6
CONTINUOUS
 62
     0
 10
1915.807689
 20
6762.4761099999996
 30
0.0
 11
3455.8076890000002
 21
6762.4761099999996
 31
0.0
  0
INSERT
  5
7E43
  8
3
  6
CONTINUOUS
 62
     0
  2
_OPEN
 10
1835.807689
 20
6762.4761099999996
 30
0.0
 41
80.0
 42
80.0
 43
80.0
 50
180.0
  0
INSERT
  5
7E44
  8
3
  6
CONTINUOUS
 62
     0
  2
_OPEN
 10
3535.8076890000002
 20
6762.4761099999996
 30
0.0
 41
80.0
 42
80.0
 43
80.0
  0
TEXT
  8
3
  40
120
  5
7E8D
  62
0
  72
0
  71
0
 10
2454.54
 20
6650.08
 30
0.000000
  1
1700
  0
POINT
  5
7E46
  8
DEFPOINTS
  6
CONTINUOUS
 62
     0
 10
1835.807689
 20
7209.5966479999997
 30
0.0
  0
POINT
  5
7E47
  8
DEFPOINTS
  6
CONTINUOUS
 62
     0
 10
3535.8076890000002
 20
7209.5966479999997
 30
0.0
  0
POINT
  5
7E48
  8
DEFPOINTS
  6
CONTINUOUS
 62
     0
 10
3535.8076890000002
 20
6762.4761099999996
 30
0.0
  0
ENDBLK
  5
7BB1
  8
0
  0
BLOCK
  8
0
  2
*D11
 70
     1
 10
0.0
 20
0.0
 30
0.0
  3
*D11
  1

  0
LINE
  5
7E49
  8
3
  6
CONTINUOUS
 62
     0
 10
3555.8076890000002
 20
8059.5966480000006
 30
0.0
 11
3966.686560000001
 21
8059.5966480000006
 31
0.0
  0
LINE
  5
7E4A
  8
3
  6
CONTINUOUS
 62
     0
 10
3555.8076890000002
 20
7209.5966479999997
 30
0.0
 11
3966.686560000001
 21
7209.5966479999997
 31
0.0
  0
LINE
  5
7E4B
  8
3
  6
CONTINUOUS
 62
     0
 10
3926.6865600000019
 20
7979.5966480000006
 30
0.0
 11
3926.6865600000019
 21
7289.5966480000006
 31
0.0
  0
INSERT
  5
7E4C
  8
3
  6
CONTINUOUS
 62
     0
  2
_OPEN
 10
3926.6865600000019
 20
8059.5966480000006
 30
0.0
 41
80.0
 42
80.0
 43
80.0
 50
90.0
  0
INSERT
  5
7E4D
  8
3
  6
CONTINUOUS
 62
     0
  2
_OPEN
 10
3926.6865600000019
 20
7209.5966479999997
 30
0.0
 41
80.0
 42
80.0
 43
80.0
 50
270.0
  0
TEXT
  8
3
  40
120
  5
7E8E
  62
0
  72
0
  71
0
 10
3586.69
 20
7443.96
 30
0.000000
  1
850
  0
POINT
  5
7E4F
  8
DEFPOINTS
  6
CONTINUOUS
 62
     0
 10
3535.8076890000002
 20
8059.5966480000006
 30
0.0
  0
POINT
  5
7E50
  8
DEFPOINTS
  6
CONTINUOUS
 62
     0
 10
3535.8076890000002
 20
7209.5966479999997
 30
0.0
  0
POINT
  5
7E51
  8
DEFPOINTS
  6
CONTINUOUS
 62
     0
 10
3926.6865600000019
 20
7209.5966479999997
 30
0.0
  0
ENDBLK
  5
7BBE
  8
0
  0
BLOCK
  8
0
  2
*D12
 70
     1
 10
0.0
 20
0.0
 30
0.0
  3
*D12
  1

  0
LINE
  5
7CC9
  8
0
  6
BYBLOCK
 62
     0
 10
6001.8186320000004
 20
4126.2149669999999
 30
0.0
 11
6001.8186320000004
 21
3801.8964119454222
 31
0.0
  0
LINE
  5
7CCA
  8
0
  6
BYBLOCK
 62
     0
 10
6498.8186320000013
 20
4090.388246999999
 30
0.0
 11
6498.8186320000013
 21
3801.8964119454222
 31
0.0
  0
LINE
  5
7CCB
  8
0
  6
BYBLOCK
 62
     0
 10
6081.8186320000004
 20
3841.8964119454231
 30
0.0
 11
6418.8186320000004
 21
3841.8964119454231
 31
0.0
  0
TEXT
  5
7CCC
  8
3
 62
     0
 10
6096.0329177142858
 20
3899.9959319034861
 30
0.0
 40
120.0
  1
497
  0
INSERT
  5
7CCD
  8
0
  6
BYBLOCK
 62
     0
  2
_OPEN
 10
6001.8186320000004
 20
3841.8964119454231
 30
0.0
 41
80.0
 42
80.0
 43
80.0
 50
180.0
  0
INSERT
  5
7CCE
  8
0
  6
BYBLOCK
 62
     0
  2
_OPEN
 10
6498.8186320000013
 20
3841.8964119454231
 30
0.0
 41
80.0
 42
80.0
 43
80.0
  0
POINT
  5
7CCF
  8
DEFPOINTS
  6
BYBLOCK
 62
     0
 10
6001.8186320000004
 20
4146.2149669999999
 30
0.0
  0
POINT
  5
7CD0
  8
DEFPOINTS
  6
BYBLOCK
 62
     0
 10
6498.8186320000013
 20
4110.3882469999999
 30
0.0
  0
POINT
  5
7CD1
  8
DEFPOINTS
  6
BYBLOCK
 62
     0
 10
6498.8186320000013
 20
3841.8964119454231
 30
0.0
  0
ENDBLK
  5
7CD2
  8
0
  0
BLOCK
  8
0
  2
*D13
 70
     1
 10
0.0
 20
0.0
 30
0.0
  3
*D13
  1

  0
LINE
  5
7E52
  8
3
  6
CONTINUOUS
 62
     0
 10
6851.8186320000004
 20
3493.5820723677421
 30
0.0
 11
6851.8186320000004
 21
3169.2635173131648
 31
0.0
  0
LINE
  5
7E53
  8
3
  6
CONTINUOUS
 62
     0
 10
6578.8186320000004
 20
3209.2635173131648
 30
0.0
 11
6771.8186320000004
 21
3209.2635173131648
 31
0.0
  0
TEXT
  8
3
  40
120
  5
7E8F
  62
0
  72
0
  71
0
 10
6435.95
 20
3096.86
 30
0.000000
  1
353
  0
INSERT
  5
7E55
  8
3
  6
CONTINUOUS
 62
     0
  2
_OPEN
 10
6498.8186320000013
 20
3209.2635173131648
 30
0.0
 41
80.0
 42
80.0
 43
80.0
 50
180.0
  0
INSERT
  5
7E56
  8
3
  6
CONTINUOUS
 62
     0
  2
_OPEN
 10
6851.8186320000004
 20
3209.2635173131648
 30
0.0
 41
80.0
 42
80.0
 43
80.0
  0
POINT
  5
7E57
  8
DEFPOINTS
  6
CONTINUOUS
 62
     0
 10
6498.8186320000013
 20
3477.755352367742
 30
0.0
  0
POINT
  5
7E58
  8
DEFPOINTS
  6
CONTINUOUS
 62
     0
 10
6851.8186320000004
 20
3513.5820723677421
 30
0.0
  0
POINT
  5
7E59
  8
DEFPOINTS
  6
CONTINUOUS
 62
     0
 10
6851.8186320000004
 20
3209.2635173131648
 30
0.0
  0
ENDBLK
  5
7CDC
  8
0
  0
BLOCK
  8
0
  2
*D14
 70
     1
 10
0.0
 20
0.0
 30
0.0
  3
*D14
  1

  0
LINE
  5
7E5A
  8
3
  6
CONTINUOUS
 62
     0
 10
6901.8186320000004
 20
4623.5820723677416
 30
0.0
 11
7225.3263580000012
 21
4623.5820723677416
 31
0.0
  0
LINE
  5
7E5B
  8
3
  6
CONTINUOUS
 62
     0
 10
6901.8186320000004
 20
3823.5820723677421
 30
0.0
 11
7225.3263580000012
 21
3823.5820723677421
 31
0.0
  0
LINE
  5
7E5C
  8
3
  6
CONTINUOUS
 62
     0
 10
7185.3263580000012
 20
4543.5820723677416
 30
0.0
 11
7185.3263580000012
 21
3903.5820723677421
 31
0.0
  0
INSERT
  5
7E5D
  8
3
  6
CONTINUOUS
 62
     0
  2
_OPEN
 10
7185.3263580000012
 20
4623.5820723677416
 30
0.0
 41
80.0
 42
80.0
 43
80.0
 50
90.0
  0
INSERT
  5
7E5E
  8
3
  6
CONTINUOUS
 62
     0
  2
_OPEN
 10
7185.3263580000012
 20
3823.5820723677421
 30
0.0
 41
80.0
 42
80.0
 43
80.0
 50
270.0
  0
TEXT
  8
3
  40
120
  5
7E90
  62
0
  72
0
  71
0
 10
6845.33
 20
4001.10
 30
0.000000
  1
φ800
  0
POINT
  5
7E60
  8
DEFPOINTS
  6
CONTINUOUS
 62
     0
 10
6881.8186319999986
 20
4623.5820723677416
 30
0.0
  0
POINT
  5
7E61
  8
DEFPOINTS
  6
CONTINUOUS
 62
     0
 10
6881.8186319999986
 20
3823.5820723677421
 30
0.0
  0
POINT
  5
7E62
  8
DEFPOINTS
  6
CONTINUOUS
 62
     0
 10
7185.3263580000012
 20
3823.5820723677421
 30
0.0
  0
ENDBLK
  5
7CE7
  8
0
  0
BLOCK
  8
0
  2
*D15
 70
     1
 10
0.0
 20
0.0
 30
0.0
  3
*D15
  1

  0
LINE
  5
7E63
  8
3
  6
CONTINUOUS
 62
     0
 10
6198.8186320000004
 20
5091.5820723677416
 30
0.0
 11
6198.8186320000004
 21
5284.8842253677431
 31
0.0
  0
LINE
  5
7E64
  8
3
  6
CONTINUOUS
 62
     0
 10
6798.8186319999986
 20
5091.5820723677416
 30
0.0
 11
6798.8186319999986
 21
5284.8842253677431
 31
0.0
  0
LINE
  5
7E65
  8
3
  6
CONTINUOUS
 62
     0
 10
6118.8186320000004
 20
5244.8842253677431
 30
0.0
 11
6038.8186320000004
 21
5244.8842253677431
 31
0.0
  0
LINE
  5
7E66
  8
3
  6
CONTINUOUS
 62
     0
 10
6878.8186319999986
 20
5244.8842253677431
 30
0.0
 11
6958.8186319999986
 21
5244.8842253677431
 31
0.0
  0
LINE
  5
7E67
  8
3
  6
CONTINUOUS
 62
     0
 10
6198.8186320000004
 20
5244.8842253677431
 30
0.0
 11
6798.8186319999986
 21
5244.8842253677431
 31
0.0
  0
INSERT
  5
7E68
  8
3
  6
CONTINUOUS
 62
     0
  2
_OPEN
 10
6198.8186320000004
 20
5244.8842253677431
 30
0.0
 41
80.0
 42
80.0
 43
80.0
  0
INSERT
  5
7E69
  8
3
  6
CONTINUOUS
 62
     0
  2
_OPEN
 10
6798.8186319999986
 20
5244.8842253677431
 30
0.0
 41
80.0
 42
80.0
 43
80.0
 50
180.0
  0
TEXT
  8
3
  40
120
  5
7E91
  62
0
  72
0
  71
0
 10
6233.10
 20
5132.48
 30
0.000000
  1
600
  0
POINT
  5
7E6B
  8
DEFPOINTS
  6
CONTINUOUS
 62
     0
 10
6198.8186320000004
 20
5071.5820723677434
 30
0.0
  0
POINT
  5
7E6C
  8
DEFPOINTS
  6
CONTINUOUS
 62
     0
 10
6798.8186319999986
 20
5071.5820723677434
 30
0.0
  0
POINT
  5
7E6D
  8
DEFPOINTS
  6
CONTINUOUS
 62
     0
 10
6798.8186319999986
 20
5244.8842253677431
 30
0.0
  0
ENDBLK
  5
7C0E
  8
0
  0
BLOCK
  8
0
  2
*D16
 70
     1
 10
0.0
 20
0.0
 30
0.0
  3
*D16
  1

  0
LINE
  5
7C9B
  8
0
  6
BYBLOCK
 62
     0
 10
5928.8186320000013
 20
5076.2149669999999
 30
0.0
 11
5928.8186320000013
 21
6220.0635940000002
 31
0.0
  0
LINE
  5
7C9C
  8
0
  6
BYBLOCK
 62
     0
 10
6498.8186320000013
 20
6110.6748500000003
 30
0.0
 11
6498.8186320000013
 21
6220.0635940000002
 31
0.0
  0
LINE
  5
7C9D
  8
0
  6
BYBLOCK
 62
     0
 10
6008.8186320000004
 20
6180.0635940000002
 30
0.0
 11
6418.8186320000004
 21
6180.0635940000002
 31
0.0
  0
INSERT
  5
7C9E
  8
3
  2
*U19
 10
0.0
 20
0.0
 30
0.0
  0
INSERT
  5
7C9F
  8
0
  6
BYBLOCK
 62
     0
  2
_OPEN
 10
5928.8186320000013
 20
6180.0635940000002
 30
0.0
 41
80.0
 42
80.0
 43
80.0
 50
180.0
  0
INSERT
  5
7CA0
  8
0
  6
BYBLOCK
 62
     0
  2
_OPEN
 10
6498.8186320000013
 20
6180.0635940000002
 30
0.0
 41
80.0
 42
80.0
 43
80.0
  0
POINT
  5
7CA1
  8
DEFPOINTS
  6
BYBLOCK
 62
     0
 10
5928.8186320000013
 20
5056.214966999999
 30
0.0
  0
POINT
  5
7CA2
  8
DEFPOINTS
  6
BYBLOCK
 62
     0
 10
6498.8186320000013
 20
6090.6748500000003
 30
0.0
  0
POINT
  5
7CA3
  8
DEFPOINTS
  6
BYBLOCK
 62
     0
 10
6498.8186320000013
 20
6180.0635940000002
 30
0.0
  0
ENDBLK
  5
7CA4
  8
0
  0
BLOCK
  8
0
  2
*D17
 70
     1
 10
0.0
 20
0.0
 30
0.0
  3
*D17
  1

  0
LINE
  5
7E6E
  8
3
  6
CONTINUOUS
 62
     0
 10
6881.8186319999986
 20
4683.5820723677434
 30
0.0
 11
6881.8186319999986
 21
5587.4306993677428
 31
0.0
  0
LINE
  5
7E6F
  8
3
  6
CONTINUOUS
 62
     0
 10
6578.8186320000004
 20
5547.4306993677428
 30
0.0
 11
6801.8186319999986
 21
5547.4306993677428
 31
0.0
  0
TEXT
  8
3
  40
120
  5
7E92
  62
0
  72
0
  71
0
 10
6456.60
 20
5435.03
 30
0.000000
  1
383
  0
INSERT
  5
7E71
  8
3
  6
CONTINUOUS
 62
     0
  2
_OPEN
 10
6498.8186320000013
 20
5547.4306993677428
 30
0.0
 41
80.0
 42
80.0
 43
80.0
 50
180.0
  0
INSERT
  5
7E72
  8
3
  6
CONTINUOUS
 62
     0
  2
_OPEN
 10
6881.8186319999986
 20
5547.4306993677428
 30
0.0
 41
80.0
 42
80.0
 43
80.0
  0
POINT
  5
7E73
  8
DEFPOINTS
  6
CONTINUOUS
 62
     0
 10
6498.8186320000013
 20
5458.041955367743
 30
0.0
  0
POINT
  5
7E74
  8
DEFPOINTS
  6
CONTINUOUS
 62
     0
 10
6881.8186319999986
 20
4663.5820723677416
 30
0.0
  0
POINT
  5
7E75
  8
DEFPOINTS
  6
CONTINUOUS
 62
     0
 10
6881.8186319999986
 20
5547.4306993677428
 30
0.0
  0
ENDBLK
  5
7C41
  8
0
  0
BLOCK
  8
0
  2
*D18
 70
     1
 10
0.0
 20
0.0
 30
0.0
  3
*D18
  1

  0
LINE
  5
7E7B
  8
3
 62
     0
 10
3580.8076890000002
 20
5134.0820723677434
 30
0.0
 11
3580.8076890000002
 21
5474.7305730706939
 31
0.0
  0
LINE
  5
7E7C
  8
3
 62
     0
 10
1835.807689
 20
3753.5820723677421
 30
0.0
 11
1835.807689
 21
5474.7305730706939
 31
0.0
  0
LINE
  5
7E7D
  8
3
 62
     0
 10
3500.8076890000002
 20
5434.7305730706939
 30
0.0
 11
1915.807689
 21
5434.7305730706939
 31
0.0
  0
INSERT
  5
7E7E
  8
3
 62
     0
  2
_OPEN
 10
3580.8076890000002
 20
5434.7305730706939
 30
0.0
 41
80.0
 42
80.0
 43
80.0
  0
INSERT
  5
7E7F
  8
3
 62
     0
  2
_OPEN
 10
1835.807689
 20
5434.7305730706939
 30
0.0
 41
80.0
 42
80.0
 43
80.0
 50
180.0
  0
TEXT
  8
3
  40
120
  5
7E93
  62
0
  72
0
  71
0
 10
2474.76
 20
5322.33
 30
0.000000
  1
1745
  0
POINT
  5
7E81
  8
DEFPOINTS
 62
     0
 10
3580.8076890000002
 20
5114.0820723677434
 30
0.0
  0
POINT
  5
7E82
  8
DEFPOINTS
 62
     0
 10
1835.807689
 20
3733.582072367743
 30
0.0
  0
POINT
  5
7E83
  8
DEFPOINTS
 62
     0
 10
1835.807689
 20
5434.7305730706939
 30
0.0
  0
ENDBLK
  5
7CF3
  8
0
  0
BLOCK
  8
0
  2
*U19
 70
     1
 10
0.0
 20
0.0
 30
0.0
  3
*U19
  1

  0
TEXT
  5
7E77
  8
3
 62
     0
 10
6042.390060571428
 20
6435.0107186174309
 30
0.0
 40
120.0
  1
MAX
  0
TEXT
  5
7E78
  8
3
 62
     0
 10
6059.5329177142848
 20
6235.0107186174318
 30
0.0
 40
120.0
  1
660
  0
ENDBLK
  5
7E7A
  8
0
  0
ENDSEC
  0
SECTION
  2
ENTITIES
  0
LINE
  5
7A70
  8
1
  6
CONTINUOUS
 10
3535.8076890000002
 20
3513.5820723677421
 30
0.0
 11
1835.807689
 21
3513.5820723677421
 31
0.0
  0
LINE
  5
7A71
  8
1
  6
CONTINUOUS
 10
3535.8076890000002
 20
3613.5820723677421
 30
0.0
 11
1835.807689
 21
3613.5820723677421
 31
0.0
  0
LINE
  5
7A72
  8
1
  6
CONTINUOUS
 10
1835.807689
 20
3613.5820723677421
 30
0.0
 11
1835.807689
 21
3513.5820723677421
 31
0.0
  0
LINE
  5
7A73
  8
1
  6
CONTINUOUS
 10
3535.8076890000002
 20
3613.5820723677421
 30
0.0
 11
3535.8076890000002
 21
3513.5820723677421
 31
0.0
  0
LINE
  5
7A74
  8
1
  6
CONTINUOUS
 10
6851.8186320000004
 20
3513.5820723677421
 30
0.0
 11
6001.8186320000004
 21
3513.5820723677421
 31
0.0
  0
LINE
  5
7A75
  8
1
  6
CONTINUOUS
 10
6851.8186320000004
 20
3613.5820723677421
 30
0.0
 11
6851.8186320000004
 21
3513.5820723677421
 31
0.0
  0
LINE
  5
7A76
  8
1
  6
CONTINUOUS
 10
6001.8186320000004
 20
3613.5820723677421
 30
0.0
 11
6001.8186320000004
 21
3513.5820723677421
 31
0.0
  0
LINE
  5
7A77
  8
1
  6
CONTINUOUS
 10
6851.8186320000004
 20
3613.5820723677421
 30
0.0
 11
6001.8186320000004
 21
3613.5820723677421
 31
0.0
  0
LINE
  5
7A7A
  8
1
  6
CONTINUOUS
 10
2635.8076890000002
 20
8059.5966480000006
 30
0.0
 11
1835.807689
 21
8059.5966480000006
 31
0.0
  0
LINE
  5
7A7B
  8
1
  6
CONTINUOUS
 10
3535.8076890000002
 20
7406.5966480000006
 30
0.0
 11
3535.8076890000002
 21
7209.5966479999997
 31
0.0
  0
LINE
  5
7A7C
  8
1
  6
CONTINUOUS
 10
2935.8076890000002
 20
7209.5966479999997
 30
0.0
 11
2163.3076890000002
 21
7209.5966479999997
 31
0.0
  0
LINE
  5
7A7D
  8
1
  6
CONTINUOUS
 10
2003.307689
 20
7209.5966479999997
 30
0.0
 11
1835.807689
 21
7209.5966479999997
 31
0.0
  0
LINE
  5
7A7E
  8
1
  6
CONTINUOUS
 10
2130.6076889999999
 20
3769.8820723677418
 30
0.0
 11
3088.3076890000002
 21
4030.5820723677421
 31
0.0
  0
LINE
  5
7A7F
  8
1
  6
CONTINUOUS
 10
2104.3076890000002
 20
3866.3820723677418
 30
0.0
 11
3062.1076889999999
 21
4127.0820723677416
 31
0.0
  0
LINE
  5
7A80
  8
1
  6
CONTINUOUS
 10
2029.1076889999999
 20
4115.1820723677429
 30
0.0
 11
2975.507689
 21
4414.2820723677423
 31
0.0
  0
LINE
  5
7A81
  8
1
  6
CONTINUOUS
 10
2059.2076889999989
 20
4019.8820723677418
 30
0.0
 11
3005.7076889999989
 21
4318.9820723677431
 31
0.0
  0
LINE
  5
7A82
  8
1
  6
CONTINUOUS
 10
6048.8186320000004
 20
3964.5820723677421
 30
0.0
 11
6198.8186320000004
 21
3964.5820723677421
 31
0.0
  0
LINE
  5
7A83
  8
1
  6
CONTINUOUS
 10
6048.8186320000004
 20
3922.5820723677421
 30
0.0
 11
6198.8186320000004
 21
3922.5820723677421
 31
0.0
  0
LINE
  5
7A84
  8
1
  6
CONTINUOUS
 10
6048.8186320000004
 20
4202.5820723677416
 30
0.0
 11
6198.8186320000004
 21
4202.5820723677416
 31
0.0
  0
LINE
  5
7A85
  8
1
  6
CONTINUOUS
 10
6048.8186320000004
 20
4244.5820723677434
 30
0.0
 11
6198.8186320000004
 21
4244.5820723677434
 31
0.0
  0
LINE
  5
7A86
  8
1
  6
CONTINUOUS
 10
6048.8186320000004
 20
4023.582072367743
 30
0.0
 11
6048.8186320000004
 21
3863.5820723677421
 31
0.0
  0
LINE
  5
7A87
  8
1
  6
CONTINUOUS
 10
5968.8186320000013
 20
4023.582072367743
 30
0.0
 11
5968.8186320000013
 21
3863.5820723677421
 31
0.0
  0
LINE
  5
7A88
  8
1
  6
CONTINUOUS
 10
5968.8186320000013
 20
4323.5820723677416
 30
0.0
 11
5968.8186320000013
 21
4123.5820723677416
 31
0.0
  0
LINE
  5
7A89
  8
1
  6
CONTINUOUS
 10
6048.8186320000004
 20
4323.5820723677416
 30
0.0
 11
6048.8186320000004
 21
4123.5820723677416
 31
0.0
  0
LINE
  5
7A8A
  8
1
  6
CONTINUOUS
 10
5968.8186320000013
 20
4023.582072367743
 30
0.0
 11
6048.8186320000004
 21
4023.582072367743
 31
0.0
  0
LINE
  5
7A8B
  8
1
  6
CONTINUOUS
 10
5968.8186320000013
 20
3863.5820723677421
 30
0.0
 11
6048.8186320000004
 21
3863.5820723677421
 31
0.0
  0
LINE
  5
7A8C
  8
1
  6
CONTINUOUS
 10
5928.8186320000013
 20
3763.5820723677421
 30
0.0
 11
6088.8186320000004
 21
3763.5820723677421
 31
0.0
  0
LINE
  5
7A8D
  8
1
  6
CONTINUOUS
 10
5968.8186320000013
 20
4123.5820723677416
 30
0.0
 11
6048.8186320000004
 21
4123.5820723677416
 31
0.0
  0
LINE
  5
7A8E
  8
1
  6
CONTINUOUS
 10
5968.8186320000013
 20
4323.5820723677416
 30
0.0
 11
6048.8186320000004
 21
4323.5820723677416
 31
0.0
  0
LINE
  5
7A8F
  8
1
  6
CONTINUOUS
 10
6088.8186320000004
 20
4423.5820723677416
 30
0.0
 11
6088.8186320000004
 21
3763.5820723677421
 31
0.0
  0
LINE
  5
7A90
  8
1
  6
CONTINUOUS
 10
5928.8186320000013
 20
4423.5820723677416
 30
0.0
 11
6088.8186320000004
 21
4423.5820723677416
 31
0.0
  0
LINE
  5
7A91
  8
1
  6
CONTINUOUS
 10
5928.8186320000013
 20
4423.5820723677416
 30
0.0
 11
5928.8186320000013
 21
3763.5820723677421
 31
0.0
  0
LINE
  5
7A92
  8
1
  6
CONTINUOUS
 10
6198.8186320000004
 20
4246.5820723677416
 30
0.0
 11
6798.8186319999986
 21
5071.5820723677434
 31
0.0
  0
LINE
  5
7A93
  8
1
  6
CONTINUOUS
 10
6198.8186320000004
 20
5071.5820723677434
 30
0.0
 11
6798.8186319999986
 21
4246.5820723677416
 31
0.0
  0
LINE
  5
7A94
  8
1
  6
CONTINUOUS
 10
6881.8186319999986
 20
4663.5820723677416
 30
0.0
 11
6881.8186319999986
 21
3783.5820723677421
 31
0.0
  0
LINE
  5
7A95
  8
1
  6
CONTINUOUS
 10
6198.8186320000004
 20
4246.5820723677416
 30
0.0
 11
6798.8186319999986
 21
4246.5820723677416
 31
0.0
  0
LINE
  5
7A96
  8
1
  6
CONTINUOUS
 10
6198.8186320000004
 20
5071.5820723677434
 30
0.0
 11
6798.8186319999986
 21
5071.5820723677434
 31
0.0
  0
LINE
  5
7A97
  8
1
  6
CONTINUOUS
 10
6798.8186319999986
 20
3823.5820723677421
 30
0.0
 11
6881.8186319999986
 21
3823.5820723677421
 31
0.0
  0
LINE
  5
7A98
  8
1
  6
CONTINUOUS
 10
6798.8186319999986
 20
4623.5820723677416
 30
0.0
 11
6881.8186319999986
 21
4623.5820723677416
 31
0.0
  0
LINE
  5
7A99
  8
1
  6
CONTINUOUS
 10
6798.8186319999986
 20
5071.5820723677434
 30
0.0
 11
6798.8186319999986
 21
3733.582072367743
 31
0.0
  0
LINE
  5
7A9A
  8
1
  6
CONTINUOUS
 10
6198.8186320000004
 20
5071.5820723677434
 30
0.0
 11
6198.8186320000004
 21
3733.582072367743
 31
0.0
  0
LINE
  5
7A9B
  8
1
  6
CONTINUOUS
 10
6001.8186320000004
 20
3733.582072367743
 30
0.0
 11
6001.8186320000004
 21
3633.5820723677421
 31
0.0
  0
LINE
  5
7A9C
  8
1
  6
CONTINUOUS
 10
6851.8186320000004
 20
3733.582072367743
 30
0.0
 11
6851.8186320000004
 21
3633.5820723677421
 31
0.0
  0
LINE
  5
7A9D
  8
1
  6
CONTINUOUS
 10
6851.8186320000004
 20
3733.582072367743
 30
0.0
 11
6001.8186320000004
 21
3733.582072367743
 31
0.0
  0
LINE
  5
7A9E
  8
1
  6
CONTINUOUS
 10
6851.8186320000004
 20
3633.5820723677421
 30
0.0
 11
6001.8186320000004
 21
3633.5820723677421
 31
0.0
  0
LINE
  5
7A9F
  8
1
  6
CONTINUOUS
 10
3056.8076890000002
 20
7249.5966479999997
 30
0.0
 11
3056.8076890000002
 21
7406.5966480000006
 31
0.0
  0
LINE
  5
7AA0
  8
1
  6
CONTINUOUS
 10
3014.8076890000002
 20
7249.5966479999997
 30
0.0
 11
3014.8076890000002
 21
7406.5966480000006
 31
0.0
  0
LINE
  5
7AA1
  8
1
  6
CONTINUOUS
 10
2163.3076890000002
 20
7249.5966479999997
 30
0.0
 11
2003.307689
 21
7249.5966479999997
 31
0.0
  0
LINE
  5
7AA2
  8
1
  6
CONTINUOUS
 10
2163.3076890000002
 20
7169.5966480000006
 30
0.0
 11
2003.307689
 21
7169.5966480000006
 31
0.0
  0
LINE
  5
7AA3
  8
1
  6
CONTINUOUS
 10
3135.8076890000002
 20
7169.5966480000006
 30
0.0
 11
2935.8076890000002
 21
7169.5966480000006
 31
0.0
  0
LINE
  5
7AA4
  8
1
  6
CONTINUOUS
 10
3135.8076890000002
 20
7249.5966479999997
 30
0.0
 11
2935.8076890000002
 21
7249.5966479999997
 31
0.0
  0
LINE
  5
7AA5
  8
1
  6
CONTINUOUS
 10
3135.8076890000002
 20
7169.5966480000006
 30
0.0
 11
3135.8076890000002
 21
7249.5966479999997
 31
0.0
  0
LINE
  5
7AA6
  8
1
  6
CONTINUOUS
 10
2935.8076890000002
 20
7169.5966480000006
 30
0.0
 11
2935.8076890000002
 21
7249.5966479999997
 31
0.0
  0
LINE
  5
7AA7
  8
1
  6
CONTINUOUS
 10
2163.3076890000002
 20
7169.5966480000006
 30
0.0
 11
2163.3076890000002
 21
7249.5966479999997
 31
0.0
  0
LINE
  5
7AA8
  8
1
  6
CONTINUOUS
 10
2003.307689
 20
7169.5966480000006
 30
0.0
 11
2003.307689
 21
7249.5966479999997
 31
0.0
  0
LINE
  5
7AA9
  8
1
  6
CONTINUOUS
 10
1903.307689
 20
7136.5966480000006
 30
0.0
 11
1903.307689
 21
7296.5966480000006
 31
0.0
  0
LINE
  5
7AAA
  8
1
  6
CONTINUOUS
 10
3235.8076890000002
 20
7136.5966480000006
 30
0.0
 11
3235.8076890000002
 21
7296.5966480000006
 31
0.0
  0
LINE
  5
7AAB
  8
1
  6
CONTINUOUS
 10
3235.8076890000002
 20
7296.5966480000006
 30
0.0
 11
1903.307689
 21
7296.5966480000006
 31
0.0
  0
LINE
  5
7AAC
  8
1
  6
CONTINUOUS
 10
3235.8076890000002
 20
7136.5966480000006
 30
0.0
 11
1903.307689
 21
7136.5966480000006
 31
0.0
  0
LINE
  5
7AAD
  8
1
  6
CONTINUOUS
 10
1895.807689
 20
3783.5820723677421
 30
0.0
 11
1885.807689
 21
3733.582072367743
 31
0.0
  0
LINE
  5
7AAE
  8
1
  6
CONTINUOUS
 10
2270.8076890000002
 20
3783.5820723677421
 30
0.0
 11
1895.807689
 21
3783.5820723677421
 31
0.0
  0
LINE
  5
7AAF
  8
1
  6
CONTINUOUS
 10
2280.8076890000002
 20
3733.582072367743
 30
0.0
 11
2270.8076890000002
 21
3783.5820723677421
 31
0.0
  0
LINE
  5
7AB0
  8
1
  6
CONTINUOUS
 10
3435.8076890000002
 20
8006.5966480000016
 30
0.0
 11
3435.8076890000002
 21
8089.5966480000016
 31
0.0
  0
LINE
  5
7AB1
  8
1
  6
CONTINUOUS
 10
2635.8076890000002
 20
8006.5966480000016
 30
0.0
 11
2635.8076890000002
 21
8089.5966480000016
 31
0.0
  0
LINE
  5
7AB2
  8
1
  6
CONTINUOUS
 10
3475.8076890000002
 20
8089.5966480000016
 30
0.0
 11
2595.8076890000002
 21
8089.5966480000016
 31
0.0
  0
LINE
  5
7AB3
  8
1
  6
CONTINUOUS
 10
3580.8076890000002
 20
7366.5966480000006
 30
0.0
 11
3580.8076890000002
 21
8046.5966480000006
 31
0.0
  0
LINE
  5
7AB4
  8
1
  6
CONTINUOUS
 10
3540.8076890000002
 20
7406.5966480000006
 30
0.0
 11
3540.8076890000002
 21
8006.5966480000016
 31
0.0
  0
LINE
  5
7AB5
  8
1
  6
CONTINUOUS
 10
3580.8076890000002
 20
7406.5966480000006
 30
0.0
 11
2347.5076889999991
 21
7406.5966480000006
 31
0.0
  0
LINE
  5
7AB6
  8
1
  6
CONTINUOUS
 10
3580.8076890000002
 20
8006.5966480000016
 30
0.0
 11
2347.5076889999991
 21
8006.5966480000016
 31
0.0
  0
LINE
  5
7AB7
  8
1
  6
CONTINUOUS
 10
2347.5076889999991
 20
7406.5966480000006
 30
0.0
 11
2347.5076889999991
 21
8006.5966480000016
 31
0.0
  0
LINE
  5
7AB8
  8
1
  6
CONTINUOUS
 10
3535.8076890000002
 20
8059.5966480000006
 30
0.0
 11
3435.8076890000002
 21
8059.5966480000006
 31
0.0
  0
LINE
  5
7AB9
  8
1
  6
CONTINUOUS
 10
3535.8076890000002
 20
7209.5966479999997
 30
0.0
 11
3135.8076890000002
 21
7209.5966479999997
 31
0.0
  0
LINE
  5
7ABA
  8
1
  6
CONTINUOUS
 10
3535.8076890000002
 20
8059.5966480000006
 30
0.0
 11
3535.8076890000002
 21
8006.5966480000016
 31
0.0
  0
LINE
  5
7ABB
  8
1
  6
CONTINUOUS
 10
1835.807689
 20
8059.5966480000006
 30
0.0
 11
1835.807689
 21
7209.5966479999997
 31
0.0
  0
ARC
  5
7ABC
  8
1
  6
CONTINUOUS
 10
3035.8076890000002
 20
4223.5820723677434
 30
0.0
 40
200.0
 50
285.19999999999987
 51
107.4999999999999
  0
ARC
  5
7ABD
  8
1
  6
CONTINUOUS
 10
2083.3076890000002
 20
3943.5820723677421
 30
0.0
 40
180.0
 50
107.4999999999999
 51
285.19999999999987
  0
LINE
  5
7ABE
  8
2
  6
CENTER
 10
2281.8762399999991
 20
4223.5820723677434
 30
0.0
 11
3640.3294159999991
 21
4223.5820723677434
 31
0.0
  0
LINE
  5
7ABF
  8
2
  6
CENTER
 10
3035.8076890000002
 20
3422.2243483677421
 30
0.0
 11
3035.8076890000002
 21
5088.8047803677428
 31
0.0
  0
LINE
  5
7AC0
  8
2
  6
CENTER
 10
2003.307689
 20
3943.5820723677421
 30
0.0
 11
2163.3076890000002
 21
3943.5820723677421
 31
0.0
  0
LINE
  5
7AC1
  8
2
  6
CENTER
 10
2083.3076890000002
 20
3863.5820723677421
 30
0.0
 11
2083.3076890000002
 21
4023.582072367743
 31
0.0
  0
CIRCLE
  5
7AC2
  8
1
  6
CONTINUOUS
 10
2083.3076890000002
 20
3943.5820723677421
 30
0.0
 40
80.0
  0
LINE
  5
7AC3
  8
1
  6
CONTINUOUS
 10
1921.3076889999991
 20
7348.2966479999995
 30
0.0
 11
1921.3076889999991
 21
7833.2966480000014
 31
0.0
  0
LINE
  5
7AC4
  8
1
  6
CONTINUOUS
 10
2245.3076890000002
 20
7348.2966479999995
 30
0.0
 11
2245.3076890000002
 21
7833.2966480000014
 31
0.0
  0
LINE
  5
7AC5
  8
1
  6
CONTINUOUS
 10
1921.3076889999991
 20
7348.2966479999995
 30
0.0
 11
2245.3076890000002
 21
7348.2966479999995
 31
0.0
  0
LINE
  5
7AC6
  8
1
  6
CONTINUOUS
 10
2062.3076890000002
 20
7249.5966479999997
 30
0.0
 11
2062.3076890000002
 21
7348.2966479999995
 31
0.0
  0
LINE
  5
7AC7
  8
1
  6
CONTINUOUS
 10
2104.3076890000002
 20
7249.5966479999997
 30
0.0
 11
2104.3076890000002
 21
7348.2966479999995
 31
0.0
  0
LINE
  5
7AC8
  8
1
  6
CONTINUOUS
 10
1921.3076889999991
 20
7833.2966480000014
 30
0.0
 11
2245.3076890000002
 21
7833.2966480000014
 31
0.0
  0
LINE
  5
7AC9
  8
1
  6
CONTINUOUS
 10
2237.3076890000002
 20
3783.5820723677421
 30
0.0
 11
2237.3076890000002
 21
3801.582072367743
 31
0.0
  0
LINE
  5
7ACA
  8
1
  6
CONTINUOUS
 10
2237.3076890000002
 20
3801.582072367743
 30
0.0
 11
2216.007689
 21
3850.5820723677421
 31
0.0
  0
LINE
  5
7ACB
  8
1
  6
CONTINUOUS
 10
1929.307689
 20
3801.582072367743
 30
0.0
 11
1950.6076889999999
 21
3850.5820723677421
 31
0.0
  0
LINE
  5
7ACC
  8
1
  6
CONTINUOUS
 10
1929.307689
 20
3783.5820723677421
 30
0.0
 11
1929.307689
 21
3801.582072367743
 31
0.0
  0
ARC
  5
7ACD
  8
1
  6
CONTINUOUS
 10
2083.3076890000002
 20
3943.5820723677421
 30
0.0
 40
162.0
 50
325.0
 51
214.99999999999989
  0
CIRCLE
  5
7ACE
  8
1
  6
CONTINUOUS
 10
3035.8076890000002
 20
4223.5820723677434
 30
0.0
 40
100.0
  0
CIRCLE
  5
7ACF
  8
1
  6
CONTINUOUS
 10
3035.8076890000002
 20
4223.5820723677434
 30
0.0
 40
440.0
  0
CIRCLE
  5
7AD0
  8
1
  6
CONTINUOUS
 10
3035.8076890000002
 20
4223.5820723677434
 30
0.0
 40
400.0
  0
LINE
  5
7AD1
  8
1
  6
CONTINUOUS
 10
3540.8076890000002
 20
4246.5820723677416
 30
0.0
 11
3540.8076890000002
 21
5071.5820723677434
 31
0.0
  0
LINE
  5
7AD2
  8
1
  6
CONTINUOUS
 10
3535.8076890000002
 20
3733.582072367743
 30
0.0
 11
1835.807689
 21
3733.582072367743
 31
0.0
  0
LINE
  5
7AD3
  8
1
  6
CONTINUOUS
 10
1835.807689
 20
3733.582072367743
 30
0.0
 11
1835.807689
 21
3633.5820723677421
 31
0.0
  0
LINE
  5
7AD4
  8
1
  6
CONTINUOUS
 10
3535.8076890000002
 20
3733.582072367743
 30
0.0
 11
3535.8076890000002
 21
3633.5820723677421
 31
0.0
  0
LINE
  5
7AD5
  8
1
  6
CONTINUOUS
 10
3535.8076890000002
 20
3633.5820723677421
 30
0.0
 11
1835.807689
 21
3633.5820723677421
 31
0.0
  0
POLYLINE
  5
7AD6
  8
1
  6
CONTINUOUS
 66
     1
 10
0.0
 20
0.0
 30
0.0
  0
VERTEX
  5
7DE9
  8
1
  6
CONTINUOUS
 10
3580.8076890000002
 20
5071.5820723677434
 30
0.0
  0
VERTEX
  5
7DEA
  8
1
  6
CONTINUOUS
 10
3035.8076890000002
 20
5027.5820723677416
 30
0.0
 42
0.4
  0
VERTEX
  5
7DEB
  8
1
  6
CONTINUOUS
 10
2347.5076889999991
 20
4282.5820723677416
 30
0.0
 42
0.4
  0
VERTEX
  5
7DEC
  8
1
  6
CONTINUOUS
 10
3044.4076889999992
 20
3656.8820723677418
 30
0.0
 42
0.4
  0
VERTEX
  5
7DED
  8
1
  6
CONTINUOUS
 10
3510.507689
 20
4176.0820723677416
 30
0.0
  0
VERTEX
  5
7DEE
  8
1
  6
CONTINUOUS
 10
3504.7076889999989
 20
4246.5820723677416
 30
0.0
 42
0.4
  0
SEQEND
  5
7DEF
  8
1
  6
CONTINUOUS
  0
LINE
  5
7ADE
  8
1
  6
CONTINUOUS
 10
3580.8076890000002
 20
4204.0820723677416
 30
0.0
 11
3580.8076890000002
 21
5114.0820723677434
 31
0.0
  0
LINE
  5
7ADF
  8
1
  6
CONTINUOUS
 10
3504.7076889999989
 20
4246.5820723677416
 30
0.0
 11
3580.8076890000002
 21
4246.5820723677416
 31
0.0
  0
DIMENSION
  5
7AF3
  8
3
  6
CONTINUOUS
  2
*D1
 10
3035.8076890000002
 20
3174.5248033677422
 30
0.0
 11
2446.7363639999999
 21
3174.5248033677422
 31
0.0
 70
   128
 13
1835.807689
 23
3513.5820723677421
 33
0.0
 14
3035.8076890000002
 24
3422.2243483677421
 34
0.0
1001
ACAD
1000
DSTYLE
1002
{
1070
   287
1070
     3
1070
   287
1070
     3
1070
    40
1040
40.0
1070
   143
1040
0.039
1070
   172
1070
     1
1070
   271
1070
     0
1070
   279
1070
     0
1070
   288
1070
     1
1002
}
  0
DIMENSION
  5
7B01
  8
3
  6
CONTINUOUS
  2
*D2
 10
3535.8076890000002
 20
3174.5248033677422
 30
0.0
 11
3314.0560019999989
 21
3175.9105653677429
 31
0.0
 70
   128
 13
3035.8076890000002
 23
3422.2243483677421
 33
0.0
 14
3535.8076890000002
 24
3513.5820723677421
 34
0.0
1001
ACAD
1000
DSTYLE
1002
{
1070
   287
1070
     4
1070
   287
1070
     4
1070
    40
1040
40.0
1070
    75
1070
     1
1070
   143
1040
0.039
1070
   172
1070
     1
1070
   271
1070
     0
1070
   279
1070
     1
1070
   288
1070
     1
1002
}
  0
DIMENSION
  5
7B24
  8
3
  6
CONTINUOUS
  2
*D3
 10
3906.0360900000001
 20
4246.5820723677416
 30
0.0
 11
3906.0360900000001
 21
4721.6374423677416
 31
0.0
 70
   128
 13
3580.8076890000002
 23
5071.5820723677434
 33
0.0
 14
3580.8076890000002
 24
4246.5820723677416
 34
0.0
 50
90.0
1001
ACAD
1000
DSTYLE
1002
{
1070
   287
1070
     3
1070
   287
1070
     3
1070
    40
1040
40.0
1070
   143
1040
0.039
1070
   172
1070
     1
1070
   271
1070
     0
1070
   279
1070
     0
1070
   288
1070
     1
1002
}
  0
DIMENSION
  5
7B31
  8
3
  6
CONTINUOUS
  2
*D4
 10
4188.2591300000004
 20
4223.5820723677434
 30
0.0
 11
4188.2591299999985
 21
4687.2571733677432
 31
0.0
 70
   128
 13
3580.8076890000002
 23
5071.5820723677434
 33
0.0
 14
3506.5998880000011
 24
4223.5820723677434
 34
0.0
 50
90.0
1001
ACAD
1000
DSTYLE
1002
{
1070
   287
1070
     3
1070
   287
1070
     3
1070
    40
1040
40.0
1070
   143
1040
0.039
1070
   172
1070
     1
1070
   271
1070
     0
1070
   279
1070
     0
1070
   288
1070
     1
1002
}
  0
DIMENSION
  5
7B3D
  8
3
  6
CONTINUOUS
  2
*D5
 10
4188.2591299999985
 20
3633.5820723677421
 30
0.0
 11
4088.259129999999
 21
3928.582072367743
 31
0.0
 70
     0
 13
3506.5998880000011
 23
4223.5820723677434
 33
0.0
 14
3535.8076890000002
 24
3633.5820723677421
 34
0.0
 50
90.0
1001
ACAD
1000
DSTYLE
1002
{
1070
   287
1070
     4
1070
   287
1070
     4
1070
    40
1040
40.0
1070
    75
1070
     1
1070
   143
1040
0.039
1070
   172
1070
     1
1070
   271
1070
     0
1070
   279
1070
     1
1070
   288
1070
     1
1002
}
  0
DIMENSION
  5
7B4D
  8
3
  6
CONTINUOUS
  2
*D6
 10
4188.2591300000004
 20
3513.5820723677421
 30
0.0
 11
4188.2591299999985
 21
3170.7249295105989
 31
0.0
 70
   128
 13
3535.8076890000002
 23
3633.5820723677421
 33
0.0
 14
3535.8076890000002
 24
3513.5820723677421
 34
0.0
 50
90.0
1001
ACAD
1000
DSTYLE
1002
{
1070
   287
1070
     3
1070
   287
1070
     3
1070
    40
1040
40.0
1070
   143
1040
0.039
1070
   172
1070
     1
1070
   271
1070
     0
1070
   279
1070
     0
1070
   288
1070
     1
1002
}
  0
DIMENSION
  5
7B74
  8
3
  6
CONTINUOUS
  2
*D7
 10
4477.3657080000012
 20
3513.5820723677421
 30
0.0
 11
4477.3657080000003
 21
4178.4290013677419
 31
0.0
 70
   128
 13
3580.8076890000002
 23
5114.0820723677434
 33
0.0
 14
3535.8076890000002
 24
3513.5820723677421
 34
0.0
 50
90.0
1001
ACAD
1000
DSTYLE
1002
{
1070
   287
1070
     3
1070
   287
1070
     3
1070
    40
1040
40.0
1070
   143
1040
0.039
1070
   172
1070
     1
1070
   271
1070
     0
1070
   279
1070
     0
1070
   288
1070
     1
1002
}
  0
DIMENSION
  5
7B81
  8
3
  6
CONTINUOUS
  2
*D8
 10
3035.8076890000002
 20
5216.7134953677423
 30
0.0
 11
2708.308982
 21
5216.7134953677423
 31
0.0
 70
   128
 13
2349.8076890000002
 23
4223.5820723677434
 33
0.0
 14
3035.8076890000002
 24
5027.5820723677416
 34
0.0
1001
ACAD
1000
DSTYLE
1002
{
1070
   287
1070
     3
1070
   287
1070
     3
1070
    40
1040
40.0
1070
   143
1040
0.039
1070
   172
1070
     1
1070
   271
1070
     0
1070
   279
1070
     0
1070
   288
1070
     1
1002
}
  0
DIMENSION
  5
7B8F
  8
3
  6
CONTINUOUS
  2
*D9
 10
3580.8076890000002
 20
5216.7134953677423
 30
0.0
 11
3300.289021999999
 21
5216.7134953677423
 31
0.0
 70
   128
 13
3035.8076890000002
 23
5027.5820723677416
 33
0.0
 14
3580.8076890000002
 24
5114.0820723677434
 34
0.0
1001
ACAD
1000
DSTYLE
1002
{
1070
   287
1070
     4
1070
   287
1070
     4
1070
    40
1040
40.0
1070
    75
1070
     1
1070
   143
1040
0.039
1070
   172
1070
     1
1070
   271
1070
     0
1070
   279
1070
     1
1070
   288
1070
     1
1002
}
  0
DIMENSION
  5
7BB2
  8
3
  6
CONTINUOUS
  2
*D10
 10
3535.8076890000002
 20
6762.4761099999996
 30
0.0
 11
2694.5420020000001
 21
6762.4761099999996
 31
0.0
 70
   128
 13
1835.807689
 23
7209.5966479999997
 33
0.0
 14
3535.8076890000002
 24
7209.5966479999997
 34
0.0
1001
ACAD
1000
DSTYLE
1002
{
1070
   287
1070
     3
1070
   287
1070
     3
1070
    40
1040
40.0
1070
   143
1040
0.039
1070
   172
1070
     1
1070
   271
1070
     0
1070
   279
1070
     0
1070
   288
1070
     1
1002
}
  0
DIMENSION
  5
7BBF
  8
3
  6
CONTINUOUS
  2
*D11
 10
3926.6865600000019
 20
7209.5966479999997
 30
0.0
 11
3926.6865600000001
 21
7656.363413
 31
0.0
 70
   128
 13
3535.8076890000002
 23
8059.5966480000006
 33
0.0
 14
3535.8076890000002
 24
7209.5966479999997
 34
0.0
 50
90.0
1001
ACAD
1000
DSTYLE
1002
{
1070
   287
1070
     3
1070
   287
1070
     3
1070
    40
1040
40.0
1070
   143
1040
0.039
1070
   172
1070
     1
1070
   271
1070
     0
1070
   279
1070
     0
1070
   288
1070
     1
1002
}
  0
LINE
  5
7BC0
  8
2
  6
CENTER
 10
2223.6048700000001
 20
7706.5966480000006
 30
0.0
 11
3706.4148810000002
 21
7706.5966480000006
 31
0.0
  0
LINE
  5
7BC1
  8
2
  6
CENTER
 10
3035.8076890000002
 20
7014.1362280000012
 30
0.0
 11
3035.8076890000002
 21
8227.8319709999978
 31
0.0
  0
DIMENSION
  5
7BD1
  8
3
  6
CONTINUOUS
  2
*D12
 10
6498.8186320000013
 20
3209.2635173131648
 30
0.0
 11
6250.3186320000004
 21
3327.3630372712291
 31
0.0
 12
0.0
 22
-632.63289463225738
 32
0.0
 70
   128
 13
6001.8186320000004
 23
3513.5820723677421
 33
0.0
 14
6498.8186320000013
 24
3477.755352367742
 34
0.0
1001
ACAD
1000
DSTYLE
1002
{
1070
   288
1070
     1
1070
   172
1070
     1
1070
    40
1040
40.0
1070
   271
1070
     0
1070
   143
1040
0.039
1002
}
  0
DIMENSION
  5
7BDF
  8
3
  6
CONTINUOUS
  2
*D13
 10
6851.8186320000004
 20
3209.2635173131648
 30
0.0
 11
6675.9481489999989
 21
3209.2635173131648
 31
0.0
 70
   128
 13
6498.8186320000013
 23
3477.755352367742
 33
0.0
 14
6851.8186320000004
 24
3513.5820723677421
 34
0.0
1001
ACAD
1000
DSTYLE
1002
{
1070
   287
1070
     4
1070
   287
1070
     4
1070
    40
1040
40.0
1070
    75
1070
     1
1070
   143
1040
0.039
1070
   172
1070
     1
1070
   271
1070
     0
1070
   279
1070
     1
1070
   288
1070
     1
1002
}
  0
DIMENSION
  5
7C02
  8
3
  6
CONTINUOUS
  2
*D14
 10
7185.3263580000012
 20
3823.5820723677421
 30
0.0
 11
7185.3263580000012
 21
4213.499901811243
 31
0.0
 70
   128
 13
6881.8186319999986
 23
4623.5820723677416
 33
0.0
 14
6881.8186319999986
 24
3823.5820723677421
 34
0.0
 50
90.0
1001
ACAD
1000
DSTYLE
1002
{
1070
   287
1070
     3
1070
   287
1070
     3
1070
     3
1000
φ<>
1070
    40
1040
40.0
1070
   143
1040
0.039
1070
   172
1070
     1
1070
   271
1070
     0
1070
   279
1070
     0
1070
   288
1070
     1
1002
}
  0
DIMENSION
  5
7C0F
  8
3
  6
CONTINUOUS
  2
*D15
 10
6798.8186319999986
 20
5244.8842253677431
 30
0.0
 11
6473.1043459999992
 21
5244.8842253677431
 31
0.0
 70
   128
 13
6198.8186320000004
 23
5071.5820723677434
 33
0.0
 14
6798.8186319999986
 24
5071.5820723677434
 34
0.0
1001
ACAD
1000
DSTYLE
1002
{
1070
   287
1070
     3
1070
   287
1070
     3
1070
    40
1040
40.0
1070
   143
1040
0.039
1070
   172
1070
     1
1070
   271
1070
     0
1070
   279
1070
     0
1070
   288
1070
     1
1002
}
  0
DIMENSION
  5
7C1D
  8
3
  6
CONTINUOUS
  2
*D16
 10
6498.8186320000013
 20
5547.4306993677428
 30
0.0
 11
6213.8186320000004
 21
5762.3778239851754
 31
0.0
 12
0.0
 22
-632.63289463225738
 32
0.0
 70
   128
  1
MAX\P660
 13
5928.8186320000013
 23
4423.5820723677416
 33
0.0
 14
6498.8186320000013
 24
5458.041955367743
 34
0.0
1001
ACAD
1000
DSTYLE
1002
{
1070
   288
1070
     1
1070
   172
1070
     1
1070
    40
1040
40.0
1070
   271
1070
     0
1070
   143
1040
0.039
1002
}
  0
DIMENSION
  5
7C2B
  8
3
  6
CONTINUOUS
  2
*D17
 10
6881.8186319999986
 20
5547.4306993677428
 30
0.0
 11
6696.5986189999994
 21
5547.4306993677428
 31
0.0
 70
   128
 13
6498.8186320000013
 23
5458.041955367743
 33
0.0
 14
6881.8186319999986
 24
4663.5820723677416
 34
0.0
1001
ACAD
1000
DSTYLE
1002
{
1070
   287
1070
     4
1070
   287
1070
     4
1070
    40
1040
40.0
1070
    75
1070
     1
1070
   143
1040
0.039
1070
   172
1070
     1
1070
   271
1070
     0
1070
   279
1070
     1
1070
   288
1070
     1
1002
}
  0
LINE
  5
7C42
  8
2
  6
CENTER
 10
5801.7450209999997
 20
4223.5820723677434
 30
0.0
 11
6971.9732489999997
 21
4223.5820723677434
 31
0.0
  0
LINE
  5
7C43
  8
4
  6
CONTINUOUS
 10
7400.0
 20
2000.0
 30
0.0
 11
7400.0
 21
1200.0
 31
0.0
  0
LINE
  5
7C44
  8
4
  6
CONTINUOUS
 10
4600.0
 20
2000.0
 30
0.0
 11
4600.0
 21
1200.0
 31
0.0
  0
LINE
  5
7C45
  8
4
  6
CONTINUOUS
 10
2600.0
 20
2000.0
 30
0.0
 11
2600.0
 21
1200.0
 31
0.0
  0
LINE
  5
7C48
  8
4
  6
CONTINUOUS
 10
2600.0
 20
1200.0
 30
0.0
 11
7400.0
 21
1200.0
 31
0.0
  0
LINE
  5
7C49
  8
4
  6
CONTINUOUS
 10
2600.0
 20
1600.0
 30
0.0
 11
7400.0
 21
1600.0
 31
0.0
  0
TEXT
  5
7C4A
  8
4
  6
CONTINUOUS
 10
2754.008323
 20
1726.1721030000001
 30
0.0
 40
200.0
  1
機器名称
  0
TEXT
  5
7C4B
  8
4
  6
CONTINUOUS
 10
2745.032424
 20
1286.580627
 30
0.0
 40
200.0
  1
機器型番
  0
TEXT
  5
7C4C
  8
4
  6
CONTINUOUS
 10
4710.7149820000004
 20
1690.2870760000001
 30
0.0
 40
160.0
  1
ミツヤリミットロードファン
  0
TEXT
  5
7C4D
  8
4
  6
CONTINUOUS
 10
4746.6179819999998
 20
1268.6383370000001
 30
0.0
 40
200.0
  1
LLE#5-4
  0
TEXT
  5
7C4F
  8
4
  6
CONTINUOUS
 10
2867.6954890000002
 20
9533.715365
 30
0.0
 40
216.0
  1
床置防振ベット
  0
TEXT
  5
7C50
  8
4
  6
CONTINUOUS
 10
1264.6703729999999
 20
10135.523905
 30
0.0
 40
240.0
  1
ベルト駆動式片吸込両持排煙ファン
  0
LINE
  5
7C51
  8
4
  6
CONTINUOUS
 10
1000.0
 20
9877.6350170000005
 30
0.0
 11
7400.0
 21
9877.6350170000005
 31
0.0
  0
LINE
  5
7C52
  8
4
  6
CONTINUOUS
 10
1000.0
 20
10677.635017000001
 30
0.0
 11
7400.0
 21
10677.635017000001
 31
0.0
  0
LINE
  5
7C53
  8
4
  6
CONTINUOUS
 10
2600.0
 20
2000.0
 30
0.0
 11
7400.0
 21
2000.0
 31
0.0
  0
LINE
  5
7C54
  8
4
  6
CONTINUOUS
 10
1000.0
 20
10677.635017000001
 30
0.0
 11
1000.0
 21
9877.6350170000005
 31
0.0
  0
TEXT
  5
7C55
  8
4
  6
CONTINUOUS
 10
1124.26016
 20
9529.2779099999989
 30
0.0
 40
216.0
  1
右回転右横向
  0
TEXT
  5
7C56
  8
4
  6
CONTINUOUS
 10
5875.8782369999999
 20
10824.244326
 30
0.0
 40
224.0
  1
No.
  0
TEXT
  5
7C57
  8
4
  6
CONTINUOUS
 10
5245.1842500000012
 20
9533.715365
 30
0.0
 40
216.0
  1
縮尺：1/40
  0
LINE
  5
7C58
  8
4
  6
CONTINUOUS
 10
7400.0
 20
10677.635017000001
 30
0.0
 11
7400.0
 21
9877.6350170000005
 31
0.0
  0
LINE
  5
7C5A
  8
4
  6
CONTINUOUS
 10
5762.4696889999996
 20
10725.054333
 30
0.0
 11
5762.4696889999996
 21
11146.609046
 31
0.0
  0
LINE
  5
7C5B
  8
4
  6
CONTINUOUS
 10
5762.4696889999996
 20
11146.609046
 30
0.0
 11
7400.0
 21
11146.609046
 31
0.0
  0
LINE
  5
7C5C
  8
4
  6
CONTINUOUS
 10
7400.0
 20
11146.609046
 30
0.0
 11
7400.0
 21
10725.054333
 31
0.0
  0
LINE
  5
7C5D
  8
4
  6
CONTINUOUS
 10
7400.0
 20
10725.054333
 30
0.0
 11
5762.4696889999996
 21
10725.054333
 31
0.0
  0
LINE
  5
7C67
  8
2
  6
CENTER
 10
6498.8186320000013
 20
5265.5341903677418
 30
0.0
 11
6498.8186320000013
 21
3477.755352367742
 31
0.0
  0
DIMENSION
  5
7CF4
  8
3
  2
*D18
 10
1835.807689
 20
5434.7305730706939
 30
0.0
 11
2714.7606184941319
 21
5434.7305730706939
 31
0.0
 70
   128
 13
3580.8076890000002
 23
5114.0820723677434
 33
0.0
 14
1835.807689
 24
3733.582072367743
 34
0.0
1001
ACAD
1000
DSTYLE
1002
{
1070
   287
1070
     3
1070
   287
1070
     3
1070
    40
1040
40.0
1070
   143
1040
0.039
1070
   172
1070
     1
1070
   271
1070
     0
1070
   279
1070
     0
1070
   288
1070
     1
1002
}
  0
ENDSEC
  0
EOF
