  0
SECTION
  2
HEADER
  9
$ACADVER
  1
AC1009
  9
$INSBASE
 10
0.0
 20
0.0
 30
0.0
  9
$EXTMIN
 10
1000.0
 20
1200.0
 30
0.0
  9
$EXTMAX
 10
7400.0
 20
11146.609046
 30
0.0
  9
$LIMMIN
 10
0.0
 20
0.0
  9
$LIMMAX
 10
297.0
 20
210.0
  9
$ORTHOMODE
 70
     0
  9
$REGENMODE
 70
     1
  9
$FILLMODE
 70
     0
  9
$QTEXTMODE
 70
     0
  9
$MIRRTEXT
 70
     1
  9
$DRAGMODE
 70
     2
  9
$LTSCALE
 40
100.0
  9
$OSMODE
 70
    37
  9
$ATTMODE
 70
     1
  9
$TEXTSIZE
 40
180.0
  9
$TRACEWID
 40
0.05
  9
$TEXTSTYLE
  7
STANDARD
  9
$CLAYER
  8
3
  9
$CELTYPE
  6
BYLAYER
  9
$CECOLOR
 62
   256
  9
$DIMSCALE
 40
40.0
  9
$DIMASZ
 40
2.0
  9
$DIMEXO
 40
0.5
  9
$DIMDLI
 40
10.0
  9
$DIMRND
 40
0.0
  9
$DIMDLE
 40
0.0
  9
$DIMEXE
 40
1.0
  9
$DIMTP
 40
1.0
  9
$DIMTM
 40
1.0
  9
$DIMTXT
 40
3.0
  9
$DIMCEN
 40
0.0
  9
$DIMTSZ
 40
0.0
  9
$DIMTOL
 70
     0
  9
$DIMLIM
 70
     0
  9
$DIMTIH
 70
     0
  9
$DIMTOH
 70
     0
  9
$DIMSE1
 70
     0
  9
$DIMSE2
 70
     0
  9
$DIMTAD
 70
     1
  9
$DIMZIN
 70
     8
  9
$DIMBLK
  1

  9
$DIMASO
 70
     1
  9
$DIMSHO
 70
     1
  9
$DIMPOST
  1

  9
$DIMAPOST
  1

  9
$DIMALT
 70
     0
  9
$DIMALTD
 70
     2
  9
$DIMALTF
 40
0.039
  9
$DIMLFAC
 40
1.0
  9
$DIMTOFL
 70
     1
  9
$DIMTVP
 40
0.0
  9
$DIMTIX
 70
     0
  9
$DIMSOXD
 70
     0
  9
$DIMSAH
 70
     1
  9
$DIMBLK1
  1
OPEN
  9
$DIMBLK2
  1
OPEN
  9
$DIMSTYLE
  2
IGA
  9
$DIMCLRD
 70
     0
  9
$DIMCLRE
 70
     0
  9
$DIMCLRT
 70
     0
  9
$DIMTFAC
 40
10.0
  9
$DIMGAP
 40
1.0
  9
$LUNITS
 70
     2
  9
$LUPREC
 70
     3
  9
$SKETCHINC
 40
0.1
  9
$FILLETRAD
 40
50.0
  9
$AUNITS
 70
     0
  9
$AUPREC
 70
     0
  9
$MENU
  1
acad
  9
$ELEVATION
 40
0.0
  9
$PELEVATION
 40
0.0
  9
$THICKNESS
 40
0.0
  9
$LIMCHECK
 70
     0
  9
$BLIPMODE
 70
     0
  9
$CHAMFERA
 40
0.5
  9
$CHAMFERB
 40
0.5
  9
$SKPOLY
 70
     0
  9
$TDCREATE
 40
2450752.6611427078
  9
$TDUPDATE
 40
2454953.6849417589
  9
$TDINDWG
 40
0.0063797454
  9
$TDUSRTIMER
 40
0.0063797454
  9
$USRTIMER
 70
     1
  9
$ANGBASE
 50
0.0
  9
$ANGDIR
 70
     0
  9
$PDMODE
 70
     0
  9
$PDSIZE
 40
0.0
  9
$PLINEWID
 40
0.0
  9
$COORDS
 70
     1
  9
$SPLFRAME
 70
     0
  9
$SPLINETYPE
 70
     6
  9
$SPLINESEGS
 70
     8
  9
$ATTDIA
 70
     0
  9
$ATTREQ
 70
     1
  9
$HANDLING
 70
 10241
  9
$HANDSEED
  5
7E5A
  9
$SURFTAB1
 70
     6
  9
$SURFTAB2
 70
     6
  9
$SURFTYPE
 70
     6
  9
$SURFU
 70
     6
  9
$SURFV
 70
     6
  9
$UCSNAME
  2

  9
$UCSORG
 10
0.0
 20
0.0
 30
0.0
  9
$UCSXDIR
 10
1.0
 20
0.0
 30
0.0
  9
$UCSYDIR
 10
0.0
 20
1.0
 30
0.0
  9
$PUCSNAME
  2

  9
$PUCSORG
 10
0.0
 20
0.0
 30
0.0
  9
$PUCSXDIR
 10
1.0
 20
0.0
 30
0.0
  9
$PUCSYDIR
 10
0.0
 20
1.0
 30
0.0
  9
$USERI1
 70
     0
  9
$USERI2
 70
     0
  9
$USERI3
 70
     0
  9
$USERI4
 70
     0
  9
$USERI5
 70
     0
  9
$USERR1
 40
0.0
  9
$USERR2
 40
0.0
  9
$USERR3
 40
0.0
  9
$USERR4
 40
0.0
  9
$USERR5
 40
0.0
  9
$WORLDVIEW
 70
     1
  9
$SHADEDGE
 70
     3
  9
$SHADEDIF
 70
    70
  9
$TILEMODE
 70
     1
  9
$MAXACTVP
 70
    16
  9
$PLIMCHECK
 70
     0
  9
$PEXTMIN
 10
1.0000000000000000E+020
 20
1.0000000000000000E+020
 30
1.0000000000000000E+020
  9
$PEXTMAX
 10
-1.0000000000000000E+020
 20
-1.0000000000000000E+020
 30
-1.0000000000000000E+020
  9
$PLIMMIN
 10
0.0
 20
0.0
  9
$PLIMMAX
 10
12.0
 20
9.0
  9
$UNITMODE
 70
     0
  9
$VISRETAIN
 70
     0
  9
$PLINEGEN
 70
     0
  9
$PSLTSCALE
 70
     1
  0
ENDSEC
  0
SECTION
  2
TABLES
  0
TABLE
  2
VPORT
 70
     2
  0
VPORT
  2
*ACTIVE
 70
     0
 10
0.0
 20
0.0
 11
1.0
 21
1.0
 12
18902.541363173808
 22
5424.8451259454478
 13
0.0
 23
0.0
 14
10.0
 24
10.0
 15
10.0
 25
10.0
 16
0.0
 26
0.0
 36
1.0
 17
0.0
 27
0.0
 37
0.0
 40
13778.09110074407
 41
3.1666666666666661
 42
50.0
 43
0.0
 44
0.0
 50
0.0
 51
0.0
 71
     0
 72
   100
 73
     1
 74
     0
 75
     0
 76
     0
 77
     0
 78
     0
  0
ENDTAB
  0
TABLE
  2
LTYPE
 70
     2
  0
LTYPE
  2
CONTINUOUS
 70
     0
  3
Solid line
 72
    65
 73
     0
 40
0.0
  0
LTYPE
  2
CENTER
 70
     0
  3
____ _ ____ _ ____ _ ____ _ ____ _ ____ _ ____ 
 72
    65
 73
     4
 40
2.0
 49
1.25
 49
-0.25
 49
0.25
 49
-0.25
  0
ENDTAB
  0
TABLE
  2
LAYER
 70
     6
  0
LAYER
  2
0
 70
     0
 62
     7
  6
CONTINUOUS
  0
LAYER
  2
3
 70
     0
 62
     2
  6
CONTINUOUS
  0
LAYER
  2
2
 70
     0
 62
     3
  6
CENTER
  0
LAYER
  2
1
 70
     0
 62
     4
  6
CONTINUOUS
  0
LAYER
  2
4
 70
     0
 62
     7
  6
CONTINUOUS
  0
LAYER
  2
DEFPOINTS
 70
     0
 62
     7
  6
CONTINUOUS
  0
ENDTAB
  0
TABLE
  2
STYLE
 70
     1
  0
STYLE
  2
STANDARD
 70
     0
 40
0.0
 41
1.0
 50
0.0
 71
     0
 42
180.0
  3
simplex.shx
  4
extfont.shx
  0
ENDTAB
  0
TABLE
  2
VIEW
 70
     0
  0
ENDTAB
  0
TABLE
  2
UCS
 70
     0
  0
ENDTAB
  0
TABLE
  2
APPID
 70
     1
  0
APPID
  2
ACAD
 70
     0
  0
ENDTAB
  0
TABLE
  2
DIMSTYLE
 70
     1
  0
DIMSTYLE
  2
IGA
 70
     0
  3

  4

  5

  6
OPEN
  7
OPEN
 40
2.0
 41
2.0
 42
0.5
 43
10.0
 44
1.0
 45
0.0
 46
0.0
 47
1.0
 48
1.0
140
3.0
141
0.0
142
0.0
143
0.03937
144
1.0
145
0.0
146
10.0
147
1.0
 71
     0
 72
     0
 73
     0
 74
     0
 75
     0
 76
     0
 77
     1
 78
     8
170
     0
171
     2
172
     0
173
     1
174
     0
175
     0
176
     0
177
     0
178
     0
  0
ENDTAB
  0
ENDSEC
  0
SECTION
  2
BLOCKS
  0
BLOCK
  8
0
  2
$MODEL_SPACE
 70
     0
 10
0.0
 20
0.0
 30
0.0
  3
$MODEL_SPACE
  1

  0
ENDBLK
  5
1B
  8
0
  0
BLOCK
 67
     1
  8
0
  2
$PAPER_SPACE
 70
     0
 10
0.0
 20
0.0
 30
0.0
  3
$PAPER_SPACE
  1

  0
ENDBLK
  5
18
 67
     1
  8
0
  0
BLOCK
  8
0
  2
_OPEN
 70
     0
 10
0.0
 20
0.0
 30
0.0
  3
_OPEN
  1

  0
LINE
  5
7AD0
  8
0
  6
BYBLOCK
 62
     0
 10
-1.0
 20
0.166667
 30
0.0
 11
0.0
 21
0.0
 31
0.0
  0
LINE
  5
7AD1
  8
0
  6
BYBLOCK
 62
     0
 10
0.0
 20
0.0
 30
0.0
 11
-1.0
 21
-0.166667
 31
0.0
  0
LINE
  5
7AD2
  8
0
  6
BYBLOCK
 62
     0
 10
0.0
 20
0.0
 30
0.0
 11
-1.0
 21
0.0
 31
0.0
  0
ENDBLK
  5
7AD3
  8
0
  0
BLOCK
  8
0
  2
*D1
 70
     1
 10
0.0
 20
0.0
 30
0.0
  3
*D1
  1

  0
LINE
  5
7DB7
  8
3
  6
CONTINUOUS
 62
     0
 10
2364.7637026053299
 20
3555.99982
 30
0.0
 11
2364.7637026053299
 21
3228.789436
 31
0.0
  0
LINE
  5
7DB8
  8
3
  6
CONTINUOUS
 62
     0
 10
2864.7637026053299
 20
3488.41984
 30
0.0
 11
2864.7637026053299
 21
3228.789436
 31
0.0
  0
LINE
  5
7DB9
  8
3
  6
CONTINUOUS
 62
     0
 10
2444.7637026053299
 20
3268.789436
 30
0.0
 11
2784.7637026053312
 21
3268.789436
 31
0.0
  0
TEXT
  8
3
  40
120
  5
7E4A
  62
0
  72
0
  71
0
 10
2374.76
 20
3156.39
 30
0.000000
  1
500
  0
INSERT
  5
7DBB
  8
3
  6
CONTINUOUS
 62
     0
  2
_OPEN
 10
2364.7637026053299
 20
3268.789436
 30
0.0
 41
80.0
 42
80.0
 43
80.0
 50
180.0
  0
INSERT
  5
7DBC
  8
3
  6
CONTINUOUS
 62
     0
  2
_OPEN
 10
2864.7637026053299
 20
3268.789436
 30
0.0
 41
80.0
 42
80.0
 43
80.0
  0
POINT
  5
7DBD
  8
DEFPOINTS
  6
CONTINUOUS
 62
     0
 10
2364.7637026053299
 20
3575.99982
 30
0.0
  0
POINT
  5
7DBE
  8
DEFPOINTS
  6
CONTINUOUS
 62
     0
 10
2864.7637026053299
 20
3508.41984
 30
0.0
  0
POINT
  5
7DBF
  8
DEFPOINTS
  6
CONTINUOUS
 62
     0
 10
2864.7637026053299
 20
3268.789436
 30
0.0
  0
ENDBLK
  5
7C22
  8
0
  0
BLOCK
  8
0
  2
*D2
 70
     1
 10
0.0
 20
0.0
 30
0.0
  3
*D2
  1

  0
LINE
  5
7DC0
  8
3
  6
CONTINUOUS
 62
     0
 10
4064.763702605328
 20
3555.99982
 30
0.0
 11
4064.763702605328
 21
3228.789436
 31
0.0
  0
LINE
  5
7DC1
  8
3
  6
CONTINUOUS
 62
     0
 10
2944.7637026053299
 20
3268.789436
 30
0.0
 11
3984.7637026053289
 21
3268.789436
 31
0.0
  0
INSERT
  5
7DC2
  8
3
  6
CONTINUOUS
 62
     0
  2
_OPEN
 10
2864.7637026053299
 20
3268.789436
 30
0.0
 41
80.0
 42
80.0
 43
80.0
 50
180.0
  0
INSERT
  5
7DC3
  8
3
  6
CONTINUOUS
 62
     0
  2
_OPEN
 10
4064.763702605328
 20
3268.789436
 30
0.0
 41
80.0
 42
80.0
 43
80.0
  0
TEXT
  8
3
  40
120
  5
7E4B
  62
0
  72
0
  71
0
 10
3224.76
 20
3156.39
 30
0.000000
  1
1200
  0
POINT
  5
7DC5
  8
DEFPOINTS
  6
CONTINUOUS
 62
     0
 10
2864.7637026053299
 20
3508.41984
 30
0.0
  0
POINT
  5
7DC6
  8
DEFPOINTS
  6
CONTINUOUS
 62
     0
 10
4064.763702605328
 20
3575.99982
 30
0.0
  0
POINT
  5
7DC7
  8
DEFPOINTS
  6
CONTINUOUS
 62
     0
 10
4064.763702605328
 20
3268.789436
 30
0.0
  0
ENDBLK
  5
7AEE
  8
0
  0
BLOCK
  8
0
  2
*D3
 70
     1
 10
0.0
 20
0.0
 30
0.0
  3
*D3
  1

  0
LINE
  5
7DC8
  8
3
  6
CONTINUOUS
 62
     0
 10
2299.7637026053299
 20
4512.99982
 30
0.0
 11
2097.3525896053288
 21
4512.99982
 31
0.0
  0
LINE
  5
7DC9
  8
3
  6
CONTINUOUS
 62
     0
 10
2299.7637026053299
 20
3687.99982
 30
0.0
 11
2097.3525896053288
 21
3687.99982
 31
0.0
  0
LINE
  5
7DCA
  8
3
  6
CONTINUOUS
 62
     0
 10
2137.3525896053288
 20
4432.99982
 30
0.0
 11
2137.3525896053288
 21
3767.99982
 31
0.0
  0
INSERT
  5
7DCB
  8
3
  6
CONTINUOUS
 62
     0
  2
_OPEN
 10
2137.3525896053288
 20
4512.99982
 30
0.0
 41
80.0
 42
80.0
 43
80.0
 50
90.0
  0
INSERT
  5
7DCC
  8
3
  6
CONTINUOUS
 62
     0
  2
_OPEN
 10
2137.3525896053288
 20
3687.99982
 30
0.0
 41
80.0
 42
80.0
 43
80.0
 50
270.0
  0
TEXT
  8
3
  40
120
  5
7E4C
  62
0
  72
0
  71
0
 10
1797.35
 20
3913.60
 30
0.000000
  1
825
  0
POINT
  5
7DCE
  8
DEFPOINTS
  6
CONTINUOUS
 62
     0
 10
2319.7637026053299
 20
4512.99982
 30
0.0
  0
POINT
  5
7DCF
  8
DEFPOINTS
  6
CONTINUOUS
 62
     0
 10
2319.7637026053299
 20
3687.99982
 30
0.0
  0
POINT
  5
7DD0
  8
DEFPOINTS
  6
CONTINUOUS
 62
     0
 10
2137.3525896053288
 20
3687.99982
 30
0.0
  0
ENDBLK
  5
7AFB
  8
0
  0
BLOCK
  8
0
  2
*D4
 70
     1
 10
0.0
 20
0.0
 30
0.0
  3
*D4
  1

  0
LINE
  5
7DD1
  8
3
  6
CONTINUOUS
 62
     0
 10
2299.7637026053299
 20
3687.99982
 30
0.0
 11
1894.129600605329
 21
3687.99982
 31
0.0
  0
LINE
  5
7DD2
  8
3
  6
CONTINUOUS
 62
     0
 10
2373.9715046053302
 20
4535.9998199999991
 30
0.0
 11
1894.129600605329
 21
4535.99982
 31
0.0
  0
LINE
  5
7DD3
  8
3
  6
CONTINUOUS
 62
     0
 10
1934.129600605329
 20
3767.99982
 30
0.0
 11
1934.129600605329
 21
4455.9998200000009
 31
0.0
  0
INSERT
  5
7DD4
  8
3
  6
CONTINUOUS
 62
     0
  2
_OPEN
 10
1934.129600605329
 20
3687.99982
 30
0.0
 41
80.0
 42
80.0
 43
80.0
 50
270.0
  0
INSERT
  5
7DD5
  8
3
  6
CONTINUOUS
 62
     0
  2
_OPEN
 10
1934.129600605329
 20
4535.99982
 30
0.0
 41
80.0
 42
80.0
 43
80.0
 50
90.0
  0
TEXT
  8
3
  40
120
  5
7E4D
  62
0
  72
0
  71
0
 10
1594.13
 20
3917.50
 30
0.000000
  1
848
  0
POINT
  5
7DD7
  8
DEFPOINTS
  6
CONTINUOUS
 62
     0
 10
2319.7637026053299
 20
3687.99982
 30
0.0
  0
POINT
  5
7DD8
  8
DEFPOINTS
  6
CONTINUOUS
 62
     0
 10
2393.9715046053302
 20
4535.9998199999991
 30
0.0
  0
POINT
  5
7DD9
  8
DEFPOINTS
  6
CONTINUOUS
 62
     0
 10
1934.129600605329
 20
4535.99982
 30
0.0
  0
ENDBLK
  5
7B08
  8
0
  0
BLOCK
  8
0
  2
*D5
 70
     1
 10
0.0
 20
0.0
 30
0.0
  3
*D5
  1

  0
LINE
  5
7DDA
  8
3
  6
CONTINUOUS
 62
     0
 10
2844.7637026053299
 20
5103.99982
 30
0.0
 11
1694.80731860533
 21
5103.9998200000018
 31
0.0
  0
LINE
  5
7DDB
  8
3
  6
CONTINUOUS
 62
     0
 10
2373.9715046053302
 20
4535.9998199999991
 30
0.0
 11
1694.80731860533
 21
4535.99982
 31
0.0
  0
LINE
  5
7DDC
  8
3
  6
CONTINUOUS
 62
     0
 10
1734.80731860533
 20
5183.9998200000009
 30
0.0
 11
1734.80731860533
 21
5263.9998200000009
 31
0.0
  0
LINE
  5
7DDD
  8
3
  6
CONTINUOUS
 62
     0
 10
1734.80731860533
 20
4455.9998200000009
 30
0.0
 11
1734.80731860533
 21
4375.9998200000009
 31
0.0
  0
LINE
  5
7DDE
  8
3
  6
CONTINUOUS
 62
     0
 10
1734.80731860533
 20
5103.9998200000018
 30
0.0
 11
1734.80731860533
 21
4535.99982
 31
0.0
  0
INSERT
  5
7DDF
  8
3
  6
CONTINUOUS
 62
     0
  2
_OPEN
 10
1734.80731860533
 20
5103.9998200000018
 30
0.0
 41
80.0
 42
80.0
 43
80.0
 50
270.0
  0
INSERT
  5
7DE0
  8
3
  6
CONTINUOUS
 62
     0
  2
_OPEN
 10
1734.80731860533
 20
4535.99982
 30
0.0
 41
80.0
 42
80.0
 43
80.0
 50
90.0
  0
TEXT
  8
3
  40
120
  5
7E4E
  62
0
  72
0
  71
0
 10
1394.81
 20
4597.89
 30
0.000000
  1
568
  0
POINT
  5
7DE2
  8
DEFPOINTS
  6
CONTINUOUS
 62
     0
 10
2864.7637026053299
 20
5103.99982
 30
0.0
  0
POINT
  5
7DE3
  8
DEFPOINTS
  6
CONTINUOUS
 62
     0
 10
2393.9715046053302
 20
4535.9998199999991
 30
0.0
  0
POINT
  5
7DE4
  8
DEFPOINTS
  6
CONTINUOUS
 62
     0
 10
1734.80731860533
 20
4535.99982
 30
0.0
  0
ENDBLK
  5
7CCC
  8
0
  0
BLOCK
  8
0
  2
*D6
 70
     1
 10
0.0
 20
0.0
 30
0.0
  3
*D6
  1

  0
LINE
  5
7DE5
  8
3
  6
CONTINUOUS
 62
     0
 10
2344.7637026053299
 20
3575.99982
 30
0.0
 11
1694.80731860533
 21
3575.99982
 31
0.0
  0
LINE
  5
7DE6
  8
3
  6
CONTINUOUS
 62
     0
 10
1734.80731860533
 20
4455.9998200000009
 30
0.0
 11
1734.80731860533
 21
3655.99982
 31
0.0
  0
INSERT
  5
7DE7
  8
3
  6
CONTINUOUS
 62
     0
  2
_OPEN
 10
1734.80731860533
 20
4535.99982
 30
0.0
 41
80.0
 42
80.0
 43
80.0
 50
90.0
  0
INSERT
  5
7DE8
  8
3
  6
CONTINUOUS
 62
     0
  2
_OPEN
 10
1734.8073186053291
 20
3575.99982
 30
0.0
 41
80.0
 42
80.0
 43
80.0
 50
270.0
  0
TEXT
  8
3
  40
120
  5
7E4F
  62
0
  72
0
  71
0
 10
1394.81
 20
3843.60
 30
0.000000
  1
960
  0
POINT
  5
7DEA
  8
DEFPOINTS
  6
CONTINUOUS
 62
     0
 10
2393.9715046053302
 20
4535.9998199999991
 30
0.0
  0
POINT
  5
7DEB
  8
DEFPOINTS
  6
CONTINUOUS
 62
     0
 10
2364.7637026053299
 20
3575.99982
 30
0.0
  0
POINT
  5
7DEC
  8
DEFPOINTS
  6
CONTINUOUS
 62
     0
 10
1734.8073186053291
 20
3575.99982
 30
0.0
  0
ENDBLK
  5
7B21
  8
0
  0
BLOCK
  8
0
  2
*D7
 70
     1
 10
0.0
 20
0.0
 30
0.0
  3
*D7
  1

  0
LINE
  5
7DED
  8
3
  6
CONTINUOUS
 62
     0
 10
2844.7637026053299
 20
5103.99982
 30
0.0
 11
1462.7190146053299
 21
5103.9998200000018
 31
0.0
  0
LINE
  5
7DEE
  8
3
  6
CONTINUOUS
 62
     0
 10
2344.7637026053299
 20
3575.99982
 30
0.0
 11
1462.719014605329
 21
3575.99982
 31
0.0
  0
LINE
  5
7DEF
  8
3
  6
CONTINUOUS
 62
     0
 10
1502.7190146053299
 20
5023.9998200000009
 30
0.0
 11
1502.719014605329
 21
3655.99982
 31
0.0
  0
INSERT
  5
7DF0
  8
3
  6
CONTINUOUS
 62
     0
  2
_OPEN
 10
1502.7190146053299
 20
5103.9998200000018
 30
0.0
 41
80.0
 42
80.0
 43
80.0
 50
90.0
  0
INSERT
  5
7DF1
  8
3
  6
CONTINUOUS
 62
     0
  2
_OPEN
 10
1502.719014605329
 20
3575.99982
 30
0.0
 41
80.0
 42
80.0
 43
80.0
 50
270.0
  0
TEXT
  8
3
  40
120
  5
7E50
  62
0
  72
0
  71
0
 10
1162.72
 20
4148.17
 30
0.000000
  1
1528
  0
POINT
  5
7DF3
  8
DEFPOINTS
  6
CONTINUOUS
 62
     0
 10
2864.7637026053299
 20
5103.99982
 30
0.0
  0
POINT
  5
7DF4
  8
DEFPOINTS
  6
CONTINUOUS
 62
     0
 10
2364.7637026053299
 20
3575.99982
 30
0.0
  0
POINT
  5
7DF5
  8
DEFPOINTS
  6
CONTINUOUS
 62
     0
 10
1502.719014605329
 20
3575.99982
 30
0.0
  0
ENDBLK
  5
7CC1
  8
0
  0
BLOCK
  8
0
  2
*D8
 70
     1
 10
0.0
 20
0.0
 30
0.0
  3
*D8
  1

  0
LINE
  5
7DF6
  8
3
  6
CONTINUOUS
 62
     0
 10
2864.7637026053299
 20
5122.898185
 30
0.0
 11
2864.7637026053299
 21
5320.898972
 31
0.0
  0
LINE
  5
7DF7
  8
3
  6
CONTINUOUS
 62
     0
 10
3550.7637026053312
 20
4555.99982
 30
0.0
 11
3550.7637026053312
 21
5320.898972
 31
0.0
  0
LINE
  5
7DF8
  8
3
  6
CONTINUOUS
 62
     0
 10
2944.7637026053299
 20
5280.898972
 30
0.0
 11
3470.7637026053299
 21
5280.898972
 31
0.0
  0
INSERT
  5
7DF9
  8
3
  6
CONTINUOUS
 62
     0
  2
_OPEN
 10
2864.7637026053299
 20
5280.898972
 30
0.0
 41
80.0
 42
80.0
 43
80.0
 50
180.0
  0
INSERT
  5
7DFA
  8
3
  6
CONTINUOUS
 62
     0
  2
_OPEN
 10
3550.7637026053312
 20
5280.898972
 30
0.0
 41
80.0
 42
80.0
 43
80.0
  0
TEXT
  8
3
  40
120
  5
7E51
  62
0
  72
0
  71
0
 10
2967.76
 20
5168.50
 30
0.000000
  1
686
  0
POINT
  5
7DFC
  8
DEFPOINTS
  6
CONTINUOUS
 62
     0
 10
2864.7637026053299
 20
5102.898185
 30
0.0
  0
POINT
  5
7DFD
  8
DEFPOINTS
  6
CONTINUOUS
 62
     0
 10
3550.7637026053312
 20
4535.9998199999991
 30
0.0
  0
POINT
  5
7DFE
  8
DEFPOINTS
  6
CONTINUOUS
 62
     0
 10
3550.7637026053312
 20
5280.898972
 30
0.0
  0
ENDBLK
  5
7C49
  8
0
  0
BLOCK
  8
0
  2
*D9
 70
     1
 10
0.0
 20
0.0
 30
0.0
  3
*D9
  1

  0
LINE
  5
7DFF
  8
3
  6
CONTINUOUS
 62
     0
 10
2364.7637026053299
 20
6769.6104830000004
 30
0.0
 11
2364.7637026053299
 21
6369.293678
 31
0.0
  0
LINE
  5
7E00
  8
3
  6
CONTINUOUS
 62
     0
 10
4064.763702605328
 20
6769.6104830000004
 30
0.0
 11
4064.763702605328
 21
6369.293678
 31
0.0
  0
LINE
  5
7E01
  8
3
  6
CONTINUOUS
 62
     0
 10
2444.7637026053299
 20
6409.293678
 30
0.0
 11
3984.7637026053289
 21
6409.293678
 31
0.0
  0
INSERT
  5
7E02
  8
3
  6
CONTINUOUS
 62
     0
  2
_OPEN
 10
2364.7637026053299
 20
6409.293678
 30
0.0
 41
80.0
 42
80.0
 43
80.0
 50
180.0
  0
INSERT
  5
7E03
  8
3
  6
CONTINUOUS
 62
     0
  2
_OPEN
 10
4064.763702605328
 20
6409.293678
 30
0.0
 41
80.0
 42
80.0
 43
80.0
  0
TEXT
  8
3
  40
120
  5
7E52
  62
0
  72
0
  71
0
 10
2971.20
 20
6296.89
 30
0.000000
  1
1700
  0
POINT
  5
7E05
  8
DEFPOINTS
  6
CONTINUOUS
 62
     0
 10
2364.7637026053299
 20
6789.6104830000004
 30
0.0
  0
POINT
  5
7E06
  8
DEFPOINTS
  6
CONTINUOUS
 62
     0
 10
4064.763702605328
 20
6789.6104830000004
 30
0.0
  0
POINT
  5
7E07
  8
DEFPOINTS
  6
CONTINUOUS
 62
     0
 10
4064.763702605328
 20
6409.293678
 30
0.0
  0
ENDBLK
  5
7B54
  8
0
  0
BLOCK
  8
0
  2
*D10
 70
     1
 10
0.0
 20
0.0
 30
0.0
  3
*D10
  1

  0
LINE
  5
7E08
  8
3
  6
CONTINUOUS
 62
     0
 10
4084.7637026053289
 20
7639.6104830000004
 30
0.0
 11
4413.5929516053302
 21
7639.6104830000004
 31
0.0
  0
LINE
  5
7E09
  8
3
  6
CONTINUOUS
 62
     0
 10
4084.7637026053289
 20
6789.6104830000004
 30
0.0
 11
4413.5929516053302
 21
6789.6104830000004
 31
0.0
  0
LINE
  5
7E0A
  8
3
  6
CONTINUOUS
 62
     0
 10
4373.5929516053302
 20
7559.6104830000004
 30
0.0
 11
4373.5929516053302
 21
6869.6104829999986
 31
0.0
  0
INSERT
  5
7E0B
  8
3
  6
CONTINUOUS
 62
     0
  2
_OPEN
 10
4373.5929516053302
 20
7639.6104830000004
 30
0.0
 41
80.0
 42
80.0
 43
80.0
 50
90.0
  0
INSERT
  5
7E0C
  8
3
  6
CONTINUOUS
 62
     0
  2
_OPEN
 10
4373.5929516053302
 20
6789.6104830000004
 30
0.0
 41
80.0
 42
80.0
 43
80.0
 50
270.0
  0
TEXT
  8
3
  40
120
  5
7E53
  62
0
  72
0
  71
0
 10
4033.59
 20
7015.14
 30
0.000000
  1
850
  0
POINT
  5
7E0E
  8
DEFPOINTS
  6
CONTINUOUS
 62
     0
 10
4064.763702605328
 20
7639.6104830000004
 30
0.0
  0
POINT
  5
7E0F
  8
DEFPOINTS
  6
CONTINUOUS
 62
     0
 10
4064.763702605328
 20
6789.6104830000004
 30
0.0
  0
POINT
  5
7E10
  8
DEFPOINTS
  6
CONTINUOUS
 62
     0
 10
4373.5929516053302
 20
6789.6104830000004
 30
0.0
  0
ENDBLK
  5
7B61
  8
0
  0
BLOCK
  8
0
  2
*D11
 70
     1
 10
0.0
 20
0.0
 30
0.0
  3
*D11
  1

  0
LINE
  5
7E11
  8
3
  6
CONTINUOUS
 62
     0
 10
5490.8755077445567
 20
3555.99982
 30
0.0
 11
5490.8755077445567
 21
3269.324462
 31
0.0
  0
LINE
  5
7E12
  8
3
  6
CONTINUOUS
 62
     0
 10
5987.8755077445567
 20
3484.1460889999998
 30
0.0
 11
5987.8755077445567
 21
3269.324462
 31
0.0
  0
LINE
  5
7E13
  8
3
  6
CONTINUOUS
 62
     0
 10
5570.8755077445558
 20
3309.324462
 30
0.0
 11
5907.8755077445567
 21
3309.324462
 31
0.0
  0
TEXT
  8
3
  40
120
  5
7E54
  62
0
  72
0
  71
0
 10
5499.38
 20
3196.92
 30
0.000000
  1
497
  0
INSERT
  5
7E15
  8
3
  6
CONTINUOUS
 62
     0
  2
_OPEN
 10
5490.8755077445567
 20
3309.324462
 30
0.0
 41
80.0
 42
80.0
 43
80.0
 50
180.0
  0
INSERT
  5
7E16
  8
3
  6
CONTINUOUS
 62
     0
  2
_OPEN
 10
5987.8755077445567
 20
3309.324462
 30
0.0
 41
80.0
 42
80.0
 43
80.0
  0
POINT
  5
7E17
  8
DEFPOINTS
  6
CONTINUOUS
 62
     0
 10
5490.8755077445567
 20
3575.99982
 30
0.0
  0
POINT
  5
7E18
  8
DEFPOINTS
  6
CONTINUOUS
 62
     0
 10
5987.8755077445567
 20
3504.1460889999989
 30
0.0
  0
POINT
  5
7E19
  8
DEFPOINTS
  6
CONTINUOUS
 62
     0
 10
5987.8755077445567
 20
3309.324462
 30
0.0
  0
ENDBLK
  5
7C2D
  8
0
  0
BLOCK
  8
0
  2
*D12
 70
     1
 10
0.0
 20
0.0
 30
0.0
  3
*D12
  1

  0
LINE
  5
7E1A
  8
3
  6
CONTINUOUS
 62
     0
 10
6340.8755077445567
 20
3555.99982
 30
0.0
 11
6340.8755077445567
 21
3269.324462
 31
0.0
  0
LINE
  5
7E1B
  8
3
  6
CONTINUOUS
 62
     0
 10
6067.8755077445558
 20
3309.324462
 30
0.0
 11
6260.8755077445567
 21
3309.324462
 31
0.0
  0
TEXT
  8
3
  40
120
  5
7E55
  62
0
  72
0
  71
0
 10
5923.77
 20
3196.92
 30
0.000000
  1
353
  0
INSERT
  5
7E1D
  8
3
  6
CONTINUOUS
 62
     0
  2
_OPEN
 10
5987.8755077445567
 20
3309.324462
 30
0.0
 41
80.0
 42
80.0
 43
80.0
 50
180.0
  0
INSERT
  5
7E1E
  8
3
  6
CONTINUOUS
 62
     0
  2
_OPEN
 10
6340.8755077445567
 20
3309.324462
 30
0.0
 41
80.0
 42
80.0
 43
80.0
  0
POINT
  5
7E1F
  8
DEFPOINTS
  6
CONTINUOUS
 62
     0
 10
5987.8755077445567
 20
3504.1460889999989
 30
0.0
  0
POINT
  5
7E20
  8
DEFPOINTS
  6
CONTINUOUS
 62
     0
 10
6340.8755077445567
 20
3575.99982
 30
0.0
  0
POINT
  5
7E21
  8
DEFPOINTS
  6
CONTINUOUS
 62
     0
 10
6340.8755077445567
 20
3309.324462
 30
0.0
  0
ENDBLK
  5
7B9A
  8
0
  0
BLOCK
  8
0
  2
*D13
 70
     1
 10
0.0
 20
0.0
 30
0.0
  3
*D13
  1

  0
LINE
  5
7E22
  8
3
  6
CONTINUOUS
 62
     0
 10
5687.8755077445567
 20
5033.99982
 30
0.0
 11
5687.8755077445567
 21
5235.1974879999998
 31
0.0
  0
LINE
  5
7E23
  8
3
  6
CONTINUOUS
 62
     0
 10
6287.8755077445567
 20
5033.99982
 30
0.0
 11
6287.8755077445567
 21
5235.1974879999998
 31
0.0
  0
LINE
  5
7E24
  8
3
  6
CONTINUOUS
 62
     0
 10
5767.8755077445558
 20
5195.1974880000007
 30
0.0
 11
6207.8755077445567
 21
5195.1974880000007
 31
0.0
  0
INSERT
  5
7E25
  8
3
  6
CONTINUOUS
 62
     0
  2
_OPEN
 10
5687.8755077445567
 20
5195.1974880000007
 30
0.0
 41
80.0
 42
80.0
 43
80.0
 50
180.0
  0
INSERT
  5
7E26
  8
3
  6
CONTINUOUS
 62
     0
  2
_OPEN
 10
6287.8755077445567
 20
5195.1974880000007
 30
0.0
 41
80.0
 42
80.0
 43
80.0
  0
TEXT
  8
3
  40
120
  5
7E56
  62
0
  72
0
  71
0
 10
5722.16
 20
5082.80
 30
0.000000
  1
600
  0
POINT
  5
7E28
  8
DEFPOINTS
  6
CONTINUOUS
 62
     0
 10
5687.8755077445567
 20
5013.99982
 30
0.0
  0
POINT
  5
7E29
  8
DEFPOINTS
  6
CONTINUOUS
 62
     0
 10
6287.8755077445567
 20
5013.99982
 30
0.0
  0
POINT
  5
7E2A
  8
DEFPOINTS
  6
CONTINUOUS
 62
     0
 10
6287.8755077445567
 20
5195.1974880000007
 30
0.0
  0
ENDBLK
  5
7BA6
  8
0
  0
BLOCK
  8
0
  2
*D14
 70
     1
 10
0.0
 20
0.0
 30
0.0
  3
*D14
  1

  0
LINE
  5
7CA8
  8
0
  6
BYBLOCK
 62
     0
 10
5846.7872360000001
 20
4755.99982
 30
0.0
 11
5846.7872360000001
 21
5523.5334389999998
 31
0.0
  0
LINE
  5
7CA9
  8
0
  6
BYBLOCK
 62
     0
 10
6416.787236000001
 20
5441.1905289999986
 30
0.0
 11
6416.787236000001
 21
5523.5334389999998
 31
0.0
  0
LINE
  5
7CAA
  8
0
  6
BYBLOCK
 62
     0
 10
5926.7872360000001
 20
5483.5334389999998
 30
0.0
 11
6336.7872360000001
 21
5483.5334389999998
 31
0.0
  0
INSERT
  5
7CAB
  8
3
  2
*U19
 10
0.0
 20
0.0
 30
0.0
  0
INSERT
  5
7CAC
  8
0
  6
BYBLOCK
 62
     0
  2
_OPEN
 10
5846.7872360000001
 20
5483.5334389999998
 30
0.0
 41
80.0
 42
80.0
 43
80.0
 50
180.0
  0
INSERT
  5
7CAD
  8
0
  6
BYBLOCK
 62
     0
  2
_OPEN
 10
6416.787236000001
 20
5483.5334389999998
 30
0.0
 41
80.0
 42
80.0
 43
80.0
  0
POINT
  5
7CAE
  8
DEFPOINTS
  6
BYBLOCK
 62
     0
 10
5846.7872360000001
 20
4735.9998199999991
 30
0.0
  0
POINT
  5
7CAF
  8
DEFPOINTS
  6
BYBLOCK
 62
     0
 10
6416.787236000001
 20
5421.1905290000004
 30
0.0
  0
POINT
  5
7CB0
  8
DEFPOINTS
  6
BYBLOCK
 62
     0
 10
6416.787236000001
 20
5483.5334389999998
 30
0.0
  0
ENDBLK
  5
7CB1
  8
0
  0
BLOCK
  8
0
  2
*D15
 70
     1
 10
0.0
 20
0.0
 30
0.0
  3
*D15
  1

  0
LINE
  5
7E2B
  8
3
  6
CONTINUOUS
 62
     0
 10
6370.8755077445567
 20
4995.99982
 30
0.0
 11
6370.8755077445567
 21
5523.5334389999998
 31
0.0
  0
LINE
  5
7E2C
  8
3
  6
CONTINUOUS
 62
     0
 10
6067.8755077445558
 20
5483.5334389999998
 30
0.0
 11
6290.8755077445567
 21
5483.5334389999998
 31
0.0
  0
TEXT
  8
3
  40
120
  5
7E57
  62
0
  72
0
  71
0
 10
5931.57
 20
5371.13
 30
0.000000
  1
383
  0
INSERT
  5
7E2E
  8
3
  6
CONTINUOUS
 62
     0
  2
_OPEN
 10
5987.8755077445567
 20
5483.5334389999998
 30
0.0
 41
80.0
 42
80.0
 43
80.0
 50
180.0
  0
INSERT
  5
7E2F
  8
3
  6
CONTINUOUS
 62
     0
  2
_OPEN
 10
6370.8755077445567
 20
5483.5334389999998
 30
0.0
 41
80.0
 42
80.0
 43
80.0
  0
POINT
  5
7E30
  8
DEFPOINTS
  6
CONTINUOUS
 62
     0
 10
5987.8755077445567
 20
5421.1905290000004
 30
0.0
  0
POINT
  5
7E31
  8
DEFPOINTS
  6
CONTINUOUS
 62
     0
 10
6370.8755077445567
 20
4975.99982
 30
0.0
  0
POINT
  5
7E32
  8
DEFPOINTS
  6
CONTINUOUS
 62
     0
 10
6370.8755077445567
 20
5483.5334389999998
 30
0.0
  0
ENDBLK
  5
7BD9
  8
0
  0
BLOCK
  8
0
  2
*D16
 70
     1
 10
0.0
 20
0.0
 30
0.0
  3
*D16
  1

  0
LINE
  5
7E33
  8
3
  6
CONTINUOUS
 62
     0
 10
6390.8755077445558
 20
4935.99982
 30
0.0
 11
6773.2596227445583
 21
4935.99982
 31
0.0
  0
LINE
  5
7E34
  8
3
  6
CONTINUOUS
 62
     0
 10
6390.8755077445558
 20
4135.99982
 30
0.0
 11
6773.2596227445583
 21
4135.99982
 31
0.0
  0
LINE
  5
7E35
  8
3
  6
CONTINUOUS
 62
     0
 10
6733.2596227445583
 20
4855.99982
 30
0.0
 11
6733.2596227445583
 21
4215.99982
 31
0.0
  0
INSERT
  5
7E36
  8
3
  6
CONTINUOUS
 62
     0
  2
_OPEN
 10
6733.2596227445583
 20
4935.99982
 30
0.0
 41
80.0
 42
80.0
 43
80.0
 50
90.0
  0
INSERT
  5
7E37
  8
3
  6
CONTINUOUS
 62
     0
  2
_OPEN
 10
6733.2596227445583
 20
4135.99982
 30
0.0
 41
80.0
 42
80.0
 43
80.0
 50
270.0
  0
TEXT
  8
3
  40
120
  5
7E58
  62
0
  72
0
  71
0
 10
6393.26
 20
4269.89
 30
0.000000
  1
φ800
  0
POINT
  5
7E39
  8
DEFPOINTS
  6
CONTINUOUS
 62
     0
 10
6370.8755077445567
 20
4935.99982
 30
0.0
  0
POINT
  5
7E3A
  8
DEFPOINTS
  6
CONTINUOUS
 62
     0
 10
6370.8755077445567
 20
4135.99982
 30
0.0
  0
POINT
  5
7E3B
  8
DEFPOINTS
  6
CONTINUOUS
 62
     0
 10
6733.2596227445583
 20
4135.99982
 30
0.0
  0
ENDBLK
  5
7C8E
  8
0
  0
BLOCK
  8
0
  2
*D17
 70
     1
 10
0.0
 20
0.0
 30
0.0
  3
*D17
  1

  0
LINE
  5
7C63
  8
0
  6
BYBLOCK
 62
     0
 10
2564.8561009999999
 20
4575.49982
 30
0.0
 11
2564.8561009999999
 21
5320.898972
 31
0.0
  0
LINE
  5
7C64
  8
0
  6
BYBLOCK
 62
     0
 10
3029.8561009999999
 20
5280.898972
 30
0.0
 11
2644.8561009999999
 21
5280.898972
 31
0.0
  0
TEXT
  5
7C65
  8
3
 62
     0
 10
2683.0703867142861
 20
5325.5101383777264
 30
0.0
 40
120.0
  1
545
  0
INSERT
  5
7C66
  8
0
  6
BYBLOCK
 62
     0
  2
_OPEN
 10
3109.8561009999999
 20
5280.898972
 30
0.0
 41
80.0
 42
80.0
 43
80.0
  0
INSERT
  5
7C67
  8
0
  6
BYBLOCK
 62
     0
  2
_OPEN
 10
2564.8561009999999
 20
5280.898972
 30
0.0
 41
80.0
 42
80.0
 43
80.0
 50
180.0
  0
POINT
  5
7C68
  8
DEFPOINTS
  6
BYBLOCK
 62
     0
 10
3109.8561009999999
 20
5102.898185
 30
0.0
  0
POINT
  5
7C69
  8
DEFPOINTS
  6
BYBLOCK
 62
     0
 10
2564.8561009999999
 20
4555.49982
 30
0.0
  0
POINT
  5
7C6A
  8
DEFPOINTS
  6
BYBLOCK
 62
     0
 10
2564.8561009999999
 20
5280.898972
 30
0.0
  0
ENDBLK
  5
7C6B
  8
0
  0
BLOCK
  8
0
  2
*D18
 70
     1
 10
0.0
 20
0.0
 30
0.0
  3
*D18
  1

  0
LINE
  5
7E3C
  8
3
 62
     0
 10
2319.7637026053299
 20
4595.4998199999991
 30
0.0
 11
2319.7637026053299
 21
5535.6068226285897
 31
0.0
  0
LINE
  5
7E3D
  8
3
 62
     0
 10
4064.763702605328
 20
3695.99982
 30
0.0
 11
4064.763702605328
 21
5535.6068226285897
 31
0.0
  0
LINE
  5
7E3E
  8
3
 62
     0
 10
2399.7637026053299
 20
5495.6068226285897
 30
0.0
 11
3984.7637026053289
 21
5495.6068226285897
 31
0.0
  0
INSERT
  5
7E3F
  8
3
 62
     0
  2
_OPEN
 10
2319.7637026053299
 20
5495.6068226285897
 30
0.0
 41
80.0
 42
80.0
 43
80.0
 50
180.0
  0
INSERT
  5
7E40
  8
3
 62
     0
  2
_OPEN
 10
4064.763702605328
 20
5495.6068226285897
 30
0.0
 41
80.0
 42
80.0
 43
80.0
  0
TEXT
  8
3
  40
120
  5
7E59
  62
0
  72
0
  71
0
 10
2912.32
 20
5383.21
 30
0.000000
  1
1745
  0
POINT
  5
7E42
  8
DEFPOINTS
 62
     0
 10
2319.7637026053299
 20
4575.49982
 30
0.0
  0
POINT
  5
7E43
  8
DEFPOINTS
 62
     0
 10
4064.763702605328
 20
3675.99982
 30
0.0
  0
POINT
  5
7E44
  8
DEFPOINTS
 62
     0
 10
4064.763702605328
 20
5495.6068226285897
 30
0.0
  0
ENDBLK
  5
7C83
  8
0
  0
BLOCK
  8
0
  2
*U19
 70
     1
 10
0.0
 20
0.0
 30
0.0
  3
*U19
  1

  0
TEXT
  5
7E46
  8
3
 62
     0
 10
5960.3586645714286
 20
5749.8181674336947
 30
0.0
 40
120.0
  1
MAX
  0
TEXT
  5
7E47
  8
3
 62
     0
 10
5977.5015217142864
 20
5549.8181674336947
 30
0.0
 40
120.0
  1
660
  0
ENDBLK
  5
7E49
  8
0
  0
ENDSEC
  0
SECTION
  2
ENTITIES
  0
POLYLINE
  5
7A67
  8
1
  6
CONTINUOUS
 66
     1
 10
0.0
 20
0.0
 30
0.0
  0
VERTEX
  5
7DB0
  8
1
  6
CONTINUOUS
 10
2319.7637026053299
 20
3687.99982
 30
0.0
  0
VERTEX
  5
7DB1
  8
1
  6
CONTINUOUS
 10
2864.7637026053299
 20
3731.99982
 30
0.0
 42
0.4
  0
VERTEX
  5
7DB2
  8
1
  6
CONTINUOUS
 10
3553.06370260533
 20
4476.99982
 30
0.0
 42
0.4
  0
VERTEX
  5
7DB3
  8
1
  6
CONTINUOUS
 10
2856.163702605329
 20
5102.6998200000007
 30
0.0
 42
0.4
  0
VERTEX
  5
7DB4
  8
1
  6
CONTINUOUS
 10
2390.0637026053291
 20
4583.49982
 30
0.0
  0
VERTEX
  5
7DB5
  8
1
  6
CONTINUOUS
 10
2395.8637026053289
 20
4512.99982
 30
0.0
 42
0.4
  0
SEQEND
  5
7DB6
  8
1
  6
CONTINUOUS
  0
LINE
  5
7A6F
  8
1
  6
CONTINUOUS
 10
2364.7637026053299
 20
3575.99982
 30
0.0
 11
4064.763702605328
 21
3575.99982
 31
0.0
  0
LINE
  5
7A70
  8
1
  6
CONTINUOUS
 10
2364.7637026053299
 20
3675.99982
 30
0.0
 11
4064.763702605328
 21
3675.99982
 31
0.0
  0
CIRCLE
  5
7A71
  8
1
  6
CONTINUOUS
 10
2864.7637026053299
 20
4535.9998199999991
 30
0.0
 40
440.0
  0
LINE
  5
7A72
  8
1
  6
CONTINUOUS
 10
2319.7637026053299
 20
4555.49982
 30
0.0
 11
2319.7637026053299
 21
3645.49982
 31
0.0
  0
LINE
  5
7A73
  8
1
  6
CONTINUOUS
 10
2359.7637026053299
 20
4512.99982
 30
0.0
 11
2359.7637026053299
 21
3687.99982
 31
0.0
  0
LINE
  5
7A74
  8
1
  6
CONTINUOUS
 10
2364.7637026053299
 20
3675.99982
 30
0.0
 11
2364.7637026053299
 21
3575.99982
 31
0.0
  0
LINE
  5
7A75
  8
1
  6
CONTINUOUS
 10
2395.8637026053289
 20
4512.99982
 30
0.0
 11
2319.7637026053299
 21
4512.99982
 31
0.0
  0
LINE
  5
7A76
  8
1
  6
CONTINUOUS
 10
2754.8637026053289
 20
4368.8998200000005
 30
0.0
 11
3718.3637026053302
 21
3735.5998199999999
 31
0.0
  0
LINE
  5
7A77
  8
1
  6
CONTINUOUS
 10
2809.8637026053289
 20
4452.3998200000005
 30
0.0
 11
3773.3637026053289
 21
3819.0998199999999
 31
0.0
  0
LINE
  5
7A78
  8
1
  6
CONTINUOUS
 10
2980.3637026053289
 20
4699.1998199999998
 30
0.0
 11
3921.2637026053289
 21
4032.8998199999992
 31
0.0
  0
LINE
  5
7A79
  8
1
  6
CONTINUOUS
 10
2922.56370260533
 20
4617.5998200000004
 30
0.0
 11
3863.4637026053292
 21
3951.2998200000002
 31
0.0
  0
CIRCLE
  5
7A7A
  8
1
  6
CONTINUOUS
 10
2864.7637026053299
 20
4535.9998199999991
 30
0.0
 40
400.0
  0
ARC
  5
7A7B
  8
1
  6
CONTINUOUS
 10
2864.7637026053299
 20
4535.9998199999991
 30
0.0
 40
200.0
 50
54.699999999999989
 51
236.6999999999999
  0
CIRCLE
  5
7A7C
  8
1
  6
CONTINUOUS
 10
2864.7637026053299
 20
4535.9998199999991
 30
0.0
 40
100.0
  0
LINE
  5
7A7D
  8
2
  6
CENTER
 10
6452.1796137445581
 20
4535.9998199999991
 30
0.0
 11
5280.6621597445564
 21
4535.9998199999991
 31
0.0
  0
LINE
  5
7A7E
  8
2
  6
CENTER
 10
2864.7637026053299
 20
7747.9520209999991
 30
0.0
 11
2864.7637026053299
 21
6649.3219020000006
 31
0.0
  0
ARC
  5
7A7F
  8
1
  6
CONTINUOUS
 10
3817.2637026053289
 20
3885.99982
 30
0.0
 40
162.0
 50
325.0
 51
214.99999999999989
  0
CIRCLE
  5
7A80
  8
1
  6
CONTINUOUS
 10
3817.2637026053289
 20
3885.99982
 30
0.0
 40
80.0
  0
LINE
  5
7A81
  8
2
  6
CENTER
 10
3897.2637026053289
 20
3885.99982
 30
0.0
 11
3737.2637026053289
 21
3885.99982
 31
0.0
  0
ARC
  5
7A82
  8
1
  6
CONTINUOUS
 10
3817.2637026053289
 20
3885.99982
 30
0.0
 40
180.0
 50
236.6999999999999
 51
54.699999999999989
  0
LINE
  5
7A83
  8
1
  6
CONTINUOUS
 10
3629.7637026053289
 20
3725.99982
 30
0.0
 11
4004.7637026053289
 21
3725.99982
 31
0.0
  0
LINE
  5
7A84
  8
1
  6
CONTINUOUS
 10
3619.7637026053289
 20
3675.99982
 30
0.0
 11
3629.7637026053289
 21
3725.99982
 31
0.0
  0
LINE
  5
7A85
  8
1
  6
CONTINUOUS
 10
3663.2637026053289
 20
3743.99982
 30
0.0
 11
3684.56370260533
 21
3792.99982
 31
0.0
  0
LINE
  5
7A86
  8
1
  6
CONTINUOUS
 10
3663.2637026053289
 20
3725.99982
 30
0.0
 11
3663.2637026053289
 21
3743.99982
 31
0.0
  0
LINE
  5
7A87
  8
2
  6
CENTER
 10
3817.2637026053289
 20
3805.99982
 30
0.0
 11
3817.2637026053289
 21
3965.99982
 31
0.0
  0
LINE
  5
7A88
  8
1
  6
CONTINUOUS
 10
4004.7637026053289
 20
3725.99982
 30
0.0
 11
4014.763702605328
 21
3675.99982
 31
0.0
  0
LINE
  5
7A89
  8
1
  6
CONTINUOUS
 10
4064.763702605328
 20
3675.99982
 30
0.0
 11
4064.763702605328
 21
3575.99982
 31
0.0
  0
LINE
  5
7A8A
  8
1
  6
CONTINUOUS
 10
3971.2637026053289
 20
3725.99982
 30
0.0
 11
3971.2637026053289
 21
3743.99982
 31
0.0
  0
LINE
  5
7A8B
  8
1
  6
CONTINUOUS
 10
3971.2637026053289
 20
3743.99982
 30
0.0
 11
3949.9637026053301
 21
3792.99982
 31
0.0
  0
LINE
  5
7A8C
  8
1
  6
CONTINUOUS
 10
2364.7637026053299
 20
6789.6104830000004
 30
0.0
 11
2764.7637026053299
 21
6789.6104830000004
 31
0.0
  0
LINE
  5
7A8D
  8
1
  6
CONTINUOUS
 10
2364.7637026053299
 20
7639.6104830000004
 30
0.0
 11
2464.7637026053299
 21
7639.6104830000004
 31
0.0
  0
LINE
  5
7A8E
  8
1
  6
CONTINUOUS
 10
2319.7637026053299
 20
7586.6104830000004
 30
0.0
 11
3553.06370260533
 21
7586.6104830000004
 31
0.0
  0
LINE
  5
7A8F
  8
1
  6
CONTINUOUS
 10
2319.7637026053299
 20
6986.6104829999986
 30
0.0
 11
3553.06370260533
 21
6986.6104829999986
 31
0.0
  0
LINE
  5
7A90
  8
1
  6
CONTINUOUS
 10
2424.7637026053299
 20
7669.6104829999986
 30
0.0
 11
3304.763702605328
 21
7669.6104829999986
 31
0.0
  0
LINE
  5
7A91
  8
1
  6
CONTINUOUS
 10
2359.7637026053299
 20
6986.6104829999986
 30
0.0
 11
2359.7637026053299
 21
7586.6104830000004
 31
0.0
  0
LINE
  5
7A92
  8
1
  6
CONTINUOUS
 10
2319.7637026053299
 20
6946.6104829999986
 30
0.0
 11
2319.7637026053299
 21
7626.6104830000004
 31
0.0
  0
LINE
  5
7A93
  8
1
  6
CONTINUOUS
 10
2364.7637026053299
 20
6986.6104829999986
 30
0.0
 11
2364.7637026053299
 21
6789.6104830000004
 31
0.0
  0
LINE
  5
7A94
  8
1
  6
CONTINUOUS
 10
2364.7637026053299
 20
7639.6104830000004
 30
0.0
 11
2364.7637026053299
 21
7586.6104830000004
 31
0.0
  0
LINE
  5
7A95
  8
1
  6
CONTINUOUS
 10
2664.7637026053312
 20
6716.6104830000004
 30
0.0
 11
3997.2637026053289
 21
6716.6104830000004
 31
0.0
  0
LINE
  5
7A96
  8
1
  6
CONTINUOUS
 10
2664.7637026053312
 20
6876.6104830000004
 30
0.0
 11
3997.2637026053289
 21
6876.6104830000004
 31
0.0
  0
LINE
  5
7A97
  8
1
  6
CONTINUOUS
 10
2964.7637026053299
 20
6789.6104830000004
 30
0.0
 11
3737.2637026053289
 21
6789.6104830000004
 31
0.0
  0
LINE
  5
7A98
  8
1
  6
CONTINUOUS
 10
3264.763702605328
 20
7639.6104830000004
 30
0.0
 11
4064.763702605328
 21
7639.6104830000004
 31
0.0
  0
LINE
  5
7A99
  8
1
  6
CONTINUOUS
 10
2764.7637026053299
 20
6829.6104829999986
 30
0.0
 11
2964.7637026053299
 21
6829.6104829999986
 31
0.0
  0
LINE
  5
7A9A
  8
1
  6
CONTINUOUS
 10
2764.7637026053299
 20
6749.6104829999986
 30
0.0
 11
2964.7637026053299
 21
6749.6104829999986
 31
0.0
  0
LINE
  5
7A9B
  8
1
  6
CONTINUOUS
 10
2664.7637026053312
 20
6716.6104830000004
 30
0.0
 11
2664.7637026053312
 21
6876.6104830000004
 31
0.0
  0
LINE
  5
7A9C
  8
1
  6
CONTINUOUS
 10
2764.7637026053299
 20
6749.6104829999986
 30
0.0
 11
2764.7637026053299
 21
6829.6104829999986
 31
0.0
  0
LINE
  5
7A9D
  8
1
  6
CONTINUOUS
 10
2885.7637026053312
 20
6829.6104829999986
 30
0.0
 11
2885.7637026053312
 21
6986.6104829999986
 31
0.0
  0
LINE
  5
7A9E
  8
1
  6
CONTINUOUS
 10
2843.7637026053312
 20
6829.6104829999986
 30
0.0
 11
2843.7637026053312
 21
6986.6104829999986
 31
0.0
  0
LINE
  5
7A9F
  8
1
  6
CONTINUOUS
 10
2464.7637026053299
 20
7586.6104830000004
 30
0.0
 11
2464.7637026053299
 21
7669.6104829999986
 31
0.0
  0
LINE
  5
7AA0
  8
1
  6
CONTINUOUS
 10
2964.7637026053299
 20
6749.6104829999986
 30
0.0
 11
2964.7637026053299
 21
6829.6104829999986
 31
0.0
  0
LINE
  5
7AA1
  8
1
  6
CONTINUOUS
 10
3264.763702605328
 20
7586.6104830000004
 30
0.0
 11
3264.763702605328
 21
7669.6104829999986
 31
0.0
  0
LINE
  5
7AA2
  8
1
  6
CONTINUOUS
 10
3979.2637026053289
 20
7413.3104830000002
 30
0.0
 11
3655.2637026053289
 21
7413.3104830000002
 31
0.0
  0
LINE
  5
7AA3
  8
1
  6
CONTINUOUS
 10
3979.2637026053289
 20
6928.3104830000002
 30
0.0
 11
3655.2637026053289
 21
6928.3104830000002
 31
0.0
  0
LINE
  5
7AA4
  8
1
  6
CONTINUOUS
 10
3737.2637026053289
 20
6749.6104829999986
 30
0.0
 11
3897.2637026053289
 21
6749.6104829999986
 31
0.0
  0
LINE
  5
7AA5
  8
1
  6
CONTINUOUS
 10
3737.2637026053289
 20
6829.6104829999986
 30
0.0
 11
3897.2637026053289
 21
6829.6104829999986
 31
0.0
  0
LINE
  5
7AA6
  8
1
  6
CONTINUOUS
 10
3655.2637026053289
 20
6928.3104830000002
 30
0.0
 11
3655.2637026053289
 21
7413.3104830000002
 31
0.0
  0
LINE
  5
7AA7
  8
1
  6
CONTINUOUS
 10
3553.06370260533
 20
6986.6104829999986
 30
0.0
 11
3553.06370260533
 21
7586.6104830000004
 31
0.0
  0
LINE
  5
7AA8
  8
1
  6
CONTINUOUS
 10
3796.2637026053289
 20
6829.6104829999986
 30
0.0
 11
3796.2637026053289
 21
6928.3104830000002
 31
0.0
  0
LINE
  5
7AA9
  8
1
  6
CONTINUOUS
 10
3737.2637026053289
 20
6749.6104829999986
 30
0.0
 11
3737.2637026053289
 21
6829.6104829999986
 31
0.0
  0
LINE
  5
7AAA
  8
1
  6
CONTINUOUS
 10
3979.2637026053289
 20
6928.3104830000002
 30
0.0
 11
3979.2637026053289
 21
7413.3104830000002
 31
0.0
  0
LINE
  5
7AAB
  8
1
  6
CONTINUOUS
 10
4064.763702605328
 20
7639.6104830000004
 30
0.0
 11
4064.763702605328
 21
6789.6104830000004
 31
0.0
  0
LINE
  5
7AAC
  8
1
  6
CONTINUOUS
 10
3897.2637026053289
 20
6789.6104830000004
 30
0.0
 11
4064.763702605328
 21
6789.6104830000004
 31
0.0
  0
LINE
  5
7AAD
  8
1
  6
CONTINUOUS
 10
3838.2637026053289
 20
6829.6104829999986
 30
0.0
 11
3838.2637026053289
 21
6928.3104830000002
 31
0.0
  0
LINE
  5
7AAE
  8
1
  6
CONTINUOUS
 10
3997.2637026053289
 20
6716.6104830000004
 30
0.0
 11
3997.2637026053289
 21
6876.6104830000004
 31
0.0
  0
LINE
  5
7AAF
  8
1
  6
CONTINUOUS
 10
3897.2637026053289
 20
6749.6104829999986
 30
0.0
 11
3897.2637026053289
 21
6829.6104829999986
 31
0.0
  0
LINE
  5
7AB0
  8
1
  6
CONTINUOUS
 10
5687.8755077445567
 20
3687.99982
 30
0.0
 11
6287.8755077445567
 21
4512.99982
 31
0.0
  0
LINE
  5
7AB1
  8
1
  6
CONTINUOUS
 10
5687.8755077445567
 20
4512.99982
 30
0.0
 11
6287.8755077445567
 21
3687.99982
 31
0.0
  0
LINE
  5
7AB2
  8
1
  6
CONTINUOUS
 10
5687.8755077445567
 20
3687.99982
 30
0.0
 11
6287.8755077445567
 21
3687.99982
 31
0.0
  0
LINE
  5
7AB3
  8
1
  6
CONTINUOUS
 10
5687.8755077445567
 20
5013.99982
 30
0.0
 11
6287.8755077445567
 21
5013.99982
 31
0.0
  0
LINE
  5
7AB4
  8
1
  6
CONTINUOUS
 10
6340.8755077445567
 20
3675.99982
 30
0.0
 11
5490.8755077445567
 21
3675.99982
 31
0.0
  0
LINE
  5
7AB5
  8
1
  6
CONTINUOUS
 10
6340.8755077445567
 20
3575.99982
 30
0.0
 11
5490.8755077445567
 21
3575.99982
 31
0.0
  0
LINE
  5
7AB6
  8
1
  6
CONTINUOUS
 10
5687.8755077445567
 20
4512.99982
 30
0.0
 11
6287.8755077445567
 21
4512.99982
 31
0.0
  0
LINE
  5
7AB7
  8
1
  6
CONTINUOUS
 10
5577.8755077445567
 20
4735.9998199999991
 30
0.0
 11
5577.8755077445567
 21
3705.99982
 31
0.0
  0
LINE
  5
7AB8
  8
1
  6
CONTINUOUS
 10
5417.8755077445567
 20
4735.9998199999991
 30
0.0
 11
5417.8755077445567
 21
3705.99982
 31
0.0
  0
LINE
  5
7AB9
  8
1
  6
CONTINUOUS
 10
5687.8755077445567
 20
5013.99982
 30
0.0
 11
5687.8755077445567
 21
3675.99982
 31
0.0
  0
LINE
  5
7ABA
  8
1
  6
CONTINUOUS
 10
5537.8755077445567
 20
3906.9998200000009
 30
0.0
 11
5687.8755077445567
 21
3906.9998200000009
 31
0.0
  0
LINE
  5
7ABB
  8
1
  6
CONTINUOUS
 10
5537.8755077445567
 20
3864.99982
 30
0.0
 11
5687.8755077445567
 21
3864.99982
 31
0.0
  0
LINE
  5
7ABC
  8
1
  6
CONTINUOUS
 10
5490.8755077445567
 20
3675.99982
 30
0.0
 11
5490.8755077445567
 21
3575.99982
 31
0.0
  0
LINE
  5
7ABD
  8
1
  6
CONTINUOUS
 10
5417.8755077445567
 20
3705.99982
 30
0.0
 11
5577.8755077445567
 21
3705.99982
 31
0.0
  0
LINE
  5
7ABE
  8
1
  6
CONTINUOUS
 10
5537.8755077445567
 20
3965.99982
 30
0.0
 11
5537.8755077445567
 21
3805.99982
 31
0.0
  0
LINE
  5
7ABF
  8
1
  6
CONTINUOUS
 10
5457.8755077445567
 20
3965.99982
 30
0.0
 11
5457.8755077445567
 21
3805.99982
 31
0.0
  0
LINE
  5
7AC0
  8
1
  6
CONTINUOUS
 10
5457.8755077445567
 20
3965.99982
 30
0.0
 11
5537.8755077445567
 21
3965.99982
 31
0.0
  0
LINE
  5
7AC1
  8
1
  6
CONTINUOUS
 10
5457.8755077445567
 20
3805.99982
 30
0.0
 11
5537.8755077445567
 21
3805.99982
 31
0.0
  0
LINE
  5
7AC2
  8
1
  6
CONTINUOUS
 10
5537.8755077445567
 20
4514.9998199999991
 30
0.0
 11
5687.8755077445567
 21
4514.9998199999991
 31
0.0
  0
LINE
  5
7AC3
  8
1
  6
CONTINUOUS
 10
5537.8755077445567
 20
4556.99982
 30
0.0
 11
5687.8755077445567
 21
4556.99982
 31
0.0
  0
LINE
  5
7AC4
  8
1
  6
CONTINUOUS
 10
5417.8755077445567
 20
4735.9998199999991
 30
0.0
 11
5577.8755077445567
 21
4735.9998199999991
 31
0.0
  0
LINE
  5
7AC5
  8
1
  6
CONTINUOUS
 10
5457.8755077445567
 20
4635.99982
 30
0.0
 11
5457.8755077445567
 21
4435.99982
 31
0.0
  0
LINE
  5
7AC6
  8
1
  6
CONTINUOUS
 10
5537.8755077445567
 20
4635.99982
 30
0.0
 11
5537.8755077445567
 21
4435.99982
 31
0.0
  0
LINE
  5
7AC7
  8
1
  6
CONTINUOUS
 10
5457.8755077445567
 20
4435.99982
 30
0.0
 11
5537.8755077445567
 21
4435.99982
 31
0.0
  0
LINE
  5
7AC8
  8
1
  6
CONTINUOUS
 10
5457.8755077445567
 20
4635.99982
 30
0.0
 11
5537.8755077445567
 21
4635.99982
 31
0.0
  0
LINE
  5
7AC9
  8
1
  6
CONTINUOUS
 10
6370.8755077445567
 20
4975.99982
 30
0.0
 11
6370.8755077445567
 21
4095.9998200000009
 31
0.0
  0
LINE
  5
7ACA
  8
1
  6
CONTINUOUS
 10
6287.8755077445567
 20
5013.99982
 30
0.0
 11
6287.8755077445567
 21
3675.99982
 31
0.0
  0
LINE
  5
7ACB
  8
1
  6
CONTINUOUS
 10
6340.8755077445567
 20
3675.99982
 30
0.0
 11
6340.8755077445567
 21
3575.99982
 31
0.0
  0
LINE
  5
7ACC
  8
1
  6
CONTINUOUS
 10
6287.8755077445567
 20
4135.99982
 30
0.0
 11
6370.8755077445567
 21
4135.99982
 31
0.0
  0
LINE
  5
7ACD
  8
1
  6
CONTINUOUS
 10
6287.8755077445567
 20
4935.99982
 30
0.0
 11
6370.8755077445567
 21
4935.99982
 31
0.0
  0
DIMENSION
  5
7AE3
  8
3
  6
CONTINUOUS
  2
*D1
 10
2864.7637026053299
 20
3268.789436
 30
0.0
 11
2614.7637026053299
 21
3268.789436
 31
0.0
 70
   128
 13
2364.7637026053299
 23
3575.99982
 33
0.0
 14
2864.7637026053299
 24
3508.41984
 34
0.0
1001
ACAD
1000
DSTYLE
1002
{
1070
   287
1070
     4
1070
   287
1070
     4
1070
    40
1040
40.0
1070
   143
1040
0.039
1070
   172
1070
     1
1070
   271
1070
     0
1070
   279
1070
     1
1070
   288
1070
     1
1002
}
  0
DIMENSION
  5
7AEF
  8
3
  6
CONTINUOUS
  2
*D2
 10
4064.763702605328
 20
3268.789436
 30
0.0
 11
3464.7637026053289
 21
3368.789436
 31
0.0
 70
     0
 13
2864.7637026053299
 23
3508.41984
 33
0.0
 14
4064.763702605328
 24
3575.99982
 34
0.0
1001
ACAD
1000
DSTYLE
1002
{
1070
   287
1070
     4
1070
   287
1070
     4
1070
    40
1040
40.0
1070
    75
1070
     1
1070
   143
1040
0.039
1070
   172
1070
     1
1070
   271
1070
     0
1070
   279
1070
     1
1070
   288
1070
     1
1002
}
  0
DIMENSION
  5
7AFC
  8
3
  6
CONTINUOUS
  2
*D3
 10
2137.3525896053288
 20
3687.99982
 30
0.0
 11
2137.3525896053279
 21
4126.0044509999998
 31
0.0
 70
   128
 13
2319.7637026053299
 23
4512.99982
 33
0.0
 14
2319.7637026053299
 24
3687.99982
 34
0.0
 50
90.0
1001
ACAD
1000
DSTYLE
1002
{
1070
   287
1070
     3
1070
   287
1070
     3
1070
    40
1040
40.0
1070
   143
1040
0.039
1070
   172
1070
     1
1070
   271
1070
     0
1070
   279
1070
     0
1070
   288
1070
     1
1002
}
  0
DIMENSION
  5
7B09
  8
3
  6
CONTINUOUS
  2
*D4
 10
1934.129600605329
 20
4535.99982
 30
0.0
 11
1934.129600605329
 21
4129.900897999999
 31
0.0
 70
   128
 13
2319.7637026053299
 23
3687.99982
 33
0.0
 14
2393.9715046053302
 24
4535.9998199999991
 34
0.0
 50
90.0
1001
ACAD
1000
DSTYLE
1002
{
1070
   287
1070
     3
1070
   287
1070
     3
1070
    40
1040
40.0
1070
   143
1040
0.039
1070
   172
1070
     1
1070
   271
1070
     0
1070
   279
1070
     0
1070
   288
1070
     1
1002
}
  0
DIMENSION
  5
7B16
  8
3
  6
CONTINUOUS
  2
*D5
 10
1734.80731860533
 20
4535.99982
 30
0.0
 11
1734.8073186053291
 21
4810.2855342857138
 31
0.0
 70
   128
 13
2864.7637026053299
 23
5103.99982
 33
0.0
 14
2393.9715046053302
 24
4535.9998199999991
 34
0.0
 50
90.0
1001
ACAD
1000
DSTYLE
1002
{
1070
   287
1070
     3
1070
   287
1070
     3
1070
    40
1040
40.0
1070
   143
1040
0.039
1070
   172
1070
     1
1070
   271
1070
     0
1070
   279
1070
     0
1070
   288
1070
     1
1002
}
  0
DIMENSION
  5
7B22
  8
3
  6
CONTINUOUS
  2
*D6
 10
1734.8073186053291
 20
3575.99982
 30
0.0
 11
1634.8073186053291
 21
4055.9998200000009
 31
0.0
 70
     0
 13
2393.9715046053302
 23
4535.9998199999991
 33
0.0
 14
2364.7637026053299
 24
3575.99982
 34
0.0
 50
90.0
1001
ACAD
1000
DSTYLE
1002
{
1070
   287
1070
     4
1070
   287
1070
     4
1070
    40
1040
40.0
1070
    75
1070
     1
1070
   143
1040
0.039
1070
   172
1070
     1
1070
   271
1070
     0
1070
   279
1070
     1
1070
   288
1070
     1
1002
}
  0
DIMENSION
  5
7B2F
  8
3
  6
CONTINUOUS
  2
*D7
 10
1502.719014605329
 20
3575.99982
 30
0.0
 11
1502.719014605329
 21
4360.5657300000003
 31
0.0
 70
   128
 13
2864.7637026053299
 23
5103.99982
 33
0.0
 14
2364.7637026053299
 24
3575.99982
 34
0.0
 50
90.0
1001
ACAD
1000
DSTYLE
1002
{
1070
   287
1070
     3
1070
   287
1070
     3
1070
    40
1040
40.0
1070
   143
1040
0.039
1070
   172
1070
     1
1070
   271
1070
     0
1070
   279
1070
     0
1070
   288
1070
     1
1002
}
  0
DIMENSION
  5
7B48
  8
3
  6
CONTINUOUS
  2
*D8
 10
3550.7637026053312
 20
5280.898972
 30
0.0
 11
3207.7637026053312
 21
5380.898972
 31
0.0
 70
     0
 13
2864.7637026053299
 23
5102.898185
 33
0.0
 14
3550.7637026053312
 24
4535.9998199999991
 34
0.0
1001
ACAD
1000
DSTYLE
1002
{
1070
   287
1070
     3
1070
   287
1070
     3
1070
    40
1040
40.0
1070
   143
1040
0.039
1070
   172
1070
     1
1070
   271
1070
     0
1070
   279
1070
     0
1070
   288
1070
     1
1002
}
  0
DIMENSION
  5
7B55
  8
3
  6
CONTINUOUS
  2
*D9
 10
4064.763702605328
 20
6409.293678
 30
0.0
 11
3211.2010766053299
 21
6409.293678
 31
0.0
 70
   128
 13
2364.7637026053299
 23
6789.6104830000004
 33
0.0
 14
4064.763702605328
 24
6789.6104830000004
 34
0.0
1001
ACAD
1000
DSTYLE
1002
{
1070
   287
1070
     3
1070
   287
1070
     3
1070
    40
1040
40.0
1070
   143
1040
0.039
1070
   172
1070
     1
1070
   271
1070
     0
1070
   279
1070
     0
1070
   288
1070
     1
1002
}
  0
DIMENSION
  5
7B62
  8
3
  6
CONTINUOUS
  2
*D10
 10
4373.5929516053302
 20
6789.6104830000004
 30
0.0
 11
4373.5929516053302
 21
7227.5443830000004
 31
0.0
 70
   128
 13
4064.763702605328
 23
7639.6104830000004
 33
0.0
 14
4064.763702605328
 24
6789.6104830000004
 34
0.0
 50
90.0
1001
ACAD
1000
DSTYLE
1002
{
1070
   287
1070
     3
1070
   287
1070
     3
1070
    40
1040
40.0
1070
   143
1040
0.039
1070
   172
1070
     1
1070
   271
1070
     0
1070
   279
1070
     0
1070
   288
1070
     1
1002
}
  0
LINE
  5
7B63
  8
2
  6
CENTER
 10
3670.0830316053289
 20
7286.6104830000004
 30
0.0
 11
2119.0207506053298
 21
7286.6104830000004
 31
0.0
  0
LINE
  5
7B64
  8
2
  6
CENTER
 10
2864.7637026053299
 20
6649.3219020000006
 30
0.0
 11
2864.7637026053299
 21
6618.1504329999998
 31
0.0
  0
LINE
  5
7B65
  8
2
  6
CENTER
 10
2864.7637026053299
 20
6618.1504329999998
 30
0.0
 11
2864.7637026053299
 21
6602.5646990000014
 31
0.0
  0
LINE
  5
7B66
  8
2
  6
CENTER
 10
2864.7637026053299
 20
5192.056356000001
 30
0.0
 11
2864.7637026053299
 21
3508.41984
 31
0.0
  0
LINE
  5
7B67
  8
2
  6
CENTER
 10
5987.8755077445567
 20
5086.0974009999991
 30
0.0
 11
5987.8755077445567
 21
3504.1460889999989
 31
0.0
  0
DIMENSION
  5
7B76
  8
3
  6
CONTINUOUS
  2
*D11
 10
5987.8755077445567
 20
3309.324462
 30
0.0
 11
5739.3755077445567
 21
3309.324462
 31
0.0
 70
   128
 13
5490.8755077445567
 23
3575.99982
 33
0.0
 14
5987.8755077445567
 24
3504.1460889999989
 34
0.0
1001
ACAD
1000
DSTYLE
1002
{
1070
   287
1070
     4
1070
   287
1070
     4
1070
    40
1040
40.0
1070
   143
1040
0.039
1070
   172
1070
     1
1070
   271
1070
     0
1070
   279
1070
     1
1070
   288
1070
     1
1002
}
  0
DIMENSION
  5
7B84
  8
3
  6
CONTINUOUS
  2
*D12
 10
6340.8755077445567
 20
3309.324462
 30
0.0
 11
6163.7656187445564
 21
3309.324462
 31
0.0
 70
   128
 13
5987.8755077445567
 23
3504.1460889999989
 33
0.0
 14
6340.8755077445567
 24
3575.99982
 34
0.0
1001
ACAD
1000
DSTYLE
1002
{
1070
   287
1070
     4
1070
   287
1070
     4
1070
    40
1040
40.0
1070
    75
1070
     1
1070
   143
1040
0.039
1070
   172
1070
     1
1070
   271
1070
     0
1070
   279
1070
     1
1070
   288
1070
     1
1002
}
  0
DIMENSION
  5
7BA7
  8
3
  6
CONTINUOUS
  2
*D13
 10
6287.8755077445567
 20
5195.1974880000007
 30
0.0
 11
5962.1612227445567
 21
5195.1974880000007
 31
0.0
 70
   128
 13
5687.8755077445567
 23
5013.99982
 33
0.0
 14
6287.8755077445567
 24
5013.99982
 34
0.0
1001
ACAD
1000
DSTYLE
1002
{
1070
   287
1070
     3
1070
   287
1070
     3
1070
    40
1040
40.0
1070
   143
1040
0.039
1070
   172
1070
     1
1070
   271
1070
     0
1070
   279
1070
     0
1070
   288
1070
     1
1002
}
  0
DIMENSION
  5
7BB5
  8
3
  6
CONTINUOUS
  2
*D14
 10
5987.8755077445567
 20
5483.5334389999998
 30
0.0
 11
5702.8755077445567
 21
5709.8181674336947
 31
0.0
 12
-428.91172825544351
 22
0.0
 32
0.0
 70
   128
  1
MAX\P660
 13
5417.8755077445567
 23
4735.9998199999991
 33
0.0
 14
5987.8755077445567
 24
5421.1905290000004
 34
0.0
1001
ACAD
1000
DSTYLE
1002
{
1070
   288
1070
     1
1070
   172
1070
     1
1070
    40
1040
40.0
1070
   271
1070
     0
1070
   143
1040
0.039
1002
}
  0
DIMENSION
  5
7BC3
  8
3
  6
CONTINUOUS
  2
*D15
 10
6370.8755077445567
 20
5483.5334389999998
 30
0.0
 11
6171.5668907445561
 21
5483.5334389999998
 31
0.0
 70
   128
 13
5987.8755077445567
 23
5421.1905290000004
 33
0.0
 14
6370.8755077445567
 24
4975.99982
 34
0.0
1001
ACAD
1000
DSTYLE
1002
{
1070
   287
1070
     4
1070
   287
1070
     4
1070
    40
1040
40.0
1070
    75
1070
     1
1070
   143
1040
0.039
1070
   172
1070
     1
1070
   271
1070
     0
1070
   279
1070
     1
1070
   288
1070
     1
1002
}
  0
DIMENSION
  5
7BE6
  8
3
  6
CONTINUOUS
  2
*D16
 10
6733.2596227445583
 20
4135.99982
 30
0.0
 11
6733.2596227445583
 21
4482.2855342857138
 31
0.0
 70
   128
 13
6370.8755077445567
 23
4935.99982
 33
0.0
 14
6370.8755077445567
 24
4135.99982
 34
0.0
 50
90.0
1001
ACAD
1000
DSTYLE
1002
{
1070
   287
1070
     3
1070
   287
1070
     3
1070
     3
1000
φ<>
1070
    40
1040
40.0
1070
   143
1040
0.039
1070
   172
1070
     1
1070
   271
1070
     0
1070
   279
1070
     0
1070
   288
1070
     1
1002
}
  0
LINE
  5
7BE8
  8
2
  6
CENTER
 10
3605.9393946053292
 20
4535.9998199999991
 30
0.0
 11
2302.6521416053288
 21
4535.9998199999991
 31
0.0
  0
LINE
  5
7BE9
  8
4
  6
CONTINUOUS
 10
7400.0
 20
2000.0
 30
0.0
 11
7400.0
 21
1200.0
 31
0.0
  0
LINE
  5
7BEA
  8
4
  6
CONTINUOUS
 10
4600.0
 20
2000.0
 30
0.0
 11
4600.0
 21
1200.0
 31
0.0
  0
LINE
  5
7BEB
  8
4
  6
CONTINUOUS
 10
2600.0
 20
2000.0
 30
0.0
 11
2600.0
 21
1200.0
 31
0.0
  0
LINE
  5
7BEE
  8
4
  6
CONTINUOUS
 10
2600.0
 20
1200.0
 30
0.0
 11
7400.0
 21
1200.0
 31
0.0
  0
LINE
  5
7BEF
  8
4
  6
CONTINUOUS
 10
2600.0
 20
1600.0
 30
0.0
 11
7400.0
 21
1600.0
 31
0.0
  0
TEXT
  5
7BF0
  8
4
  6
CONTINUOUS
 10
2754.008323
 20
1726.1721030000001
 30
0.0
 40
200.0
  1
機器名称
  0
TEXT
  5
7BF1
  8
4
  6
CONTINUOUS
 10
2745.032424
 20
1286.580627
 30
0.0
 40
200.0
  1
機器型番
  0
TEXT
  5
7BF2
  8
4
  6
CONTINUOUS
 10
4710.7149820000004
 20
1690.2870760000001
 30
0.0
 40
160.0
  1
ミツヤリミットロードファン
  0
TEXT
  5
7BF3
  8
4
  6
CONTINUOUS
 10
4746.6179819999998
 20
1268.6383370000001
 30
0.0
 40
200.0
  1
LLE#5-4
  0
TEXT
  5
7BF5
  8
4
  6
CONTINUOUS
 10
3348.6219550000001
 20
9533.715365
 30
0.0
 40
216.0
  1
床置ベット
  0
TEXT
  5
7BF6
  8
4
  6
CONTINUOUS
 10
1264.6703729999999
 20
10135.523905
 30
0.0
 40
240.0
  1
ベルト駆動式片吸込両持排煙ファン
  0
LINE
  5
7BF7
  8
4
  6
CONTINUOUS
 10
1000.0
 20
9877.6350170000005
 30
0.0
 11
7400.0
 21
9877.6350170000005
 31
0.0
  0
LINE
  5
7BF8
  8
4
  6
CONTINUOUS
 10
1000.0
 20
10677.635017000001
 30
0.0
 11
7400.0
 21
10677.635017000001
 31
0.0
  0
LINE
  5
7BF9
  8
4
  6
CONTINUOUS
 10
2600.0
 20
2000.0
 30
0.0
 11
7400.0
 21
2000.0
 31
0.0
  0
LINE
  5
7BFA
  8
4
  6
CONTINUOUS
 10
1000.0
 20
10677.635017000001
 30
0.0
 11
1000.0
 21
9877.6350170000005
 31
0.0
  0
TEXT
  5
7BFB
  8
4
  6
CONTINUOUS
 10
1214.4338779999989
 20
9529.2779099999989
 30
0.0
 40
216.0
  1
右回転左横向
  0
TEXT
  5
7BFC
  8
4
  6
CONTINUOUS
 10
5875.8782369999999
 20
10824.244326
 30
0.0
 40
224.0
  1
No.
  0
TEXT
  5
7BFD
  8
4
  6
CONTINUOUS
 10
5245.1842500000012
 20
9533.715365
 30
0.0
 40
216.0
  1
縮尺：1/40
  0
LINE
  5
7BFE
  8
4
  6
CONTINUOUS
 10
7400.0
 20
10677.635017000001
 30
0.0
 11
7400.0
 21
9877.6350170000005
 31
0.0
  0
LINE
  5
7C00
  8
4
  6
CONTINUOUS
 10
5762.4696889999996
 20
10725.054333
 30
0.0
 11
5762.4696889999996
 21
11146.609046
 31
0.0
  0
LINE
  5
7C01
  8
4
  6
CONTINUOUS
 10
5762.4696889999996
 20
11146.609046
 30
0.0
 11
7400.0
 21
11146.609046
 31
0.0
  0
LINE
  5
7C02
  8
4
  6
CONTINUOUS
 10
7400.0
 20
11146.609046
 30
0.0
 11
7400.0
 21
10725.054333
 31
0.0
  0
LINE
  5
7C03
  8
4
  6
CONTINUOUS
 10
7400.0
 20
10725.054333
 30
0.0
 11
5762.4696889999996
 21
10725.054333
 31
0.0
  0
DIMENSION
  5
7C57
  8
3
  2
*D17
 10
2319.7637026053299
 20
5280.898972
 30
0.0
 11
2592.2637026053312
 21
5385.5101383777246
 31
0.0
 12
-245.0923983946704
 22
0.0
 32
0.0
 70
   128
 13
2864.7637026053299
 23
5102.898185
 33
0.0
 14
2319.7637026053299
 24
4555.49982
 34
0.0
1001
ACAD
1000
DSTYLE
1002
{
1070
   288
1070
     1
1070
   172
1070
     1
1070
    75
1070
     1
1070
    40
1040
40.0
1070
   271
1070
     0
1070
   143
1040
0.039
1002
}
  0
DIMENSION
  5
7C78
  8
3
  2
*D18
 10
4064.763702605328
 20
5495.6068226285897
 30
0.0
 11
3152.3236373756881
 21
5495.6068226285897
 31
0.0
 70
   128
 13
2319.7637026053299
 23
4575.49982
 33
0.0
 14
4064.763702605328
 24
3675.99982
 34
0.0
1001
ACAD
1000
DSTYLE
1002
{
1070
   287
1070
     3
1070
   287
1070
     3
1070
    40
1040
40.0
1070
   143
1040
0.039
1070
   172
1070
     1
1070
   271
1070
     0
1070
   279
1070
     0
1070
   288
1070
     1
1002
}
  0
ENDSEC
  0
EOF
