  0
SECTION
  2
HEADER
  9
$ACADVER
  1
AC1009
  9
$INSBASE
 10
0.0
 20
0.0
 30
0.0
  9
$EXTMIN
 10
1000.0
 20
1200.0
 30
0.0
  9
$EXTMAX
 10
7400.0
 20
11146.609046
 30
0.0
  9
$LIMMIN
 10
0.0
 20
0.0
  9
$LIMMAX
 10
297.0
 20
210.0
  9
$ORTHOMODE
 70
     0
  9
$REGENMODE
 70
     1
  9
$FILLMODE
 70
     0
  9
$QTEXTMODE
 70
     0
  9
$MIRRTEXT
 70
     1
  9
$DRAGMODE
 70
     2
  9
$LTSCALE
 40
100.0
  9
$OSMODE
 70
    37
  9
$ATTMODE
 70
     1
  9
$TEXTSIZE
 40
180.0
  9
$TRACEWID
 40
0.05
  9
$TEXTSTYLE
  7
STANDARD
  9
$CLAYER
  8
3
  9
$CELTYPE
  6
BYLAYER
  9
$CECOLOR
 62
   256
  9
$DIMSCALE
 40
40.0
  9
$DIMASZ
 40
2.0
  9
$DIMEXO
 40
0.5
  9
$DIMDLI
 40
10.0
  9
$DIMRND
 40
0.0
  9
$DIMDLE
 40
0.0
  9
$DIMEXE
 40
1.0
  9
$DIMTP
 40
1.0
  9
$DIMTM
 40
1.0
  9
$DIMTXT
 40
3.0
  9
$DIMCEN
 40
0.0
  9
$DIMTSZ
 40
0.0
  9
$DIMTOL
 70
     0
  9
$DIMLIM
 70
     0
  9
$DIMTIH
 70
     0
  9
$DIMTOH
 70
     0
  9
$DIMSE1
 70
     0
  9
$DIMSE2
 70
     0
  9
$DIMTAD
 70
     1
  9
$DIMZIN
 70
     8
  9
$DIMBLK
  1

  9
$DIMASO
 70
     1
  9
$DIMSHO
 70
     1
  9
$DIMPOST
  1

  9
$DIMAPOST
  1

  9
$DIMALT
 70
     0
  9
$DIMALTD
 70
     2
  9
$DIMALTF
 40
0.039
  9
$DIMLFAC
 40
1.0
  9
$DIMTOFL
 70
     1
  9
$DIMTVP
 40
0.0
  9
$DIMTIX
 70
     0
  9
$DIMSOXD
 70
     0
  9
$DIMSAH
 70
     1
  9
$DIMBLK1
  1
OPEN
  9
$DIMBLK2
  1
OPEN
  9
$DIMSTYLE
  2
IGA
  9
$DIMCLRD
 70
     0
  9
$DIMCLRE
 70
     0
  9
$DIMCLRT
 70
     0
  9
$DIMTFAC
 40
10.0
  9
$DIMGAP
 40
1.0
  9
$LUNITS
 70
     2
  9
$LUPREC
 70
     3
  9
$SKETCHINC
 40
0.1
  9
$FILLETRAD
 40
50.0
  9
$AUNITS
 70
     0
  9
$AUPREC
 70
     0
  9
$MENU
  1
acad
  9
$ELEVATION
 40
0.0
  9
$PELEVATION
 40
0.0
  9
$THICKNESS
 40
0.0
  9
$LIMCHECK
 70
     0
  9
$BLIPMODE
 70
     0
  9
$CHAMFERA
 40
0.5
  9
$CHAMFERB
 40
0.5
  9
$SKPOLY
 70
     0
  9
$TDCREATE
 40
2450752.6401686338
  9
$TDUPDATE
 40
2454953.6848904048
  9
$TDINDWG
 40
0.0054215856
  9
$TDUSRTIMER
 40
0.0054215856
  9
$USRTIMER
 70
     1
  9
$ANGBASE
 50
0.0
  9
$ANGDIR
 70
     0
  9
$PDMODE
 70
     0
  9
$PDSIZE
 40
0.0
  9
$PLINEWID
 40
0.0
  9
$COORDS
 70
     1
  9
$SPLFRAME
 70
     0
  9
$SPLINETYPE
 70
     6
  9
$SPLINESEGS
 70
     8
  9
$ATTDIA
 70
     0
  9
$ATTREQ
 70
     1
  9
$HANDLING
 70
 10241
  9
$HANDSEED
  5
7E40
  9
$SURFTAB1
 70
     6
  9
$SURFTAB2
 70
     6
  9
$SURFTYPE
 70
     6
  9
$SURFU
 70
     6
  9
$SURFV
 70
     6
  9
$UCSNAME
  2

  9
$UCSORG
 10
0.0
 20
0.0
 30
0.0
  9
$UCSXDIR
 10
1.0
 20
0.0
 30
0.0
  9
$UCSYDIR
 10
0.0
 20
1.0
 30
0.0
  9
$PUCSNAME
  2

  9
$PUCSORG
 10
0.0
 20
0.0
 30
0.0
  9
$PUCSXDIR
 10
1.0
 20
0.0
 30
0.0
  9
$PUCSYDIR
 10
0.0
 20
1.0
 30
0.0
  9
$USERI1
 70
     0
  9
$USERI2
 70
     0
  9
$USERI3
 70
     0
  9
$USERI4
 70
     0
  9
$USERI5
 70
     0
  9
$USERR1
 40
0.0
  9
$USERR2
 40
0.0
  9
$USERR3
 40
0.0
  9
$USERR4
 40
0.0
  9
$USERR5
 40
0.0
  9
$WORLDVIEW
 70
     1
  9
$SHADEDGE
 70
     3
  9
$SHADEDIF
 70
    70
  9
$TILEMODE
 70
     1
  9
$MAXACTVP
 70
    16
  9
$PLIMCHECK
 70
     0
  9
$PEXTMIN
 10
1.0000000000000000E+020
 20
1.0000000000000000E+020
 30
1.0000000000000000E+020
  9
$PEXTMAX
 10
-1.0000000000000000E+020
 20
-1.0000000000000000E+020
 30
-1.0000000000000000E+020
  9
$PLIMMIN
 10
0.0
 20
0.0
  9
$PLIMMAX
 10
12.0
 20
9.0
  9
$UNITMODE
 70
     0
  9
$VISRETAIN
 70
     0
  9
$PLINEGEN
 70
     0
  9
$PSLTSCALE
 70
     1
  0
ENDSEC
  0
SECTION
  2
TABLES
  0
TABLE
  2
VPORT
 70
     2
  0
VPORT
  2
*ACTIVE
 70
     0
 10
0.0
 20
0.0
 11
1.0
 21
1.0
 12
18068.5405771121
 22
5659.8010742437109
 13
0.0
 23
0.0
 14
10.0
 24
10.0
 15
10.0
 25
10.0
 16
0.0
 26
0.0
 36
1.0
 17
0.0
 27
0.0
 37
0.0
 40
14238.620419628111
 41
3.1666666666666661
 42
50.0
 43
0.0
 44
0.0
 50
0.0
 51
0.0
 71
     0
 72
   100
 73
     1
 74
     0
 75
     0
 76
     0
 77
     0
 78
     0
  0
ENDTAB
  0
TABLE
  2
LTYPE
 70
     2
  0
LTYPE
  2
CONTINUOUS
 70
     0
  3
Solid line
 72
    65
 73
     0
 40
0.0
  0
LTYPE
  2
CENTER
 70
     0
  3
____ _ ____ _ ____ _ ____ _ ____ _ ____ _ ____ 
 72
    65
 73
     4
 40
2.0
 49
1.25
 49
-0.25
 49
0.25
 49
-0.25
  0
ENDTAB
  0
TABLE
  2
LAYER
 70
     6
  0
LAYER
  2
0
 70
     0
 62
     7
  6
CONTINUOUS
  0
LAYER
  2
3
 70
     0
 62
     2
  6
CONTINUOUS
  0
LAYER
  2
2
 70
     0
 62
     3
  6
CENTER
  0
LAYER
  2
1
 70
     0
 62
     4
  6
CONTINUOUS
  0
LAYER
  2
4
 70
     0
 62
     7
  6
CONTINUOUS
  0
LAYER
  2
DEFPOINTS
 70
     0
 62
     7
  6
CONTINUOUS
  0
ENDTAB
  0
TABLE
  2
STYLE
 70
     1
  0
STYLE
  2
STANDARD
 70
     0
 40
0.0
 41
1.0
 50
0.0
 71
     0
 42
180.0
  3
simplex.shx
  4
extfont.shx
  0
ENDTAB
  0
TABLE
  2
VIEW
 70
     0
  0
ENDTAB
  0
TABLE
  2
UCS
 70
     0
  0
ENDTAB
  0
TABLE
  2
APPID
 70
     1
  0
APPID
  2
ACAD
 70
     0
  0
ENDTAB
  0
TABLE
  2
DIMSTYLE
 70
     1
  0
DIMSTYLE
  2
IGA
 70
     0
  3

  4

  5

  6
OPEN
  7
OPEN
 40
2.0
 41
2.0
 42
0.5
 43
10.0
 44
1.0
 45
0.0
 46
0.0
 47
1.0
 48
1.0
140
3.0
141
0.0
142
0.0
143
0.03937
144
1.0
145
0.0
146
10.0
147
1.0
 71
     0
 72
     0
 73
     0
 74
     0
 75
     0
 76
     0
 77
     1
 78
     8
170
     0
171
     2
172
     0
173
     1
174
     0
175
     0
176
     0
177
     0
178
     0
  0
ENDTAB
  0
ENDSEC
  0
SECTION
  2
BLOCKS
  0
BLOCK
  8
0
  2
$MODEL_SPACE
 70
     0
 10
0.0
 20
0.0
 30
0.0
  3
$MODEL_SPACE
  1

  0
ENDBLK
  5
1B
  8
0
  0
BLOCK
 67
     1
  8
0
  2
$PAPER_SPACE
 70
     0
 10
0.0
 20
0.0
 30
0.0
  3
$PAPER_SPACE
  1

  0
ENDBLK
  5
18
 67
     1
  8
0
  0
BLOCK
  8
0
  2
_OPEN
 70
     0
 10
0.0
 20
0.0
 30
0.0
  3
_OPEN
  1

  0
LINE
  5
7ACE
  8
0
  6
BYBLOCK
 62
     0
 10
-1.0
 20
0.166667
 30
0.0
 11
0.0
 21
0.0
 31
0.0
  0
LINE
  5
7ACF
  8
0
  6
BYBLOCK
 62
     0
 10
0.0
 20
0.0
 30
0.0
 11
-1.0
 21
-0.166667
 31
0.0
  0
LINE
  5
7AD0
  8
0
  6
BYBLOCK
 62
     0
 10
0.0
 20
0.0
 30
0.0
 11
-1.0
 21
0.0
 31
0.0
  0
ENDBLK
  5
7AD1
  8
0
  0
BLOCK
  8
0
  2
*D1
 70
     1
 10
0.0
 20
0.0
 30
0.0
  3
*D1
  1

  0
LINE
  5
7D9E
  8
3
  6
CONTINUOUS
 62
     0
 10
1572.690834999999
 20
3770.8637459999991
 30
0.0
 11
1572.690834999999
 21
3404.3358939999989
 31
0.0
  0
LINE
  5
7D9F
  8
3
  6
CONTINUOUS
 62
     0
 10
2772.6908349999999
 20
3687.842161999999
 30
0.0
 11
2772.6908349999999
 21
3404.3358939999989
 31
0.0
  0
LINE
  5
7DA0
  8
3
  6
CONTINUOUS
 62
     0
 10
1652.6908350000001
 20
3444.3358939999989
 30
0.0
 11
2692.6908349999999
 21
3444.3358939999989
 31
0.0
  0
INSERT
  5
7DA1
  8
3
  6
CONTINUOUS
 62
     0
  2
_OPEN
 10
1572.690834999999
 20
3444.3358939999989
 30
0.0
 41
80.0
 42
80.0
 43
80.0
 50
180.0
  0
INSERT
  5
7DA2
  8
3
  6
CONTINUOUS
 62
     0
  2
_OPEN
 10
2772.6908349999999
 20
3444.3358939999989
 30
0.0
 41
80.0
 42
80.0
 43
80.0
  0
TEXT
  8
3
  40
120
  5
7E30
  62
0
  72
0
  71
0
 10
1915.11
 20
3331.94
 30
0.000000
  1
1200
  0
POINT
  5
7DA4
  8
DEFPOINTS
  6
CONTINUOUS
 62
     0
 10
1572.690834999999
 20
3790.863746
 30
0.0
  0
POINT
  5
7DA5
  8
DEFPOINTS
  6
CONTINUOUS
 62
     0
 10
2772.6908349999999
 20
3707.8421619999999
 30
0.0
  0
POINT
  5
7DA6
  8
DEFPOINTS
  6
CONTINUOUS
 62
     0
 10
2772.6908349999999
 20
3444.3358939999989
 30
0.0
  0
ENDBLK
  5
7ADE
  8
0
  0
BLOCK
  8
0
  2
*D2
 70
     1
 10
0.0
 20
0.0
 30
0.0
  3
*D2
  1

  0
LINE
  5
7DA7
  8
3
  6
CONTINUOUS
 62
     0
 10
3272.6908349999999
 20
3770.8637459999991
 30
0.0
 11
3272.6908349999999
 21
3404.3358939999989
 31
0.0
  0
LINE
  5
7DA8
  8
3
  6
CONTINUOUS
 62
     0
 10
2852.6908349999999
 20
3444.3358939999989
 30
0.0
 11
3192.6908349999999
 21
3444.3358939999989
 31
0.0
  0
TEXT
  8
3
  40
120
  5
7E31
  62
0
  72
0
  71
0
 10
2768.66
 20
3331.94
 30
0.000000
  1
500
  0
INSERT
  5
7DAA
  8
3
  6
CONTINUOUS
 62
     0
  2
_OPEN
 10
2772.6908349999999
 20
3444.3358939999989
 30
0.0
 41
80.0
 42
80.0
 43
80.0
 50
180.0
  0
INSERT
  5
7DAB
  8
3
  6
CONTINUOUS
 62
     0
  2
_OPEN
 10
3272.6908349999999
 20
3444.3358939999989
 30
0.0
 41
80.0
 42
80.0
 43
80.0
  0
POINT
  5
7DAC
  8
DEFPOINTS
  6
CONTINUOUS
 62
     0
 10
2772.6908349999999
 20
3707.8421619999999
 30
0.0
  0
POINT
  5
7DAD
  8
DEFPOINTS
  6
CONTINUOUS
 62
     0
 10
3272.6908349999999
 20
3790.863746
 30
0.0
  0
POINT
  5
7DAE
  8
DEFPOINTS
  6
CONTINUOUS
 62
     0
 10
3272.6908349999999
 20
3444.3358939999989
 30
0.0
  0
ENDBLK
  5
7B03
  8
0
  0
BLOCK
  8
0
  2
*D3
 70
     1
 10
0.0
 20
0.0
 30
0.0
  3
*D3
  1

  0
LINE
  5
7DAF
  8
3
  6
CONTINUOUS
 62
     0
 10
2812.1908349999999
 20
5035.863746
 30
0.0
 11
3709.4740809999998
 21
5035.863746
 31
0.0
  0
LINE
  5
7DB0
  8
3
  6
CONTINUOUS
 62
     0
 10
3359.5891999999999
 20
4490.863746
 30
0.0
 11
3709.4740809999998
 21
4490.863746
 31
0.0
  0
LINE
  5
7DB1
  8
3
  6
CONTINUOUS
 62
     0
 10
3669.4740809999998
 20
4955.863746
 30
0.0
 11
3669.4740809999998
 21
4570.8637459999991
 31
0.0
  0
TEXT
  8
3
  40
120
  5
7E32
  62
0
  72
0
  71
0
 10
3329.47
 20
4550.96
 30
0.000000
  1
545
  0
INSERT
  5
7DB3
  8
3
  6
CONTINUOUS
 62
     0
  2
_OPEN
 10
3669.4740809999998
 20
5035.863746
 30
0.0
 41
80.0
 42
80.0
 43
80.0
 50
90.0
  0
INSERT
  5
7DB4
  8
3
  6
CONTINUOUS
 62
     0
  2
_OPEN
 10
3669.4740809999998
 20
4490.863746
 30
0.0
 41
80.0
 42
80.0
 43
80.0
 50
270.0
  0
POINT
  5
7DB5
  8
DEFPOINTS
  6
CONTINUOUS
 62
     0
 10
2792.1908349999999
 20
5035.863746
 30
0.0
  0
POINT
  5
7DB6
  8
DEFPOINTS
  6
CONTINUOUS
 62
     0
 10
3339.589199999999
 20
4490.863746
 30
0.0
  0
POINT
  5
7DB7
  8
DEFPOINTS
  6
CONTINUOUS
 62
     0
 10
3669.4740809999998
 20
4490.863746
 30
0.0
  0
ENDBLK
  5
7C29
  8
0
  0
BLOCK
  8
0
  2
*D4
 70
     1
 10
0.0
 20
0.0
 30
0.0
  3
*D4
  1

  0
LINE
  5
7DB8
  8
3
  6
CONTINUOUS
 62
     0
 10
3292.6908349999999
 20
3790.863746
 30
0.0
 11
3709.4740809999998
 21
3790.863746
 31
0.0
  0
LINE
  5
7DB9
  8
3
  6
CONTINUOUS
 62
     0
 10
3669.4740809999998
 20
4410.863746
 30
0.0
 11
3669.4740809999998
 21
3870.8637459999991
 31
0.0
  0
INSERT
  5
7DBA
  8
3
  6
CONTINUOUS
 62
     0
  2
_OPEN
 10
3669.4740809999998
 20
4490.863746
 30
0.0
 41
80.0
 42
80.0
 43
80.0
 50
90.0
  0
INSERT
  5
7DBB
  8
3
  6
CONTINUOUS
 62
     0
  2
_OPEN
 10
3669.4740809999998
 20
3790.863746
 30
0.0
 41
80.0
 42
80.0
 43
80.0
 50
270.0
  0
TEXT
  8
3
  40
120
  5
7E33
  62
0
  72
0
  71
0
 10
3329.47
 20
3928.46
 30
0.000000
  1
700
  0
POINT
  5
7DBD
  8
DEFPOINTS
  6
CONTINUOUS
 62
     0
 10
3339.589199999999
 20
4490.863746
 30
0.0
  0
POINT
  5
7DBE
  8
DEFPOINTS
  6
CONTINUOUS
 62
     0
 10
3272.6908349999999
 20
3790.863746
 30
0.0
  0
POINT
  5
7DBF
  8
DEFPOINTS
  6
CONTINUOUS
 62
     0
 10
3669.4740809999998
 20
3790.863746
 30
0.0
  0
ENDBLK
  5
7B1D
  8
0
  0
BLOCK
  8
0
  2
*D5
 70
     1
 10
0.0
 20
0.0
 30
0.0
  3
*D5
  1

  0
LINE
  5
7DC0
  8
3
  6
CONTINUOUS
 62
     0
 10
2812.1908349999999
 20
5035.863746
 30
0.0
 11
3998.5806360000001
 21
5035.863746
 31
0.0
  0
LINE
  5
7DC1
  8
3
  6
CONTINUOUS
 62
     0
 10
3292.6908349999999
 20
3790.863746
 30
0.0
 11
3998.5806360000001
 21
3790.863746
 31
0.0
  0
LINE
  5
7DC2
  8
3
  6
CONTINUOUS
 62
     0
 10
3958.5806360000001
 20
4955.863746
 30
0.0
 11
3958.5806360000001
 21
3870.8637459999991
 31
0.0
  0
INSERT
  5
7DC3
  8
3
  6
CONTINUOUS
 62
     0
  2
_OPEN
 10
3958.5806360000001
 20
5035.863746
 30
0.0
 41
80.0
 42
80.0
 43
80.0
 50
90.0
  0
INSERT
  5
7DC4
  8
3
  6
CONTINUOUS
 62
     0
  2
_OPEN
 10
3958.5806360000001
 20
3790.863746
 30
0.0
 41
80.0
 42
80.0
 43
80.0
 50
270.0
  0
TEXT
  8
3
  40
120
  5
7E34
  62
0
  72
0
  71
0
 10
3618.58
 20
4213.38
 30
0.000000
  1
1245
  0
POINT
  5
7DC6
  8
DEFPOINTS
  6
CONTINUOUS
 62
     0
 10
2792.1908349999999
 20
5035.863746
 30
0.0
  0
POINT
  5
7DC7
  8
DEFPOINTS
  6
CONTINUOUS
 62
     0
 10
3272.6908349999999
 20
3790.863746
 30
0.0
  0
POINT
  5
7DC8
  8
DEFPOINTS
  6
CONTINUOUS
 62
     0
 10
3958.5806360000001
 20
3790.863746
 30
0.0
  0
ENDBLK
  5
7B2A
  8
0
  0
BLOCK
  8
0
  2
*D6
 70
     1
 10
0.0
 20
0.0
 30
0.0
  3
*D6
  1

  0
LINE
  5
7DC9
  8
3
  6
CONTINUOUS
 62
     0
 10
1924.6908350000001
 20
5055.8637459999991
 30
0.0
 11
1924.6908350000001
 21
5328.4871880000001
 31
0.0
  0
LINE
  5
7DCA
  8
3
  6
CONTINUOUS
 62
     0
 10
2749.6908349999999
 20
5055.8637459999991
 30
0.0
 11
2749.6908349999999
 21
5328.4871880000001
 31
0.0
  0
LINE
  5
7DCB
  8
3
  6
CONTINUOUS
 62
     0
 10
2004.6908350000001
 20
5288.4871880000001
 30
0.0
 11
2669.6908349999999
 21
5288.4871880000001
 31
0.0
  0
INSERT
  5
7DCC
  8
3
  6
CONTINUOUS
 62
     0
  2
_OPEN
 10
1924.6908350000001
 20
5288.4871880000001
 30
0.0
 41
80.0
 42
80.0
 43
80.0
 50
180.0
  0
INSERT
  5
7DCD
  8
3
  6
CONTINUOUS
 62
     0
  2
_OPEN
 10
2749.6908349999999
 20
5288.4871880000001
 30
0.0
 41
80.0
 42
80.0
 43
80.0
  0
TEXT
  8
3
  40
120
  5
7E35
  62
0
  72
0
  71
0
 10
2094.08
 20
5176.09
 30
0.000000
  1
825
  0
POINT
  5
7DCF
  8
DEFPOINTS
  6
CONTINUOUS
 62
     0
 10
1924.6908350000001
 20
5035.863746
 30
0.0
  0
POINT
  5
7DD0
  8
DEFPOINTS
  6
CONTINUOUS
 62
     0
 10
2749.6908349999999
 20
5035.863746
 30
0.0
  0
POINT
  5
7DD1
  8
DEFPOINTS
  6
CONTINUOUS
 62
     0
 10
2749.6908349999999
 20
5288.4871880000001
 30
0.0
  0
ENDBLK
  5
7B37
  8
0
  0
BLOCK
  8
0
  2
*D7
 70
     1
 10
0.0
 20
0.0
 30
0.0
  3
*D7
  1

  0
LINE
  5
7DD2
  8
3
  6
CONTINUOUS
 62
     0
 10
1924.6908350000001
 20
5055.8637459999991
 30
0.0
 11
1924.6908350000001
 21
5554.0171689999997
 31
0.0
  0
LINE
  5
7DD3
  8
3
  6
CONTINUOUS
 62
     0
 10
2772.6908349999999
 20
4981.6559450000004
 30
0.0
 11
2772.6908349999999
 21
5554.0171689999997
 31
0.0
  0
LINE
  5
7DD4
  8
3
  6
CONTINUOUS
 62
     0
 10
2004.6908350000001
 20
5514.0171689999988
 30
0.0
 11
2692.6908349999999
 21
5514.0171689999988
 31
0.0
  0
INSERT
  5
7DD5
  8
3
  6
CONTINUOUS
 62
     0
  2
_OPEN
 10
1924.6908350000001
 20
5514.0171689999988
 30
0.0
 41
80.0
 42
80.0
 43
80.0
 50
180.0
  0
INSERT
  5
7DD6
  8
3
  6
CONTINUOUS
 62
     0
  2
_OPEN
 10
2772.6908349999999
 20
5514.0171689999988
 30
0.0
 41
80.0
 42
80.0
 43
80.0
  0
TEXT
  8
3
  40
120
  5
7E36
  62
0
  72
0
  71
0
 10
2112.43
 20
5401.62
 30
0.000000
  1
848
  0
POINT
  5
7DD8
  8
DEFPOINTS
  6
CONTINUOUS
 62
     0
 10
1924.6908350000001
 20
5035.863746
 30
0.0
  0
POINT
  5
7DD9
  8
DEFPOINTS
  6
CONTINUOUS
 62
     0
 10
2772.6908349999999
 20
4961.6559450000004
 30
0.0
  0
POINT
  5
7DDA
  8
DEFPOINTS
  6
CONTINUOUS
 62
     0
 10
2772.6908349999999
 20
5514.0171689999988
 30
0.0
  0
ENDBLK
  5
7B44
  8
0
  0
BLOCK
  8
0
  2
*D8
 70
     1
 10
0.0
 20
0.0
 30
0.0
  3
*D8
  1

  0
LINE
  5
7DDB
  8
3
  6
CONTINUOUS
 62
     0
 10
3340.6908349999999
 20
4510.863746
 30
0.0
 11
3340.6908349999999
 21
5554.0171689999997
 31
0.0
  0
LINE
  5
7DDC
  8
3
  6
CONTINUOUS
 62
     0
 10
2852.6908349999999
 20
5514.0171689999988
 30
0.0
 11
3260.6908349999999
 21
5514.0171689999988
 31
0.0
  0
INSERT
  5
7DDD
  8
3
  6
CONTINUOUS
 62
     0
  2
_OPEN
 10
2772.6908349999999
 20
5514.0171689999988
 30
0.0
 41
80.0
 42
80.0
 43
80.0
 50
180.0
  0
INSERT
  5
7DDE
  8
3
  6
CONTINUOUS
 62
     0
  2
_OPEN
 10
3340.6908349999999
 20
5514.0171689999988
 30
0.0
 41
80.0
 42
80.0
 43
80.0
  0
TEXT
  8
3
  40
120
  5
7E37
  62
0
  72
0
  71
0
 10
2816.69
 20
5401.62
 30
0.000000
  1
568
  0
POINT
  5
7DE0
  8
DEFPOINTS
  6
CONTINUOUS
 62
     0
 10
2772.6908349999999
 20
4961.6559450000004
 30
0.0
  0
POINT
  5
7DE1
  8
DEFPOINTS
  6
CONTINUOUS
 62
     0
 10
3340.6908349999999
 20
4490.863746
 30
0.0
  0
POINT
  5
7DE2
  8
DEFPOINTS
  6
CONTINUOUS
 62
     0
 10
3340.6908349999999
 20
5514.0171689999988
 30
0.0
  0
ENDBLK
  5
7C4F
  8
0
  0
BLOCK
  8
0
  2
*D9
 70
     1
 10
0.0
 20
0.0
 30
0.0
  3
*D9
  1

  0
LINE
  5
7DE3
  8
3
  6
CONTINUOUS
 62
     0
 10
1572.690834999999
 20
6834.3472269999993
 30
0.0
 11
1572.690834999999
 21
6353.2285629999997
 31
0.0
  0
LINE
  5
7DE4
  8
3
  6
CONTINUOUS
 62
     0
 10
3272.6908349999999
 20
6834.3472269999993
 30
0.0
 11
3272.6908349999999
 21
6353.2285629999997
 31
0.0
  0
LINE
  5
7DE5
  8
3
  6
CONTINUOUS
 62
     0
 10
1652.6908350000001
 20
6393.2285629999997
 30
0.0
 11
3192.6908349999999
 21
6393.2285629999997
 31
0.0
  0
INSERT
  5
7DE6
  8
3
  6
CONTINUOUS
 62
     0
  2
_OPEN
 10
1572.690834999999
 20
6393.2285629999997
 30
0.0
 41
80.0
 42
80.0
 43
80.0
 50
180.0
  0
INSERT
  5
7DE7
  8
3
  6
CONTINUOUS
 62
     0
  2
_OPEN
 10
3272.6908349999999
 20
6393.2285629999997
 30
0.0
 41
80.0
 42
80.0
 43
80.0
  0
TEXT
  8
3
  40
120
  5
7E38
  62
0
  72
0
  71
0
 10
2185.86
 20
6280.83
 30
0.000000
  1
1700
  0
POINT
  5
7DE9
  8
DEFPOINTS
  6
CONTINUOUS
 62
     0
 10
1572.690834999999
 20
6854.3472269999993
 30
0.0
  0
POINT
  5
7DEA
  8
DEFPOINTS
  6
CONTINUOUS
 62
     0
 10
3272.6908349999999
 20
6854.3472269999993
 30
0.0
  0
POINT
  5
7DEB
  8
DEFPOINTS
  6
CONTINUOUS
 62
     0
 10
3272.6908349999999
 20
6393.2285629999997
 30
0.0
  0
ENDBLK
  5
7B5D
  8
0
  0
BLOCK
  8
0
  2
*D10
 70
     1
 10
0.0
 20
0.0
 30
0.0
  3
*D10
  1

  0
LINE
  5
7DEC
  8
3
  6
CONTINUOUS
 62
     0
 10
3292.6908349999999
 20
7704.3472269999993
 30
0.0
 11
3704.885079000002
 21
7704.3472269999993
 31
0.0
  0
LINE
  5
7DED
  8
3
  6
CONTINUOUS
 62
     0
 10
3292.6908349999999
 20
6854.3472269999993
 30
0.0
 11
3704.885079000001
 21
6854.3472269999993
 31
0.0
  0
LINE
  5
7DEE
  8
3
  6
CONTINUOUS
 62
     0
 10
3664.885079000002
 20
7624.3472270000002
 30
0.0
 11
3664.885079000001
 21
6934.3472269999993
 31
0.0
  0
INSERT
  5
7DEF
  8
3
  6
CONTINUOUS
 62
     0
  2
_OPEN
 10
3664.885079000002
 20
7704.3472269999993
 30
0.0
 41
80.0
 42
80.0
 43
80.0
 50
90.0
  0
INSERT
  5
7DF0
  8
3
  6
CONTINUOUS
 62
     0
  2
_OPEN
 10
3664.885079000001
 20
6854.3472269999993
 30
0.0
 41
80.0
 42
80.0
 43
80.0
 50
270.0
  0
TEXT
  8
3
  40
120
  5
7E39
  62
0
  72
0
  71
0
 10
3324.89
 20
7126.51
 30
0.000000
  1
850
  0
POINT
  5
7DF2
  8
DEFPOINTS
  6
CONTINUOUS
 62
     0
 10
3272.6908349999999
 20
7704.3472269999993
 30
0.0
  0
POINT
  5
7DF3
  8
DEFPOINTS
  6
CONTINUOUS
 62
     0
 10
3272.6908349999999
 20
6854.3472269999993
 30
0.0
  0
POINT
  5
7DF4
  8
DEFPOINTS
  6
CONTINUOUS
 62
     0
 10
3664.885079000001
 20
6854.3472269999993
 30
0.0
  0
ENDBLK
  5
7B6A
  8
0
  0
BLOCK
  8
0
  2
*D11
 70
     1
 10
0.0
 20
0.0
 30
0.0
  3
*D11
  1

  0
LINE
  5
7DF5
  8
3
  6
CONTINUOUS
 62
     0
 10
5588.4123049999998
 20
3770.8637459999991
 30
0.0
 11
5588.4123049999998
 21
3459.344517999999
 31
0.0
  0
LINE
  5
7DF6
  8
3
  6
CONTINUOUS
 62
     0
 10
6085.4123049999998
 20
3708.546413
 30
0.0
 11
6085.4123049999998
 21
3459.344517999999
 31
0.0
  0
LINE
  5
7DF7
  8
3
  6
CONTINUOUS
 62
     0
 10
5668.4123049999998
 20
3499.3445179999999
 30
0.0
 11
6005.4123049999998
 21
3499.3445179999999
 31
0.0
  0
TEXT
  8
3
  40
120
  5
7E3A
  62
0
  72
0
  71
0
 10
5596.91
 20
3386.94
 30
0.000000
  1
497
  0
INSERT
  5
7DF9
  8
3
  6
CONTINUOUS
 62
     0
  2
_OPEN
 10
5588.4123049999998
 20
3499.3445179999999
 30
0.0
 41
80.0
 42
80.0
 43
80.0
 50
180.0
  0
INSERT
  5
7DFA
  8
3
  6
CONTINUOUS
 62
     0
  2
_OPEN
 10
6085.4123049999998
 20
3499.3445179999999
 30
0.0
 41
80.0
 42
80.0
 43
80.0
  0
POINT
  5
7DFB
  8
DEFPOINTS
  6
CONTINUOUS
 62
     0
 10
5588.4123049999998
 20
3790.863746
 30
0.0
  0
POINT
  5
7DFC
  8
DEFPOINTS
  6
CONTINUOUS
 62
     0
 10
6085.4123049999998
 20
3728.5464130000009
 30
0.0
  0
POINT
  5
7DFD
  8
DEFPOINTS
  6
CONTINUOUS
 62
     0
 10
6085.4123049999998
 20
3499.3445179999999
 30
0.0
  0
ENDBLK
  5
7C34
  8
0
  0
BLOCK
  8
0
  2
*D12
 70
     1
 10
0.0
 20
0.0
 30
0.0
  3
*D12
  1

  0
LINE
  5
7DFE
  8
3
  6
CONTINUOUS
 62
     0
 10
6438.4123049999989
 20
3770.8637459999991
 30
0.0
 11
6438.4123049999989
 21
3459.344517999999
 31
0.0
  0
LINE
  5
7DFF
  8
3
  6
CONTINUOUS
 62
     0
 10
6165.4123049999998
 20
3499.3445179999999
 30
0.0
 11
6358.4123049999998
 21
3499.3445179999999
 31
0.0
  0
TEXT
  8
3
  40
120
  5
7E3B
  62
0
  72
0
  71
0
 10
6018.11
 20
3386.94
 30
0.000000
  1
353
  0
INSERT
  5
7E01
  8
3
  6
CONTINUOUS
 62
     0
  2
_OPEN
 10
6085.4123049999998
 20
3499.3445179999999
 30
0.0
 41
80.0
 42
80.0
 43
80.0
 50
180.0
  0
INSERT
  5
7E02
  8
3
  6
CONTINUOUS
 62
     0
  2
_OPEN
 10
6438.4123049999989
 20
3499.3445179999999
 30
0.0
 41
80.0
 42
80.0
 43
80.0
  0
POINT
  5
7E03
  8
DEFPOINTS
  6
CONTINUOUS
 62
     0
 10
6085.4123049999998
 20
3728.5464130000009
 30
0.0
  0
POINT
  5
7E04
  8
DEFPOINTS
  6
CONTINUOUS
 62
     0
 10
6438.4123049999989
 20
3790.863746
 30
0.0
  0
POINT
  5
7E05
  8
DEFPOINTS
  6
CONTINUOUS
 62
     0
 10
6438.4123049999989
 20
3499.3445179999999
 30
0.0
  0
ENDBLK
  5
7BA0
  8
0
  0
BLOCK
  8
0
  2
*D13
 70
     1
 10
0.0
 20
0.0
 30
0.0
  3
*D13
  1

  0
LINE
  5
7E06
  8
3
  6
CONTINUOUS
 62
     0
 10
6488.4123049999998
 20
4890.863746
 30
0.0
 11
6894.6832640000011
 21
4890.863746
 31
0.0
  0
LINE
  5
7E07
  8
3
  6
CONTINUOUS
 62
     0
 10
6488.4123049999998
 20
4090.863746
 30
0.0
 11
6894.6832640000011
 21
4090.863746
 31
0.0
  0
LINE
  5
7E08
  8
3
  6
CONTINUOUS
 62
     0
 10
6854.6832640000011
 20
4810.863746
 30
0.0
 11
6854.6832640000011
 21
4170.8637459999991
 31
0.0
  0
INSERT
  5
7E09
  8
3
  6
CONTINUOUS
 62
     0
  2
_OPEN
 10
6854.6832640000011
 20
4890.863746
 30
0.0
 41
80.0
 42
80.0
 43
80.0
 50
90.0
  0
INSERT
  5
7E0A
  8
3
  6
CONTINUOUS
 62
     0
  2
_OPEN
 10
6854.6832640000011
 20
4090.863746
 30
0.0
 41
80.0
 42
80.0
 43
80.0
 50
270.0
  0
TEXT
  8
3
  40
120
  5
7E3C
  62
0
  72
0
  71
0
 10
6514.68
 20
4224.75
 30
0.000000
  1
φ800
  0
POINT
  5
7E0C
  8
DEFPOINTS
  6
CONTINUOUS
 62
     0
 10
6468.4123049999998
 20
4890.863746
 30
0.0
  0
POINT
  5
7E0D
  8
DEFPOINTS
  6
CONTINUOUS
 62
     0
 10
6468.4123049999998
 20
4090.863746
 30
0.0
  0
POINT
  5
7E0E
  8
DEFPOINTS
  6
CONTINUOUS
 62
     0
 10
6854.6832640000011
 20
4090.863746
 30
0.0
  0
ENDBLK
  5
7C74
  8
0
  0
BLOCK
  8
0
  2
*D14
 70
     1
 10
0.0
 20
0.0
 30
0.0
  3
*D14
  1

  0
LINE
  5
7E0F
  8
3
  6
CONTINUOUS
 62
     0
 10
5785.4123049999998
 20
5055.8637459999991
 30
0.0
 11
5785.4123049999998
 21
5244.6064980000001
 31
0.0
  0
LINE
  5
7E10
  8
3
  6
CONTINUOUS
 62
     0
 10
6385.4123049999998
 20
5055.8637459999991
 30
0.0
 11
6385.4123049999998
 21
5244.6064980000001
 31
0.0
  0
LINE
  5
7E11
  8
3
  6
CONTINUOUS
 62
     0
 10
5705.4123049999998
 20
5204.6064980000001
 30
0.0
 11
5625.4123049999998
 21
5204.6064980000001
 31
0.0
  0
LINE
  5
7E12
  8
3
  6
CONTINUOUS
 62
     0
 10
6465.4123049999998
 20
5204.6064980000001
 30
0.0
 11
6545.4123049999989
 21
5204.6064980000001
 31
0.0
  0
LINE
  5
7E13
  8
3
  6
CONTINUOUS
 62
     0
 10
5785.4123049999998
 20
5204.6064980000001
 30
0.0
 11
6385.4123049999998
 21
5204.6064980000001
 31
0.0
  0
INSERT
  5
7E14
  8
3
  6
CONTINUOUS
 62
     0
  2
_OPEN
 10
5785.4123049999998
 20
5204.6064980000001
 30
0.0
 41
80.0
 42
80.0
 43
80.0
  0
INSERT
  5
7E15
  8
3
  6
CONTINUOUS
 62
     0
  2
_OPEN
 10
6385.4123049999998
 20
5204.6064980000001
 30
0.0
 41
80.0
 42
80.0
 43
80.0
 50
180.0
  0
TEXT
  8
3
  40
120
  5
7E3D
  62
0
  72
0
  71
0
 10
5871.13
 20
5092.21
 30
0.000000
  1
600
  0
POINT
  5
7E17
  8
DEFPOINTS
  6
CONTINUOUS
 62
     0
 10
5785.4123049999998
 20
5035.863746
 30
0.0
  0
POINT
  5
7E18
  8
DEFPOINTS
  6
CONTINUOUS
 62
     0
 10
6385.4123049999998
 20
5035.863746
 30
0.0
  0
POINT
  5
7E19
  8
DEFPOINTS
  6
CONTINUOUS
 62
     0
 10
6385.4123049999998
 20
5204.6064980000001
 30
0.0
  0
ENDBLK
  5
7BB9
  8
0
  0
BLOCK
  8
0
  2
*D15
 70
     1
 10
0.0
 20
0.0
 30
0.0
  3
*D15
  1

  0
LINE
  5
7CAB
  8
0
  6
BYBLOCK
 62
     0
 10
5515.4123049999998
 20
4710.863746
 30
0.0
 11
5515.4123049999998
 21
5555.0422592301529
 31
0.0
  0
LINE
  5
7CAC
  8
0
  6
BYBLOCK
 62
     0
 10
6085.4123049999998
 20
5426.3769226887334
 30
0.0
 11
6085.4123049999998
 21
5555.0422592301529
 31
0.0
  0
LINE
  5
7CAD
  8
0
  6
BYBLOCK
 62
     0
 10
5595.4123049999989
 20
5515.0422592301529
 30
0.0
 11
6005.4123049999998
 21
5515.0422592301529
 31
0.0
  0
INSERT
  5
7CAE
  8
3
  2
*U18
 10
0.0
 20
0.0
 30
0.0
  0
INSERT
  5
7CAF
  8
0
  6
BYBLOCK
 62
     0
  2
_OPEN
 10
5515.4123049999998
 20
5515.0422592301529
 30
0.0
 41
80.0
 42
80.0
 43
80.0
 50
180.0
  0
INSERT
  5
7CB0
  8
0
  6
BYBLOCK
 62
     0
  2
_OPEN
 10
6085.4123049999998
 20
5515.0422592301529
 30
0.0
 41
80.0
 42
80.0
 43
80.0
  0
POINT
  5
7CB1
  8
DEFPOINTS
  6
BYBLOCK
 62
     0
 10
5515.4123049999998
 20
4690.863746
 30
0.0
  0
POINT
  5
7CB2
  8
DEFPOINTS
  6
BYBLOCK
 62
     0
 10
6085.4123049999998
 20
5406.3769226887343
 30
0.0
  0
POINT
  5
7CB3
  8
DEFPOINTS
  6
BYBLOCK
 62
     0
 10
6085.4123049999998
 20
5515.0422592301529
 30
0.0
  0
ENDBLK
  5
7CB4
  8
0
  0
BLOCK
  8
0
  2
*D16
 70
     1
 10
0.0
 20
0.0
 30
0.0
  3
*D16
  1

  0
LINE
  5
7E1A
  8
3
  6
CONTINUOUS
 62
     0
 10
6468.4123049999998
 20
4950.863746
 30
0.0
 11
6468.4123049999998
 21
5555.0422592301529
 31
0.0
  0
LINE
  5
7E1B
  8
3
  6
CONTINUOUS
 62
     0
 10
6165.4123049999998
 20
5515.0422592301529
 30
0.0
 11
6388.4123049999998
 21
5515.0422592301529
 31
0.0
  0
TEXT
  8
3
  40
120
  5
7E3E
  62
0
  72
0
  71
0
 10
6036.47
 20
5402.64
 30
0.000000
  1
383
  0
INSERT
  5
7E1D
  8
3
  6
CONTINUOUS
 62
     0
  2
_OPEN
 10
6085.4123049999998
 20
5515.0422592301529
 30
0.0
 41
80.0
 42
80.0
 43
80.0
 50
180.0
  0
INSERT
  5
7E1E
  8
3
  6
CONTINUOUS
 62
     0
  2
_OPEN
 10
6468.4123049999998
 20
5515.0422592301529
 30
0.0
 41
80.0
 42
80.0
 43
80.0
  0
POINT
  5
7E1F
  8
DEFPOINTS
  6
CONTINUOUS
 62
     0
 10
6085.4123049999998
 20
5406.3769226887343
 30
0.0
  0
POINT
  5
7E20
  8
DEFPOINTS
  6
CONTINUOUS
 62
     0
 10
6468.4123049999998
 20
4930.8637459999991
 30
0.0
  0
POINT
  5
7E21
  8
DEFPOINTS
  6
CONTINUOUS
 62
     0
 10
6468.4123049999998
 20
5515.0422592301529
 30
0.0
  0
ENDBLK
  5
7CA9
  8
0
  0
BLOCK
  8
0
  2
*D17
 70
     1
 10
0.0
 20
0.0
 30
0.0
  3
*D17
  1

  0
LINE
  5
7E22
  8
3
 62
     0
 10
3340.6908349999999
 20
4530.863746
 30
0.0
 11
3340.6908349999999
 21
5790.6332130984229
 31
0.0
  0
LINE
  5
7E23
  8
3
 62
     0
 10
1572.690834999999
 20
3910.863746
 30
0.0
 11
1572.6908350000001
 21
5790.6332130984229
 31
0.0
  0
LINE
  5
7E24
  8
3
 62
     0
 10
3260.6908349999999
 20
5750.6332130984229
 30
0.0
 11
1652.6908350000001
 21
5750.6332130984229
 31
0.0
  0
INSERT
  5
7E25
  8
3
 62
     0
  2
_OPEN
 10
3340.6908349999999
 20
5750.6332130984229
 30
0.0
 41
80.0
 42
80.0
 43
80.0
  0
INSERT
  5
7E26
  8
3
 62
     0
  2
_OPEN
 10
1572.6908350000001
 20
5750.6332130984229
 30
0.0
 41
80.0
 42
80.0
 43
80.0
 50
180.0
  0
TEXT
  8
3
  40
120
  5
7E3F
  62
0
  72
0
  71
0
 10
2228.56
 20
5638.23
 30
0.000000
  1
1768
  0
POINT
  5
7E28
  8
DEFPOINTS
 62
     0
 10
3340.6908349999999
 20
4510.863746
 30
0.0
  0
POINT
  5
7E29
  8
DEFPOINTS
 62
     0
 10
1572.690834999999
 20
3890.863746
 30
0.0
  0
POINT
  5
7E2A
  8
DEFPOINTS
 62
     0
 10
1572.6908350000001
 20
5750.6332130984229
 30
0.0
  0
ENDBLK
  5
7C5B
  8
0
  0
BLOCK
  8
0
  2
*U18
 70
     1
 10
0.0
 20
0.0
 30
0.0
  3
*U18
  1

  0
TEXT
  5
7E2C
  8
3
 62
     0
 10
5628.9837335714283
 20
5750.5829550910903
 30
0.0
 40
120.0
  1
MAX
  0
TEXT
  5
7E2D
  8
3
 62
     0
 10
5646.1265907142852
 20
5550.5829550910903
 30
0.0
 40
120.0
  1
660
  0
ENDBLK
  5
7E2F
  8
0
  0
ENDSEC
  0
SECTION
  2
ENTITIES
  0
LINE
  5
7A66
  8
1
  6
CONTINUOUS
 10
5635.4123049999998
 20
4121.863746
 30
0.0
 11
5785.4123049999998
 21
4121.863746
 31
0.0
  0
LINE
  5
7A67
  8
1
  6
CONTINUOUS
 10
5635.4123049999998
 20
4079.863746
 30
0.0
 11
5785.4123049999998
 21
4079.863746
 31
0.0
  0
LINE
  5
7A68
  8
1
  6
CONTINUOUS
 10
5635.4123049999998
 20
4469.863746
 30
0.0
 11
5785.4123049999998
 21
4469.863746
 31
0.0
  0
LINE
  5
7A69
  8
1
  6
CONTINUOUS
 10
5635.4123049999998
 20
4511.863746
 30
0.0
 11
5785.4123049999998
 21
4511.863746
 31
0.0
  0
LINE
  5
7A6A
  8
1
  6
CONTINUOUS
 10
6438.4123049999989
 20
3890.863746
 30
0.0
 11
5588.4123049999998
 21
3890.863746
 31
0.0
  0
LINE
  5
7A6B
  8
1
  6
CONTINUOUS
 10
6438.4123049999989
 20
3790.863746
 30
0.0
 11
5588.4123049999998
 21
3790.863746
 31
0.0
  0
CIRCLE
  5
7A6C
  8
1
  6
CONTINUOUS
 10
2772.6908349999999
 20
4490.863746
 30
0.0
 40
440.0
  0
CIRCLE
  5
7A6D
  8
1
  6
CONTINUOUS
 10
2772.6908349999999
 20
4490.863746
 30
0.0
 40
400.0
  0
LINE
  5
7A6E
  8
1
  6
CONTINUOUS
 10
2749.6908349999999
 20
4995.863746
 30
0.0
 11
1924.6908350000001
 21
4995.863746
 31
0.0
  0
LINE
  5
7A6F
  8
1
  6
CONTINUOUS
 10
3272.6908349999999
 20
3890.863746
 30
0.0
 11
1572.690834999999
 21
3890.863746
 31
0.0
  0
LINE
  5
7A70
  8
1
  6
CONTINUOUS
 10
3272.6908349999999
 20
3790.863746
 30
0.0
 11
1572.690834999999
 21
3790.863746
 31
0.0
  0
POLYLINE
  5
7A71
  8
1
  6
CONTINUOUS
 66
     1
 10
0.0
 20
0.0
 30
0.0
  0
VERTEX
  5
7D97
  8
1
  6
CONTINUOUS
 10
1924.6908350000001
 20
5035.863746
 30
0.0
  0
VERTEX
  5
7D98
  8
1
  6
CONTINUOUS
 10
1968.6908350000001
 20
4490.863746
 30
0.0
 42
0.4
  0
VERTEX
  5
7D99
  8
1
  6
CONTINUOUS
 10
2713.6908349999999
 20
3802.5637459999998
 30
0.0
 42
0.4
  0
VERTEX
  5
7D9A
  8
1
  6
CONTINUOUS
 10
3339.3908350000002
 20
4499.4637460000004
 30
0.0
 42
0.4
  0
VERTEX
  5
7D9B
  8
1
  6
CONTINUOUS
 10
2820.1908349999999
 20
4965.5637459999998
 30
0.0
  0
VERTEX
  5
7D9C
  8
1
  6
CONTINUOUS
 10
2749.6908349999999
 20
4959.7637460000014
 30
0.0
 42
0.4
  0
SEQEND
  5
7D9D
  8
1
  6
CONTINUOUS
  0
LINE
  5
7A79
  8
1
  6
CONTINUOUS
 10
2792.1908349999999
 20
5035.863746
 30
0.0
 11
1882.1908350000001
 21
5035.863746
 31
0.0
  0
LINE
  5
7A7A
  8
1
  6
CONTINUOUS
 10
1788.4908350000001
 20
4174.2637459999996
 30
0.0
 11
2732.9908350000001
 21
4582.6637460000002
 31
0.0
  0
LINE
  5
7A7B
  8
1
  6
CONTINUOUS
 10
1748.790835
 20
4266.0637459999989
 30
0.0
 11
2693.2908349999998
 21
4674.4637460000004
 31
0.0
  0
LINE
  5
7A7C
  8
1
  6
CONTINUOUS
 10
1849.090835
 20
4026.2637460000001
 30
0.0
 11
2808.7908349999998
 21
4397.5637459999998
 31
0.0
  0
LINE
  5
7A7D
  8
1
  6
CONTINUOUS
 10
1885.1908350000001
 20
3932.9637459999999
 30
0.0
 11
2844.8908350000002
 21
4304.3637459999991
 31
0.0
  0
LINE
  5
7A7E
  8
1
  6
CONTINUOUS
 10
1572.690834999999
 20
3890.863746
 30
0.0
 11
1572.690834999999
 21
3790.863746
 31
0.0
  0
LINE
  5
7A7F
  8
1
  6
CONTINUOUS
 10
1632.6908350000001
 20
3940.863746
 30
0.0
 11
1622.6908350000001
 21
3890.863746
 31
0.0
  0
LINE
  5
7A80
  8
1
  6
CONTINUOUS
 10
2017.6908350000001
 20
3890.863746
 30
0.0
 11
2007.6908350000001
 21
3940.863746
 31
0.0
  0
ARC
  5
7A81
  8
1
  6
CONTINUOUS
 10
1820.1908350000001
 20
4100.863746
 30
0.0
 40
180.0
 50
113.39999999999991
 51
291.19999999999987
  0
LINE
  5
7A82
  8
1
  6
CONTINUOUS
 10
2007.6908350000001
 20
3940.863746
 30
0.0
 11
1632.6908350000001
 21
3940.863746
 31
0.0
  0
LINE
  5
7A83
  8
2
  6
CENTER
 10
1740.1908350000001
 20
4100.863746
 30
0.0
 11
1900.1908350000001
 21
4100.863746
 31
0.0
  0
CIRCLE
  5
7A84
  8
1
  6
CONTINUOUS
 10
1820.1908350000001
 20
4100.863746
 30
0.0
 40
80.0
  0
ARC
  5
7A85
  8
1
  6
CONTINUOUS
 10
1820.1908350000001
 20
4100.863746
 30
0.0
 40
162.0
 50
325.0
 51
214.99999999999989
  0
LINE
  5
7A86
  8
1
  6
CONTINUOUS
 10
1666.190834999999
 20
3958.863746
 30
0.0
 11
1687.4908350000001
 21
4007.863746
 31
0.0
  0
LINE
  5
7A87
  8
1
  6
CONTINUOUS
 10
1666.190834999999
 20
3940.863746
 30
0.0
 11
1666.190834999999
 21
3958.863746
 31
0.0
  0
LINE
  5
7A88
  8
2
  6
CENTER
 10
1820.1908350000001
 20
4020.8637459999991
 30
0.0
 11
1820.1908350000001
 21
4180.8637459999991
 31
0.0
  0
LINE
  5
7A89
  8
1
  6
CONTINUOUS
 10
1974.1908350000001
 20
3940.863746
 30
0.0
 11
1974.1908350000001
 21
3958.863746
 31
0.0
  0
LINE
  5
7A8A
  8
1
  6
CONTINUOUS
 10
1974.1908350000001
 20
3958.863746
 30
0.0
 11
1952.8908349999999
 21
4007.863746
 31
0.0
  0
ARC
  5
7A8B
  8
1
  6
CONTINUOUS
 10
2772.6908349999999
 20
4490.863746
 30
0.0
 40
200.0
 50
291.19999999999987
 51
113.39999999999991
  0
LINE
  5
7A8C
  8
2
  6
CENTER
 10
2772.6908349999999
 20
3707.8421619999999
 30
0.0
 11
2772.6908349999999
 21
5210.1027020000001
 31
0.0
  0
CIRCLE
  5
7A8D
  8
1
  6
CONTINUOUS
 10
2772.6908349999999
 20
4490.863746
 30
0.0
 40
100.0
  0
LINE
  5
7A8E
  8
2
  6
CENTER
 10
6615.9275880000014
 20
4490.863746
 30
0.0
 11
5342.1619759999994
 21
4490.863746
 31
0.0
  0
LINE
  5
7A8F
  8
1
  6
CONTINUOUS
 10
3272.6908349999999
 20
3890.863746
 30
0.0
 11
3272.6908349999999
 21
3790.863746
 31
0.0
  0
LINE
  5
7A90
  8
1
  6
CONTINUOUS
 10
2749.6908349999999
 20
4959.7637460000014
 30
0.0
 11
2749.6908349999999
 21
5035.863746
 31
0.0
  0
LINE
  5
7A91
  8
1
  6
CONTINUOUS
 10
5555.4123049999998
 20
4590.863746
 30
0.0
 11
5555.4123049999998
 21
4390.8637459999991
 31
0.0
  0
LINE
  5
7A92
  8
1
  6
CONTINUOUS
 10
5635.4123049999998
 20
4590.863746
 30
0.0
 11
5635.4123049999998
 21
4390.8637459999991
 31
0.0
  0
LINE
  5
7A93
  8
1
  6
CONTINUOUS
 10
5675.4123049999998
 20
4690.863746
 30
0.0
 11
5675.4123049999998
 21
3920.863746
 31
0.0
  0
LINE
  5
7A94
  8
1
  6
CONTINUOUS
 10
5515.4123049999998
 20
4690.863746
 30
0.0
 11
5515.4123049999998
 21
3920.863746
 31
0.0
  0
LINE
  5
7A95
  8
1
  6
CONTINUOUS
 10
5588.4123049999998
 20
3890.863746
 30
0.0
 11
5588.4123049999998
 21
3790.863746
 31
0.0
  0
LINE
  5
7A96
  8
1
  6
CONTINUOUS
 10
5635.4123049999998
 20
4180.8637459999991
 30
0.0
 11
5635.4123049999998
 21
4020.8637459999991
 31
0.0
  0
LINE
  5
7A97
  8
1
  6
CONTINUOUS
 10
5555.4123049999998
 20
4180.8637459999991
 30
0.0
 11
5555.4123049999998
 21
4020.8637459999991
 31
0.0
  0
LINE
  5
7A98
  8
1
  6
CONTINUOUS
 10
5555.4123049999998
 20
4180.8637459999991
 30
0.0
 11
5635.4123049999998
 21
4180.8637459999991
 31
0.0
  0
LINE
  5
7A99
  8
1
  6
CONTINUOUS
 10
5555.4123049999998
 20
4020.8637459999991
 30
0.0
 11
5635.4123049999998
 21
4020.8637459999991
 31
0.0
  0
LINE
  5
7A9A
  8
1
  6
CONTINUOUS
 10
5515.4123049999998
 20
3920.863746
 30
0.0
 11
5675.4123049999998
 21
3920.863746
 31
0.0
  0
LINE
  5
7A9B
  8
1
  6
CONTINUOUS
 10
5555.4123049999998
 20
4390.8637459999991
 30
0.0
 11
5635.4123049999998
 21
4390.8637459999991
 31
0.0
  0
LINE
  5
7A9C
  8
1
  6
CONTINUOUS
 10
5555.4123049999998
 20
4590.863746
 30
0.0
 11
5635.4123049999998
 21
4590.863746
 31
0.0
  0
LINE
  5
7A9D
  8
1
  6
CONTINUOUS
 10
5515.4123049999998
 20
4690.863746
 30
0.0
 11
5675.4123049999998
 21
4690.863746
 31
0.0
  0
LINE
  5
7A9E
  8
1
  6
CONTINUOUS
 10
6468.4123049999998
 20
4930.8637459999991
 30
0.0
 11
6468.4123049999998
 21
4050.863746
 31
0.0
  0
LINE
  5
7A9F
  8
1
  6
CONTINUOUS
 10
6385.4123049999998
 20
5035.863746
 30
0.0
 11
6385.4123049999998
 21
3890.863746
 31
0.0
  0
LINE
  5
7AA0
  8
1
  6
CONTINUOUS
 10
5785.4123049999998
 20
5035.863746
 30
0.0
 11
5785.4123049999998
 21
3890.863746
 31
0.0
  0
LINE
  5
7AA1
  8
1
  6
CONTINUOUS
 10
6438.4123049999989
 20
3890.863746
 30
0.0
 11
6438.4123049999989
 21
3790.863746
 31
0.0
  0
LINE
  5
7AA2
  8
1
  6
CONTINUOUS
 10
6385.4123049999998
 20
4090.863746
 30
0.0
 11
6468.4123049999998
 21
4090.863746
 31
0.0
  0
LINE
  5
7AA3
  8
1
  6
CONTINUOUS
 10
5745.4123049999998
 20
5035.863746
 30
0.0
 11
6425.4123049999998
 21
5035.863746
 31
0.0
  0
LINE
  5
7AA4
  8
1
  6
CONTINUOUS
 10
5785.4123049999998
 20
4995.863746
 30
0.0
 11
6385.4123049999998
 21
4995.863746
 31
0.0
  0
LINE
  5
7AA5
  8
1
  6
CONTINUOUS
 10
6385.4123049999998
 20
4890.863746
 30
0.0
 11
6468.4123049999998
 21
4890.863746
 31
0.0
  0
LINE
  5
7AA6
  8
1
  6
CONTINUOUS
 10
2972.6908349999999
 20
6941.3472270000002
 30
0.0
 11
1640.1908350000001
 21
6941.3472270000002
 31
0.0
  0
LINE
  5
7AA7
  8
1
  6
CONTINUOUS
 10
2972.6908349999999
 20
6781.3472269999993
 30
0.0
 11
1640.1908350000001
 21
6781.3472269999993
 31
0.0
  0
LINE
  5
7AA8
  8
1
  6
CONTINUOUS
 10
3212.6908349999999
 20
7734.3472269999993
 30
0.0
 11
2332.6908349999999
 21
7734.3472269999993
 31
0.0
  0
LINE
  5
7AA9
  8
1
  6
CONTINUOUS
 10
3342.9908350000001
 20
7051.3472269999993
 30
0.0
 11
1924.6908350000001
 21
7051.3472269999993
 31
0.0
  0
LINE
  5
7AAA
  8
1
  6
CONTINUOUS
 10
3342.9908350000001
 20
7651.3472269999993
 30
0.0
 11
1924.6908350000001
 21
7651.3472269999993
 31
0.0
  0
LINE
  5
7AAB
  8
1
  6
CONTINUOUS
 10
2749.6908349999999
 20
7051.3472269999993
 30
0.0
 11
1924.6908350000001
 21
7651.3472269999993
 31
0.0
  0
LINE
  5
7AAC
  8
1
  6
CONTINUOUS
 10
2749.6908349999999
 20
7651.3472269999993
 30
0.0
 11
1924.6908350000001
 21
7051.3472269999993
 31
0.0
  0
LINE
  5
7AAD
  8
1
  6
CONTINUOUS
 10
2672.6908349999999
 20
6854.3472269999993
 30
0.0
 11
1900.1908350000001
 21
6854.3472269999993
 31
0.0
  0
LINE
  5
7AAE
  8
1
  6
CONTINUOUS
 10
2372.6908349999999
 20
7704.3472269999993
 30
0.0
 11
1572.690834999999
 21
7704.3472269999993
 31
0.0
  0
LINE
  5
7AAF
  8
1
  6
CONTINUOUS
 10
1740.1908350000001
 20
6854.3472269999993
 30
0.0
 11
1572.690834999999
 21
6854.3472269999993
 31
0.0
  0
LINE
  5
7AB0
  8
1
  6
CONTINUOUS
 10
1572.690834999999
 20
7704.3472269999993
 30
0.0
 11
1572.690834999999
 21
6854.3472269999993
 31
0.0
  0
LINE
  5
7AB1
  8
1
  6
CONTINUOUS
 10
1658.1908350000001
 20
6993.0472269999991
 30
0.0
 11
1658.1908350000001
 21
7478.0472270000009
 31
0.0
  0
LINE
  5
7AB2
  8
1
  6
CONTINUOUS
 10
1924.6908350000001
 20
7051.3472269999993
 30
0.0
 11
1924.6908350000001
 21
7651.3472269999993
 31
0.0
  0
LINE
  5
7AB3
  8
1
  6
CONTINUOUS
 10
1900.1908350000001
 20
6894.3472270000002
 30
0.0
 11
1740.1908350000001
 21
6894.3472270000002
 31
0.0
  0
LINE
  5
7AB4
  8
1
  6
CONTINUOUS
 10
1900.1908350000001
 20
6814.3472269999984
 30
0.0
 11
1740.1908350000001
 21
6814.3472269999984
 31
0.0
  0
LINE
  5
7AB5
  8
1
  6
CONTINUOUS
 10
1658.1908350000001
 20
6993.0472269999991
 30
0.0
 11
1982.1908350000001
 21
6993.0472269999991
 31
0.0
  0
LINE
  5
7AB6
  8
1
  6
CONTINUOUS
 10
1740.1908350000001
 20
6814.3472269999984
 30
0.0
 11
1740.1908350000001
 21
6894.3472270000002
 31
0.0
  0
LINE
  5
7AB7
  8
1
  6
CONTINUOUS
 10
1640.1908350000001
 20
6781.3472269999993
 30
0.0
 11
1640.1908350000001
 21
6941.3472270000002
 31
0.0
  0
LINE
  5
7AB8
  8
1
  6
CONTINUOUS
 10
1799.1908350000001
 20
6894.3472270000002
 30
0.0
 11
1799.1908350000001
 21
6993.0472269999991
 31
0.0
  0
LINE
  5
7AB9
  8
1
  6
CONTINUOUS
 10
1900.1908350000001
 20
6814.3472269999984
 30
0.0
 11
1900.1908350000001
 21
6894.3472270000002
 31
0.0
  0
LINE
  5
7ABA
  8
1
  6
CONTINUOUS
 10
1982.1908350000001
 20
6993.0472269999991
 30
0.0
 11
1982.1908350000001
 21
7051.3472269999993
 31
0.0
  0
LINE
  5
7ABB
  8
1
  6
CONTINUOUS
 10
1841.1908350000001
 20
6894.3472270000002
 30
0.0
 11
1841.1908350000001
 21
6993.0472269999991
 31
0.0
  0
LINE
  5
7ABC
  8
1
  6
CONTINUOUS
 10
1658.1908350000001
 20
7478.0472270000009
 30
0.0
 11
1924.6908350000001
 21
7478.0472270000009
 31
0.0
  0
LINE
  5
7ABD
  8
1
  6
CONTINUOUS
 10
2372.6908349999999
 20
7651.3472269999993
 30
0.0
 11
2372.6908349999999
 21
7734.3472269999993
 31
0.0
  0
LINE
  5
7ABE
  8
1
  6
CONTINUOUS
 10
3272.6908349999999
 20
6854.3472269999993
 30
0.0
 11
2872.6908349999999
 21
6854.3472269999993
 31
0.0
  0
LINE
  5
7ABF
  8
1
  6
CONTINUOUS
 10
2749.6908349999999
 20
7051.3472269999993
 30
0.0
 11
2749.6908349999999
 21
7651.3472269999993
 31
0.0
  0
LINE
  5
7AC0
  8
1
  6
CONTINUOUS
 10
2872.6908349999999
 20
6814.3472269999984
 30
0.0
 11
2672.6908349999999
 21
6814.3472269999984
 31
0.0
  0
LINE
  5
7AC1
  8
1
  6
CONTINUOUS
 10
2872.6908349999999
 20
6894.3472270000002
 30
0.0
 11
2672.6908349999999
 21
6894.3472270000002
 31
0.0
  0
LINE
  5
7AC2
  8
1
  6
CONTINUOUS
 10
2672.6908349999999
 20
6814.3472269999984
 30
0.0
 11
2672.6908349999999
 21
6894.3472270000002
 31
0.0
  0
LINE
  5
7AC3
  8
1
  6
CONTINUOUS
 10
2793.6908349999999
 20
6894.3472270000002
 30
0.0
 11
2793.6908349999999
 21
7051.3472269999993
 31
0.0
  0
LINE
  5
7AC4
  8
1
  6
CONTINUOUS
 10
2751.6908349999999
 20
6894.3472270000002
 30
0.0
 11
2751.6908349999999
 21
7051.3472269999993
 31
0.0
  0
LINE
  5
7AC5
  8
1
  6
CONTINUOUS
 10
2872.6908349999999
 20
6814.3472269999984
 30
0.0
 11
2872.6908349999999
 21
6894.3472270000002
 31
0.0
  0
LINE
  5
7AC6
  8
1
  6
CONTINUOUS
 10
3342.9908350000001
 20
7051.3472269999993
 30
0.0
 11
3342.9908350000001
 21
7651.3472269999993
 31
0.0
  0
LINE
  5
7AC7
  8
1
  6
CONTINUOUS
 10
2972.6908349999999
 20
6781.3472269999993
 30
0.0
 11
2972.6908349999999
 21
6941.3472270000002
 31
0.0
  0
LINE
  5
7AC8
  8
1
  6
CONTINUOUS
 10
3272.6908349999999
 20
7051.3472269999993
 30
0.0
 11
3272.6908349999999
 21
6854.3472269999993
 31
0.0
  0
LINE
  5
7AC9
  8
1
  6
CONTINUOUS
 10
3172.6908349999999
 20
7651.3472269999993
 30
0.0
 11
3172.6908349999999
 21
7734.3472269999993
 31
0.0
  0
LINE
  5
7ACA
  8
1
  6
CONTINUOUS
 10
3272.6908349999999
 20
7704.3472269999993
 30
0.0
 11
3172.6908349999999
 21
7704.3472269999993
 31
0.0
  0
LINE
  5
7ACB
  8
1
  6
CONTINUOUS
 10
3272.6908349999999
 20
7704.3472269999993
 30
0.0
 11
3272.6908349999999
 21
7651.3472269999993
 31
0.0
  0
DIMENSION
  5
7ADF
  8
3
  6
CONTINUOUS
  2
*D1
 10
2772.6908349999999
 20
3444.3358939999989
 30
0.0
 11
2155.1063730000001
 21
3444.3358939999989
 31
0.0
 70
   128
 13
1572.690834999999
 23
3790.863746
 33
0.0
 14
2772.6908349999999
 24
3707.8421619999999
 34
0.0
1001
ACAD
1000
DSTYLE
1002
{
1070
   287
1070
     3
1070
   287
1070
     3
1070
    40
1040
40.0
1070
   143
1040
0.039
1070
   172
1070
     1
1070
   271
1070
     0
1070
   279
1070
     0
1070
   288
1070
     1
1002
}
  0
DIMENSION
  5
7AED
  8
3
  6
CONTINUOUS
  2
*D2
 10
3272.6908349999999
 20
3444.3358939999989
 30
0.0
 11
3008.6590299999998
 21
3444.3358939999989
 31
0.0
 70
   128
 13
2772.6908349999999
 23
3707.8421619999999
 33
0.0
 14
3272.6908349999999
 24
3790.863746
 34
0.0
1001
ACAD
1000
DSTYLE
1002
{
1070
   287
1070
     4
1070
   287
1070
     4
1070
    40
1040
40.0
1070
    75
1070
     1
1070
   143
1040
0.039
1070
   172
1070
     1
1070
   271
1070
     0
1070
   279
1070
     1
1070
   288
1070
     1
1002
}
  0
DIMENSION
  5
7B12
  8
3
  6
CONTINUOUS
  2
*D3
 10
3669.4740809999998
 20
4490.863746
 30
0.0
 11
3669.4740809999998
 21
4763.363746
 31
0.0
 70
   128
 13
2792.1908349999999
 23
5035.863746
 33
0.0
 14
3339.589199999999
 24
4490.863746
 34
0.0
 50
90.0
1001
ACAD
1000
DSTYLE
1002
{
1070
   287
1070
     4
1070
   287
1070
     4
1070
    40
1040
40.0
1070
   143
1040
0.039
1070
   172
1070
     1
1070
   271
1070
     0
1070
   279
1070
     1
1070
   288
1070
     1
1002
}
  0
DIMENSION
  5
7B1E
  8
3
  6
CONTINUOUS
  2
*D4
 10
3669.4740809999998
 20
3790.863746
 30
0.0
 11
3569.4740809999998
 21
4140.863746
 31
0.0
 70
     0
 13
3339.589199999999
 23
4490.863746
 33
0.0
 14
3272.6908349999999
 24
3790.863746
 34
0.0
 50
90.0
1001
ACAD
1000
DSTYLE
1002
{
1070
   287
1070
     4
1070
   287
1070
     4
1070
    40
1040
40.0
1070
    75
1070
     1
1070
   143
1040
0.039
1070
   172
1070
     1
1070
   271
1070
     0
1070
   279
1070
     1
1070
   288
1070
     1
1002
}
  0
DIMENSION
  5
7B2B
  8
3
  6
CONTINUOUS
  2
*D5
 10
3958.5806360000001
 20
3790.863746
 30
0.0
 11
3958.5806360000001
 21
4425.7759900000001
 31
0.0
 70
   128
 13
2792.1908349999999
 23
5035.863746
 33
0.0
 14
3272.6908349999999
 24
3790.863746
 34
0.0
 50
90.0
1001
ACAD
1000
DSTYLE
1002
{
1070
   287
1070
     3
1070
   287
1070
     3
1070
    40
1040
40.0
1070
   143
1040
0.039
1070
   172
1070
     1
1070
   271
1070
     0
1070
   279
1070
     0
1070
   288
1070
     1
1002
}
  0
DIMENSION
  5
7B38
  8
3
  6
CONTINUOUS
  2
*D6
 10
2749.6908349999999
 20
5288.4871880000001
 30
0.0
 11
2334.0771180000002
 21
5288.4871880000001
 31
0.0
 70
   128
 13
1924.6908350000001
 23
5035.863746
 33
0.0
 14
2749.6908349999999
 24
5035.863746
 34
0.0
1001
ACAD
1000
DSTYLE
1002
{
1070
   287
1070
     3
1070
   287
1070
     3
1070
    40
1040
40.0
1070
   143
1040
0.039
1070
   172
1070
     1
1070
   271
1070
     0
1070
   279
1070
     0
1070
   288
1070
     1
1002
}
  0
DIMENSION
  5
7B45
  8
3
  6
CONTINUOUS
  2
*D7
 10
2772.6908349999999
 20
5514.0171689999988
 30
0.0
 11
2352.4330789999999
 21
5514.0171689999988
 31
0.0
 70
   128
 13
1924.6908350000001
 23
5035.863746
 33
0.0
 14
2772.6908349999999
 24
4961.6559450000004
 34
0.0
1001
ACAD
1000
DSTYLE
1002
{
1070
   287
1070
     3
1070
   287
1070
     3
1070
    40
1040
40.0
1070
   143
1040
0.039
1070
   172
1070
     1
1070
   271
1070
     0
1070
   279
1070
     0
1070
   288
1070
     1
1002
}
  0
DIMENSION
  5
7B51
  8
3
  6
CONTINUOUS
  2
*D8
 10
3340.6908349999999
 20
5514.0171689999988
 30
0.0
 11
3056.6908349999999
 21
5614.0171689999997
 31
0.0
 70
     0
 13
2772.6908349999999
 23
4961.6559450000004
 33
0.0
 14
3340.6908349999999
 24
4490.863746
 34
0.0
1001
ACAD
1000
DSTYLE
1002
{
1070
   287
1070
     4
1070
   287
1070
     4
1070
    40
1040
40.0
1070
    75
1070
     1
1070
   143
1040
0.039
1070
   172
1070
     1
1070
   271
1070
     0
1070
   279
1070
     1
1070
   288
1070
     1
1002
}
  0
DIMENSION
  5
7B5E
  8
3
  6
CONTINUOUS
  2
*D9
 10
3272.6908349999999
 20
6393.2285629999997
 30
0.0
 11
2425.8569680000001
 21
6393.2285629999997
 31
0.0
 70
   128
 13
1572.690834999999
 23
6854.3472269999993
 33
0.0
 14
3272.6908349999999
 24
6854.3472269999993
 34
0.0
1001
ACAD
1000
DSTYLE
1002
{
1070
   287
1070
     3
1070
   287
1070
     3
1070
    40
1040
40.0
1070
   143
1040
0.039
1070
   172
1070
     1
1070
   271
1070
     0
1070
   279
1070
     0
1070
   288
1070
     1
1002
}
  0
DIMENSION
  5
7B6B
  8
3
  6
CONTINUOUS
  2
*D10
 10
3664.885079000001
 20
6854.3472269999993
 30
0.0
 11
3664.8850790000001
 21
7338.9085129999994
 31
0.0
 70
   128
 13
3272.6908349999999
 23
7704.3472269999993
 33
0.0
 14
3272.6908349999999
 24
6854.3472269999993
 34
0.0
 50
90.0
1001
ACAD
1000
DSTYLE
1002
{
1070
   287
1070
     3
1070
   287
1070
     3
1070
    40
1040
40.0
1070
   143
1040
0.039
1070
   172
1070
     1
1070
   271
1070
     0
1070
   279
1070
     0
1070
   288
1070
     1
1002
}
  0
LINE
  5
7B6C
  8
2
  6
CENTER
 10
1796.1990649999991
 20
7351.3472269999993
 30
0.0
 11
3476.7363780000001
 21
7351.3472269999993
 31
0.0
  0
LINE
  5
7B6D
  8
2
  6
CENTER
 10
6085.4123049999998
 20
5112.9257619999989
 30
0.0
 11
6085.4123049999998
 21
3728.5464130000009
 31
0.0
  0
DIMENSION
  5
7B7C
  8
3
  6
CONTINUOUS
  2
*D11
 10
6085.4123049999998
 20
3499.3445179999999
 30
0.0
 11
5836.9123049999998
 21
3499.3445179999999
 31
0.0
 70
   128
 13
5588.4123049999998
 23
3790.863746
 33
0.0
 14
6085.4123049999998
 24
3728.5464130000009
 34
0.0
1001
ACAD
1000
DSTYLE
1002
{
1070
   287
1070
     4
1070
   287
1070
     4
1070
    40
1040
40.0
1070
   143
1040
0.039
1070
   172
1070
     1
1070
   271
1070
     0
1070
   279
1070
     1
1070
   288
1070
     1
1002
}
  0
DIMENSION
  5
7B8A
  8
3
  6
CONTINUOUS
  2
*D12
 10
6438.4123049999989
 20
3499.3445179999999
 30
0.0
 11
6258.1141470000002
 21
3499.3445179999999
 31
0.0
 70
   128
 13
6085.4123049999998
 23
3728.5464130000009
 33
0.0
 14
6438.4123049999989
 24
3790.863746
 34
0.0
1001
ACAD
1000
DSTYLE
1002
{
1070
   287
1070
     4
1070
   287
1070
     4
1070
    40
1040
40.0
1070
    75
1070
     1
1070
   143
1040
0.039
1070
   172
1070
     1
1070
   271
1070
     0
1070
   279
1070
     1
1070
   288
1070
     1
1002
}
  0
DIMENSION
  5
7BAD
  8
3
  6
CONTINUOUS
  2
*D13
 10
6854.6832640000011
 20
4090.863746
 30
0.0
 11
6854.6832640000011
 21
4437.1494602857147
 31
0.0
 70
   128
 13
6468.4123049999998
 23
4890.863746
 33
0.0
 14
6468.4123049999998
 24
4090.863746
 34
0.0
 50
90.0
1001
ACAD
1000
DSTYLE
1002
{
1070
   287
1070
     3
1070
   287
1070
     3
1070
     3
1000
φ<>
1070
    40
1040
40.0
1070
   143
1040
0.039
1070
   172
1070
     1
1070
   271
1070
     0
1070
   279
1070
     0
1070
   288
1070
     1
1002
}
  0
DIMENSION
  5
7BBA
  8
3
  6
CONTINUOUS
  2
*D14
 10
6385.4123049999998
 20
5204.6064980000001
 30
0.0
 11
6111.1265909999993
 21
5204.6064980000001
 31
0.0
 70
   128
 13
5785.4123049999998
 23
5035.863746
 33
0.0
 14
6385.4123049999998
 24
5035.863746
 34
0.0
1001
ACAD
1000
DSTYLE
1002
{
1070
   287
1070
     3
1070
   287
1070
     3
1070
    40
1040
40.0
1070
   143
1040
0.039
1070
   172
1070
     1
1070
   271
1070
     0
1070
   279
1070
     0
1070
   288
1070
     1
1002
}
  0
DIMENSION
  5
7BC8
  8
3
  6
CONTINUOUS
  2
*D15
 10
6085.4123049999998
 20
5515.0422592301529
 30
0.0
 11
5800.4123049999998
 21
5710.5829550910903
 31
0.0
 70
   128
  1
MAX\P660
 13
5515.4123049999998
 23
4690.863746
 33
0.0
 14
6085.4123049999998
 24
5406.3769226887343
 34
0.0
1001
ACAD
1000
DSTYLE
1002
{
1070
   288
1070
     1
1070
   172
1070
     1
1070
    40
1040
40.0
1070
   271
1070
     0
1070
   143
1040
0.039
1002
}
  0
DIMENSION
  5
7BD6
  8
3
  6
CONTINUOUS
  2
*D16
 10
6468.4123049999998
 20
5515.0422592301529
 30
0.0
 11
6276.470155
 21
5515.0422592301529
 31
0.0
 70
   128
 13
6085.4123049999998
 23
5406.3769226887343
 33
0.0
 14
6468.4123049999998
 24
4930.8637459999991
 34
0.0
1001
ACAD
1000
DSTYLE
1002
{
1070
   287
1070
     4
1070
   287
1070
     4
1070
    40
1040
40.0
1070
    75
1070
     1
1070
   143
1040
0.039
1070
   172
1070
     1
1070
   271
1070
     0
1070
   279
1070
     1
1070
   288
1070
     1
1002
}
  0
LINE
  5
7BEE
  8
2
  6
CENTER
 10
3423.9629499999992
 20
4490.863746
 30
0.0
 11
1910.9180269999999
 21
4490.863746
 31
0.0
  0
LINE
  5
7BEF
  8
2
  6
CENTER
 10
2772.6908349999999
 20
6667.826634
 30
0.0
 11
2772.6908349999999
 21
7820.7625440000002
 31
0.0
  0
LINE
  5
7BF1
  8
4
  6
CONTINUOUS
 10
7400.0
 20
2000.0
 30
0.0
 11
7400.0
 21
1200.0
 31
0.0
  0
LINE
  5
7BF2
  8
4
  6
CONTINUOUS
 10
4600.0
 20
2000.0
 30
0.0
 11
4600.0
 21
1200.0
 31
0.0
  0
LINE
  5
7BF3
  8
4
  6
CONTINUOUS
 10
2600.0
 20
2000.0
 30
0.0
 11
2600.0
 21
1200.0
 31
0.0
  0
LINE
  5
7BF6
  8
4
  6
CONTINUOUS
 10
2600.0
 20
1200.0
 30
0.0
 11
7400.0
 21
1200.0
 31
0.0
  0
LINE
  5
7BF7
  8
4
  6
CONTINUOUS
 10
2600.0
 20
1600.0
 30
0.0
 11
7400.0
 21
1600.0
 31
0.0
  0
TEXT
  5
7BF8
  8
4
  6
CONTINUOUS
 10
2754.008323
 20
1726.1721030000001
 30
0.0
 40
200.0
  1
機器名称
  0
TEXT
  5
7BF9
  8
4
  6
CONTINUOUS
 10
2745.032424
 20
1286.580627
 30
0.0
 40
200.0
  1
機器型番
  0
TEXT
  5
7BFA
  8
4
  6
CONTINUOUS
 10
4710.7149820000004
 20
1690.2870760000001
 30
0.0
 40
160.0
  1
ミツヤリミットロードファン
  0
TEXT
  5
7BFB
  8
4
  6
CONTINUOUS
 10
4746.6179819999998
 20
1268.6383370000001
 30
0.0
 40
200.0
  1
LLE#5-4
  0
TEXT
  5
7BFD
  8
4
  6
CONTINUOUS
 10
3619.1430620000001
 20
9533.715365
 30
0.0
 40
216.0
  1
床置ベット
  0
TEXT
  5
7BFE
  8
4
  6
CONTINUOUS
 10
1264.6703729999999
 20
10135.523905
 30
0.0
 40
240.0
  1
ベルト駆動式片吸込両持排煙ファン
  0
LINE
  5
7BFF
  8
4
  6
CONTINUOUS
 10
1000.0
 20
9877.6350170000005
 30
0.0
 11
7400.0
 21
9877.6350170000005
 31
0.0
  0
LINE
  5
7C00
  8
4
  6
CONTINUOUS
 10
1000.0
 20
10677.635017000001
 30
0.0
 11
7400.0
 21
10677.635017000001
 31
0.0
  0
LINE
  5
7C01
  8
4
  6
CONTINUOUS
 10
2600.0
 20
2000.0
 30
0.0
 11
7400.0
 21
2000.0
 31
0.0
  0
LINE
  5
7C02
  8
4
  6
CONTINUOUS
 10
1000.0
 20
10677.635017000001
 30
0.0
 11
1000.0
 21
9877.6350170000005
 31
0.0
  0
TEXT
  5
7C03
  8
4
  6
CONTINUOUS
 10
1875.7077329999991
 20
9529.2779099999989
 30
0.0
 40
216.0
  1
右回転上向
  0
TEXT
  5
7C04
  8
4
  6
CONTINUOUS
 10
5875.8782369999999
 20
10824.244326
 30
0.0
 40
224.0
  1
No.
  0
TEXT
  5
7C05
  8
4
  6
CONTINUOUS
 10
5245.1842500000012
 20
9533.715365
 30
0.0
 40
216.0
  1
縮尺：1/40
  0
LINE
  5
7C06
  8
4
  6
CONTINUOUS
 10
7400.0
 20
10677.635017000001
 30
0.0
 11
7400.0
 21
9877.6350170000005
 31
0.0
  0
LINE
  5
7C08
  8
4
  6
CONTINUOUS
 10
5762.4696889999996
 20
10725.054333
 30
0.0
 11
5762.4696889999996
 21
11146.609046
 31
0.0
  0
LINE
  5
7C09
  8
4
  6
CONTINUOUS
 10
5762.4696889999996
 20
11146.609046
 30
0.0
 11
7400.0
 21
11146.609046
 31
0.0
  0
LINE
  5
7C0A
  8
4
  6
CONTINUOUS
 10
7400.0
 20
11146.609046
 30
0.0
 11
7400.0
 21
10725.054333
 31
0.0
  0
LINE
  5
7C0B
  8
4
  6
CONTINUOUS
 10
7400.0
 20
10725.054333
 30
0.0
 11
5762.4696889999996
 21
10725.054333
 31
0.0
  0
DIMENSION
  5
7C5C
  8
3
  2
*D17
 10
1572.6908350000001
 20
5750.6332130984229
 30
0.0
 11
2468.5603260526332
 21
5750.6332130984229
 31
0.0
 70
   128
 13
3340.6908349999999
 23
4510.863746
 33
0.0
 14
1572.690834999999
 24
3890.863746
 34
0.0
1001
ACAD
1000
DSTYLE
1002
{
1070
   287
1070
     3
1070
   287
1070
     3
1070
    40
1040
40.0
1070
   143
1040
0.039
1070
   172
1070
     1
1070
   271
1070
     0
1070
   279
1070
     0
1070
   288
1070
     1
1002
}
  0
ENDSEC
  0
EOF
