  0
SECTION
  2
HEADER
  9
$ACADVER
  1
AC1009
  9
$INSBASE
 10
0.0
 20
0.0
 30
0.0
  9
$EXTMIN
 10
1000.0
 20
1200.0
 30
0.0
  9
$EXTMAX
 10
7400.0
 20
11146.609046
 30
0.0
  9
$LIMMIN
 10
0.0
 20
0.0
  9
$LIMMAX
 10
297.0
 20
210.0
  9
$ORTHOMODE
 70
     0
  9
$REGENMODE
 70
     1
  9
$FILLMODE
 70
     0
  9
$QTEXTMODE
 70
     0
  9
$MIRRTEXT
 70
     1
  9
$DRAGMODE
 70
     2
  9
$LTSCALE
 40
100.0
  9
$OSMODE
 70
    37
  9
$ATTMODE
 70
     1
  9
$TEXTSIZE
 40
180.0
  9
$TRACEWID
 40
0.05
  9
$TEXTSTYLE
  7
STANDARD
  9
$CLAYER
  8
3
  9
$CELTYPE
  6
BYLAYER
  9
$CECOLOR
 62
   256
  9
$DIMSCALE
 40
40.0
  9
$DIMASZ
 40
2.0
  9
$DIMEXO
 40
0.5
  9
$DIMDLI
 40
10.0
  9
$DIMRND
 40
0.0
  9
$DIMDLE
 40
0.0
  9
$DIMEXE
 40
1.0
  9
$DIMTP
 40
1.0
  9
$DIMTM
 40
1.0
  9
$DIMTXT
 40
3.0
  9
$DIMCEN
 40
0.0
  9
$DIMTSZ
 40
0.0
  9
$DIMTOL
 70
     0
  9
$DIMLIM
 70
     0
  9
$DIMTIH
 70
     0
  9
$DIMTOH
 70
     0
  9
$DIMSE1
 70
     0
  9
$DIMSE2
 70
     0
  9
$DIMTAD
 70
     1
  9
$DIMZIN
 70
     8
  9
$DIMBLK
  1

  9
$DIMASO
 70
     1
  9
$DIMSHO
 70
     1
  9
$DIMPOST
  1

  9
$DIMAPOST
  1

  9
$DIMALT
 70
     0
  9
$DIMALTD
 70
     2
  9
$DIMALTF
 40
0.039
  9
$DIMLFAC
 40
1.0
  9
$DIMTOFL
 70
     1
  9
$DIMTVP
 40
0.0
  9
$DIMTIX
 70
     0
  9
$DIMSOXD
 70
     0
  9
$DIMSAH
 70
     1
  9
$DIMBLK1
  1
OPEN
  9
$DIMBLK2
  1
OPEN
  9
$DIMSTYLE
  2
IGA
  9
$DIMCLRD
 70
     0
  9
$DIMCLRE
 70
     0
  9
$DIMCLRT
 70
     0
  9
$DIMTFAC
 40
10.0
  9
$DIMGAP
 40
1.0
  9
$LUNITS
 70
     2
  9
$LUPREC
 70
     3
  9
$SKETCHINC
 40
0.1
  9
$FILLETRAD
 40
50.0
  9
$AUNITS
 70
     0
  9
$AUPREC
 70
     0
  9
$MENU
  1
acad
  9
$ELEVATION
 40
0.0
  9
$PELEVATION
 40
0.0
  9
$THICKNESS
 40
0.0
  9
$LIMCHECK
 70
     0
  9
$BLIPMODE
 70
     0
  9
$CHAMFERA
 40
0.5
  9
$CHAMFERB
 40
0.5
  9
$SKPOLY
 70
     0
  9
$TDCREATE
 40
2450752.6030646991
  9
$TDUPDATE
 40
2454953.6848413888
  9
$TDINDWG
 40
0.0713269676
  9
$TDUSRTIMER
 40
0.0713269676
  9
$USRTIMER
 70
     1
  9
$ANGBASE
 50
0.0
  9
$ANGDIR
 70
     0
  9
$PDMODE
 70
     0
  9
$PDSIZE
 40
0.0
  9
$PLINEWID
 40
0.0
  9
$COORDS
 70
     1
  9
$SPLFRAME
 70
     0
  9
$SPLINETYPE
 70
     6
  9
$SPLINESEGS
 70
     8
  9
$ATTDIA
 70
     0
  9
$ATTREQ
 70
     1
  9
$HANDLING
 70
 10241
  9
$HANDSEED
  5
800A
  9
$SURFTAB1
 70
     6
  9
$SURFTAB2
 70
     6
  9
$SURFTYPE
 70
     6
  9
$SURFU
 70
     6
  9
$SURFV
 70
     6
  9
$UCSNAME
  2

  9
$UCSORG
 10
0.0
 20
0.0
 30
0.0
  9
$UCSXDIR
 10
1.0
 20
0.0
 30
0.0
  9
$UCSYDIR
 10
0.0
 20
1.0
 30
0.0
  9
$PUCSNAME
  2

  9
$PUCSORG
 10
0.0
 20
0.0
 30
0.0
  9
$PUCSXDIR
 10
1.0
 20
0.0
 30
0.0
  9
$PUCSYDIR
 10
0.0
 20
1.0
 30
0.0
  9
$USERI1
 70
     0
  9
$USERI2
 70
     0
  9
$USERI3
 70
     0
  9
$USERI4
 70
     0
  9
$USERI5
 70
     0
  9
$USERR1
 40
0.0
  9
$USERR2
 40
0.0
  9
$USERR3
 40
0.0
  9
$USERR4
 40
0.0
  9
$USERR5
 40
0.0
  9
$WORLDVIEW
 70
     1
  9
$SHADEDGE
 70
     3
  9
$SHADEDIF
 70
    70
  9
$TILEMODE
 70
     1
  9
$MAXACTVP
 70
    16
  9
$PLIMCHECK
 70
     0
  9
$PEXTMIN
 10
1.0000000000000000E+020
 20
1.0000000000000000E+020
 30
1.0000000000000000E+020
  9
$PEXTMAX
 10
-1.0000000000000000E+020
 20
-1.0000000000000000E+020
 30
-1.0000000000000000E+020
  9
$PLIMMIN
 10
0.0
 20
0.0
  9
$PLIMMAX
 10
12.0
 20
9.0
  9
$UNITMODE
 70
     0
  9
$VISRETAIN
 70
     0
  9
$PLINEGEN
 70
     0
  9
$PSLTSCALE
 70
     1
  0
ENDSEC
  0
SECTION
  2
TABLES
  0
TABLE
  2
VPORT
 70
     2
  0
VPORT
  2
*ACTIVE
 70
     0
 10
0.0
 20
0.0
 11
1.0
 21
1.0
 12
18640.04466894397
 22
5245.8643863025281
 13
0.0
 23
0.0
 14
10.0
 24
10.0
 15
10.0
 25
10.0
 16
0.0
 26
0.0
 36
1.0
 17
0.0
 27
0.0
 37
0.0
 40
13273.46605310493
 41
3.1666666666666661
 42
50.0
 43
0.0
 44
0.0
 50
0.0
 51
0.0
 71
     0
 72
   100
 73
     1
 74
     0
 75
     0
 76
     0
 77
     0
 78
     0
  0
ENDTAB
  0
TABLE
  2
LTYPE
 70
     2
  0
LTYPE
  2
CONTINUOUS
 70
     0
  3
Solid line
 72
    65
 73
     0
 40
0.0
  0
LTYPE
  2
CENTER
 70
     0
  3
____ _ ____ _ ____ _ ____ _ ____ _ ____ _ ____ 
 72
    65
 73
     4
 40
2.0
 49
1.25
 49
-0.25
 49
0.25
 49
-0.25
  0
ENDTAB
  0
TABLE
  2
LAYER
 70
     6
  0
LAYER
  2
0
 70
     0
 62
     7
  6
CONTINUOUS
  0
LAYER
  2
3
 70
     0
 62
     2
  6
CONTINUOUS
  0
LAYER
  2
2
 70
     0
 62
     3
  6
CENTER
  0
LAYER
  2
1
 70
     0
 62
     4
  6
CONTINUOUS
  0
LAYER
  2
4
 70
     0
 62
     7
  6
CONTINUOUS
  0
LAYER
  2
DEFPOINTS
 70
     0
 62
     7
  6
CONTINUOUS
  0
ENDTAB
  0
TABLE
  2
STYLE
 70
     1
  0
STYLE
  2
STANDARD
 70
     0
 40
0.0
 41
1.0
 50
0.0
 71
     0
 42
180.0
  3
simplex.shx
  4
extfont.shx
  0
ENDTAB
  0
TABLE
  2
VIEW
 70
     0
  0
ENDTAB
  0
TABLE
  2
UCS
 70
     0
  0
ENDTAB
  0
TABLE
  2
APPID
 70
     1
  0
APPID
  2
ACAD
 70
     0
  0
ENDTAB
  0
TABLE
  2
DIMSTYLE
 70
     1
  0
DIMSTYLE
  2
IGA
 70
     0
  3

  4

  5

  6
OPEN
  7
OPEN
 40
2.0
 41
2.0
 42
0.5
 43
10.0
 44
1.0
 45
0.0
 46
0.0
 47
1.0
 48
1.0
140
3.0
141
0.0
142
0.0
143
0.03937
144
1.0
145
0.0
146
10.0
147
1.0
 71
     0
 72
     0
 73
     0
 74
     0
 75
     0
 76
     0
 77
     1
 78
     8
170
     0
171
     2
172
     0
173
     1
174
     0
175
     0
176
     0
177
     0
178
     0
  0
ENDTAB
  0
ENDSEC
  0
SECTION
  2
BLOCKS
  0
BLOCK
  8
0
  2
$MODEL_SPACE
 70
     0
 10
0.0
 20
0.0
 30
0.0
  3
$MODEL_SPACE
  1

  0
ENDBLK
  5
1B
  8
0
  0
BLOCK
 67
     1
  8
0
  2
$PAPER_SPACE
 70
     0
 10
0.0
 20
0.0
 30
0.0
  3
$PAPER_SPACE
  1

  0
ENDBLK
  5
18
 67
     1
  8
0
  0
BLOCK
  8
0
  2
_OPEN
 70
     0
 10
0.0
 20
0.0
 30
0.0
  3
_OPEN
  1

  0
LINE
  5
7ACE
  8
0
  6
BYBLOCK
 62
     0
 10
-1.0
 20
0.166667
 30
0.0
 11
0.0
 21
0.0
 31
0.0
  0
LINE
  5
7ACF
  8
0
  6
BYBLOCK
 62
     0
 10
0.0
 20
0.0
 30
0.0
 11
-1.0
 21
-0.166667
 31
0.0
  0
LINE
  5
7AD0
  8
0
  6
BYBLOCK
 62
     0
 10
0.0
 20
0.0
 30
0.0
 11
-1.0
 21
0.0
 31
0.0
  0
ENDBLK
  5
7AD1
  8
0
  0
BLOCK
  8
0
  2
*D1
 70
     1
 10
0.0
 20
0.0
 30
0.0
  3
*D1
  1

  0
LINE
  5
7F98
  8
3
  6
CONTINUOUS
 62
     0
 10
1795.3715749999999
 20
3819.5739100000001
 30
0.0
 11
1795.3715749999999
 21
3454.381488
 31
0.0
  0
LINE
  5
7F99
  8
3
  6
CONTINUOUS
 62
     0
 10
2995.3715750000001
 20
3700.3228649999992
 30
0.0
 11
2995.3715750000001
 21
3454.381488
 31
0.0
  0
LINE
  5
7F9A
  8
3
  6
CONTINUOUS
 62
     0
 10
1875.371574999999
 20
3494.381488
 30
0.0
 11
2915.3715750000001
 21
3494.381488
 31
0.0
  0
INSERT
  5
7F9B
  8
3
  6
CONTINUOUS
 62
     0
  2
_OPEN
 10
1795.3715749999999
 20
3494.381488
 30
0.0
 41
80.0
 42
80.0
 43
80.0
 50
180.0
  0
INSERT
  5
7F9C
  8
3
  6
CONTINUOUS
 62
     0
  2
_OPEN
 10
2995.3715750000001
 20
3494.381488
 30
0.0
 41
80.0
 42
80.0
 43
80.0
  0
TEXT
  8
3
  40
120
  5
7FFF
  62
0
  72
0
  71
0
 10
2199.35
 20
3381.98
 30
0.000000
  1
1200
  0
POINT
  5
7F9E
  8
DEFPOINTS
  6
CONTINUOUS
 62
     0
 10
1795.3715749999999
 20
3839.5739100000001
 30
0.0
  0
POINT
  5
7F9F
  8
DEFPOINTS
  6
CONTINUOUS
 62
     0
 10
2995.3715750000001
 20
3720.3228649999992
 30
0.0
  0
POINT
  5
7FA0
  8
DEFPOINTS
  6
CONTINUOUS
 62
     0
 10
2995.3715750000001
 20
3494.381488
 30
0.0
  0
ENDBLK
  5
7D45
  8
0
  0
BLOCK
  8
0
  2
*D2
 70
     1
 10
0.0
 20
0.0
 30
0.0
  3
*D2
  1

  0
LINE
  5
7D7E
  8
0
  6
BYBLOCK
 62
     0
 10
2995.3715750000001
 20
3700.3228649999992
 30
0.0
 11
2995.3715750000001
 21
3454.381488
 31
0.0
  0
LINE
  5
7D7F
  8
0
  6
BYBLOCK
 62
     0
 10
3495.3715750000001
 20
3819.5739100000001
 30
0.0
 11
3495.3715750000001
 21
3454.381488
 31
0.0
  0
LINE
  5
7D80
  8
0
  6
BYBLOCK
 62
     0
 10
3075.3715750000001
 20
3494.381488
 30
0.0
 11
3415.3715750000001
 21
3494.381488
 31
0.0
  0
TEXT
  5
7D81
  8
3
 62
     0
 10
3091.0858607142859
 20
3524.6765924921442
 30
0.0
 40
120.0
  1
500
  0
INSERT
  5
7D82
  8
0
  6
BYBLOCK
 62
     0
  2
_OPEN
 10
2995.3715750000001
 20
3494.381488
 30
0.0
 41
80.0
 42
80.0
 43
80.0
 50
180.0
  0
INSERT
  5
7D83
  8
0
  6
BYBLOCK
 62
     0
  2
_OPEN
 10
3495.3715750000001
 20
3494.381488
 30
0.0
 41
80.0
 42
80.0
 43
80.0
  0
POINT
  5
7D84
  8
DEFPOINTS
  6
BYBLOCK
 62
     0
 10
2995.3715750000001
 20
3720.3228649999992
 30
0.0
  0
POINT
  5
7D85
  8
DEFPOINTS
  6
BYBLOCK
 62
     0
 10
3495.3715750000001
 20
3839.5739100000001
 30
0.0
  0
POINT
  5
7D86
  8
DEFPOINTS
  6
BYBLOCK
 62
     0
 10
3495.3715750000001
 20
3494.381488
 30
0.0
  0
ENDBLK
  5
7D87
  8
0
  0
BLOCK
  8
0
  2
*D3
 70
     1
 10
0.0
 20
0.0
 30
0.0
  3
*D3
  1

  0
LINE
  5
7FA1
  8
3
  6
CONTINUOUS
 62
     0
 10
3560.3715750000001
 20
5277.5739100000001
 30
0.0
 11
3904.366505
 21
5277.5739100000001
 31
0.0
  0
LINE
  5
7FA2
  8
3
  6
CONTINUOUS
 62
     0
 10
3560.3715750000001
 20
4452.5739100000001
 30
0.0
 11
3904.366505
 21
4452.5739100000001
 31
0.0
  0
LINE
  5
7FA3
  8
3
  6
CONTINUOUS
 62
     0
 10
3864.366505
 20
5197.5739100000001
 30
0.0
 11
3864.366505
 21
4532.5739099999992
 31
0.0
  0
INSERT
  5
7FA4
  8
3
  6
CONTINUOUS
 62
     0
  2
_OPEN
 10
3864.366505
 20
5277.5739100000001
 30
0.0
 41
80.0
 42
80.0
 43
80.0
 50
90.0
  0
INSERT
  5
7FA5
  8
3
  6
CONTINUOUS
 62
     0
  2
_OPEN
 10
3864.366505
 20
4452.5739100000001
 30
0.0
 41
80.0
 42
80.0
 43
80.0
 50
270.0
  0
TEXT
  8
3
  40
120
  5
8000
  62
0
  72
0
  71
0
 10
3524.37
 20
4666.13
 30
0.000000
  1
825
  0
POINT
  5
7FA7
  8
DEFPOINTS
  6
CONTINUOUS
 62
     0
 10
3540.3715750000001
 20
5277.5739100000001
 30
0.0
  0
POINT
  5
7FA8
  8
DEFPOINTS
  6
CONTINUOUS
 62
     0
 10
3540.3715750000001
 20
4452.5739100000001
 30
0.0
  0
POINT
  5
7FA9
  8
DEFPOINTS
  6
CONTINUOUS
 62
     0
 10
3864.366505
 20
4452.5739100000001
 30
0.0
  0
ENDBLK
  5
7D2D
  8
0
  0
BLOCK
  8
0
  2
*D4
 70
     1
 10
0.0
 20
0.0
 30
0.0
  3
*D4
  1

  0
LINE
  5
7FAA
  8
3
  6
CONTINUOUS
 62
     0
 10
3560.3715750000001
 20
5277.5739100000001
 30
0.0
 11
4149.456272899215
 21
5277.5739100000001
 31
0.0
  0
LINE
  5
7FAB
  8
3
  6
CONTINUOUS
 62
     0
 10
3486.1637729999989
 20
4429.5739100000001
 30
0.0
 11
4149.456272899215
 21
4429.5739100000001
 31
0.0
  0
LINE
  5
7FAC
  8
3
  6
CONTINUOUS
 62
     0
 10
4109.456272899215
 20
5197.5739100000001
 30
0.0
 11
4109.456272899215
 21
4509.5739100000001
 31
0.0
  0
INSERT
  5
7FAD
  8
3
  6
CONTINUOUS
 62
     0
  2
_OPEN
 10
4109.456272899215
 20
5277.5739100000001
 30
0.0
 41
80.0
 42
80.0
 43
80.0
 50
90.0
  0
INSERT
  5
7FAE
  8
3
  6
CONTINUOUS
 62
     0
  2
_OPEN
 10
4109.456272899215
 20
4429.5739100000001
 30
0.0
 41
80.0
 42
80.0
 43
80.0
 50
270.0
  0
TEXT
  8
3
  40
120
  5
8001
  62
0
  72
0
  71
0
 10
3769.46
 20
4628.59
 30
0.000000
  1
848
  0
POINT
  5
7FB0
  8
DEFPOINTS
  6
CONTINUOUS
 62
     0
 10
3540.3715750000001
 20
5277.5739100000001
 30
0.0
  0
POINT
  5
7FB1
  8
DEFPOINTS
  6
CONTINUOUS
 62
     0
 10
3466.1637729999989
 20
4429.5739100000001
 30
0.0
  0
POINT
  5
7FB2
  8
DEFPOINTS
  6
CONTINUOUS
 62
     0
 10
4109.456272899215
 20
4429.5739100000001
 30
0.0
  0
ENDBLK
  5
7DC9
  8
0
  0
BLOCK
  8
0
  2
*D5
 70
     1
 10
0.0
 20
0.0
 30
0.0
  3
*D5
  1

  0
LINE
  5
7FB3
  8
3
  6
CONTINUOUS
 62
     0
 10
3486.1637729999989
 20
4429.5739100000001
 30
0.0
 11
4149.456272899215
 21
4429.5739100000001
 31
0.0
  0
LINE
  5
7FB4
  8
3
  6
CONTINUOUS
 62
     0
 10
3515.3715750000001
 20
3839.5739100000001
 30
0.0
 11
4149.456272899215
 21
3839.5739100000001
 31
0.0
  0
LINE
  5
7FB5
  8
3
  6
CONTINUOUS
 62
     0
 10
4109.456272899215
 20
4349.5739100000001
 30
0.0
 11
4109.456272899215
 21
3919.5739100000001
 31
0.0
  0
INSERT
  5
7FB6
  8
3
  6
CONTINUOUS
 62
     0
  2
_OPEN
 10
4109.456272899215
 20
4429.5739100000001
 30
0.0
 41
80.0
 42
80.0
 43
80.0
 50
90.0
  0
INSERT
  5
7FB7
  8
3
  6
CONTINUOUS
 62
     0
  2
_OPEN
 10
4109.456272899215
 20
3839.5739100000001
 30
0.0
 41
80.0
 42
80.0
 43
80.0
 50
270.0
  0
TEXT
  8
3
  40
120
  5
8002
  62
0
  72
0
  71
0
 10
3769.46
 20
3942.89
 30
0.000000
  1
590
  0
POINT
  5
7FB9
  8
DEFPOINTS
  6
CONTINUOUS
 62
     0
 10
3466.1637729999989
 20
4429.5739100000001
 30
0.0
  0
POINT
  5
7FBA
  8
DEFPOINTS
  6
CONTINUOUS
 62
     0
 10
3495.3715750000001
 20
3839.5739100000001
 30
0.0
  0
POINT
  5
7FBB
  8
DEFPOINTS
  6
CONTINUOUS
 62
     0
 10
4109.456272899215
 20
3839.5739100000001
 30
0.0
  0
ENDBLK
  5
7DD4
  8
0
  0
BLOCK
  8
0
  2
*D6
 70
     1
 10
0.0
 20
0.0
 30
0.0
  3
*D6
  1

  0
LINE
  5
7FBC
  8
3
  6
CONTINUOUS
 62
     0
 10
3560.3715750000001
 20
5320.0739100000001
 30
0.0
 11
4380.2396899853638
 21
5320.0739100000001
 31
0.0
  0
LINE
  5
7FBD
  8
3
  6
CONTINUOUS
 62
     0
 10
3515.3715750000001
 20
3839.5739100000001
 30
0.0
 11
4380.2396899853638
 21
3839.5739100000001
 31
0.0
  0
LINE
  5
7FBE
  8
3
  6
CONTINUOUS
 62
     0
 10
4340.2396899853638
 20
5240.0739100000001
 30
0.0
 11
4340.2396899853638
 21
3919.5739100000001
 31
0.0
  0
INSERT
  5
7FBF
  8
3
  6
CONTINUOUS
 62
     0
  2
_OPEN
 10
4340.2396899853638
 20
5320.0739100000001
 30
0.0
 41
80.0
 42
80.0
 43
80.0
 50
90.0
  0
INSERT
  5
7FC0
  8
3
  6
CONTINUOUS
 62
     0
  2
_OPEN
 10
4340.2396899853638
 20
3839.5739100000001
 30
0.0
 41
80.0
 42
80.0
 43
80.0
 50
270.0
  0
TEXT
  8
3
  40
120
  5
8003
  62
0
  72
0
  71
0
 10
4000.24
 20
4356.30
 30
0.000000
  1
1481
  0
POINT
  5
7FC2
  8
DEFPOINTS
  6
CONTINUOUS
 62
     0
 10
3540.3715750000001
 20
5320.0739100000001
 30
0.0
  0
POINT
  5
7FC3
  8
DEFPOINTS
  6
CONTINUOUS
 62
     0
 10
3495.3715750000001
 20
3839.5739100000001
 30
0.0
  0
POINT
  5
7FC4
  8
DEFPOINTS
  6
CONTINUOUS
 62
     0
 10
4340.2396899853638
 20
3839.5739100000001
 30
0.0
  0
ENDBLK
  5
7DBE
  8
0
  0
BLOCK
  8
0
  2
*D7
 70
     1
 10
0.0
 20
0.0
 30
0.0
  3
*D7
  1

  0
LINE
  5
7DE1
  8
0
  6
BYBLOCK
 62
     0
 10
2995.3715750000001
 20
5253.5739100000001
 30
0.0
 11
2995.3715750000001
 21
5478.2426229999992
 31
0.0
  0
LINE
  5
7DE2
  8
0
  6
BYBLOCK
 62
     0
 10
3540.3715750000001
 20
5340.0739100000001
 30
0.0
 11
3540.3715750000001
 21
5478.2426229999992
 31
0.0
  0
LINE
  5
7DE3
  8
0
  6
BYBLOCK
 62
     0
 10
3075.3715750000001
 20
5438.2426230000001
 30
0.0
 11
3460.3715749999992
 21
5438.2426230000001
 31
0.0
  0
TEXT
  5
7DE4
  8
3
 62
     0
 10
3123.3243650549548
 20
5477.5186252209332
 30
0.0
 40
120.0
  1
545
  0
INSERT
  5
7DE5
  8
0
  6
BYBLOCK
 62
     0
  2
_OPEN
 10
2995.3715750000001
 20
5438.2426230000001
 30
0.0
 41
80.0
 42
80.0
 43
80.0
 50
180.0
  0
INSERT
  5
7DE6
  8
0
  6
BYBLOCK
 62
     0
  2
_OPEN
 10
3540.3715750000001
 20
5438.2426230000001
 30
0.0
 41
80.0
 42
80.0
 43
80.0
  0
POINT
  5
7DE7
  8
DEFPOINTS
  6
BYBLOCK
 62
     0
 10
2995.3715750000001
 20
5233.5739100000001
 30
0.0
  0
POINT
  5
7DE8
  8
DEFPOINTS
  6
BYBLOCK
 62
     0
 10
3540.3715750000001
 20
5320.0739100000001
 30
0.0
  0
POINT
  5
7DE9
  8
DEFPOINTS
  6
BYBLOCK
 62
     0
 10
3540.3715750000001
 20
5438.2426230000001
 30
0.0
  0
ENDBLK
  5
7DEA
  8
0
  0
BLOCK
  8
0
  2
*D8
 70
     1
 10
0.0
 20
0.0
 30
0.0
  3
*D8
  1

  0
LINE
  5
7FC5
  8
3
  6
CONTINUOUS
 62
     0
 10
1795.3715749999999
 20
7494.8258030000006
 30
0.0
 11
1795.3715749999999
 21
7053.160248000001
 31
0.0
  0
LINE
  5
7FC6
  8
3
  6
CONTINUOUS
 62
     0
 10
3495.3715750000001
 20
7494.8258030000006
 30
0.0
 11
3495.3715750000001
 21
7053.160248000001
 31
0.0
  0
LINE
  5
7FC7
  8
3
  6
CONTINUOUS
 62
     0
 10
1875.371574999999
 20
7093.160248000001
 30
0.0
 11
3415.3715750000001
 21
7093.160248000001
 31
0.0
  0
INSERT
  5
7FC8
  8
3
  6
CONTINUOUS
 62
     0
  2
_OPEN
 10
1795.3715749999999
 20
7093.160248000001
 30
0.0
 41
80.0
 42
80.0
 43
80.0
 50
180.0
  0
INSERT
  5
7FC9
  8
3
  6
CONTINUOUS
 62
     0
  2
_OPEN
 10
3495.3715750000001
 20
7093.160248000001
 30
0.0
 41
80.0
 42
80.0
 43
80.0
  0
TEXT
  8
3
  40
120
  5
8004
  62
0
  72
0
  71
0
 10
2428.02
 20
6980.76
 30
0.000000
  1
1700
  0
POINT
  5
7FCB
  8
DEFPOINTS
  6
CONTINUOUS
 62
     0
 10
1795.3715749999999
 20
7514.8258029999988
 30
0.0
  0
POINT
  5
7FCC
  8
DEFPOINTS
  6
CONTINUOUS
 62
     0
 10
3495.3715750000001
 20
7514.8258029999988
 30
0.0
  0
POINT
  5
7FCD
  8
DEFPOINTS
  6
CONTINUOUS
 62
     0
 10
3495.3715750000001
 20
7093.160248000001
 30
0.0
  0
ENDBLK
  5
7CE9
  8
0
  0
BLOCK
  8
0
  2
*D9
 70
     1
 10
0.0
 20
0.0
 30
0.0
  3
*D9
  1

  0
LINE
  5
7FCE
  8
3
  6
CONTINUOUS
 62
     0
 10
3515.3715750000001
 20
8364.8258029999997
 30
0.0
 11
3972.5131360000009
 21
8364.8258029999997
 31
0.0
  0
LINE
  5
7FCF
  8
3
  6
CONTINUOUS
 62
     0
 10
3515.3715750000001
 20
7514.8258029999988
 30
0.0
 11
3972.5131360000009
 21
7514.8258029999988
 31
0.0
  0
LINE
  5
7FD0
  8
3
  6
CONTINUOUS
 62
     0
 10
3932.5131360000009
 20
8284.8258029999997
 30
0.0
 11
3932.5131360000009
 21
7594.8258029999997
 31
0.0
  0
INSERT
  5
7FD1
  8
3
  6
CONTINUOUS
 62
     0
  2
_OPEN
 10
3932.5131360000009
 20
8364.8258029999997
 30
0.0
 41
80.0
 42
80.0
 43
80.0
 50
90.0
  0
INSERT
  5
7FD2
  8
3
  6
CONTINUOUS
 62
     0
  2
_OPEN
 10
3932.5131360000009
 20
7514.8258029999988
 30
0.0
 41
80.0
 42
80.0
 43
80.0
 50
270.0
  0
TEXT
  8
3
  40
120
  5
8005
  62
0
  72
0
  71
0
 10
3592.51
 20
7727.89
 30
0.000000
  1
850
  0
POINT
  5
7FD4
  8
DEFPOINTS
  6
CONTINUOUS
 62
     0
 10
3495.3715750000001
 20
8364.8258029999997
 30
0.0
  0
POINT
  5
7FD5
  8
DEFPOINTS
  6
CONTINUOUS
 62
     0
 10
3495.3715750000001
 20
7514.8258029999988
 30
0.0
  0
POINT
  5
7FD6
  8
DEFPOINTS
  6
CONTINUOUS
 62
     0
 10
3932.5131360000009
 20
7514.8258029999988
 30
0.0
  0
ENDBLK
  5
7CDE
  8
0
  0
BLOCK
  8
0
  2
*D10
 70
     1
 10
0.0
 20
0.0
 30
0.0
  3
*D10
  1

  0
LINE
  5
7D89
  8
0
  6
BYBLOCK
 62
     0
 10
5813.9284539999999
 20
3819.5739100000001
 30
0.0
 11
5813.9284539999999
 21
3484.6556489999998
 31
0.0
  0
LINE
  5
7D8A
  8
0
  6
BYBLOCK
 62
     0
 10
6310.928453999999
 20
3769.3838390000001
 30
0.0
 11
6310.928453999999
 21
3484.6556489999998
 31
0.0
  0
LINE
  5
7D8B
  8
0
  6
BYBLOCK
 62
     0
 10
5893.9284539999999
 20
3524.6556489999998
 30
0.0
 11
6230.9284539999999
 21
3524.6556489999998
 31
0.0
  0
TEXT
  5
7D8C
  8
3
 62
     0
 10
5908.1427397142861
 20
3561.1102140238531
 30
0.0
 40
120.0
  1
497
  0
INSERT
  5
7D8D
  8
0
  6
BYBLOCK
 62
     0
  2
_OPEN
 10
5813.9284539999999
 20
3524.6556489999998
 30
0.0
 41
80.0
 42
80.0
 43
80.0
 50
180.0
  0
INSERT
  5
7D8E
  8
0
  6
BYBLOCK
 62
     0
  2
_OPEN
 10
6310.928453999999
 20
3524.6556489999998
 30
0.0
 41
80.0
 42
80.0
 43
80.0
  0
POINT
  5
7D8F
  8
DEFPOINTS
  6
BYBLOCK
 62
     0
 10
5813.9284539999999
 20
3839.5739100000001
 30
0.0
  0
POINT
  5
7D90
  8
DEFPOINTS
  6
BYBLOCK
 62
     0
 10
6310.928453999999
 20
3789.3838390000001
 30
0.0
  0
POINT
  5
7D91
  8
DEFPOINTS
  6
BYBLOCK
 62
     0
 10
6310.928453999999
 20
3524.6556489999998
 30
0.0
  0
ENDBLK
  5
7D92
  8
0
  0
BLOCK
  8
0
  2
*D11
 70
     1
 10
0.0
 20
0.0
 30
0.0
  3
*D11
  1

  0
LINE
  5
7D94
  8
0
  6
BYBLOCK
 62
     0
 10
6310.928453999999
 20
3769.3838390000001
 30
0.0
 11
6310.928453999999
 21
3484.6556489999998
 31
0.0
  0
LINE
  5
7D95
  8
0
  6
BYBLOCK
 62
     0
 10
6663.9284539999999
 20
3819.5739100000001
 30
0.0
 11
6663.9284539999999
 21
3484.6556489999998
 31
0.0
  0
LINE
  5
7D96
  8
0
  6
BYBLOCK
 62
     0
 10
6390.9284539999999
 20
3524.6556489999998
 30
0.0
 11
6583.928453999999
 21
3524.6556489999998
 31
0.0
  0
TEXT
  5
7D97
  8
3
 62
     0
 10
6332.1309050059308
 20
3568.3969420288608
 30
0.0
 40
120.0
  1
353
  0
INSERT
  5
7D98
  8
0
  6
BYBLOCK
 62
     0
  2
_OPEN
 10
6310.928453999999
 20
3524.6556489999998
 30
0.0
 41
80.0
 42
80.0
 43
80.0
 50
180.0
  0
INSERT
  5
7D99
  8
0
  6
BYBLOCK
 62
     0
  2
_OPEN
 10
6663.9284539999999
 20
3524.6556489999998
 30
0.0
 41
80.0
 42
80.0
 43
80.0
  0
POINT
  5
7D9A
  8
DEFPOINTS
  6
BYBLOCK
 62
     0
 10
6310.928453999999
 20
3789.3838390000001
 30
0.0
  0
POINT
  5
7D9B
  8
DEFPOINTS
  6
BYBLOCK
 62
     0
 10
6663.9284539999999
 20
3839.5739100000001
 30
0.0
  0
POINT
  5
7D9C
  8
DEFPOINTS
  6
BYBLOCK
 62
     0
 10
6663.9284539999999
 20
3524.6556489999998
 30
0.0
  0
ENDBLK
  5
7D9D
  8
0
  0
BLOCK
  8
0
  2
*D12
 70
     1
 10
0.0
 20
0.0
 30
0.0
  3
*D12
  1

  0
LINE
  5
7FD7
  8
3
  6
CONTINUOUS
 62
     0
 10
6010.9284539999999
 20
5297.5739100000001
 30
0.0
 11
6010.9284539999999
 21
5485.8258109999997
 31
0.0
  0
LINE
  5
7FD8
  8
3
  6
CONTINUOUS
 62
     0
 10
6610.9284539999999
 20
5297.5739100000001
 30
0.0
 11
6610.9284539999999
 21
5485.8258109999997
 31
0.0
  0
LINE
  5
7FD9
  8
3
  6
CONTINUOUS
 62
     0
 10
6090.9284539999999
 20
5445.8258109999988
 30
0.0
 11
6530.928453999999
 21
5445.8258109999988
 31
0.0
  0
INSERT
  5
7FDA
  8
3
  6
CONTINUOUS
 62
     0
  2
_OPEN
 10
6010.9284539999999
 20
5445.8258109999988
 30
0.0
 41
80.0
 42
80.0
 43
80.0
 50
180.0
  0
INSERT
  5
7FDB
  8
3
  6
CONTINUOUS
 62
     0
  2
_OPEN
 10
6610.9284539999999
 20
5445.8258109999988
 30
0.0
 41
80.0
 42
80.0
 43
80.0
  0
TEXT
  8
3
  40
120
  5
8006
  62
0
  72
0
  71
0
 10
6045.21
 20
5333.43
 30
0.000000
  1
600
  0
POINT
  5
7FDD
  8
DEFPOINTS
  6
CONTINUOUS
 62
     0
 10
6010.9284539999999
 20
5277.5739100000001
 30
0.0
  0
POINT
  5
7FDE
  8
DEFPOINTS
  6
CONTINUOUS
 62
     0
 10
6610.9284539999999
 20
5277.5739100000001
 30
0.0
  0
POINT
  5
7FDF
  8
DEFPOINTS
  6
CONTINUOUS
 62
     0
 10
6610.9284539999999
 20
5445.8258109999988
 30
0.0
  0
ENDBLK
  5
7CBA
  8
0
  0
BLOCK
  8
0
  2
*D13
 70
     1
 10
0.0
 20
0.0
 30
0.0
  3
*D13
  1

  0
LINE
  5
7E27
  8
0
  6
BYBLOCK
 62
     0
 10
5740.9284539999999
 20
4649.5739099999992
 30
0.0
 11
5740.9284539999999
 21
5773.2449749999996
 31
0.0
  0
LINE
  5
7E28
  8
0
  6
BYBLOCK
 62
     0
 10
6310.928453999999
 20
5638.4086132754828
 30
0.0
 11
6310.928453999999
 21
5773.2449749999996
 31
0.0
  0
LINE
  5
7E29
  8
0
  6
BYBLOCK
 62
     0
 10
5820.9284539999999
 20
5733.2449749999987
 30
0.0
 11
6230.9284539999999
 21
5733.2449749999987
 31
0.0
  0
INSERT
  5
7E2A
  8
3
  2
*U18
 10
0.0
 20
0.0
 30
0.0
  0
INSERT
  5
7E2B
  8
0
  6
BYBLOCK
 62
     0
  2
_OPEN
 10
5740.9284539999999
 20
5733.2449749999987
 30
0.0
 41
80.0
 42
80.0
 43
80.0
 50
180.0
  0
INSERT
  5
7E2C
  8
0
  6
BYBLOCK
 62
     0
  2
_OPEN
 10
6310.928453999999
 20
5733.2449749999987
 30
0.0
 41
80.0
 42
80.0
 43
80.0
  0
POINT
  5
7E2D
  8
DEFPOINTS
  6
BYBLOCK
 62
     0
 10
5740.9284539999999
 20
4629.5739100000001
 30
0.0
  0
POINT
  5
7E2E
  8
DEFPOINTS
  6
BYBLOCK
 62
     0
 10
6310.928453999999
 20
5618.4086132754837
 30
0.0
  0
POINT
  5
7E2F
  8
DEFPOINTS
  6
BYBLOCK
 62
     0
 10
6310.928453999999
 20
5733.2449749999987
 30
0.0
  0
ENDBLK
  5
7E30
  8
0
  0
BLOCK
  8
0
  2
*D14
 70
     1
 10
0.0
 20
0.0
 30
0.0
  3
*D14
  1

  0
LINE
  5
7DF9
  8
0
  6
BYBLOCK
 62
     0
 10
6310.928453999999
 20
5638.4086132754828
 30
0.0
 11
6310.928453999999
 21
5773.2449749999996
 31
0.0
  0
LINE
  5
7DFA
  8
0
  6
BYBLOCK
 62
     0
 10
6693.9284539999999
 20
4889.5739100000001
 30
0.0
 11
6693.9284539999999
 21
5773.2449749999996
 31
0.0
  0
LINE
  5
7DFB
  8
0
  6
BYBLOCK
 62
     0
 10
6390.9284539999999
 20
5733.2449749999987
 30
0.0
 11
6613.9284539999999
 21
5733.2449749999987
 31
0.0
  0
TEXT
  5
7DFC
  8
3
 62
     0
 10
6332.1309050059308
 20
5768.9875789812486
 30
0.0
 40
120.0
  1
383
  0
INSERT
  5
7DFD
  8
0
  6
BYBLOCK
 62
     0
  2
_OPEN
 10
6310.928453999999
 20
5733.2449749999987
 30
0.0
 41
80.0
 42
80.0
 43
80.0
 50
180.0
  0
INSERT
  5
7DFE
  8
0
  6
BYBLOCK
 62
     0
  2
_OPEN
 10
6693.9284539999999
 20
5733.2449749999987
 30
0.0
 41
80.0
 42
80.0
 43
80.0
  0
POINT
  5
7DFF
  8
DEFPOINTS
  6
BYBLOCK
 62
     0
 10
6310.928453999999
 20
5618.4086132754837
 30
0.0
  0
POINT
  5
7E00
  8
DEFPOINTS
  6
BYBLOCK
 62
     0
 10
6693.9284539999999
 20
4869.5739100000001
 30
0.0
  0
POINT
  5
7E01
  8
DEFPOINTS
  6
BYBLOCK
 62
     0
 10
6693.9284539999999
 20
5733.2449749999987
 30
0.0
  0
ENDBLK
  5
7E02
  8
0
  0
BLOCK
  8
0
  2
*D15
 70
     1
 10
0.0
 20
0.0
 30
0.0
  3
*D15
  1

  0
LINE
  5
7FE0
  8
3
  6
CONTINUOUS
 62
     0
 10
6713.9284540000008
 20
4829.5739100000001
 30
0.0
 11
7047.1392880000012
 21
4829.5739100000001
 31
0.0
  0
LINE
  5
7FE1
  8
3
  6
CONTINUOUS
 62
     0
 10
6713.9284540000008
 20
4029.5739099999992
 30
0.0
 11
7047.1392880000012
 21
4029.5739099999992
 31
0.0
  0
LINE
  5
7FE2
  8
3
  6
CONTINUOUS
 62
     0
 10
7007.1392880000012
 20
4749.5739100000001
 30
0.0
 11
7007.1392880000012
 21
4109.5739099999992
 31
0.0
  0
INSERT
  5
7FE3
  8
3
  6
CONTINUOUS
 62
     0
  2
_OPEN
 10
7007.1392880000012
 20
4829.5739100000001
 30
0.0
 41
80.0
 42
80.0
 43
80.0
 50
90.0
  0
INSERT
  5
7FE4
  8
3
  6
CONTINUOUS
 62
     0
  2
_OPEN
 10
7007.1392880000012
 20
4029.5739099999992
 30
0.0
 41
80.0
 42
80.0
 43
80.0
 50
270.0
  0
TEXT
  8
3
  40
120
  5
8007
  62
0
  72
0
  71
0
 10
6667.14
 20
4270.89
 30
0.000000
  1
φ800
  0
POINT
  5
7FE6
  8
DEFPOINTS
  6
CONTINUOUS
 62
     0
 10
6693.9284539999999
 20
4829.5739100000001
 30
0.0
  0
POINT
  5
7FE7
  8
DEFPOINTS
  6
CONTINUOUS
 62
     0
 10
6693.9284539999999
 20
4029.5739099999992
 30
0.0
  0
POINT
  5
7FE8
  8
DEFPOINTS
  6
CONTINUOUS
 62
     0
 10
7007.1392880000012
 20
4029.5739099999992
 30
0.0
  0
ENDBLK
  5
7DDF
  8
0
  0
BLOCK
  8
0
  2
*D16
 70
     1
 10
0.0
 20
0.0
 30
0.0
  3
*D16
  1

  0
LINE
  5
7FE9
  8
3
 62
     0
 10
3540.3715750000001
 20
5340.0739100000001
 30
0.0
 11
3540.3715750000001
 21
5686.819471322714
 31
0.0
  0
LINE
  5
7FEA
  8
3
 62
     0
 10
1795.3715749999999
 20
3959.5739100000001
 30
0.0
 11
1795.3715749999999
 21
5686.819471322714
 31
0.0
  0
LINE
  5
7FEB
  8
3
 62
     0
 10
3460.3715749999992
 20
5646.819471322714
 30
0.0
 11
1875.371574999999
 21
5646.819471322714
 31
0.0
  0
INSERT
  5
7FEC
  8
3
 62
     0
  2
_OPEN
 10
3540.3715750000001
 20
5646.819471322714
 30
0.0
 41
80.0
 42
80.0
 43
80.0
  0
INSERT
  5
7FED
  8
3
 62
     0
  2
_OPEN
 10
1795.3715749999999
 20
5646.819471322714
 30
0.0
 41
80.0
 42
80.0
 43
80.0
 50
180.0
  0
TEXT
  8
3
  40
120
  5
8008
  62
0
  72
0
  71
0
 10
2461.48
 20
5534.42
 30
0.000000
  1
1745
  0
POINT
  5
7FEF
  8
DEFPOINTS
 62
     0
 10
3540.3715750000001
 20
5320.0739100000001
 30
0.0
  0
POINT
  5
7FF0
  8
DEFPOINTS
 62
     0
 10
1795.3715749999999
 20
3939.5739100000001
 30
0.0
  0
POINT
  5
7FF1
  8
DEFPOINTS
 62
     0
 10
1795.3715749999999
 20
5646.819471322714
 30
0.0
  0
ENDBLK
  5
7DF6
  8
0
  0
BLOCK
  8
0
  2
*D17
 70
     1
 10
0.0
 20
0.0
 30
0.0
  3
*D17
  1

  0
LINE
  5
7FF7
  8
3
 62
     0
 10
2309.3715750000001
 20
4449.5739100000001
 30
0.0
 11
2309.3715750000001
 21
5478.2426229999992
 31
0.0
  0
LINE
  5
7FF8
  8
3
 62
     0
 10
2915.3715750000001
 20
5438.2426230000001
 30
0.0
 11
2389.3715750000001
 21
5438.2426230000001
 31
0.0
  0
INSERT
  5
7FF9
  8
3
 62
     0
  2
_OPEN
 10
2995.3715750000001
 20
5438.2426230000001
 30
0.0
 41
80.0
 42
80.0
 43
80.0
  0
INSERT
  5
7FFA
  8
3
 62
     0
  2
_OPEN
 10
2309.3715750000001
 20
5438.2426230000001
 30
0.0
 41
80.0
 42
80.0
 43
80.0
 50
180.0
  0
TEXT
  8
3
  40
120
  5
8009
  62
0
  72
0
  71
0
 10
2412.37
 20
5325.84
 30
0.000000
  1
686
  0
POINT
  5
7FFC
  8
DEFPOINTS
 62
     0
 10
2995.3715750000001
 20
5233.5739100000001
 30
0.0
  0
POINT
  5
7FFD
  8
DEFPOINTS
 62
     0
 10
2309.3715750000001
 20
4429.5739100000001
 30
0.0
  0
POINT
  5
7FFE
  8
DEFPOINTS
 62
     0
 10
2309.3715750000001
 20
5438.2426230000001
 30
0.0
  0
ENDBLK
  5
7E3C
  8
0
  0
BLOCK
  8
0
  2
*U18
 70
     1
 10
0.0
 20
0.0
 30
0.0
  3
*U18
  1

  0
TEXT
  5
7FF3
  8
3
 62
     0
 10
5854.4998825714283
 20
5990.4215367084234
 30
0.0
 40
120.0
  1
MAX
  0
TEXT
  5
7FF4
  8
3
 62
     0
 10
5871.6427397142852
 20
5790.4215367084234
 30
0.0
 40
120.0
  1
660
  0
ENDBLK
  5
7FF6
  8
0
  0
ENDSEC
  0
SECTION
  2
ENTITIES
  0
LINE
  5
7A66
  8
1
  6
CONTINUOUS
 10
3464.2715750000002
 20
4452.5739100000001
 30
0.0
 11
3540.3715750000001
 21
4452.5739100000001
 31
0.0
  0
LINE
  5
7A67
  8
1
  6
CONTINUOUS
 10
3540.3715750000001
 20
4410.0739100000001
 30
0.0
 11
3540.3715750000001
 21
5320.0739100000001
 31
0.0
  0
POLYLINE
  5
7A68
  8
1
  6
CONTINUOUS
 66
     1
 10
0.0
 20
0.0
 30
0.0
  0
VERTEX
  5
7F91
  8
1
  6
CONTINUOUS
 10
3540.3715750000001
 20
5277.5739100000001
 30
0.0
  0
VERTEX
  5
7F92
  8
1
  6
CONTINUOUS
 10
2995.3715750000001
 20
5233.5739100000001
 30
0.0
 42
0.4
  0
VERTEX
  5
7F93
  8
1
  6
CONTINUOUS
 10
2307.0715749999999
 20
4488.5739100000001
 30
0.0
 42
0.4
  0
VERTEX
  5
7F94
  8
1
  6
CONTINUOUS
 10
3003.971575
 20
3862.8739099999998
 30
0.0
 42
0.4
  0
VERTEX
  5
7F95
  8
1
  6
CONTINUOUS
 10
3470.0715749999999
 20
4382.0739100000001
 30
0.0
  0
VERTEX
  5
7F96
  8
1
  6
CONTINUOUS
 10
3464.2715750000002
 20
4452.5739100000001
 30
0.0
 42
0.4
  0
SEQEND
  5
7F97
  8
1
  6
CONTINUOUS
  0
LINE
  5
7A70
  8
1
  6
CONTINUOUS
 10
3495.3715750000001
 20
3839.5739100000001
 30
0.0
 11
1795.3715749999999
 21
3839.5739100000001
 31
0.0
  0
LINE
  5
7A71
  8
1
  6
CONTINUOUS
 10
3495.3715750000001
 20
3939.5739100000001
 30
0.0
 11
3495.3715750000001
 21
3839.5739100000001
 31
0.0
  0
LINE
  5
7A72
  8
1
  6
CONTINUOUS
 10
1795.3715749999999
 20
3939.5739100000001
 30
0.0
 11
1795.3715749999999
 21
3839.5739100000001
 31
0.0
  0
LINE
  5
7A73
  8
1
  6
CONTINUOUS
 10
3495.3715750000001
 20
3939.5739100000001
 30
0.0
 11
1795.3715749999999
 21
3939.5739100000001
 31
0.0
  0
LINE
  5
7A74
  8
1
  6
CONTINUOUS
 10
3500.3715750000001
 20
4452.5739100000001
 30
0.0
 11
3500.3715750000001
 21
5277.5739100000001
 31
0.0
  0
CIRCLE
  5
7A75
  8
1
  6
CONTINUOUS
 10
2995.3715750000001
 20
4429.5739100000001
 30
0.0
 40
400.0
  0
CIRCLE
  5
7A76
  8
1
  6
CONTINUOUS
 10
2995.3715750000001
 20
4429.5739100000001
 30
0.0
 40
440.0
  0
CIRCLE
  5
7A77
  8
1
  6
CONTINUOUS
 10
2995.3715750000001
 20
4429.5739100000001
 30
0.0
 40
100.0
  0
ARC
  5
7A78
  8
1
  6
CONTINUOUS
 10
2042.871574999999
 20
4149.5739099999992
 30
0.0
 40
162.0
 50
325.0
 51
214.99999999999989
  0
LINE
  5
7A79
  8
1
  6
CONTINUOUS
 10
1888.871574999999
 20
3989.5739100000001
 30
0.0
 11
1888.871574999999
 21
4007.5739100000001
 31
0.0
  0
LINE
  5
7A7A
  8
1
  6
CONTINUOUS
 10
1888.871574999999
 20
4007.5739100000001
 30
0.0
 11
1910.1715750000001
 21
4056.5739100000001
 31
0.0
  0
LINE
  5
7A7B
  8
1
  6
CONTINUOUS
 10
2196.8715750000001
 20
4007.5739100000001
 30
0.0
 11
2175.5715749999999
 21
4056.5739100000001
 31
0.0
  0
LINE
  5
7A7C
  8
1
  6
CONTINUOUS
 10
2196.8715750000001
 20
3989.5739100000001
 30
0.0
 11
2196.8715750000001
 21
4007.5739100000001
 31
0.0
  0
LINE
  5
7A7D
  8
1
  6
CONTINUOUS
 10
1880.8715749999999
 20
8138.5258030000005
 30
0.0
 11
2204.8715750000001
 21
8138.5258030000005
 31
0.0
  0
LINE
  5
7A7E
  8
1
  6
CONTINUOUS
 10
2063.8715750000001
 20
7554.8258029999988
 30
0.0
 11
2063.8715750000001
 21
7653.5258030000005
 31
0.0
  0
LINE
  5
7A7F
  8
1
  6
CONTINUOUS
 10
2021.8715749999999
 20
7554.8258029999988
 30
0.0
 11
2021.8715749999999
 21
7653.5258030000005
 31
0.0
  0
LINE
  5
7A80
  8
1
  6
CONTINUOUS
 10
1880.8715749999999
 20
7653.5258030000005
 30
0.0
 11
2204.8715750000001
 21
7653.5258030000005
 31
0.0
  0
LINE
  5
7A81
  8
1
  6
CONTINUOUS
 10
2204.8715750000001
 20
7653.5258030000005
 30
0.0
 11
2204.8715750000001
 21
8138.5258030000005
 31
0.0
  0
LINE
  5
7A82
  8
1
  6
CONTINUOUS
 10
1880.8715749999999
 20
7653.5258030000005
 30
0.0
 11
1880.8715749999999
 21
8138.5258030000005
 31
0.0
  0
CIRCLE
  5
7A83
  8
1
  6
CONTINUOUS
 10
2042.871574999999
 20
4149.5739099999992
 30
0.0
 40
80.0
  0
LINE
  5
7A84
  8
2
  6
CENTER
 10
2042.871574999999
 20
4069.5739100000001
 30
0.0
 11
2042.871574999999
 21
4229.5739100000001
 31
0.0
  0
LINE
  5
7A85
  8
2
  6
CENTER
 10
1962.871574999999
 20
4149.5739099999992
 30
0.0
 11
2122.8715750000001
 21
4149.5739099999992
 31
0.0
  0
LINE
  5
7A86
  8
2
  6
CENTER
 10
2995.3715750000001
 20
3720.3228649999992
 30
0.0
 11
2995.3715750000001
 21
5321.005932
 31
0.0
  0
LINE
  5
7A87
  8
2
  6
CENTER
 10
2213.9061259999999
 20
4429.5739100000001
 30
0.0
 11
3634.1760589999999
 21
4429.5739100000001
 31
0.0
  0
ARC
  5
7A88
  8
1
  6
CONTINUOUS
 10
2042.871574999999
 20
4149.5739099999992
 30
0.0
 40
180.0
 50
107.4999999999999
 51
285.19999999999987
  0
ARC
  5
7A89
  8
1
  6
CONTINUOUS
 10
2995.3715750000001
 20
4429.5739100000001
 30
0.0
 40
200.0
 50
285.19999999999987
 51
107.4999999999999
  0
LINE
  5
7A8A
  8
1
  6
CONTINUOUS
 10
1795.3715749999999
 20
8364.8258029999997
 30
0.0
 11
1795.3715749999999
 21
7514.8258029999988
 31
0.0
  0
LINE
  5
7A8B
  8
1
  6
CONTINUOUS
 10
3495.3715750000001
 20
8364.8258029999997
 30
0.0
 11
3495.3715750000001
 21
8311.8258029999997
 31
0.0
  0
LINE
  5
7A8C
  8
1
  6
CONTINUOUS
 10
3495.3715750000001
 20
7514.8258029999988
 30
0.0
 11
3095.3715750000001
 21
7514.8258029999988
 31
0.0
  0
LINE
  5
7A8D
  8
1
  6
CONTINUOUS
 10
3495.3715750000001
 20
8364.8258029999997
 30
0.0
 11
3395.3715750000001
 21
8364.8258029999997
 31
0.0
  0
LINE
  5
7A8E
  8
1
  6
CONTINUOUS
 10
2307.0715749999999
 20
7711.8258029999988
 30
0.0
 11
2307.0715749999999
 21
8311.8258029999997
 31
0.0
  0
LINE
  5
7A8F
  8
1
  6
CONTINUOUS
 10
3540.3715750000001
 20
8311.8258029999997
 30
0.0
 11
2307.0715749999999
 21
8311.8258029999997
 31
0.0
  0
LINE
  5
7A90
  8
1
  6
CONTINUOUS
 10
3540.3715750000001
 20
7711.8258029999988
 30
0.0
 11
2307.0715749999999
 21
7711.8258029999988
 31
0.0
  0
LINE
  5
7A91
  8
1
  6
CONTINUOUS
 10
3500.3715750000001
 20
7711.8258029999988
 30
0.0
 11
3500.3715750000001
 21
8311.8258029999997
 31
0.0
  0
LINE
  5
7A92
  8
1
  6
CONTINUOUS
 10
3540.3715750000001
 20
7671.8258029999997
 30
0.0
 11
3540.3715750000001
 21
8351.8258029999997
 31
0.0
  0
LINE
  5
7A93
  8
1
  6
CONTINUOUS
 10
3435.3715750000001
 20
8394.8258030000015
 30
0.0
 11
2555.3715750000001
 21
8394.8258030000015
 31
0.0
  0
LINE
  5
7A94
  8
1
  6
CONTINUOUS
 10
2595.3715750000001
 20
8311.8258029999997
 30
0.0
 11
2595.3715750000001
 21
8394.8258030000015
 31
0.0
  0
LINE
  5
7A95
  8
1
  6
CONTINUOUS
 10
3395.3715750000001
 20
8311.8258029999997
 30
0.0
 11
3395.3715750000001
 21
8394.8258030000015
 31
0.0
  0
LINE
  5
7A96
  8
1
  6
CONTINUOUS
 10
2240.3715750000001
 20
3939.5739100000001
 30
0.0
 11
2230.3715750000001
 21
3989.5739100000001
 31
0.0
  0
LINE
  5
7A97
  8
1
  6
CONTINUOUS
 10
2230.3715750000001
 20
3989.5739100000001
 30
0.0
 11
1855.371574999999
 21
3989.5739100000001
 31
0.0
  0
LINE
  5
7A98
  8
1
  6
CONTINUOUS
 10
1855.371574999999
 20
3989.5739100000001
 30
0.0
 11
1845.3715749999999
 21
3939.5739100000001
 31
0.0
  0
LINE
  5
7A99
  8
1
  6
CONTINUOUS
 10
3195.3715750000001
 20
7441.8258029999997
 30
0.0
 11
1862.871574999999
 21
7441.8258029999997
 31
0.0
  0
LINE
  5
7A9A
  8
1
  6
CONTINUOUS
 10
3195.3715750000001
 20
7601.8258029999997
 30
0.0
 11
1862.871574999999
 21
7601.8258029999997
 31
0.0
  0
LINE
  5
7A9B
  8
1
  6
CONTINUOUS
 10
3195.3715750000001
 20
7441.8258029999997
 30
0.0
 11
3195.3715750000001
 21
7601.8258029999997
 31
0.0
  0
LINE
  5
7A9C
  8
1
  6
CONTINUOUS
 10
1862.871574999999
 20
7441.8258029999997
 30
0.0
 11
1862.871574999999
 21
7601.8258029999997
 31
0.0
  0
LINE
  5
7A9D
  8
1
  6
CONTINUOUS
 10
1962.871574999999
 20
7474.8258029999997
 30
0.0
 11
1962.871574999999
 21
7554.8258029999988
 31
0.0
  0
LINE
  5
7A9E
  8
1
  6
CONTINUOUS
 10
2122.8715750000001
 20
7474.8258029999997
 30
0.0
 11
2122.8715750000001
 21
7554.8258029999988
 31
0.0
  0
LINE
  5
7A9F
  8
1
  6
CONTINUOUS
 10
2895.3715750000001
 20
7474.8258029999997
 30
0.0
 11
2895.3715750000001
 21
7554.8258029999988
 31
0.0
  0
LINE
  5
7AA0
  8
1
  6
CONTINUOUS
 10
3095.3715750000001
 20
7474.8258029999997
 30
0.0
 11
3095.3715750000001
 21
7554.8258029999988
 31
0.0
  0
LINE
  5
7AA1
  8
1
  6
CONTINUOUS
 10
3095.3715750000001
 20
7554.8258029999988
 30
0.0
 11
2895.3715750000001
 21
7554.8258029999988
 31
0.0
  0
LINE
  5
7AA2
  8
1
  6
CONTINUOUS
 10
3095.3715750000001
 20
7474.8258029999997
 30
0.0
 11
2895.3715750000001
 21
7474.8258029999997
 31
0.0
  0
LINE
  5
7AA3
  8
1
  6
CONTINUOUS
 10
2122.8715750000001
 20
7474.8258029999997
 30
0.0
 11
1962.871574999999
 21
7474.8258029999997
 31
0.0
  0
LINE
  5
7AA4
  8
1
  6
CONTINUOUS
 10
2122.8715750000001
 20
7554.8258029999988
 30
0.0
 11
1962.871574999999
 21
7554.8258029999988
 31
0.0
  0
LINE
  5
7AA5
  8
1
  6
CONTINUOUS
 10
2974.3715750000001
 20
7554.8258029999988
 30
0.0
 11
2974.3715750000001
 21
7711.8258029999988
 31
0.0
  0
LINE
  5
7AA6
  8
1
  6
CONTINUOUS
 10
3016.3715750000001
 20
7554.8258029999988
 30
0.0
 11
3016.3715750000001
 21
7711.8258029999988
 31
0.0
  0
LINE
  5
7AA7
  8
1
  6
CONTINUOUS
 10
6663.9284539999999
 20
3839.5739100000001
 30
0.0
 11
5813.9284539999999
 21
3839.5739100000001
 31
0.0
  0
LINE
  5
7AA8
  8
1
  6
CONTINUOUS
 10
6663.9284539999999
 20
3939.5739100000001
 30
0.0
 11
5813.9284539999999
 21
3939.5739100000001
 31
0.0
  0
LINE
  5
7AA9
  8
1
  6
CONTINUOUS
 10
6663.9284539999999
 20
3939.5739100000001
 30
0.0
 11
6663.9284539999999
 21
3839.5739100000001
 31
0.0
  0
LINE
  5
7AAA
  8
1
  6
CONTINUOUS
 10
5813.9284539999999
 20
3939.5739100000001
 30
0.0
 11
5813.9284539999999
 21
3839.5739100000001
 31
0.0
  0
LINE
  5
7AAB
  8
1
  6
CONTINUOUS
 10
6010.9284539999999
 20
5277.5739100000001
 30
0.0
 11
6010.9284539999999
 21
3939.5739100000001
 31
0.0
  0
LINE
  5
7AAC
  8
1
  6
CONTINUOUS
 10
6610.9284539999999
 20
5277.5739100000001
 30
0.0
 11
6610.9284539999999
 21
3939.5739100000001
 31
0.0
  0
LINE
  5
7AAD
  8
1
  6
CONTINUOUS
 10
6610.9284539999999
 20
4829.5739100000001
 30
0.0
 11
6693.9284539999999
 21
4829.5739100000001
 31
0.0
  0
LINE
  5
7AAE
  8
1
  6
CONTINUOUS
 10
6610.9284539999999
 20
4029.5739099999992
 30
0.0
 11
6693.9284539999999
 21
4029.5739099999992
 31
0.0
  0
LINE
  5
7AAF
  8
1
  6
CONTINUOUS
 10
6010.9284539999999
 20
5277.5739100000001
 30
0.0
 11
6610.9284539999999
 21
5277.5739100000001
 31
0.0
  0
LINE
  5
7AB0
  8
1
  6
CONTINUOUS
 10
6010.9284539999999
 20
4452.5739100000001
 30
0.0
 11
6610.9284539999999
 21
4452.5739100000001
 31
0.0
  0
LINE
  5
7AB1
  8
1
  6
CONTINUOUS
 10
6693.9284539999999
 20
4869.5739100000001
 30
0.0
 11
6693.9284539999999
 21
3989.5739100000001
 31
0.0
  0
LINE
  5
7AB2
  8
1
  6
CONTINUOUS
 10
6010.9284539999999
 20
5277.5739100000001
 30
0.0
 11
6610.9284539999999
 21
4452.5739100000001
 31
0.0
  0
LINE
  5
7AB3
  8
1
  6
CONTINUOUS
 10
6010.9284539999999
 20
4452.5739100000001
 30
0.0
 11
6610.9284539999999
 21
5277.5739100000001
 31
0.0
  0
LINE
  5
7AB4
  8
1
  6
CONTINUOUS
 10
5740.9284539999999
 20
4629.5739100000001
 30
0.0
 11
5740.9284539999999
 21
3969.5739100000001
 31
0.0
  0
LINE
  5
7AB5
  8
1
  6
CONTINUOUS
 10
5740.9284539999999
 20
4629.5739100000001
 30
0.0
 11
5900.9284539999999
 21
4629.5739100000001
 31
0.0
  0
LINE
  5
7AB6
  8
1
  6
CONTINUOUS
 10
5900.9284539999999
 20
4629.5739100000001
 30
0.0
 11
5900.9284539999999
 21
3969.5739100000001
 31
0.0
  0
LINE
  5
7AB7
  8
1
  6
CONTINUOUS
 10
5780.9284539999999
 20
4529.5739099999992
 30
0.0
 11
5860.928453999999
 21
4529.5739099999992
 31
0.0
  0
LINE
  5
7AB8
  8
1
  6
CONTINUOUS
 10
5780.9284539999999
 20
4329.5739099999992
 30
0.0
 11
5860.928453999999
 21
4329.5739099999992
 31
0.0
  0
LINE
  5
7AB9
  8
1
  6
CONTINUOUS
 10
5740.9284539999999
 20
3969.5739100000001
 30
0.0
 11
5900.9284539999999
 21
3969.5739100000001
 31
0.0
  0
LINE
  5
7ABA
  8
1
  6
CONTINUOUS
 10
5780.9284539999999
 20
4069.5739100000001
 30
0.0
 11
5860.928453999999
 21
4069.5739100000001
 31
0.0
  0
LINE
  5
7ABB
  8
1
  6
CONTINUOUS
 10
5780.9284539999999
 20
4229.5739100000001
 30
0.0
 11
5860.928453999999
 21
4229.5739100000001
 31
0.0
  0
LINE
  5
7ABC
  8
1
  6
CONTINUOUS
 10
5860.928453999999
 20
4529.5739099999992
 30
0.0
 11
5860.928453999999
 21
4329.5739099999992
 31
0.0
  0
LINE
  5
7ABD
  8
1
  6
CONTINUOUS
 10
5780.9284539999999
 20
4529.5739099999992
 30
0.0
 11
5780.9284539999999
 21
4329.5739099999992
 31
0.0
  0
LINE
  5
7ABE
  8
1
  6
CONTINUOUS
 10
5780.9284539999999
 20
4229.5739100000001
 30
0.0
 11
5780.9284539999999
 21
4069.5739100000001
 31
0.0
  0
LINE
  5
7ABF
  8
1
  6
CONTINUOUS
 10
5860.928453999999
 20
4229.5739100000001
 30
0.0
 11
5860.928453999999
 21
4069.5739100000001
 31
0.0
  0
LINE
  5
7AC0
  8
1
  6
CONTINUOUS
 10
5860.928453999999
 20
4450.5739100000001
 30
0.0
 11
6010.9284539999999
 21
4450.5739100000001
 31
0.0
  0
LINE
  5
7AC1
  8
1
  6
CONTINUOUS
 10
5860.928453999999
 20
4408.5739100000001
 30
0.0
 11
6010.9284539999999
 21
4408.5739100000001
 31
0.0
  0
LINE
  5
7AC2
  8
1
  6
CONTINUOUS
 10
5860.928453999999
 20
4128.5739100000001
 30
0.0
 11
6010.9284539999999
 21
4128.5739100000001
 31
0.0
  0
LINE
  5
7AC3
  8
1
  6
CONTINUOUS
 10
5860.928453999999
 20
4170.5739100000001
 30
0.0
 11
6010.9284539999999
 21
4170.5739100000001
 31
0.0
  0
LINE
  5
7AC4
  8
1
  6
CONTINUOUS
 10
2018.771575
 20
4225.8739100000003
 30
0.0
 11
2965.2715750000002
 21
4524.9739099999988
 31
0.0
  0
LINE
  5
7AC5
  8
1
  6
CONTINUOUS
 10
1988.6715750000001
 20
4321.1739100000004
 30
0.0
 11
2935.0715749999999
 21
4620.2739099999999
 31
0.0
  0
LINE
  5
7AC6
  8
1
  6
CONTINUOUS
 10
2063.8715750000001
 20
4072.3739099999998
 30
0.0
 11
3021.6715749999998
 21
4333.0739100000001
 31
0.0
  0
LINE
  5
7AC7
  8
1
  6
CONTINUOUS
 10
2090.1715749999989
 20
3975.8739099999998
 30
0.0
 11
3047.8715750000001
 21
4236.5739099999992
 31
0.0
  0
LINE
  5
7AC8
  8
1
  6
CONTINUOUS
 10
1962.871574999999
 20
7514.8258029999988
 30
0.0
 11
1795.3715749999999
 21
7514.8258029999988
 31
0.0
  0
LINE
  5
7AC9
  8
1
  6
CONTINUOUS
 10
2895.3715750000001
 20
7514.8258029999988
 30
0.0
 11
2122.8715750000001
 21
7514.8258029999988
 31
0.0
  0
LINE
  5
7ACA
  8
1
  6
CONTINUOUS
 10
3495.3715750000001
 20
7711.8258029999988
 30
0.0
 11
3495.3715750000001
 21
7514.8258029999988
 31
0.0
  0
LINE
  5
7ACB
  8
1
  6
CONTINUOUS
 10
2595.3715750000001
 20
8364.8258029999997
 30
0.0
 11
1795.3715749999999
 21
8364.8258029999997
 31
0.0
  0
DIMENSION
  5
7ADF
  8
3
  6
CONTINUOUS
  2
*D1
 10
2995.3715750000001
 20
3494.381488
 30
0.0
 11
2439.3487230000001
 21
3494.381488
 31
0.0
 70
   128
 13
1795.3715749999999
 23
3839.5739100000001
 33
0.0
 14
2995.3715750000001
 24
3720.3228649999992
 34
0.0
1001
ACAD
1000
DSTYLE
1002
{
1070
   287
1070
     3
1070
   287
1070
     3
1070
    40
1040
40.0
1070
   143
1040
0.039
1070
   172
1070
     1
1070
   271
1070
     0
1070
   279
1070
     0
1070
   288
1070
     1
1002
}
  0
DIMENSION
  5
7AED
  8
3
  6
CONTINUOUS
  2
*D2
 10
3495.3715750000001
 20
3494.381488
 30
0.0
 11
3245.3715750000001
 21
3584.6765924921428
 31
0.0
 70
   128
 13
2995.3715750000001
 23
3720.3228649999992
 33
0.0
 14
3495.3715750000001
 24
3839.5739100000001
 34
0.0
1001
ACAD
1000
DSTYLE
1002
{
1070
   288
1070
     1
1070
   172
1070
     1
1070
    40
1040
40.0
1070
   271
1070
     0
1070
   143
1040
0.039
1002
}
  0
DIMENSION
  5
7AFA
  8
3
  6
CONTINUOUS
  2
*D3
 10
3864.366505
 20
4452.5739100000001
 30
0.0
 11
3864.3665049999991
 21
4878.5316520000006
 31
0.0
 70
   128
 13
3540.3715750000001
 23
5277.5739100000001
 33
0.0
 14
3540.3715750000001
 24
4452.5739100000001
 34
0.0
 50
90.0
1001
ACAD
1000
DSTYLE
1002
{
1070
   287
1070
     3
1070
   287
1070
     3
1070
    40
1040
40.0
1070
   143
1040
0.039
1070
   172
1070
     1
1070
   271
1070
     0
1070
   279
1070
     0
1070
   288
1070
     1
1002
}
  0
DIMENSION
  5
7B1D
  8
3
  6
CONTINUOUS
  2
*D4
 10
4109.456272899215
 20
4429.5739100000001
 30
0.0
 11
4109.456272899215
 21
4840.9902719949869
 31
0.0
 70
   128
 13
3540.3715750000001
 23
5277.5739100000001
 33
0.0
 14
3466.1637729999989
 24
4429.5739100000001
 34
0.0
 50
90.0
1001
ACAD
1000
DSTYLE
1002
{
1070
   287
1070
     3
1070
   287
1070
     3
1070
    40
1040
40.0
1070
   143
1040
0.039
1070
   172
1070
     1
1070
   271
1070
     0
1070
   279
1070
     0
1070
   288
1070
     1
1002
}
  0
DIMENSION
  5
7B2B
  8
3
  6
CONTINUOUS
  2
*D5
 10
4109.456272899215
 20
3839.5739100000001
 30
0.0
 11
4109.456272899215
 21
4155.2881957142854
 31
0.0
 70
   128
 13
3466.1637729999989
 23
4429.5739100000001
 33
0.0
 14
3495.3715750000001
 24
3839.5739100000001
 34
0.0
 50
90.0
1001
ACAD
1000
DSTYLE
1002
{
1070
   287
1070
     3
1070
   287
1070
     3
1070
    40
1040
40.0
1070
   143
1040
0.039
1070
   172
1070
     1
1070
   271
1070
     0
1070
   279
1070
     0
1070
   288
1070
     1
1002
}
  0
DIMENSION
  5
7B4E
  8
3
  6
CONTINUOUS
  2
*D6
 10
4340.2396899853638
 20
3839.5739100000001
 30
0.0
 11
4340.239689985362
 21
4568.6984339949868
 31
0.0
 70
   128
 13
3540.3715750000001
 23
5320.0739100000001
 33
0.0
 14
3495.3715750000001
 24
3839.5739100000001
 34
0.0
 50
90.0
1001
ACAD
1000
DSTYLE
1002
{
1070
   287
1070
     3
1070
   287
1070
     3
1070
    40
1040
40.0
1070
   143
1040
0.039
1070
   172
1070
     1
1070
   271
1070
     0
1070
   279
1070
     0
1070
   288
1070
     1
1002
}
  0
DIMENSION
  5
7B69
  8
3
  6
CONTINUOUS
  2
*D7
 10
3540.3715750000001
 20
5438.2426230000001
 30
0.0
 11
3277.6100793406699
 21
5537.5186252209332
 31
0.0
 70
   128
 13
2995.3715750000001
 23
5233.5739100000001
 33
0.0
 14
3540.3715750000001
 24
5320.0739100000001
 34
0.0
1001
ACAD
1000
DSTYLE
1002
{
1070
   288
1070
     1
1070
   172
1070
     1
1070
    40
1040
40.0
1070
   271
1070
     0
1070
   143
1040
0.039
1002
}
  0
DIMENSION
  5
7B8C
  8
3
  6
CONTINUOUS
  2
*D8
 10
3495.3715750000001
 20
7093.160248000001
 30
0.0
 11
2668.0161239999989
 21
7093.160248000001
 31
0.0
 70
   128
 13
1795.3715749999999
 23
7514.8258029999988
 33
0.0
 14
3495.3715750000001
 24
7514.8258029999988
 34
0.0
1001
ACAD
1000
DSTYLE
1002
{
1070
   287
1070
     3
1070
   287
1070
     3
1070
    40
1040
40.0
1070
   143
1040
0.039
1070
   172
1070
     1
1070
   271
1070
     0
1070
   279
1070
     0
1070
   288
1070
     1
1002
}
  0
DIMENSION
  5
7B99
  8
3
  6
CONTINUOUS
  2
*D9
 10
3932.5131360000009
 20
7514.8258029999988
 30
0.0
 11
3932.513136
 21
7940.2904140000001
 31
0.0
 70
   128
 13
3495.3715750000001
 23
8364.8258029999997
 33
0.0
 14
3495.3715750000001
 24
7514.8258029999988
 34
0.0
 50
90.0
1001
ACAD
1000
DSTYLE
1002
{
1070
   287
1070
     3
1070
   287
1070
     3
1070
    40
1040
40.0
1070
   143
1040
0.039
1070
   172
1070
     1
1070
   271
1070
     0
1070
   279
1070
     0
1070
   288
1070
     1
1002
}
  0
LINE
  5
7B9B
  8
2
  6
CENTER
 10
2995.3715750000001
 20
7317.8126929999999
 30
0.0
 11
2995.3715750000001
 21
8542.8297740000016
 31
0.0
  0
LINE
  5
7B9C
  8
2
  6
CENTER
 10
6310.928453999999
 20
5347.4982069999996
 30
0.0
 11
6310.928453999999
 21
3789.3838390000001
 31
0.0
  0
DIMENSION
  5
7BAB
  8
3
  6
CONTINUOUS
  2
*D10
 10
6310.928453999999
 20
3524.6556489999998
 30
0.0
 11
6062.428453999999
 21
3621.1102140238531
 31
0.0
 70
   128
 13
5813.9284539999999
 23
3839.5739100000001
 33
0.0
 14
6310.928453999999
 24
3789.3838390000001
 34
0.0
1001
ACAD
1000
DSTYLE
1002
{
1070
   288
1070
     1
1070
   172
1070
     1
1070
    40
1040
40.0
1070
   271
1070
     0
1070
   143
1040
0.039
1002
}
  0
DIMENSION
  5
7BB9
  8
3
  6
CONTINUOUS
  2
*D11
 10
6663.9284539999999
 20
3524.6556489999998
 30
0.0
 11
6486.4166192916446
 21
3628.3969420288608
 31
0.0
 70
   128
 13
6310.928453999999
 23
3789.3838390000001
 33
0.0
 14
6663.9284539999999
 24
3839.5739100000001
 34
0.0
1001
ACAD
1000
DSTYLE
1002
{
1070
   288
1070
     1
1070
   172
1070
     1
1070
    40
1040
40.0
1070
   271
1070
     0
1070
   143
1040
0.039
1002
}
  0
DIMENSION
  5
7BDE
  8
3
  6
CONTINUOUS
  2
*D12
 10
6610.9284539999999
 20
5445.8258109999988
 30
0.0
 11
6285.2141682857136
 21
5445.8258109999988
 31
0.0
 70
   128
 13
6010.9284539999999
 23
5277.5739100000001
 33
0.0
 14
6610.9284539999999
 24
5277.5739100000001
 34
0.0
1001
ACAD
1000
DSTYLE
1002
{
1070
   287
1070
     3
1070
   287
1070
     3
1070
    40
1040
40.0
1070
   143
1040
0.039
1070
   172
1070
     1
1070
   271
1070
     0
1070
   279
1070
     0
1070
   288
1070
     1
1002
}
  0
DIMENSION
  5
7BEE
  8
3
  6
CONTINUOUS
  2
*D13
 10
6310.928453999999
 20
5733.2449749999987
 30
0.0
 11
6025.9284539999999
 21
5950.4215367084234
 31
0.0
 70
   128
  1
MAX\P660
 13
5740.9284539999999
 23
4629.5739100000001
 33
0.0
 14
6310.928453999999
 24
5618.4086132754837
 34
0.0
1001
ACAD
1000
DSTYLE
1002
{
1070
   288
1070
     1
1070
   172
1070
     1
1070
    40
1040
40.0
1070
   271
1070
     0
1070
   143
1040
0.039
1002
}
  0
DIMENSION
  5
7BFC
  8
3
  6
CONTINUOUS
  2
*D14
 10
6693.9284539999999
 20
5733.2449749999987
 30
0.0
 11
6486.4166192916446
 21
5828.9875789812477
 31
0.0
 70
   128
 13
6310.928453999999
 23
5618.4086132754837
 33
0.0
 14
6693.9284539999999
 24
4869.5739100000001
 34
0.0
1001
ACAD
1000
DSTYLE
1002
{
1070
   288
1070
     1
1070
   172
1070
     1
1070
    40
1040
40.0
1070
   271
1070
     0
1070
   143
1040
0.039
1002
}
  0
DIMENSION
  5
7C20
  8
3
  6
CONTINUOUS
  2
*D15
 10
7007.1392880000012
 20
4029.5739099999992
 30
0.0
 11
7007.1392879999994
 21
4483.2881957142854
 31
0.0
 70
   128
 13
6693.9284539999999
 23
4829.5739100000001
 33
0.0
 14
6693.9284539999999
 24
4029.5739099999992
 34
0.0
 50
90.0
1001
ACAD
1000
DSTYLE
1002
{
1070
   287
1070
     3
1070
   287
1070
     3
1070
     3
1000
φ<>
1070
    40
1040
40.0
1070
   143
1040
0.039
1070
   172
1070
     1
1070
   271
1070
     0
1070
   279
1070
     0
1070
   288
1070
     1
1002
}
  0
LINE
  5
7C21
  8
2
  6
CENTER
 10
5636.6365380000007
 20
4429.5739100000001
 30
0.0
 11
6777.2624819999992
 21
4429.5739100000001
 31
0.0
  0
LINE
  5
7C22
  8
4
  6
CONTINUOUS
 10
7400.0
 20
2000.0
 30
0.0
 11
7400.0
 21
1200.0
 31
0.0
  0
LINE
  5
7C23
  8
4
  6
CONTINUOUS
 10
4600.0
 20
2000.0
 30
0.0
 11
4600.0
 21
1200.0
 31
0.0
  0
LINE
  5
7C24
  8
4
  6
CONTINUOUS
 10
2600.0
 20
2000.0
 30
0.0
 11
2600.0
 21
1200.0
 31
0.0
  0
LINE
  5
7C27
  8
4
  6
CONTINUOUS
 10
2600.0
 20
1200.0
 30
0.0
 11
7400.0
 21
1200.0
 31
0.0
  0
LINE
  5
7C28
  8
4
  6
CONTINUOUS
 10
2600.0
 20
1600.0
 30
0.0
 11
7400.0
 21
1600.0
 31
0.0
  0
TEXT
  5
7C29
  8
4
  6
CONTINUOUS
 10
2754.0083239999999
 20
1726.1721030000001
 30
0.0
 40
200.0
  1
機器名称
  0
TEXT
  5
7C2A
  8
4
  6
CONTINUOUS
 10
2745.032424
 20
1286.580627
 30
0.0
 40
200.0
  1
機器型番
  0
TEXT
  5
7C2B
  8
4
  6
CONTINUOUS
 10
4710.7149820000004
 20
1690.2870760000001
 30
0.0
 40
168.88888899999989
  1
ミツヤリミットロードファン
  0
TEXT
  5
7C2C
  8
4
  6
CONTINUOUS
 10
4746.6179819999998
 20
1268.6383370000001
 30
0.0
 40
200.0
  1
LLE#5-4
  0
TEXT
  5
7C2E
  8
4
  6
CONTINUOUS
 10
3619.1430620000001
 20
9533.715365
 30
0.0
 40
216.0
  1
床置ベット
  0
TEXT
  5
7C2F
  8
4
  6
CONTINUOUS
 10
1264.6703729999999
 20
10135.523905
 30
0.0
 40
240.0
  1
ベルト駆動式片吸込両持排煙ファン
  0
LINE
  5
7C30
  8
4
  6
CONTINUOUS
 10
1000.0
 20
9877.6350170000005
 30
0.0
 11
7400.0
 21
9877.6350170000005
 31
0.0
  0
LINE
  5
7C31
  8
4
  6
CONTINUOUS
 10
1000.0
 20
10677.635017000001
 30
0.0
 11
7400.0
 21
10677.635017000001
 31
0.0
  0
LINE
  5
7C32
  8
4
  6
CONTINUOUS
 10
2600.0
 20
2000.0
 30
0.0
 11
7400.0
 21
2000.0
 31
0.0
  0
LINE
  5
7C33
  8
4
  6
CONTINUOUS
 10
1000.0
 20
10677.635017000001
 30
0.0
 11
1000.0
 21
9877.6350170000005
 31
0.0
  0
TEXT
  5
7C34
  8
4
  6
CONTINUOUS
 10
1875.7077329999991
 20
9529.2779099999989
 30
0.0
 40
216.0
  1
右回転右横向
  0
TEXT
  5
7C35
  8
4
  6
CONTINUOUS
 10
5875.8782369999999
 20
10824.244326
 30
0.0
 40
224.0
  1
No.
  0
TEXT
  5
7C36
  8
4
  6
CONTINUOUS
 10
5245.1842509999997
 20
9533.715365
 30
0.0
 40
216.0
  1
縮尺：1/40
  0
LINE
  5
7C37
  8
4
  6
CONTINUOUS
 10
7400.0
 20
10677.635017000001
 30
0.0
 11
7400.0
 21
9877.6350170000005
 31
0.0
  0
LINE
  5
7C39
  8
4
  6
CONTINUOUS
 10
5762.4696899999999
 20
10725.054331999991
 30
0.0
 11
5762.4696899999999
 21
11146.609046
 31
0.0
  0
LINE
  5
7C3A
  8
4
  6
CONTINUOUS
 10
5762.4696899999999
 20
11146.609046
 30
0.0
 11
7400.0
 21
11146.609046
 31
0.0
  0
LINE
  5
7C3B
  8
4
  6
CONTINUOUS
 10
7400.0
 20
11146.609046
 30
0.0
 11
7400.0
 21
10725.054331999991
 31
0.0
  0
LINE
  5
7C3C
  8
4
  6
CONTINUOUS
 10
7400.0
 20
10725.054331999991
 30
0.0
 11
5762.4696899999999
 21
10725.054331999991
 31
0.0
  0
LINE
  5
7C51
  8
2
  6
CENTER
 10
1654.397105
 20
8011.8258029999979
 30
0.0
 11
3627.927365999999
 21
8011.8258029999979
 31
0.0
  0
DIMENSION
  5
7DF7
  8
3
  2
*D16
 10
1795.3715749999999
 20
5646.819471322714
 30
0.0
 11
2701.4834523833852
 21
5646.819471322714
 31
0.0
 70
   128
 13
3540.3715750000001
 23
5320.0739100000001
 33
0.0
 14
1795.3715749999999
 24
3939.5739100000001
 34
0.0
1001
ACAD
1000
DSTYLE
1002
{
1070
   287
1070
     3
1070
   287
1070
     3
1070
    40
1040
40.0
1070
   143
1040
0.039
1070
   172
1070
     1
1070
   271
1070
     0
1070
   279
1070
     0
1070
   288
1070
     1
1002
}
  0
DIMENSION
  5
7E3D
  8
3
  2
*D17
 10
2309.3715750000001
 20
5438.2426230000001
 30
0.0
 11
2652.3715750000001
 21
5538.2426230000001
 31
0.0
 70
     0
 13
2995.3715750000001
 23
5233.5739100000001
 33
0.0
 14
2309.3715750000001
 24
4429.5739100000001
 34
0.0
1001
ACAD
1000
DSTYLE
1002
{
1070
   287
1070
     4
1070
   287
1070
     4
1070
    40
1040
40.0
1070
    75
1070
     1
1070
   143
1040
0.039
1070
   172
1070
     1
1070
   271
1070
     0
1070
   279
1070
     1
1070
   288
1070
     1
1002
}
  0
ENDSEC
  0
EOF
