  0
SECTION
  2
HEADER
  9
$ACADVER
  1
AC1009
  9
$INSBASE
 10
0.0
 20
0.0
 30
0.0
  9
$EXTMIN
 10
1000.0
 20
1200.0
 30
0.0
  9
$EXTMAX
 10
7400.0
 20
11146.609046
 30
0.0
  9
$LIMMIN
 10
0.0
 20
0.0
  9
$LIMMAX
 10
297.0
 20
210.0
  9
$ORTHOMODE
 70
     0
  9
$REGENMODE
 70
     1
  9
$FILLMODE
 70
     0
  9
$QTEXTMODE
 70
     0
  9
$MIRRTEXT
 70
     1
  9
$DRAGMODE
 70
     2
  9
$LTSCALE
 40
100.0
  9
$OSMODE
 70
    37
  9
$ATTMODE
 70
     1
  9
$TEXTSIZE
 40
180.0
  9
$TRACEWID
 40
0.05
  9
$TEXTSTYLE
  7
STANDARD
  9
$CLAYER
  8
3
  9
$CELTYPE
  6
BYLAYER
  9
$CECOLOR
 62
   256
  9
$DIMSCALE
 40
40.0
  9
$DIMASZ
 40
2.0
  9
$DIMEXO
 40
0.5
  9
$DIMDLI
 40
10.0
  9
$DIMRND
 40
0.0
  9
$DIMDLE
 40
0.0
  9
$DIMEXE
 40
1.0
  9
$DIMTP
 40
1.0
  9
$DIMTM
 40
1.0
  9
$DIMTXT
 40
3.0
  9
$DIMCEN
 40
0.0
  9
$DIMTSZ
 40
0.0
  9
$DIMTOL
 70
     0
  9
$DIMLIM
 70
     0
  9
$DIMTIH
 70
     0
  9
$DIMTOH
 70
     0
  9
$DIMSE1
 70
     0
  9
$DIMSE2
 70
     0
  9
$DIMTAD
 70
     1
  9
$DIMZIN
 70
     8
  9
$DIMBLK
  1

  9
$DIMASO
 70
     1
  9
$DIMSHO
 70
     1
  9
$DIMPOST
  1

  9
$DIMAPOST
  1

  9
$DIMALT
 70
     0
  9
$DIMALTD
 70
     2
  9
$DIMALTF
 40
0.039
  9
$DIMLFAC
 40
1.0
  9
$DIMTOFL
 70
     1
  9
$DIMTVP
 40
0.0
  9
$DIMTIX
 70
     0
  9
$DIMSOXD
 70
     0
  9
$DIMSAH
 70
     1
  9
$DIMBLK1
  1
OPEN
  9
$DIMBLK2
  1
OPEN
  9
$DIMSTYLE
  2
IGA
  9
$DIMCLRD
 70
     0
  9
$DIMCLRE
 70
     0
  9
$DIMCLRT
 70
     0
  9
$DIMTFAC
 40
10.0
  9
$DIMGAP
 40
1.0
  9
$LUNITS
 70
     2
  9
$LUPREC
 70
     3
  9
$SKETCHINC
 40
0.1
  9
$FILLETRAD
 40
50.0
  9
$AUNITS
 70
     0
  9
$AUPREC
 70
     0
  9
$MENU
  1
acad
  9
$ELEVATION
 40
0.0
  9
$PELEVATION
 40
0.0
  9
$THICKNESS
 40
0.0
  9
$LIMCHECK
 70
     0
  9
$BLIPMODE
 70
     0
  9
$CHAMFERA
 40
0.5
  9
$CHAMFERB
 40
0.5
  9
$SKPOLY
 70
     0
  9
$TDCREATE
 40
2450752.6233991901
  9
$TDUPDATE
 40
2454953.684737951
  9
$TDINDWG
 40
0.0095158449
  9
$TDUSRTIMER
 40
0.0095158449
  9
$USRTIMER
 70
     1
  9
$ANGBASE
 50
0.0
  9
$ANGDIR
 70
     0
  9
$PDMODE
 70
     0
  9
$PDSIZE
 40
0.0
  9
$PLINEWID
 40
0.0
  9
$COORDS
 70
     1
  9
$SPLFRAME
 70
     0
  9
$SPLINETYPE
 70
     6
  9
$SPLINESEGS
 70
     8
  9
$ATTDIA
 70
     0
  9
$ATTREQ
 70
     1
  9
$HANDLING
 70
 10241
  9
$HANDSEED
  5
7F3B
  9
$SURFTAB1
 70
     6
  9
$SURFTAB2
 70
     6
  9
$SURFTYPE
 70
     6
  9
$SURFU
 70
     6
  9
$SURFV
 70
     6
  9
$UCSNAME
  2

  9
$UCSORG
 10
0.0
 20
0.0
 30
0.0
  9
$UCSXDIR
 10
1.0
 20
0.0
 30
0.0
  9
$UCSYDIR
 10
0.0
 20
1.0
 30
0.0
  9
$PUCSNAME
  2

  9
$PUCSORG
 10
0.0
 20
0.0
 30
0.0
  9
$PUCSXDIR
 10
1.0
 20
0.0
 30
0.0
  9
$PUCSYDIR
 10
0.0
 20
1.0
 30
0.0
  9
$USERI1
 70
     0
  9
$USERI2
 70
     0
  9
$USERI3
 70
     0
  9
$USERI4
 70
     0
  9
$USERI5
 70
     0
  9
$USERR1
 40
0.0
  9
$USERR2
 40
0.0
  9
$USERR3
 40
0.0
  9
$USERR4
 40
0.0
  9
$USERR5
 40
0.0
  9
$WORLDVIEW
 70
     1
  9
$SHADEDGE
 70
     3
  9
$SHADEDIF
 70
    70
  9
$TILEMODE
 70
     1
  9
$MAXACTVP
 70
    16
  9
$PLIMCHECK
 70
     0
  9
$PEXTMIN
 10
1.0000000000000000E+020
 20
1.0000000000000000E+020
 30
1.0000000000000000E+020
  9
$PEXTMAX
 10
-1.0000000000000000E+020
 20
-1.0000000000000000E+020
 30
-1.0000000000000000E+020
  9
$PLIMMIN
 10
0.0
 20
0.0
  9
$PLIMMAX
 10
12.0
 20
9.0
  9
$UNITMODE
 70
     0
  9
$VISRETAIN
 70
     0
  9
$PLINEGEN
 70
     0
  9
$PSLTSCALE
 70
     1
  0
ENDSEC
  0
SECTION
  2
TABLES
  0
TABLE
  2
VPORT
 70
     2
  0
VPORT
  2
*ACTIVE
 70
     0
 10
0.0
 20
0.0
 11
1.0
 21
1.0
 12
17307.716075951841
 22
4878.0634421744999
 13
0.0
 23
0.0
 14
10.0
 24
10.0
 15
10.0
 25
10.0
 16
0.0
 26
0.0
 36
1.0
 17
0.0
 27
0.0
 37
0.0
 40
12710.12206766973
 41
3.1666666666666661
 42
50.0
 43
0.0
 44
0.0
 50
0.0
 51
0.0
 71
     0
 72
   100
 73
     1
 74
     0
 75
     0
 76
     0
 77
     0
 78
     0
  0
ENDTAB
  0
TABLE
  2
LTYPE
 70
     2
  0
LTYPE
  2
CONTINUOUS
 70
     0
  3
Solid line
 72
    65
 73
     0
 40
0.0
  0
LTYPE
  2
CENTER
 70
     0
  3
____ _ ____ _ ____ _ ____ _ ____ _ ____ _ ____ 
 72
    65
 73
     4
 40
2.0
 49
1.25
 49
-0.25
 49
0.25
 49
-0.25
  0
ENDTAB
  0
TABLE
  2
LAYER
 70
     6
  0
LAYER
  2
0
 70
     0
 62
     7
  6
CONTINUOUS
  0
LAYER
  2
3
 70
     0
 62
     2
  6
CONTINUOUS
  0
LAYER
  2
2
 70
     0
 62
     3
  6
CENTER
  0
LAYER
  2
1
 70
     0
 62
     4
  6
CONTINUOUS
  0
LAYER
  2
4
 70
     0
 62
     7
  6
CONTINUOUS
  0
LAYER
  2
DEFPOINTS
 70
     0
 62
     7
  6
CONTINUOUS
  0
ENDTAB
  0
TABLE
  2
STYLE
 70
     1
  0
STYLE
  2
STANDARD
 70
     0
 40
0.0
 41
1.0
 50
0.0
 71
     0
 42
180.0
  3
simplex.shx
  4
extfont.shx
  0
ENDTAB
  0
TABLE
  2
VIEW
 70
     0
  0
ENDTAB
  0
TABLE
  2
UCS
 70
     0
  0
ENDTAB
  0
TABLE
  2
APPID
 70
     1
  0
APPID
  2
ACAD
 70
     0
  0
ENDTAB
  0
TABLE
  2
DIMSTYLE
 70
     1
  0
DIMSTYLE
  2
IGA
 70
     0
  3

  4

  5

  6
OPEN
  7
OPEN
 40
2.0
 41
2.0
 42
0.5
 43
10.0
 44
1.0
 45
0.0
 46
0.0
 47
1.0
 48
1.0
140
3.0
141
0.0
142
0.0
143
0.03937
144
1.0
145
0.0
146
10.0
147
1.0
 71
     0
 72
     0
 73
     0
 74
     0
 75
     0
 76
     0
 77
     1
 78
     8
170
     0
171
     2
172
     0
173
     1
174
     0
175
     0
176
     0
177
     0
178
     0
  0
ENDTAB
  0
ENDSEC
  0
SECTION
  2
BLOCKS
  0
BLOCK
  8
0
  2
$MODEL_SPACE
 70
     0
 10
0.0
 20
0.0
 30
0.0
  3
$MODEL_SPACE
  1

  0
ENDBLK
  5
1B
  8
0
  0
BLOCK
 67
     1
  8
0
  2
$PAPER_SPACE
 70
     0
 10
0.0
 20
0.0
 30
0.0
  3
$PAPER_SPACE
  1

  0
ENDBLK
  5
18
 67
     1
  8
0
  0
BLOCK
  8
0
  2
_OPEN
 70
     0
 10
0.0
 20
0.0
 30
0.0
  3
_OPEN
  1

  0
LINE
  5
7ACE
  8
0
  6
BYBLOCK
 62
     0
 10
-1.0
 20
0.166667
 30
0.0
 11
0.0
 21
0.0
 31
0.0
  0
LINE
  5
7ACF
  8
0
  6
BYBLOCK
 62
     0
 10
0.0
 20
0.0
 30
0.0
 11
-1.0
 21
-0.166667
 31
0.0
  0
LINE
  5
7AD0
  8
0
  6
BYBLOCK
 62
     0
 10
0.0
 20
0.0
 30
0.0
 11
-1.0
 21
0.0
 31
0.0
  0
ENDBLK
  5
7AD1
  8
0
  0
BLOCK
  8
0
  2
*D1
 70
     1
 10
0.0
 20
0.0
 30
0.0
  3
*D1
  1

  0
LINE
  5
7D73
  8
0
  6
BYBLOCK
 62
     0
 10
1902.3631239999991
 20
4080.8090459999999
 30
0.0
 11
1902.3631239999991
 21
3751.767464
 31
0.0
  0
LINE
  5
7D74
  8
0
  6
BYBLOCK
 62
     0
 10
2402.363124
 20
3941.632987
 30
0.0
 11
2402.363124
 21
3751.767464
 31
0.0
  0
LINE
  5
7D75
  8
0
  6
BYBLOCK
 62
     0
 10
1982.3631239999991
 20
3791.767464
 30
0.0
 11
2322.363124
 21
3791.767464
 31
0.0
  0
TEXT
  5
7D76
  8
3
 62
     0
 10
1998.0774097142851
 20
3845.0581270938969
 30
0.0
 40
120.0
  1
500
  0
INSERT
  5
7D77
  8
0
  6
BYBLOCK
 62
     0
  2
_OPEN
 10
1902.3631239999991
 20
3791.767464
 30
0.0
 41
80.0
 42
80.0
 43
80.0
 50
180.0
  0
INSERT
  5
7D78
  8
0
  6
BYBLOCK
 62
     0
  2
_OPEN
 10
2402.363124
 20
3791.767464
 30
0.0
 41
80.0
 42
80.0
 43
80.0
  0
POINT
  5
7D79
  8
DEFPOINTS
  6
BYBLOCK
 62
     0
 10
1902.3631239999991
 20
4100.8090460000012
 30
0.0
  0
POINT
  5
7D7A
  8
DEFPOINTS
  6
BYBLOCK
 62
     0
 10
2402.363124
 20
3961.632987
 30
0.0
  0
POINT
  5
7D7B
  8
DEFPOINTS
  6
BYBLOCK
 62
     0
 10
2402.363124
 20
3791.767464
 30
0.0
  0
ENDBLK
  5
7D7C
  8
0
  0
BLOCK
  8
0
  2
*D2
 70
     1
 10
0.0
 20
0.0
 30
0.0
  3
*D2
  1

  0
LINE
  5
7EC6
  8
3
  6
CONTINUOUS
 62
     0
 10
2402.3631239999991
 20
3431.4451570916931
 30
0.0
 11
2402.3631239999991
 21
3241.5796340916918
 31
0.0
  0
LINE
  5
7EC7
  8
3
  6
CONTINUOUS
 62
     0
 10
3602.363124
 20
3570.621216091693
 30
0.0
 11
3602.363124
 21
3241.5796340916918
 31
0.0
  0
LINE
  5
7EC8
  8
3
  6
CONTINUOUS
 62
     0
 10
2482.3631239999991
 20
3281.5796340916918
 30
0.0
 11
3522.363124
 21
3281.5796340916918
 31
0.0
  0
INSERT
  5
7EC9
  8
3
  6
CONTINUOUS
 62
     0
  2
_OPEN
 10
2402.3631239999991
 20
3281.5796340916918
 30
0.0
 41
80.0
 42
80.0
 43
80.0
 50
180.0
  0
INSERT
  5
7ECA
  8
3
  6
CONTINUOUS
 62
     0
  2
_OPEN
 10
3602.363124
 20
3281.5796340916918
 30
0.0
 41
80.0
 42
80.0
 43
80.0
  0
TEXT
  8
3
  40
120
  5
7F30
  62
0
  72
0
  71
0
 10
2762.36
 20
3169.18
 30
0.000000
  1
1200
  0
POINT
  5
7ECC
  8
DEFPOINTS
  6
CONTINUOUS
 62
     0
 10
2402.3631239999991
 20
3451.4451570916922
 30
0.0
  0
POINT
  5
7ECD
  8
DEFPOINTS
  6
CONTINUOUS
 62
     0
 10
3602.363124
 20
3590.621216091693
 30
0.0
  0
POINT
  5
7ECE
  8
DEFPOINTS
  6
CONTINUOUS
 62
     0
 10
3602.363124
 20
3281.5796340916918
 30
0.0
  0
ENDBLK
  5
7D15
  8
0
  0
BLOCK
  8
0
  2
*D3
 70
     1
 10
0.0
 20
0.0
 30
0.0
  3
*D3
  1

  0
LINE
  5
7DF0
  8
0
  6
BYBLOCK
 62
     0
 10
3312.8631239999991
 20
5345.8090460000003
 30
0.0
 11
3911.9200420000002
 21
5345.8090460000003
 31
0.0
  0
LINE
  5
7DF1
  8
0
  6
BYBLOCK
 62
     0
 10
3452.236801
 20
4800.8090460000012
 30
0.0
 11
3911.9200420000002
 21
4800.8090460000012
 31
0.0
  0
LINE
  5
7DF2
  8
0
  6
BYBLOCK
 62
     0
 10
3871.9200420000002
 20
5265.8090460000012
 30
0.0
 11
3871.9200420000002
 21
4880.8090460000003
 31
0.0
  0
TEXT
  5
7DF3
  8
3
 62
     0
 10
3818.0399799210641
 20
4937.3369340591671
 30
0.0
 40
120.0
  1
545
 50
90.0
  0
INSERT
  5
7DF4
  8
0
  6
BYBLOCK
 62
     0
  2
_OPEN
 10
3871.9200420000002
 20
5345.8090460000003
 30
0.0
 41
80.0
 42
80.0
 43
80.0
 50
90.0
  0
INSERT
  5
7DF5
  8
0
  6
BYBLOCK
 62
     0
  2
_OPEN
 10
3871.9200420000002
 20
4800.8090460000012
 30
0.0
 41
80.0
 42
80.0
 43
80.0
 50
270.0
  0
POINT
  5
7DF6
  8
DEFPOINTS
  6
BYBLOCK
 62
     0
 10
3292.863124
 20
5345.8090460000003
 30
0.0
  0
POINT
  5
7DF7
  8
DEFPOINTS
  6
BYBLOCK
 62
     0
 10
3432.236801
 20
4800.8090460000012
 30
0.0
  0
POINT
  5
7DF8
  8
DEFPOINTS
  6
BYBLOCK
 62
     0
 10
3871.9200420000002
 20
4800.8090460000012
 30
0.0
  0
ENDBLK
  5
7DF9
  8
0
  0
BLOCK
  8
0
  2
*D4
 70
     1
 10
0.0
 20
0.0
 30
0.0
  3
*D4
  1

  0
LINE
  5
7ECF
  8
3
  6
CONTINUOUS
 62
     0
 10
3452.236801
 20
4290.6212160916921
 30
0.0
 11
3911.9200420000002
 21
4290.6212160916921
 31
0.0
  0
LINE
  5
7ED0
  8
3
  6
CONTINUOUS
 62
     0
 10
3622.363124
 20
3590.621216091693
 30
0.0
 11
3911.9200420000002
 21
3590.621216091693
 31
0.0
  0
LINE
  5
7ED1
  8
3
  6
CONTINUOUS
 62
     0
 10
3871.9200420000002
 20
4210.621216091693
 30
0.0
 11
3871.9200420000002
 21
3670.621216091693
 31
0.0
  0
INSERT
  5
7ED2
  8
3
  6
CONTINUOUS
 62
     0
  2
_OPEN
 10
3871.9200420000002
 20
4290.6212160916921
 30
0.0
 41
80.0
 42
80.0
 43
80.0
 50
90.0
  0
INSERT
  5
7ED3
  8
3
  6
CONTINUOUS
 62
     0
  2
_OPEN
 10
3871.9200420000002
 20
3590.621216091693
 30
0.0
 41
80.0
 42
80.0
 43
80.0
 50
270.0
  0
TEXT
  8
3
  40
120
  5
7F31
  62
0
  72
0
  71
0
 10
3531.92
 20
3728.22
 30
0.000000
  1
700
  0
POINT
  5
7ED5
  8
DEFPOINTS
  6
CONTINUOUS
 62
     0
 10
3432.236801
 20
4290.6212160916921
 30
0.0
  0
POINT
  5
7ED6
  8
DEFPOINTS
  6
CONTINUOUS
 62
     0
 10
3602.363124
 20
3590.621216091693
 30
0.0
  0
POINT
  5
7ED7
  8
DEFPOINTS
  6
CONTINUOUS
 62
     0
 10
3871.9200420000002
 20
3590.621216091693
 30
0.0
  0
ENDBLK
  5
7E04
  8
0
  0
BLOCK
  8
0
  2
*D5
 70
     1
 10
0.0
 20
0.0
 30
0.0
  3
*D5
  1

  0
LINE
  5
7ED8
  8
3
  6
CONTINUOUS
 62
     0
 10
3312.8631239999991
 20
4835.621216091693
 30
0.0
 11
4175.1067117773509
 21
4835.621216091693
 31
0.0
  0
LINE
  5
7ED9
  8
3
  6
CONTINUOUS
 62
     0
 10
3622.363124
 20
3590.621216091693
 30
0.0
 11
4175.1067117773509
 21
3590.621216091693
 31
0.0
  0
LINE
  5
7EDA
  8
3
  6
CONTINUOUS
 62
     0
 10
4135.1067117773509
 20
4755.6212160916921
 30
0.0
 11
4135.1067117773509
 21
3670.621216091693
 31
0.0
  0
INSERT
  5
7EDB
  8
3
  6
CONTINUOUS
 62
     0
  2
_OPEN
 10
4135.1067117773509
 20
4835.621216091693
 30
0.0
 41
80.0
 42
80.0
 43
80.0
 50
90.0
  0
INSERT
  5
7EDC
  8
3
  6
CONTINUOUS
 62
     0
  2
_OPEN
 10
4135.1067117773509
 20
3590.621216091693
 30
0.0
 41
80.0
 42
80.0
 43
80.0
 50
270.0
  0
TEXT
  8
3
  40
120
  5
7F32
  62
0
  72
0
  71
0
 10
3795.11
 20
4036.98
 30
0.000000
  1
1245
  0
POINT
  5
7EDE
  8
DEFPOINTS
  6
CONTINUOUS
 62
     0
 10
3292.8631239999991
 20
4835.621216091693
 30
0.0
  0
POINT
  5
7EDF
  8
DEFPOINTS
  6
CONTINUOUS
 62
     0
 10
3602.363124
 20
3590.621216091693
 30
0.0
  0
POINT
  5
7EE0
  8
DEFPOINTS
  6
CONTINUOUS
 62
     0
 10
4135.1067117773509
 20
3590.621216091693
 30
0.0
  0
ENDBLK
  5
7DBE
  8
0
  0
BLOCK
  8
0
  2
*D6
 70
     1
 10
0.0
 20
0.0
 30
0.0
  3
*D6
  1

  0
LINE
  5
7EE1
  8
3
  6
CONTINUOUS
 62
     0
 10
2425.3631239999991
 20
4855.621216091693
 30
0.0
 11
2425.3631239999991
 21
5093.8743280916924
 31
0.0
  0
LINE
  5
7EE2
  8
3
  6
CONTINUOUS
 62
     0
 10
3250.3631239999991
 20
4855.621216091693
 30
0.0
 11
3250.3631239999991
 21
5093.8743280916924
 31
0.0
  0
LINE
  5
7EE3
  8
3
  6
CONTINUOUS
 62
     0
 10
2505.3631239999991
 20
5053.8743280916924
 30
0.0
 11
3170.3631239999991
 21
5053.8743280916924
 31
0.0
  0
INSERT
  5
7EE4
  8
3
  6
CONTINUOUS
 62
     0
  2
_OPEN
 10
2425.3631239999991
 20
5053.8743280916924
 30
0.0
 41
80.0
 42
80.0
 43
80.0
 50
180.0
  0
INSERT
  5
7EE5
  8
3
  6
CONTINUOUS
 62
     0
  2
_OPEN
 10
3250.3631239999991
 20
5053.8743280916924
 30
0.0
 41
80.0
 42
80.0
 43
80.0
  0
TEXT
  8
3
  40
120
  5
7F33
  62
0
  72
0
  71
0
 10
2608.00
 20
4941.47
 30
0.000000
  1
825
  0
POINT
  5
7EE7
  8
DEFPOINTS
  6
CONTINUOUS
 62
     0
 10
2425.3631239999991
 20
4835.621216091693
 30
0.0
  0
POINT
  5
7EE8
  8
DEFPOINTS
  6
CONTINUOUS
 62
     0
 10
3250.3631239999991
 20
4835.621216091693
 30
0.0
  0
POINT
  5
7EE9
  8
DEFPOINTS
  6
CONTINUOUS
 62
     0
 10
3250.3631239999991
 20
5053.8743280916924
 30
0.0
  0
ENDBLK
  5
7CE7
  8
0
  0
BLOCK
  8
0
  2
*D7
 70
     1
 10
0.0
 20
0.0
 30
0.0
  3
*D7
  1

  0
LINE
  5
7EEA
  8
3
  6
CONTINUOUS
 62
     0
 10
3250.3631239999991
 20
4855.621216091693
 30
0.0
 11
3250.3631239999991
 21
5304.8811100916928
 31
0.0
  0
LINE
  5
7EEB
  8
3
  6
CONTINUOUS
 62
     0
 10
2402.3631239999991
 20
4781.4134150916943
 30
0.0
 11
2402.3631239999991
 21
5304.8811100916928
 31
0.0
  0
LINE
  5
7EEC
  8
3
  6
CONTINUOUS
 62
     0
 10
3170.3631239999991
 20
5264.8811100916928
 30
0.0
 11
2482.3631239999991
 21
5264.8811100916928
 31
0.0
  0
INSERT
  5
7EED
  8
3
  6
CONTINUOUS
 62
     0
  2
_OPEN
 10
3250.3631239999991
 20
5264.8811100916928
 30
0.0
 41
80.0
 42
80.0
 43
80.0
  0
INSERT
  5
7EEE
  8
3
  6
CONTINUOUS
 62
     0
  2
_OPEN
 10
2402.3631239999991
 20
5264.8811100916928
 30
0.0
 41
80.0
 42
80.0
 43
80.0
 50
180.0
  0
TEXT
  8
3
  40
120
  5
7F34
  62
0
  72
0
  71
0
 10
2569.28
 20
5152.48
 30
0.000000
  1
848
  0
POINT
  5
7EF0
  8
DEFPOINTS
  6
CONTINUOUS
 62
     0
 10
3250.3631239999991
 20
4835.621216091693
 30
0.0
  0
POINT
  5
7EF1
  8
DEFPOINTS
  6
CONTINUOUS
 62
     0
 10
2402.3631239999991
 20
4761.4134150916934
 30
0.0
  0
POINT
  5
7EF2
  8
DEFPOINTS
  6
CONTINUOUS
 62
     0
 10
2402.3631239999991
 20
5264.8811100916928
 30
0.0
  0
ENDBLK
  5
7CDC
  8
0
  0
BLOCK
  8
0
  2
*D8
 70
     1
 10
0.0
 20
0.0
 30
0.0
  3
*D8
  1

  0
LINE
  5
7EF3
  8
3
  6
CONTINUOUS
 62
     0
 10
2402.3631239999991
 20
4781.4134150916943
 30
0.0
 11
2402.3631239999991
 21
5301.011118091692
 31
0.0
  0
LINE
  5
7EF4
  8
3
  6
CONTINUOUS
 62
     0
 10
1834.3631239999991
 20
4310.621216091693
 30
0.0
 11
1834.3631239999991
 21
5301.011118091692
 31
0.0
  0
LINE
  5
7EF5
  8
3
  6
CONTINUOUS
 62
     0
 10
2482.3631239999991
 20
5261.011118091692
 30
0.0
 11
2562.3631239999991
 21
5261.011118091692
 31
0.0
  0
LINE
  5
7EF6
  8
3
  6
CONTINUOUS
 62
     0
 10
1754.3631239999991
 20
5261.011118091692
 30
0.0
 11
1674.3631239999991
 21
5261.011118091692
 31
0.0
  0
LINE
  5
7EF7
  8
3
  6
CONTINUOUS
 62
     0
 10
2402.3631239999991
 20
5261.011118091692
 30
0.0
 11
1834.3631239999991
 21
5261.011118091692
 31
0.0
  0
INSERT
  5
7EF8
  8
3
  6
CONTINUOUS
 62
     0
  2
_OPEN
 10
2402.3631239999991
 20
5261.011118091692
 30
0.0
 41
80.0
 42
80.0
 43
80.0
 50
180.0
  0
INSERT
  5
7EF9
  8
3
  6
CONTINUOUS
 62
     0
  2
_OPEN
 10
1834.3631239999991
 20
5261.011118091692
 30
0.0
 41
80.0
 42
80.0
 43
80.0
  0
TEXT
  8
3
  40
120
  5
7F35
  62
0
  72
0
  71
0
 10
1888.08
 20
5148.61
 30
0.000000
  1
568
  0
POINT
  5
7EFB
  8
DEFPOINTS
  6
CONTINUOUS
 62
     0
 10
2402.3631239999991
 20
4761.4134150916934
 30
0.0
  0
POINT
  5
7EFC
  8
DEFPOINTS
  6
CONTINUOUS
 62
     0
 10
1834.3631239999991
 20
4290.6212160916921
 30
0.0
  0
POINT
  5
7EFD
  8
DEFPOINTS
  6
CONTINUOUS
 62
     0
 10
1834.3631239999991
 20
5261.011118091692
 30
0.0
  0
ENDBLK
  5
7DCA
  8
0
  0
BLOCK
  8
0
  2
*D9
 70
     1
 10
0.0
 20
0.0
 30
0.0
  3
*D9
  1

  0
LINE
  5
7EFE
  8
3
  6
CONTINUOUS
 62
     0
 10
1902.3631239999991
 20
7224.0427235379739
 30
0.0
 11
1902.3631239999991
 21
6705.8039705379742
 31
0.0
  0
LINE
  5
7EFF
  8
3
  6
CONTINUOUS
 62
     0
 10
3602.363124
 20
7224.0427235379739
 30
0.0
 11
3602.363124
 21
6705.8039705379742
 31
0.0
  0
LINE
  5
7F00
  8
3
  6
CONTINUOUS
 62
     0
 10
1982.3631239999991
 20
6745.8039705379742
 30
0.0
 11
3522.363124
 21
6745.8039705379742
 31
0.0
  0
INSERT
  5
7F01
  8
3
  6
CONTINUOUS
 62
     0
  2
_OPEN
 10
1902.3631239999991
 20
6745.8039705379742
 30
0.0
 41
80.0
 42
80.0
 43
80.0
 50
180.0
  0
INSERT
  5
7F02
  8
3
  6
CONTINUOUS
 62
     0
  2
_OPEN
 10
3602.363124
 20
6745.8039705379742
 30
0.0
 41
80.0
 42
80.0
 43
80.0
  0
TEXT
  8
3
  40
120
  5
7F36
  62
0
  72
0
  71
0
 10
2513.35
 20
6633.40
 30
0.000000
  1
1700
  0
POINT
  5
7F04
  8
DEFPOINTS
  6
CONTINUOUS
 62
     0
 10
1902.3631239999991
 20
7244.0427235379739
 30
0.0
  0
POINT
  5
7F05
  8
DEFPOINTS
  6
CONTINUOUS
 62
     0
 10
3602.363124
 20
7244.0427235379739
 30
0.0
  0
POINT
  5
7F06
  8
DEFPOINTS
  6
CONTINUOUS
 62
     0
 10
3602.363124
 20
6745.8039705379742
 30
0.0
  0
ENDBLK
  5
7CC6
  8
0
  0
BLOCK
  8
0
  2
*D10
 70
     1
 10
0.0
 20
0.0
 30
0.0
  3
*D10
  1

  0
LINE
  5
7F07
  8
3
  6
CONTINUOUS
 62
     0
 10
3622.363124
 20
8094.0427235379739
 30
0.0
 11
4006.5680220000008
 21
8094.0427235379739
 31
0.0
  0
LINE
  5
7F08
  8
3
  6
CONTINUOUS
 62
     0
 10
3622.363124
 20
7244.0427235379739
 30
0.0
 11
4006.5680220000008
 21
7244.0427235379739
 31
0.0
  0
LINE
  5
7F09
  8
3
  6
CONTINUOUS
 62
     0
 10
3966.5680220000008
 20
8014.0427235379739
 30
0.0
 11
3966.5680220000008
 21
7324.0427235379739
 31
0.0
  0
INSERT
  5
7F0A
  8
3
  6
CONTINUOUS
 62
     0
  2
_OPEN
 10
3966.5680220000008
 20
8094.0427235379739
 30
0.0
 41
80.0
 42
80.0
 43
80.0
 50
90.0
  0
INSERT
  5
7F0B
  8
3
  6
CONTINUOUS
 62
     0
  2
_OPEN
 10
3966.5680220000008
 20
7244.0427235379739
 30
0.0
 41
80.0
 42
80.0
 43
80.0
 50
270.0
  0
TEXT
  8
3
  40
120
  5
7F37
  62
0
  72
0
  71
0
 10
3626.57
 20
7479.72
 30
0.000000
  1
850
  0
POINT
  5
7F0D
  8
DEFPOINTS
  6
CONTINUOUS
 62
     0
 10
3602.363124
 20
8094.0427235379739
 30
0.0
  0
POINT
  5
7F0E
  8
DEFPOINTS
  6
CONTINUOUS
 62
     0
 10
3602.363124
 20
7244.0427235379739
 30
0.0
  0
POINT
  5
7F0F
  8
DEFPOINTS
  6
CONTINUOUS
 62
     0
 10
3966.5680220000008
 20
7244.0427235379739
 30
0.0
  0
ENDBLK
  5
7CBB
  8
0
  0
BLOCK
  8
0
  2
*D11
 70
     1
 10
0.0
 20
0.0
 30
0.0
  3
*D11
  1

  0
LINE
  5
7F10
  8
3
  6
CONTINUOUS
 62
     0
 10
5956.7091410000003
 20
4855.621216091693
 30
0.0
 11
5956.7091410000003
 21
5029.8499910916917
 31
0.0
  0
LINE
  5
7F11
  8
3
  6
CONTINUOUS
 62
     0
 10
6556.7091409999985
 20
4855.621216091693
 30
0.0
 11
6556.7091409999985
 21
5029.8499910916917
 31
0.0
  0
LINE
  5
7F12
  8
3
  6
CONTINUOUS
 62
     0
 10
6036.7091409999994
 20
4989.8499910916917
 30
0.0
 11
6476.7091409999994
 21
4989.8499910916917
 31
0.0
  0
INSERT
  5
7F13
  8
3
  6
CONTINUOUS
 62
     0
  2
_OPEN
 10
5956.7091410000003
 20
4989.8499910916917
 30
0.0
 41
80.0
 42
80.0
 43
80.0
 50
180.0
  0
INSERT
  5
7F14
  8
3
  6
CONTINUOUS
 62
     0
  2
_OPEN
 10
6556.7091409999985
 20
4989.8499910916917
 30
0.0
 41
80.0
 42
80.0
 43
80.0
  0
TEXT
  8
3
  40
120
  5
7F38
  62
0
  72
0
  71
0
 10
5990.99
 20
4877.45
 30
0.000000
  1
600
  0
POINT
  5
7F16
  8
DEFPOINTS
  6
CONTINUOUS
 62
     0
 10
5956.7091410000003
 20
4835.621216091693
 30
0.0
  0
POINT
  5
7F17
  8
DEFPOINTS
  6
CONTINUOUS
 62
     0
 10
6556.7091409999985
 20
4835.621216091693
 30
0.0
  0
POINT
  5
7F18
  8
DEFPOINTS
  6
CONTINUOUS
 62
     0
 10
6556.7091409999985
 20
4989.8499910916917
 30
0.0
  0
ENDBLK
  5
7CB0
  8
0
  0
BLOCK
  8
0
  2
*D12
 70
     1
 10
0.0
 20
0.0
 30
0.0
  3
*D12
  1

  0
LINE
  5
7D9F
  8
0
  6
BYBLOCK
 62
     0
 10
5686.7091409999994
 20
5020.8090460000003
 30
0.0
 11
5686.7091409999994
 21
5827.9726989999999
 31
0.0
  0
LINE
  5
7DA0
  8
0
  6
BYBLOCK
 62
     0
 10
6256.7091409999994
 20
5734.9145950000002
 30
0.0
 11
6256.7091409999994
 21
5827.9726989999999
 31
0.0
  0
LINE
  5
7DA1
  8
0
  6
BYBLOCK
 62
     0
 10
5766.7091409999994
 20
5787.9726989999999
 30
0.0
 11
6176.7091409999994
 21
5787.9726989999999
 31
0.0
  0
INSERT
  5
7DA2
  8
3
  2
*U18
 10
0.0
 20
0.0
 30
0.0
  0
INSERT
  5
7DA3
  8
0
  6
BYBLOCK
 62
     0
  2
_OPEN
 10
5686.7091409999994
 20
5787.9726989999999
 30
0.0
 41
80.0
 42
80.0
 43
80.0
 50
180.0
  0
INSERT
  5
7DA4
  8
0
  6
BYBLOCK
 62
     0
  2
_OPEN
 10
6256.7091409999994
 20
5787.9726989999999
 30
0.0
 41
80.0
 42
80.0
 43
80.0
  0
POINT
  5
7DA5
  8
DEFPOINTS
  6
BYBLOCK
 62
     0
 10
5686.7091409999994
 20
5000.8090460000003
 30
0.0
  0
POINT
  5
7DA6
  8
DEFPOINTS
  6
BYBLOCK
 62
     0
 10
6256.7091409999994
 20
5714.9145950000002
 30
0.0
  0
POINT
  5
7DA7
  8
DEFPOINTS
  6
BYBLOCK
 62
     0
 10
6256.7091409999994
 20
5787.9726989999999
 30
0.0
  0
ENDBLK
  5
7DA8
  8
0
  0
BLOCK
  8
0
  2
*D13
 70
     1
 10
0.0
 20
0.0
 30
0.0
  3
*D13
  1

  0
LINE
  5
7D94
  8
0
  6
BYBLOCK
 62
     0
 10
6256.7091409999994
 20
5734.9145950000002
 30
0.0
 11
6256.7091409999994
 21
5827.9726989999999
 31
0.0
  0
LINE
  5
7D95
  8
0
  6
BYBLOCK
 62
     0
 10
6639.7091410000003
 20
5260.8090460000012
 30
0.0
 11
6639.7091410000003
 21
5827.9726989999999
 31
0.0
  0
LINE
  5
7D96
  8
0
  6
BYBLOCK
 62
     0
 10
6336.7091410000003
 20
5787.9726989999999
 30
0.0
 11
6559.7091409999994
 21
5787.9726989999999
 31
0.0
  0
TEXT
  5
7D97
  8
3
 62
     0
 10
6289.3124230828789
 20
5845.931625487101
 30
0.0
 40
120.0
  1
383
  0
INSERT
  5
7D98
  8
0
  6
BYBLOCK
 62
     0
  2
_OPEN
 10
6256.7091409999994
 20
5787.9726989999999
 30
0.0
 41
80.0
 42
80.0
 43
80.0
 50
180.0
  0
INSERT
  5
7D99
  8
0
  6
BYBLOCK
 62
     0
  2
_OPEN
 10
6639.7091410000003
 20
5787.9726989999999
 30
0.0
 41
80.0
 42
80.0
 43
80.0
  0
POINT
  5
7D9A
  8
DEFPOINTS
  6
BYBLOCK
 62
     0
 10
6256.7091409999994
 20
5714.9145950000002
 30
0.0
  0
POINT
  5
7D9B
  8
DEFPOINTS
  6
BYBLOCK
 62
     0
 10
6639.7091410000003
 20
5240.8090460000003
 30
0.0
  0
POINT
  5
7D9C
  8
DEFPOINTS
  6
BYBLOCK
 62
     0
 10
6639.7091410000003
 20
5787.9726989999999
 30
0.0
  0
ENDBLK
  5
7D9D
  8
0
  0
BLOCK
  8
0
  2
*D14
 70
     1
 10
0.0
 20
0.0
 30
0.0
  3
*D14
  1

  0
LINE
  5
7F19
  8
3
  6
CONTINUOUS
 62
     0
 10
6659.7091409999994
 20
4690.621216091693
 30
0.0
 11
6995.8722654965259
 21
4690.621216091693
 31
0.0
  0
LINE
  5
7F1A
  8
3
  6
CONTINUOUS
 62
     0
 10
6659.7091409999994
 20
3890.621216091693
 30
0.0
 11
6995.8722654965259
 21
3890.621216091693
 31
0.0
  0
LINE
  5
7F1B
  8
3
  6
CONTINUOUS
 62
     0
 10
6955.872265496525
 20
4610.621216091693
 30
0.0
 11
6955.872265496525
 21
3970.621216091693
 31
0.0
  0
INSERT
  5
7F1C
  8
3
  6
CONTINUOUS
 62
     0
  2
_OPEN
 10
6955.872265496525
 20
4690.621216091693
 30
0.0
 41
80.0
 42
80.0
 43
80.0
 50
90.0
  0
INSERT
  5
7F1D
  8
3
  6
CONTINUOUS
 62
     0
  2
_OPEN
 10
6955.872265496525
 20
3890.621216091693
 30
0.0
 41
80.0
 42
80.0
 43
80.0
 50
270.0
  0
TEXT
  8
3
  40
120
  5
7F39
  62
0
  72
0
  71
0
 10
6615.87
 20
4066.58
 30
0.000000
  1
φ800
  0
POINT
  5
7F1F
  8
DEFPOINTS
  6
CONTINUOUS
 62
     0
 10
6639.7091410000003
 20
4690.621216091693
 30
0.0
  0
POINT
  5
7F20
  8
DEFPOINTS
  6
CONTINUOUS
 62
     0
 10
6639.7091410000003
 20
3890.621216091693
 30
0.0
  0
POINT
  5
7F21
  8
DEFPOINTS
  6
CONTINUOUS
 62
     0
 10
6955.872265496525
 20
3890.621216091693
 30
0.0
  0
ENDBLK
  5
7DED
  8
0
  0
BLOCK
  8
0
  2
*D15
 70
     1
 10
0.0
 20
0.0
 30
0.0
  3
*D15
  1

  0
LINE
  5
7D7E
  8
0
  6
BYBLOCK
 62
     0
 10
5759.7091410000003
 20
4080.8090459999999
 30
0.0
 11
5759.7091410000003
 21
3737.133065
 31
0.0
  0
LINE
  5
7D7F
  8
0
  6
BYBLOCK
 62
     0
 10
6256.7091409999994
 20
4025.7605610000001
 30
0.0
 11
6256.7091409999994
 21
3737.133065
 31
0.0
  0
LINE
  5
7D80
  8
0
  6
BYBLOCK
 62
     0
 10
5839.7091410000003
 20
3777.133065
 30
0.0
 11
6176.7091409999994
 21
3777.133065
 31
0.0
  0
TEXT
  5
7D81
  8
3
 62
     0
 10
5853.9234267142847
 20
3821.7921721490238
 30
0.0
 40
120.0
  1
497
  0
INSERT
  5
7D82
  8
0
  6
BYBLOCK
 62
     0
  2
_OPEN
 10
5759.7091410000003
 20
3777.133065
 30
0.0
 41
80.0
 42
80.0
 43
80.0
 50
180.0
  0
INSERT
  5
7D83
  8
0
  6
BYBLOCK
 62
     0
  2
_OPEN
 10
6256.7091409999994
 20
3777.133065
 30
0.0
 41
80.0
 42
80.0
 43
80.0
  0
POINT
  5
7D84
  8
DEFPOINTS
  6
BYBLOCK
 62
     0
 10
5759.7091410000003
 20
4100.8090460000012
 30
0.0
  0
POINT
  5
7D85
  8
DEFPOINTS
  6
BYBLOCK
 62
     0
 10
6256.7091409999994
 20
4045.7605610000001
 30
0.0
  0
POINT
  5
7D86
  8
DEFPOINTS
  6
BYBLOCK
 62
     0
 10
6256.7091409999994
 20
3777.133065
 30
0.0
  0
ENDBLK
  5
7D87
  8
0
  0
BLOCK
  8
0
  2
*D16
 70
     1
 10
0.0
 20
0.0
 30
0.0
  3
*D16
  1

  0
LINE
  5
7D89
  8
0
  6
BYBLOCK
 62
     0
 10
6256.7091409999994
 20
4025.7605610000001
 30
0.0
 11
6256.7091409999994
 21
3737.133065
 31
0.0
  0
LINE
  5
7D8A
  8
0
  6
BYBLOCK
 62
     0
 10
6609.7091409999994
 20
4080.8090459999999
 30
0.0
 11
6609.7091409999994
 21
3737.133065
 31
0.0
  0
LINE
  5
7D8B
  8
0
  6
BYBLOCK
 62
     0
 10
6336.7091410000003
 20
3777.133065
 30
0.0
 11
6529.7091409999994
 21
3777.133065
 31
0.0
  0
TEXT
  5
7D8C
  8
3
 62
     0
 10
6281.5507032823843
 20
3829.5474904639818
 30
0.0
 40
120.0
  1
353
  0
INSERT
  5
7D8D
  8
0
  6
BYBLOCK
 62
     0
  2
_OPEN
 10
6256.7091409999994
 20
3777.133065
 30
0.0
 41
80.0
 42
80.0
 43
80.0
 50
180.0
  0
INSERT
  5
7D8E
  8
0
  6
BYBLOCK
 62
     0
  2
_OPEN
 10
6609.7091409999994
 20
3777.133065
 30
0.0
 41
80.0
 42
80.0
 43
80.0
  0
POINT
  5
7D8F
  8
DEFPOINTS
  6
BYBLOCK
 62
     0
 10
6256.7091409999994
 20
4045.7605610000001
 30
0.0
  0
POINT
  5
7D90
  8
DEFPOINTS
  6
BYBLOCK
 62
     0
 10
6609.7091409999994
 20
4100.8090460000012
 30
0.0
  0
POINT
  5
7D91
  8
DEFPOINTS
  6
BYBLOCK
 62
     0
 10
6609.7091409999994
 20
3777.133065
 30
0.0
  0
ENDBLK
  5
7D92
  8
0
  0
BLOCK
  8
0
  2
*D17
 70
     1
 10
0.0
 20
0.0
 30
0.0
  3
*D17
  1

  0
LINE
  5
7F27
  8
3
 62
     0
 10
1834.3631239999991
 20
4330.6212160916921
 30
0.0
 11
1834.3631239999991
 21
5544.31832425842
 31
0.0
  0
LINE
  5
7F28
  8
3
 62
     0
 10
3602.363124
 20
3710.621216091693
 30
0.0
 11
3602.363124
 21
5544.31832425842
 31
0.0
  0
LINE
  5
7F29
  8
3
 62
     0
 10
1914.3631239999991
 20
5504.31832425842
 30
0.0
 11
3522.363124
 21
5504.31832425842
 31
0.0
  0
INSERT
  5
7F2A
  8
3
 62
     0
  2
_OPEN
 10
1834.3631239999991
 20
5504.31832425842
 30
0.0
 41
80.0
 42
80.0
 43
80.0
 50
180.0
  0
INSERT
  5
7F2B
  8
3
 62
     0
  2
_OPEN
 10
3602.363124
 20
5504.31832425842
 30
0.0
 41
80.0
 42
80.0
 43
80.0
  0
TEXT
  8
3
  40
120
  5
7F3A
  62
0
  72
0
  71
0
 10
2571.11
 20
5391.92
 30
0.000000
  1
1768
  0
POINT
  5
7F2D
  8
DEFPOINTS
 62
     0
 10
1834.3631239999991
 20
4310.621216091693
 30
0.0
  0
POINT
  5
7F2E
  8
DEFPOINTS
 62
     0
 10
3602.363124
 20
3690.621216091693
 30
0.0
  0
POINT
  5
7F2F
  8
DEFPOINTS
 62
     0
 10
3602.363124
 20
5504.31832425842
 30
0.0
  0
ENDBLK
  5
7DD6
  8
0
  0
BLOCK
  8
0
  2
*U18
 70
     1
 10
0.0
 20
0.0
 30
0.0
  3
*U18
  1

  0
TEXT
  5
7F23
  8
3
 62
     0
 10
5806.4658394544394
 20
6038.9954934467351
 30
0.0
 40
120.0
  1
MAX
  0
TEXT
  5
7F24
  8
3
 62
     0
 10
5823.6086965972972
 20
5838.9954934467351
 30
0.0
 40
120.0
  1
660
  0
ENDBLK
  5
7F26
  8
0
  0
ENDSEC
  0
SECTION
  2
ENTITIES
  0
LINE
  5
7A66
  8
1
  6
CONTINUOUS
 10
3325.963123999999
 20
3826.0212160916922
 30
0.0
 11
2366.2631240000001
 21
4197.3212160916928
 31
0.0
  0
LINE
  5
7A67
  8
1
  6
CONTINUOUS
 10
3426.2631240000001
 20
4065.8212160916928
 30
0.0
 11
2481.7631240000001
 21
4474.2212160916924
 31
0.0
  0
LINE
  5
7A68
  8
1
  6
CONTINUOUS
 10
3386.5631239999998
 20
3974.0212160916922
 30
0.0
 11
2442.0631239999998
 21
4382.4212160916932
 31
0.0
  0
POLYLINE
  5
7A69
  8
1
  6
CONTINUOUS
 66
     1
 10
0.0
 20
0.0
 30
0.0
  0
VERTEX
  5
7EBF
  8
1
  6
CONTINUOUS
 10
3250.3631239999991
 20
4835.621216091693
 30
0.0
  0
VERTEX
  5
7EC0
  8
1
  6
CONTINUOUS
 10
3206.3631239999991
 20
4290.6212160916921
 30
0.0
 42
-0.4
  0
VERTEX
  5
7EC1
  8
1
  6
CONTINUOUS
 10
2461.363124
 20
3602.3212160916919
 30
0.0
 42
-0.4
  0
VERTEX
  5
7EC2
  8
1
  6
CONTINUOUS
 10
1835.663123999999
 20
4299.2212160916933
 30
0.0
 42
-0.4
  0
VERTEX
  5
7EC3
  8
1
  6
CONTINUOUS
 10
2354.8631239999991
 20
4765.3212160916928
 30
0.0
  0
VERTEX
  5
7EC4
  8
1
  6
CONTINUOUS
 10
2425.3631239999991
 20
4759.5212160916926
 30
0.0
 42
-0.4
  0
SEQEND
  5
7EC5
  8
1
  6
CONTINUOUS
  0
LINE
  5
7A71
  8
1
  6
CONTINUOUS
 10
1902.3631239999991
 20
3590.621216091693
 30
0.0
 11
3602.363124
 21
3590.621216091693
 31
0.0
  0
LINE
  5
7A72
  8
1
  6
CONTINUOUS
 10
1902.3631239999991
 20
3690.621216091693
 30
0.0
 11
3602.363124
 21
3690.621216091693
 31
0.0
  0
ARC
  5
7A73
  8
1
  6
CONTINUOUS
 10
3354.8631239999991
 20
3900.621216091693
 30
0.0
 40
162.0
 50
325.0
 51
214.99999999999989
  0
LINE
  5
7A74
  8
1
  6
CONTINUOUS
 10
3516.863124
 20
7867.7427235379737
 30
0.0
 11
3250.3631239999991
 21
7867.7427235379737
 31
0.0
  0
LINE
  5
7A75
  8
1
  6
CONTINUOUS
 10
3516.863124
 20
7382.7427235379737
 30
0.0
 11
3192.863124
 21
7382.7427235379737
 31
0.0
  0
CIRCLE
  5
7A76
  8
1
  6
CONTINUOUS
 10
3354.8631239999991
 20
3900.621216091693
 30
0.0
 40
80.0
  0
LINE
  5
7A77
  8
2
  6
CENTER
 10
3434.863124
 20
3900.621216091693
 30
0.0
 11
3274.8631239999991
 21
3900.621216091693
 31
0.0
  0
ARC
  5
7A78
  8
1
  6
CONTINUOUS
 10
3354.8631239999991
 20
3900.621216091693
 30
0.0
 40
180.0
 50
248.7999999999999
 51
66.599999999999994
  0
LINE
  5
7A79
  8
1
  6
CONTINUOUS
 10
3167.3631239999991
 20
3740.6212160916921
 30
0.0
 11
3542.363124
 21
3740.6212160916921
 31
0.0
  0
LINE
  5
7A7A
  8
1
  6
CONTINUOUS
 10
2202.363124
 20
7171.0427235379739
 30
0.0
 11
3534.863124
 21
7171.0427235379739
 31
0.0
  0
LINE
  5
7A7B
  8
1
  6
CONTINUOUS
 10
2202.363124
 20
7331.042723537973
 30
0.0
 11
3534.863124
 21
7331.042723537973
 31
0.0
  0
LINE
  5
7A7C
  8
1
  6
CONTINUOUS
 10
3274.863124
 20
7204.042723537973
 30
0.0
 11
3434.863124
 21
7204.042723537973
 31
0.0
  0
LINE
  5
7A7D
  8
1
  6
CONTINUOUS
 10
3274.863124
 20
7284.042723537973
 30
0.0
 11
3434.863124
 21
7284.042723537973
 31
0.0
  0
LINE
  5
7A7E
  8
1
  6
CONTINUOUS
 10
2802.363124
 20
8094.0427235379739
 30
0.0
 11
3602.363124
 21
8094.0427235379739
 31
0.0
  0
LINE
  5
7A7F
  8
1
  6
CONTINUOUS
 10
3289.8631239999991
 20
3732.721216091692
 30
0.0
 11
2330.1631239999988
 21
4104.121216091693
 31
0.0
  0
LINE
  5
7A80
  8
1
  6
CONTINUOUS
 10
2382.8631239999991
 20
4835.621216091693
 30
0.0
 11
3292.8631239999991
 21
4835.621216091693
 31
0.0
  0
CIRCLE
  5
7A81
  8
1
  6
CONTINUOUS
 10
2402.3631239999991
 20
4290.6212160916921
 30
0.0
 40
400.0
  0
CIRCLE
  5
7A82
  8
1
  6
CONTINUOUS
 10
2402.3631239999991
 20
4290.6212160916921
 30
0.0
 40
440.0
  0
CIRCLE
  5
7A83
  8
1
  6
CONTINUOUS
 10
2402.3631239999991
 20
4290.6212160916921
 30
0.0
 40
100.0
  0
LINE
  5
7A84
  8
2
  6
CENTER
 10
1736.7878999230011
 20
4290.6212160916921
 30
0.0
 11
3432.236801
 21
4290.6212160916921
 31
0.0
  0
ARC
  5
7A85
  8
1
  6
CONTINUOUS
 10
2402.3631239999991
 20
4290.6212160916921
 30
0.0
 40
200.0
 50
66.599999999999994
 51
248.7999999999999
  0
LINE
  5
7A86
  8
1
  6
CONTINUOUS
 10
1902.3631239999991
 20
3690.621216091693
 30
0.0
 11
1902.3631239999991
 21
3590.621216091693
 31
0.0
  0
LINE
  5
7A87
  8
2
  6
CENTER
 10
2402.3631239999991
 20
3451.4451570916922
 30
0.0
 11
2402.3631239999991
 21
4858.7639810916917
 31
0.0
  0
LINE
  5
7A88
  8
1
  6
CONTINUOUS
 10
3157.3631239999991
 20
3690.621216091693
 30
0.0
 11
3167.3631239999991
 21
3740.6212160916921
 31
0.0
  0
LINE
  5
7A89
  8
1
  6
CONTINUOUS
 10
3200.8631239999991
 20
3758.621216091693
 30
0.0
 11
3222.1631240000002
 21
3807.621216091693
 31
0.0
  0
LINE
  5
7A8A
  8
1
  6
CONTINUOUS
 10
3200.8631239999991
 20
3740.6212160916921
 30
0.0
 11
3200.8631239999991
 21
3758.621216091693
 31
0.0
  0
LINE
  5
7A8B
  8
1
  6
CONTINUOUS
 10
2425.3631239999991
 20
4795.621216091693
 30
0.0
 11
3250.3631239999991
 21
4795.621216091693
 31
0.0
  0
LINE
  5
7A8C
  8
1
  6
CONTINUOUS
 10
2425.3631239999991
 20
4759.5212160916926
 30
0.0
 11
2425.3631239999991
 21
4835.621216091693
 31
0.0
  0
LINE
  5
7A8D
  8
1
  6
CONTINUOUS
 10
1832.0631239999991
 20
8041.0427235379748
 30
0.0
 11
3250.3631239999991
 21
8041.0427235379748
 31
0.0
  0
LINE
  5
7A8E
  8
1
  6
CONTINUOUS
 10
1832.0631239999991
 20
7441.0427235379739
 30
0.0
 11
3250.3631239999991
 21
7441.0427235379739
 31
0.0
  0
LINE
  5
7A8F
  8
1
  6
CONTINUOUS
 10
1962.3631239999991
 20
8124.042723537973
 30
0.0
 11
2842.363124
 21
8124.042723537973
 31
0.0
  0
LINE
  5
7A90
  8
1
  6
CONTINUOUS
 10
2302.363124
 20
7284.042723537973
 30
0.0
 11
2502.363124
 21
7284.042723537973
 31
0.0
  0
LINE
  5
7A91
  8
1
  6
CONTINUOUS
 10
2302.363124
 20
7204.042723537973
 30
0.0
 11
2502.363124
 21
7204.042723537973
 31
0.0
  0
LINE
  5
7A92
  8
1
  6
CONTINUOUS
 10
1902.3631239999991
 20
7244.0427235379739
 30
0.0
 11
2302.363124
 21
7244.0427235379739
 31
0.0
  0
LINE
  5
7A93
  8
1
  6
CONTINUOUS
 10
1902.3631239999991
 20
8094.0427235379739
 30
0.0
 11
2002.3631239999991
 21
8094.0427235379739
 31
0.0
  0
LINE
  5
7A94
  8
1
  6
CONTINUOUS
 10
1832.0631239999991
 20
7441.0427235379739
 30
0.0
 11
1832.0631239999991
 21
8041.0427235379748
 31
0.0
  0
LINE
  5
7A95
  8
1
  6
CONTINUOUS
 10
1902.3631239999991
 20
7441.0427235379739
 30
0.0
 11
1902.3631239999991
 21
7244.0427235379739
 31
0.0
  0
LINE
  5
7A96
  8
1
  6
CONTINUOUS
 10
1902.3631239999991
 20
8094.0427235379739
 30
0.0
 11
1902.3631239999991
 21
8041.0427235379748
 31
0.0
  0
LINE
  5
7A97
  8
1
  6
CONTINUOUS
 10
2202.363124
 20
7171.0427235379739
 30
0.0
 11
2202.363124
 21
7331.042723537973
 31
0.0
  0
LINE
  5
7A98
  8
1
  6
CONTINUOUS
 10
2302.363124
 20
7204.042723537973
 30
0.0
 11
2302.363124
 21
7284.042723537973
 31
0.0
  0
LINE
  5
7A99
  8
1
  6
CONTINUOUS
 10
2381.3631239999991
 20
7284.042723537973
 30
0.0
 11
2381.3631239999991
 21
7441.0427235379739
 31
0.0
  0
LINE
  5
7A9A
  8
1
  6
CONTINUOUS
 10
2002.3631239999991
 20
8041.0427235379748
 30
0.0
 11
2002.3631239999991
 21
8124.042723537973
 31
0.0
  0
LINE
  5
7A9B
  8
1
  6
CONTINUOUS
 10
2425.363124
 20
8041.0427235379748
 30
0.0
 11
3250.3631239999991
 21
7441.0427235379739
 31
0.0
  0
LINE
  5
7A9C
  8
1
  6
CONTINUOUS
 10
2425.363124
 20
7441.0427235379739
 30
0.0
 11
3250.3631239999991
 21
8041.0427235379748
 31
0.0
  0
LINE
  5
7A9D
  8
1
  6
CONTINUOUS
 10
2502.363124
 20
7244.0427235379739
 30
0.0
 11
3274.863124
 21
7244.0427235379739
 31
0.0
  0
LINE
  5
7A9E
  8
1
  6
CONTINUOUS
 10
2425.363124
 20
7441.0427235379739
 30
0.0
 11
2425.363124
 21
8041.0427235379748
 31
0.0
  0
LINE
  5
7A9F
  8
1
  6
CONTINUOUS
 10
2502.363124
 20
7204.042723537973
 30
0.0
 11
2502.363124
 21
7284.042723537973
 31
0.0
  0
LINE
  5
7AA0
  8
1
  6
CONTINUOUS
 10
2423.363124
 20
7284.042723537973
 30
0.0
 11
2423.363124
 21
7441.0427235379739
 31
0.0
  0
LINE
  5
7AA1
  8
1
  6
CONTINUOUS
 10
2802.363124
 20
8041.0427235379748
 30
0.0
 11
2802.363124
 21
8124.042723537973
 31
0.0
  0
LINE
  5
7AA2
  8
1
  6
CONTINUOUS
 10
3250.3631239999991
 20
7441.0427235379739
 30
0.0
 11
3250.3631239999991
 21
8041.0427235379748
 31
0.0
  0
LINE
  5
7AA3
  8
1
  6
CONTINUOUS
 10
3192.863124
 20
7382.7427235379737
 30
0.0
 11
3192.863124
 21
7441.0427235379739
 31
0.0
  0
LINE
  5
7AA4
  8
1
  6
CONTINUOUS
 10
3274.863124
 20
7204.042723537973
 30
0.0
 11
3274.863124
 21
7284.042723537973
 31
0.0
  0
LINE
  5
7AA5
  8
1
  6
CONTINUOUS
 10
3542.363124
 20
3740.6212160916921
 30
0.0
 11
3552.3631240000009
 21
3690.621216091693
 31
0.0
  0
LINE
  5
7AA6
  8
1
  6
CONTINUOUS
 10
3602.363124
 20
3690.621216091693
 30
0.0
 11
3602.363124
 21
3590.621216091693
 31
0.0
  0
LINE
  5
7AA7
  8
1
  6
CONTINUOUS
 10
3508.863124
 20
3740.6212160916921
 30
0.0
 11
3508.863124
 21
3758.621216091693
 31
0.0
  0
LINE
  5
7AA8
  8
1
  6
CONTINUOUS
 10
3508.863124
 20
3758.621216091693
 30
0.0
 11
3487.5631239999998
 21
3807.621216091693
 31
0.0
  0
LINE
  5
7AA9
  8
2
  6
CENTER
 10
3354.8631239999991
 20
3820.621216091693
 30
0.0
 11
3354.8631239999991
 21
3980.621216091693
 31
0.0
  0
LINE
  5
7AAA
  8
1
  6
CONTINUOUS
 10
3516.863124
 20
7382.7427235379737
 30
0.0
 11
3516.863124
 21
7867.7427235379737
 31
0.0
  0
LINE
  5
7AAB
  8
1
  6
CONTINUOUS
 10
3602.363124
 20
8094.0427235379739
 30
0.0
 11
3602.363124
 21
7244.0427235379739
 31
0.0
  0
LINE
  5
7AAC
  8
1
  6
CONTINUOUS
 10
3434.863124
 20
7244.0427235379739
 30
0.0
 11
3602.363124
 21
7244.0427235379739
 31
0.0
  0
LINE
  5
7AAD
  8
1
  6
CONTINUOUS
 10
3333.863124
 20
7284.042723537973
 30
0.0
 11
3333.863124
 21
7382.7427235379737
 31
0.0
  0
LINE
  5
7AAE
  8
1
  6
CONTINUOUS
 10
3375.863124
 20
7284.042723537973
 30
0.0
 11
3375.863124
 21
7382.7427235379737
 31
0.0
  0
LINE
  5
7AAF
  8
1
  6
CONTINUOUS
 10
3434.863124
 20
7204.042723537973
 30
0.0
 11
3434.863124
 21
7284.042723537973
 31
0.0
  0
LINE
  5
7AB0
  8
1
  6
CONTINUOUS
 10
3534.863124
 20
7171.0427235379739
 30
0.0
 11
3534.863124
 21
7331.042723537973
 31
0.0
  0
LINE
  5
7AB1
  8
1
  6
CONTINUOUS
 10
5806.7091409999994
 20
3921.621216091693
 30
0.0
 11
5956.7091410000003
 21
3921.621216091693
 31
0.0
  0
LINE
  5
7AB2
  8
1
  6
CONTINUOUS
 10
5806.7091409999994
 20
3879.621216091693
 30
0.0
 11
5956.7091410000003
 21
3879.621216091693
 31
0.0
  0
LINE
  5
7AB3
  8
1
  6
CONTINUOUS
 10
5806.7091409999994
 20
4269.6212160916921
 30
0.0
 11
5956.7091410000003
 21
4269.6212160916921
 31
0.0
  0
LINE
  5
7AB4
  8
1
  6
CONTINUOUS
 10
5806.7091409999994
 20
4311.621216091693
 30
0.0
 11
5956.7091410000003
 21
4311.621216091693
 31
0.0
  0
LINE
  5
7AB5
  8
1
  6
CONTINUOUS
 10
6609.7091409999994
 20
3690.621216091693
 30
0.0
 11
5759.7091410000003
 21
3690.621216091693
 31
0.0
  0
LINE
  5
7AB6
  8
1
  6
CONTINUOUS
 10
6609.7091409999994
 20
3590.621216091693
 30
0.0
 11
5759.7091410000003
 21
3590.621216091693
 31
0.0
  0
LINE
  5
7AB7
  8
1
  6
CONTINUOUS
 10
5726.7091409999994
 20
4390.621216091693
 30
0.0
 11
5726.7091409999994
 21
4190.621216091693
 31
0.0
  0
LINE
  5
7AB8
  8
1
  6
CONTINUOUS
 10
5806.7091409999994
 20
4390.621216091693
 30
0.0
 11
5806.7091409999994
 21
4190.621216091693
 31
0.0
  0
LINE
  5
7AB9
  8
1
  6
CONTINUOUS
 10
5846.7091409999994
 20
4490.6212160916921
 30
0.0
 11
5846.7091409999994
 21
3720.621216091693
 31
0.0
  0
LINE
  5
7ABA
  8
1
  6
CONTINUOUS
 10
5686.7091409999994
 20
4490.6212160916921
 30
0.0
 11
5686.7091409999994
 21
3720.621216091693
 31
0.0
  0
LINE
  5
7ABB
  8
1
  6
CONTINUOUS
 10
5759.7091410000003
 20
3690.621216091693
 30
0.0
 11
5759.7091410000003
 21
3590.621216091693
 31
0.0
  0
LINE
  5
7ABC
  8
1
  6
CONTINUOUS
 10
5806.7091409999994
 20
3980.621216091693
 30
0.0
 11
5806.7091409999994
 21
3820.621216091693
 31
0.0
  0
LINE
  5
7ABD
  8
1
  6
CONTINUOUS
 10
5726.7091409999994
 20
3980.621216091693
 30
0.0
 11
5726.7091409999994
 21
3820.621216091693
 31
0.0
  0
LINE
  5
7ABE
  8
1
  6
CONTINUOUS
 10
5726.7091409999994
 20
3980.621216091693
 30
0.0
 11
5806.7091409999994
 21
3980.621216091693
 31
0.0
  0
LINE
  5
7ABF
  8
1
  6
CONTINUOUS
 10
5726.7091409999994
 20
3820.621216091693
 30
0.0
 11
5806.7091409999994
 21
3820.621216091693
 31
0.0
  0
LINE
  5
7AC0
  8
1
  6
CONTINUOUS
 10
5686.7091409999994
 20
3720.621216091693
 30
0.0
 11
5846.7091409999994
 21
3720.621216091693
 31
0.0
  0
LINE
  5
7AC1
  8
1
  6
CONTINUOUS
 10
5726.7091409999994
 20
4190.621216091693
 30
0.0
 11
5806.7091409999994
 21
4190.621216091693
 31
0.0
  0
LINE
  5
7AC2
  8
1
  6
CONTINUOUS
 10
5726.7091409999994
 20
4390.621216091693
 30
0.0
 11
5806.7091409999994
 21
4390.621216091693
 31
0.0
  0
LINE
  5
7AC3
  8
1
  6
CONTINUOUS
 10
5686.7091409999994
 20
4490.6212160916921
 30
0.0
 11
5846.7091409999994
 21
4490.6212160916921
 31
0.0
  0
LINE
  5
7AC4
  8
1
  6
CONTINUOUS
 10
6639.7091410000003
 20
4730.621216091693
 30
0.0
 11
6639.7091410000003
 21
3850.621216091693
 31
0.0
  0
LINE
  5
7AC5
  8
1
  6
CONTINUOUS
 10
6556.7091409999985
 20
4835.621216091693
 30
0.0
 11
6556.7091409999985
 21
3690.621216091693
 31
0.0
  0
LINE
  5
7AC6
  8
1
  6
CONTINUOUS
 10
5956.7091410000003
 20
4835.621216091693
 30
0.0
 11
5956.7091410000003
 21
3690.621216091693
 31
0.0
  0
LINE
  5
7AC7
  8
1
  6
CONTINUOUS
 10
6609.7091409999994
 20
3690.621216091693
 30
0.0
 11
6609.7091409999994
 21
3590.621216091693
 31
0.0
  0
LINE
  5
7AC8
  8
1
  6
CONTINUOUS
 10
6556.7091409999985
 20
3890.621216091693
 30
0.0
 11
6639.7091410000003
 21
3890.621216091693
 31
0.0
  0
LINE
  5
7AC9
  8
1
  6
CONTINUOUS
 10
5916.7091410000003
 20
4835.621216091693
 30
0.0
 11
6596.7091409999994
 21
4835.621216091693
 31
0.0
  0
LINE
  5
7ACA
  8
1
  6
CONTINUOUS
 10
5956.7091410000003
 20
4795.621216091693
 30
0.0
 11
6556.7091409999985
 21
4795.621216091693
 31
0.0
  0
LINE
  5
7ACB
  8
1
  6
CONTINUOUS
 10
6556.7091409999985
 20
4690.621216091693
 30
0.0
 11
6639.7091410000003
 21
4690.621216091693
 31
0.0
  0
DIMENSION
  5
7AE1
  8
3
  6
CONTINUOUS
  2
*D1
 10
2402.3631239999991
 20
3281.5796340916918
 30
0.0
 11
2152.3631239999991
 21
3394.8702971855892
 31
0.0
 12
0.0
 22
-510.18782990830732
 32
0.0
 70
   128
 13
1902.3631239999991
 23
3590.621216091693
 33
0.0
 14
2402.3631239999991
 24
3451.4451570916922
 34
0.0
1001
ACAD
1000
DSTYLE
1002
{
1070
   288
1070
     1
1070
   172
1070
     1
1070
    40
1040
40.0
1070
   271
1070
     0
1070
   143
1040
0.039
1002
}
  0
DIMENSION
  5
7AED
  8
3
  6
CONTINUOUS
  2
*D2
 10
3602.363124
 20
3281.5796340916918
 30
0.0
 11
3002.363124
 21
3381.5796340916918
 31
0.0
 70
     0
 13
2402.3631239999991
 23
3451.4451570916922
 33
0.0
 14
3602.363124
 24
3590.621216091693
 34
0.0
1001
ACAD
1000
DSTYLE
1002
{
1070
   287
1070
     3
1070
   287
1070
     3
1070
    40
1040
40.0
1070
   143
1040
0.039
1070
   172
1070
     1
1070
   271
1070
     0
1070
   279
1070
     0
1070
   288
1070
     1
1002
}
  0
DIMENSION
  5
7AFC
  8
3
  6
CONTINUOUS
  2
*D3
 10
3871.9200420000002
 20
4290.6212160916921
 30
0.0
 11
3758.0399799210641
 21
4581.4348184365726
 31
0.0
 12
0.0
 22
-510.18782990830732
 32
0.0
 70
   128
 13
3292.8631239999991
 23
4835.621216091693
 33
0.0
 14
3432.236801
 24
4290.6212160916921
 34
0.0
 50
90.0
1001
ACAD
1000
DSTYLE
1002
{
1070
   288
1070
     1
1070
   172
1070
     1
1070
    40
1040
40.0
1070
   271
1070
     0
1070
   143
1040
0.039
1002
}
  0
DIMENSION
  5
7B08
  8
3
  6
CONTINUOUS
  2
*D4
 10
3871.9200420000002
 20
3590.621216091693
 30
0.0
 11
3771.9200419999988
 21
3940.6212160916939
 31
0.0
 70
     0
 13
3432.236801
 23
4290.6212160916921
 33
0.0
 14
3602.363124
 24
3590.621216091693
 34
0.0
 50
90.0
1001
ACAD
1000
DSTYLE
1002
{
1070
   287
1070
     3
1070
   287
1070
     3
1070
    40
1040
40.0
1070
   143
1040
0.039
1070
   172
1070
     1
1070
   271
1070
     0
1070
   279
1070
     0
1070
   288
1070
     1
1002
}
  0
DIMENSION
  5
7B15
  8
3
  6
CONTINUOUS
  2
*D5
 10
4135.1067117773509
 20
3590.621216091693
 30
0.0
 11
4135.10671177735
 21
4249.3801480916927
 31
0.0
 70
   128
 13
3292.8631239999991
 23
4835.621216091693
 33
0.0
 14
3602.363124
 24
3590.621216091693
 34
0.0
 50
90.0
1001
ACAD
1000
DSTYLE
1002
{
1070
   287
1070
     3
1070
   287
1070
     3
1070
    40
1040
40.0
1070
   143
1040
0.039
1070
   172
1070
     1
1070
   271
1070
     0
1070
   279
1070
     0
1070
   288
1070
     1
1002
}
  0
DIMENSION
  5
7B22
  8
3
  6
CONTINUOUS
  2
*D6
 10
3250.3631239999991
 20
5053.8743280916924
 30
0.0
 11
2848.0010259999999
 21
5053.8743280916924
 31
0.0
 70
   128
 13
2425.3631239999991
 23
4835.621216091693
 33
0.0
 14
3250.3631239999991
 24
4835.621216091693
 34
0.0
1001
ACAD
1000
DSTYLE
1002
{
1070
   287
1070
     3
1070
   287
1070
     3
1070
    40
1040
40.0
1070
   143
1040
0.039
1070
   172
1070
     1
1070
   271
1070
     0
1070
   279
1070
     0
1070
   288
1070
     1
1002
}
  0
DIMENSION
  5
7B2F
  8
3
  6
CONTINUOUS
  2
*D7
 10
2402.3631239999991
 20
5264.8811100916928
 30
0.0
 11
2809.281391
 21
5264.8811100916928
 31
0.0
 70
   128
 13
3250.3631239999991
 23
4835.621216091693
 33
0.0
 14
2402.3631239999991
 24
4761.4134150916934
 34
0.0
1001
ACAD
1000
DSTYLE
1002
{
1070
   287
1070
     3
1070
   287
1070
     3
1070
    40
1040
40.0
1070
   143
1040
0.039
1070
   172
1070
     1
1070
   271
1070
     0
1070
   279
1070
     0
1070
   288
1070
     1
1002
}
  0
DIMENSION
  5
7B3D
  8
3
  6
CONTINUOUS
  2
*D8
 10
1834.3631239999991
 20
5261.011118091692
 30
0.0
 11
2128.0774097142848
 21
5261.011118091692
 31
0.0
 70
   128
 13
2402.3631239999991
 23
4761.4134150916934
 33
0.0
 14
1834.3631239999991
 24
4290.6212160916921
 34
0.0
1001
ACAD
1000
DSTYLE
1002
{
1070
   287
1070
     3
1070
   287
1070
     3
1070
    40
1040
40.0
1070
   143
1040
0.039
1070
   172
1070
     1
1070
   271
1070
     0
1070
   279
1070
     0
1070
   288
1070
     1
1002
}
  0
DIMENSION
  5
7B60
  8
3
  6
CONTINUOUS
  2
*D9
 10
3602.363124
 20
6745.8039705379742
 30
0.0
 11
2753.3530470000001
 21
6745.8039705379742
 31
0.0
 70
   128
 13
1902.3631239999991
 23
7244.0427235379739
 33
0.0
 14
3602.363124
 24
7244.0427235379739
 34
0.0
1001
ACAD
1000
DSTYLE
1002
{
1070
   287
1070
     3
1070
   287
1070
     3
1070
    40
1040
40.0
1070
   143
1040
0.039
1070
   172
1070
     1
1070
   271
1070
     0
1070
   279
1070
     0
1070
   288
1070
     1
1002
}
  0
DIMENSION
  5
7B6D
  8
3
  6
CONTINUOUS
  2
*D10
 10
3966.5680220000008
 20
7244.0427235379739
 30
0.0
 11
3966.5680219999999
 21
7692.1167885379728
 31
0.0
 70
   128
 13
3602.363124
 23
8094.0427235379739
 33
0.0
 14
3602.363124
 24
7244.0427235379739
 34
0.0
 50
90.0
1001
ACAD
1000
DSTYLE
1002
{
1070
   287
1070
     3
1070
   287
1070
     3
1070
    40
1040
40.0
1070
   143
1040
0.039
1070
   172
1070
     1
1070
   271
1070
     0
1070
   279
1070
     0
1070
   288
1070
     1
1002
}
  0
LINE
  5
7B6E
  8
2
  6
CENTER
 10
3306.291467999999
 20
7741.0427235379739
 30
0.0
 11
1742.340522
 21
7741.0427235379739
 31
0.0
  0
LINE
  5
7B6F
  8
2
  6
CENTER
 10
2402.363124
 20
7062.1113715379752
 30
0.0
 11
2402.363124
 21
8212.4070455379733
 31
0.0
  0
LINE
  5
7B70
  8
2
  6
CENTER
 10
6256.7091409999994
 20
4939.573336091692
 30
0.0
 11
6256.7091409999994
 21
3535.5727310916918
 31
0.0
  0
DIMENSION
  5
7B7F
  8
3
  6
CONTINUOUS
  2
*D11
 10
6556.7091409999985
 20
4989.8499910916917
 30
0.0
 11
6230.9948552857149
 21
4989.8499910916917
 31
0.0
 70
   128
 13
5956.7091410000003
 23
4835.621216091693
 33
0.0
 14
6556.7091409999985
 24
4835.621216091693
 34
0.0
1001
ACAD
1000
DSTYLE
1002
{
1070
   287
1070
     3
1070
   287
1070
     3
1070
    40
1040
40.0
1070
   143
1040
0.039
1070
   172
1070
     1
1070
   271
1070
     0
1070
   279
1070
     0
1070
   288
1070
     1
1002
}
  0
DIMENSION
  5
7B9F
  8
3
  6
CONTINUOUS
  2
*D12
 10
6256.7091409999994
 20
5277.7848690916926
 30
0.0
 11
5977.894410883011
 21
5488.8076635384277
 31
0.0
 12
0.0
 22
-510.18782990830732
 32
0.0
 70
   128
  1
MAX\P660
 13
5686.7091409999994
 23
4490.6212160916921
 33
0.0
 14
6256.7091409999994
 24
5204.7267650916929
 34
0.0
1001
ACAD
1000
DSTYLE
1002
{
1070
   288
1070
     1
1070
   172
1070
     1
1070
    40
1040
40.0
1070
   271
1070
     0
1070
   143
1040
0.039
1002
}
  0
DIMENSION
  5
7BAD
  8
3
  6
CONTINUOUS
  2
*D13
 10
6639.7091410000003
 20
5277.7848690916926
 30
0.0
 11
6443.5981373685927
 21
5395.7437955787937
 31
0.0
 12
0.0
 22
-510.18782990830732
 32
0.0
 70
   128
 13
6256.7091409999994
 23
5204.7267650916929
 33
0.0
 14
6639.7091410000003
 24
4730.621216091693
 34
0.0
1001
ACAD
1000
DSTYLE
1002
{
1070
   288
1070
     1
1070
   172
1070
     1
1070
    40
1040
40.0
1070
   271
1070
     0
1070
   143
1040
0.039
1002
}
  0
DIMENSION
  5
7BD0
  8
3
  6
CONTINUOUS
  2
*D14
 10
6955.872265496525
 20
3890.621216091693
 30
0.0
 11
6955.8722654965231
 21
4278.9771873425707
 31
0.0
 70
   128
 13
6639.7091410000003
 23
4690.621216091693
 33
0.0
 14
6639.7091410000003
 24
3890.621216091693
 34
0.0
 50
90.0
1001
ACAD
1000
DSTYLE
1002
{
1070
   287
1070
     3
1070
   287
1070
     3
1070
     3
1000
φ<>
1070
    40
1040
40.0
1070
   143
1040
0.039
1070
   172
1070
     1
1070
   271
1070
     0
1070
   279
1070
     0
1070
   288
1070
     1
1002
}
  0
LINE
  5
7BD2
  8
2
  6
CENTER
 10
5597.569726461923
 20
4290.6212160916921
 30
0.0
 11
6624.481436
 21
4290.6212160916921
 31
0.0
  0
DIMENSION
  5
7BE1
  8
3
  6
CONTINUOUS
  2
*D15
 10
6256.7091409999994
 20
3266.9452350916922
 30
0.0
 11
6008.2091410000003
 21
3371.604342240717
 31
0.0
 12
0.0
 22
-510.18782990830732
 32
0.0
 70
   128
 13
5759.7091410000003
 23
3590.621216091693
 33
0.0
 14
6256.7091409999994
 24
3535.5727310916918
 34
0.0
1001
ACAD
1000
DSTYLE
1002
{
1070
   288
1070
     1
1070
   172
1070
     1
1070
    40
1040
40.0
1070
   271
1070
     0
1070
   143
1040
0.039
1002
}
  0
DIMENSION
  5
7BEF
  8
3
  6
CONTINUOUS
  2
*D16
 10
6609.7091409999994
 20
3266.9452350916922
 30
0.0
 11
6435.8364175680972
 21
3379.3596605556741
 31
0.0
 12
0.0
 22
-510.18782990830732
 32
0.0
 70
   128
 13
6256.7091409999994
 23
3535.5727310916918
 33
0.0
 14
6609.7091409999994
 24
3590.621216091693
 34
0.0
1001
ACAD
1000
DSTYLE
1002
{
1070
   288
1070
     1
1070
   172
1070
     1
1070
    40
1040
40.0
1070
   271
1070
     0
1070
   143
1040
0.039
1002
}
  0
LINE
  5
7C06
  8
4
  6
CONTINUOUS
 10
7400.0
 20
2000.0
 30
0.0
 11
7400.0
 21
1200.0
 31
0.0
  0
LINE
  5
7C07
  8
4
  6
CONTINUOUS
 10
4600.0
 20
2000.0
 30
0.0
 11
4600.0
 21
1200.0
 31
0.0
  0
LINE
  5
7C08
  8
4
  6
CONTINUOUS
 10
2600.0
 20
2000.0
 30
0.0
 11
2600.0
 21
1200.0
 31
0.0
  0
LINE
  5
7C0B
  8
4
  6
CONTINUOUS
 10
2600.0
 20
1200.0
 30
0.0
 11
7400.0
 21
1200.0
 31
0.0
  0
LINE
  5
7C0C
  8
4
  6
CONTINUOUS
 10
2600.0
 20
1600.0
 30
0.0
 11
7400.0
 21
1600.0
 31
0.0
  0
TEXT
  5
7C0D
  8
4
  6
CONTINUOUS
 10
2754.0083239999999
 20
1726.1721030000001
 30
0.0
 40
200.0
  1
機器名称
  0
TEXT
  5
7C0E
  8
4
  6
CONTINUOUS
 10
2745.032424
 20
1286.580627
 30
0.0
 40
200.0
  1
機器型番
  0
TEXT
  5
7C0F
  8
4
  6
CONTINUOUS
 10
4710.7149820000004
 20
1690.2870760000001
 30
0.0
 40
168.88888899999989
  1
ミツヤリミットロードファン
  0
TEXT
  5
7C10
  8
4
  6
CONTINUOUS
 10
4746.6179819999998
 20
1268.6383370000001
 30
0.0
 40
200.0
  1
LLE#5-4
  0
TEXT
  5
7C12
  8
4
  6
CONTINUOUS
 10
3048.0428769999999
 20
9533.715365
 30
0.0
 40
216.0
  1
床置防振ベット
  0
TEXT
  5
7C13
  8
4
  6
CONTINUOUS
 10
1264.6703729999999
 20
10135.523905
 30
0.0
 40
240.0
  1
ベルト駆動式片吸込両持排煙ファン
  0
LINE
  5
7C14
  8
4
  6
CONTINUOUS
 10
1000.0
 20
9877.6350170000005
 30
0.0
 11
7400.0
 21
9877.6350170000005
 31
0.0
  0
LINE
  5
7C15
  8
4
  6
CONTINUOUS
 10
1000.0
 20
10677.635017000001
 30
0.0
 11
7400.0
 21
10677.635017000001
 31
0.0
  0
LINE
  5
7C16
  8
4
  6
CONTINUOUS
 10
2600.0
 20
2000.0
 30
0.0
 11
7400.0
 21
2000.0
 31
0.0
  0
LINE
  5
7C17
  8
4
  6
CONTINUOUS
 10
1000.0
 20
10677.635017000001
 30
0.0
 11
1000.0
 21
9877.6350170000005
 31
0.0
  0
TEXT
  5
7C18
  8
4
  6
CONTINUOUS
 10
1304.607547999999
 20
9529.2779099999989
 30
0.0
 40
216.0
  1
左回転上向
  0
TEXT
  5
7C19
  8
4
  6
CONTINUOUS
 10
5875.8782369999999
 20
10824.244326
 30
0.0
 40
224.0
  1
No.
  0
TEXT
  5
7C1A
  8
4
  6
CONTINUOUS
 10
5245.1842509999997
 20
9533.715365
 30
0.0
 40
216.0
  1
縮尺：1/40
  0
LINE
  5
7C1B
  8
4
  6
CONTINUOUS
 10
7400.0
 20
10677.635017000001
 30
0.0
 11
7400.0
 21
9877.6350170000005
 31
0.0
  0
LINE
  5
7C1D
  8
4
  6
CONTINUOUS
 10
5762.4696899999999
 20
10725.054331999991
 30
0.0
 11
5762.4696899999999
 21
11146.609046
 31
0.0
  0
LINE
  5
7C1E
  8
4
  6
CONTINUOUS
 10
5762.4696899999999
 20
11146.609046
 30
0.0
 11
7400.0
 21
11146.609046
 31
0.0
  0
LINE
  5
7C1F
  8
4
  6
CONTINUOUS
 10
7400.0
 20
11146.609046
 30
0.0
 11
7400.0
 21
10725.054331999991
 31
0.0
  0
LINE
  5
7C20
  8
4
  6
CONTINUOUS
 10
7400.0
 20
10725.054331999991
 30
0.0
 11
5762.4696899999999
 21
10725.054331999991
 31
0.0
  0
DIMENSION
  5
7DD7
  8
3
  2
*D17
 10
3602.363124
 20
5504.31832425842
 30
0.0
 11
2811.1090873489079
 21
5504.31832425842
 31
0.0
 70
   128
 13
1834.3631239999991
 23
4310.621216091693
 33
0.0
 14
3602.363124
 24
3690.621216091693
 34
0.0
1001
ACAD
1000
DSTYLE
1002
{
1070
   287
1070
     3
1070
   287
1070
     3
1070
    40
1040
40.0
1070
   143
1040
0.039
1070
   172
1070
     1
1070
   271
1070
     0
1070
   279
1070
     0
1070
   288
1070
     1
1002
}
  0
ENDSEC
  0
EOF
