  0
SECTION
  2
HEADER
  9
$ACADVER
  1
AC1009
  9
$INSBASE
 10
0.0
 20
0.0
 30
0.0
  9
$EXTMIN
 10
750.0
 20
900.0
 30
0.0
  9
$EXTMAX
 10
5550.0
 20
8359.9567845000001
 30
0.0
  9
$LIMMIN
 10
0.0
 20
0.0
  9
$LIMMAX
 10
297.0
 20
210.0
  9
$ORTHOMODE
 70
     0
  9
$REGENMODE
 70
     1
  9
$FILLMODE
 70
     0
  9
$QTEXTMODE
 70
     0
  9
$MIRRTEXT
 70
     1
  9
$DRAGMODE
 70
     2
  9
$LTSCALE
 40
100.0
  9
$OSMODE
 70
    37
  9
$ATTMODE
 70
     1
  9
$TEXTSIZE
 40
180.0
  9
$TRACEWID
 40
0.05
  9
$TEXTSTYLE
  7
STANDARD
  9
$CLAYER
  8
3
  9
$CELTYPE
  6
BYLAYER
  9
$CECOLOR
 62
   256
  9
$DIMSCALE
 40
30.0
  9
$DIMASZ
 40
2.0
  9
$DIMEXO
 40
0.5
  9
$DIMDLI
 40
10.0
  9
$DIMRND
 40
0.0
  9
$DIMDLE
 40
0.0
  9
$DIMEXE
 40
1.0
  9
$DIMTP
 40
1.0
  9
$DIMTM
 40
1.0
  9
$DIMTXT
 40
3.0
  9
$DIMCEN
 40
0.0
  9
$DIMTSZ
 40
0.0
  9
$DIMTOL
 70
     0
  9
$DIMLIM
 70
     0
  9
$DIMTIH
 70
     0
  9
$DIMTOH
 70
     0
  9
$DIMSE1
 70
     0
  9
$DIMSE2
 70
     0
  9
$DIMTAD
 70
     1
  9
$DIMZIN
 70
     8
  9
$DIMBLK
  1

  9
$DIMASO
 70
     1
  9
$DIMSHO
 70
     1
  9
$DIMPOST
  1
(<>)
  9
$DIMAPOST
  1

  9
$DIMALT
 70
     0
  9
$DIMALTD
 70
     2
  9
$DIMALTF
 40
0.039
  9
$DIMLFAC
 40
1.0
  9
$DIMTOFL
 70
     1
  9
$DIMTVP
 40
0.0
  9
$DIMTIX
 70
     0
  9
$DIMSOXD
 70
     0
  9
$DIMSAH
 70
     1
  9
$DIMBLK1
  1
OPEN
  9
$DIMBLK2
  1
OPEN
  9
$DIMSTYLE
  2
IGA
  9
$DIMCLRD
 70
     0
  9
$DIMCLRE
 70
     0
  9
$DIMCLRT
 70
     0
  9
$DIMTFAC
 40
10.0
  9
$DIMGAP
 40
1.0
  9
$LUNITS
 70
     2
  9
$LUPREC
 70
     3
  9
$SKETCHINC
 40
0.1
  9
$FILLETRAD
 40
50.0
  9
$AUNITS
 70
     0
  9
$AUPREC
 70
     0
  9
$MENU
  1
acad
  9
$ELEVATION
 40
0.0
  9
$PELEVATION
 40
0.0
  9
$THICKNESS
 40
0.0
  9
$LIMCHECK
 70
     0
  9
$BLIPMODE
 70
     0
  9
$CHAMFERA
 40
0.5
  9
$CHAMFERB
 40
0.5
  9
$SKPOLY
 70
     0
  9
$TDCREATE
 40
2450754.451097222
  9
$TDUPDATE
 40
2454953.6845838651
  9
$TDINDWG
 40
0.0059631019
  9
$TDUSRTIMER
 40
0.0059631019
  9
$USRTIMER
 70
     1
  9
$ANGBASE
 50
0.0
  9
$ANGDIR
 70
     0
  9
$PDMODE
 70
     0
  9
$PDSIZE
 40
0.0
  9
$PLINEWID
 40
0.0
  9
$COORDS
 70
     1
  9
$SPLFRAME
 70
     0
  9
$SPLINETYPE
 70
     6
  9
$SPLINESEGS
 70
     8
  9
$ATTDIA
 70
     0
  9
$ATTREQ
 70
     1
  9
$HANDLING
 70
 10241
  9
$HANDSEED
  5
800D
  9
$SURFTAB1
 70
     6
  9
$SURFTAB2
 70
     6
  9
$SURFTYPE
 70
     6
  9
$SURFU
 70
     6
  9
$SURFV
 70
     6
  9
$UCSNAME
  2

  9
$UCSORG
 10
0.0
 20
0.0
 30
0.0
  9
$UCSXDIR
 10
1.0
 20
0.0
 30
0.0
  9
$UCSYDIR
 10
0.0
 20
1.0
 30
0.0
  9
$PUCSNAME
  2

  9
$PUCSORG
 10
0.0
 20
0.0
 30
0.0
  9
$PUCSXDIR
 10
1.0
 20
0.0
 30
0.0
  9
$PUCSYDIR
 10
0.0
 20
1.0
 30
0.0
  9
$USERI1
 70
     0
  9
$USERI2
 70
     0
  9
$USERI3
 70
     0
  9
$USERI4
 70
     0
  9
$USERI5
 70
     0
  9
$USERR1
 40
0.0
  9
$USERR2
 40
0.0
  9
$USERR3
 40
0.0
  9
$USERR4
 40
0.0
  9
$USERR5
 40
0.0
  9
$WORLDVIEW
 70
     1
  9
$SHADEDGE
 70
     3
  9
$SHADEDIF
 70
    70
  9
$TILEMODE
 70
     1
  9
$MAXACTVP
 70
    16
  9
$PLIMCHECK
 70
     0
  9
$PEXTMIN
 10
1.0000000000000000E+020
 20
1.0000000000000000E+020
 30
1.0000000000000000E+020
  9
$PEXTMAX
 10
-1.0000000000000000E+020
 20
-1.0000000000000000E+020
 30
-1.0000000000000000E+020
  9
$PLIMMIN
 10
0.0
 20
0.0
  9
$PLIMMAX
 10
12.0
 20
9.0
  9
$UNITMODE
 70
     0
  9
$VISRETAIN
 70
     0
  9
$PLINEGEN
 70
     0
  9
$PSLTSCALE
 70
     1
  0
ENDSEC
  0
SECTION
  2
TABLES
  0
TABLE
  2
VPORT
 70
     2
  0
VPORT
  2
*ACTIVE
 70
     0
 10
0.0
 20
0.0
 11
1.0
 21
1.0
 12
5892.0588896437603
 22
1144.4174974882931
 13
0.0
 23
0.0
 14
10.0
 24
10.0
 15
10.0
 25
10.0
 16
0.0
 26
0.0
 36
1.0
 17
0.0
 27
0.0
 37
0.0
 40
2673.3506604442891
 41
3.1666666666666661
 42
50.0
 43
0.0
 44
0.0
 50
0.0
 51
0.0
 71
     0
 72
   100
 73
     1
 74
     0
 75
     0
 76
     0
 77
     0
 78
     0
  0
ENDTAB
  0
TABLE
  2
LTYPE
 70
     2
  0
LTYPE
  2
CONTINUOUS
 70
     0
  3
Solid line
 72
    65
 73
     0
 40
0.0
  0
LTYPE
  2
CENTER
 70
     0
  3
____ _ ____ _ ____ _ ____ _ ____ _ ____ _ ____ 
 72
    65
 73
     4
 40
2.0
 49
1.25
 49
-0.25
 49
0.25
 49
-0.25
  0
ENDTAB
  0
TABLE
  2
LAYER
 70
     6
  0
LAYER
  2
0
 70
     0
 62
     7
  6
CONTINUOUS
  0
LAYER
  2
3
 70
     0
 62
     2
  6
CONTINUOUS
  0
LAYER
  2
2
 70
     0
 62
     3
  6
CENTER
  0
LAYER
  2
1
 70
     0
 62
     4
  6
CONTINUOUS
  0
LAYER
  2
4
 70
     0
 62
     7
  6
CONTINUOUS
  0
LAYER
  2
DEFPOINTS
 70
     0
 62
     7
  6
CONTINUOUS
  0
ENDTAB
  0
TABLE
  2
STYLE
 70
     1
  0
STYLE
  2
STANDARD
 70
     0
 40
0.0
 41
1.0
 50
0.0
 71
     0
 42
180.0
  3
simplex.shx
  4
extfont.shx
  0
ENDTAB
  0
TABLE
  2
VIEW
 70
     0
  0
ENDTAB
  0
TABLE
  2
UCS
 70
     0
  0
ENDTAB
  0
TABLE
  2
APPID
 70
     1
  0
APPID
  2
ACAD
 70
     0
  0
ENDTAB
  0
TABLE
  2
DIMSTYLE
 70
     1
  0
DIMSTYLE
  2
IGA
 70
     0
  3

  4

  5

  6
OPEN
  7
OPEN
 40
2.0
 41
2.0
 42
0.5
 43
10.0
 44
1.0
 45
0.0
 46
0.0
 47
1.0
 48
1.0
140
3.0
141
0.0
142
0.0
143
0.03937
144
1.0
145
0.0
146
10.0
147
1.0
 71
     0
 72
     0
 73
     0
 74
     0
 75
     0
 76
     0
 77
     1
 78
     8
170
     0
171
     2
172
     0
173
     1
174
     0
175
     0
176
     0
177
     0
178
     0
  0
ENDTAB
  0
ENDSEC
  0
SECTION
  2
BLOCKS
  0
BLOCK
  8
0
  2
$MODEL_SPACE
 70
     0
 10
0.0
 20
0.0
 30
0.0
  3
$MODEL_SPACE
  1

  0
ENDBLK
  5
1B
  8
0
  0
BLOCK
 67
     1
  8
0
  2
$PAPER_SPACE
 70
     0
 10
0.0
 20
0.0
 30
0.0
  3
$PAPER_SPACE
  1

  0
ENDBLK
  5
18
 67
     1
  8
0
  0
BLOCK
  8
0
  2
_OPEN
 70
     0
 10
0.0
 20
0.0
 30
0.0
  3
_OPEN
  1

  0
LINE
  5
7AE6
  8
0
  6
BYBLOCK
 62
     0
 10
-1.0
 20
0.166667
 30
0.0
 11
0.0
 21
0.0
 31
0.0
  0
LINE
  5
7AE7
  8
0
  6
BYBLOCK
 62
     0
 10
0.0
 20
0.0
 30
0.0
 11
-1.0
 21
-0.166667
 31
0.0
  0
LINE
  5
7AE8
  8
0
  6
BYBLOCK
 62
     0
 10
0.0
 20
0.0
 30
0.0
 11
-1.0
 21
0.0
 31
0.0
  0
ENDBLK
  5
7AE9
  8
0
  0
BLOCK
  8
0
  2
*D1
 70
     1
 10
0.0
 20
0.0
 30
0.0
  3
*D1
  1

  0
LINE
  5
7F5D
  8
3
  6
CONTINUOUS
 62
     0
 10
1716.283162280341
 20
3970.3068759214598
 30
0.0
 11
1716.283162280341
 21
4205.8014359214603
 31
0.0
  0
LINE
  5
7F5E
  8
3
  6
CONTINUOUS
 62
     0
 10
2446.2831622803401
 20
3970.3068759214598
 30
0.0
 11
2446.2831622803401
 21
4205.8014359214603
 31
0.0
  0
LINE
  5
7F5F
  8
3
  6
CONTINUOUS
 62
     0
 10
1776.283162280341
 20
4175.8014359214612
 30
0.0
 11
2386.2831622803401
 21
4175.8014359214612
 31
0.0
  0
INSERT
  5
7F60
  8
3
  6
CONTINUOUS
 62
     0
  2
_OPEN
 10
1716.283162280341
 20
4175.8014359214612
 30
0.0
 41
60.0
 42
60.0
 43
60.0
 50
180.0
  0
INSERT
  5
7F61
  8
3
  6
CONTINUOUS
 62
     0
  2
_OPEN
 10
2446.2831622803401
 20
4175.8014359214612
 30
0.0
 41
60.0
 42
60.0
 43
60.0
  0
TEXT
  8
3
  40
90
  5
7FFB
  62
0
  72
0
  71
0
 10
1876.06
 20
4091.50
 30
0.000000
  1
730
  0
POINT
  5
7F63
  8
DEFPOINTS
  6
CONTINUOUS
 62
     0
 10
1716.283162280341
 20
3955.3068759214611
 30
0.0
  0
POINT
  5
7F64
  8
DEFPOINTS
  6
CONTINUOUS
 62
     0
 10
2446.2831622803401
 20
3955.3068759214611
 30
0.0
  0
POINT
  5
7F65
  8
DEFPOINTS
  6
CONTINUOUS
 62
     0
 10
2446.2831622803401
 20
4175.8014359214612
 30
0.0
  0
ENDBLK
  5
7D1C
  8
0
  0
BLOCK
  8
0
  2
*D2
 70
     1
 10
0.0
 20
0.0
 30
0.0
  3
*D2
  1

  0
LINE
  5
7F66
  8
3
  6
CONTINUOUS
 62
     0
 10
1716.283162280341
 20
3970.3068759214598
 30
0.0
 11
1716.283162280341
 21
4405.3682579214619
 31
0.0
  0
LINE
  5
7F67
  8
3
  6
CONTINUOUS
 62
     0
 10
2475.2831622803401
 20
3890.4021049214621
 30
0.0
 11
2475.2831622803401
 21
4405.3682579214619
 31
0.0
  0
LINE
  5
7F68
  8
3
  6
CONTINUOUS
 62
     0
 10
1776.283162280341
 20
4375.368257921461
 30
0.0
 11
2415.2831622803401
 21
4375.368257921461
 31
0.0
  0
INSERT
  5
7F69
  8
3
  6
CONTINUOUS
 62
     0
  2
_OPEN
 10
1716.283162280341
 20
4375.368257921461
 30
0.0
 41
60.0
 42
60.0
 43
60.0
 50
180.0
  0
INSERT
  5
7F6A
  8
3
  6
CONTINUOUS
 62
     0
  2
_OPEN
 10
2475.2831622803401
 20
4375.368257921461
 30
0.0
 41
60.0
 42
60.0
 43
60.0
  0
TEXT
  8
3
  40
90
  5
7FFC
  62
0
  72
0
  71
0
 10
1876.06
 20
4291.07
 30
0.000000
  1
759
  0
POINT
  5
7F6C
  8
DEFPOINTS
  6
CONTINUOUS
 62
     0
 10
1716.283162280341
 20
3955.3068759214611
 30
0.0
  0
POINT
  5
7F6D
  8
DEFPOINTS
  6
CONTINUOUS
 62
     0
 10
2475.2831622803401
 20
3875.4021049214612
 30
0.0
  0
POINT
  5
7F6E
  8
DEFPOINTS
  6
CONTINUOUS
 62
     0
 10
2475.2831622803401
 20
4375.368257921461
 30
0.0
  0
ENDBLK
  5
7D11
  8
0
  0
BLOCK
  8
0
  2
*D3
 70
     1
 10
0.0
 20
0.0
 30
0.0
  3
*D3
  1

  0
LINE
  5
7F6F
  8
3
  6
CONTINUOUS
 62
     0
 10
2475.2831622803401
 20
3890.4021049214621
 30
0.0
 11
2475.2831622803401
 21
4405.3682579214619
 31
0.0
  0
LINE
  5
7F70
  8
3
  6
CONTINUOUS
 62
     0
 10
2981.2831622803401
 20
3470.3068759214611
 30
0.0
 11
2981.2831622803401
 21
4405.3682579214619
 31
0.0
  0
LINE
  5
7F71
  8
3
  6
CONTINUOUS
 62
     0
 10
2535.2831622803401
 20
4375.368257921461
 30
0.0
 11
2921.283162280341
 21
4375.368257921461
 31
0.0
  0
INSERT
  5
7F72
  8
3
  6
CONTINUOUS
 62
     0
  2
_OPEN
 10
2475.2831622803401
 20
4375.368257921461
 30
0.0
 41
60.0
 42
60.0
 43
60.0
 50
180.0
  0
INSERT
  5
7F73
  8
3
  6
CONTINUOUS
 62
     0
  2
_OPEN
 10
2981.2831622803401
 20
4375.368257921461
 30
0.0
 41
60.0
 42
60.0
 43
60.0
  0
TEXT
  8
3
  40
90
  5
7FFD
  62
0
  72
0
  71
0
 10
2548.28
 20
4291.07
 30
0.000000
  1
506
  0
POINT
  5
7F75
  8
DEFPOINTS
  6
CONTINUOUS
 62
     0
 10
2475.2831622803401
 20
3875.4021049214612
 30
0.0
  0
POINT
  5
7F76
  8
DEFPOINTS
  6
CONTINUOUS
 62
     0
 10
2981.2831622803401
 20
3455.3068759214611
 30
0.0
  0
POINT
  5
7F77
  8
DEFPOINTS
  6
CONTINUOUS
 62
     0
 10
2981.2831622803401
 20
4375.368257921461
 30
0.0
  0
ENDBLK
  5
7E01
  8
0
  0
BLOCK
  8
0
  2
*D4
 70
     1
 10
0.0
 20
0.0
 30
0.0
  3
*D4
  1

  0
LINE
  5
7F78
  8
3
  6
CONTINUOUS
 62
     0
 10
2501.283162280341
 20
3955.3068759214611
 30
0.0
 11
3334.260857280341
 21
3955.3068759214611
 31
0.0
  0
LINE
  5
7F79
  8
3
  6
CONTINUOUS
 62
     0
 10
2994.378391280341
 20
3455.3068759214611
 30
0.0
 11
3334.260857280341
 21
3455.3068759214611
 31
0.0
  0
LINE
  5
7F7A
  8
3
  6
CONTINUOUS
 62
     0
 10
3304.260857280342
 20
3895.3068759214611
 30
0.0
 11
3304.260857280342
 21
3515.3068759214598
 31
0.0
  0
INSERT
  5
7F7B
  8
3
  6
CONTINUOUS
 62
     0
  2
_OPEN
 10
3304.260857280342
 20
3955.3068759214611
 30
0.0
 41
60.0
 42
60.0
 43
60.0
 50
90.0
  0
INSERT
  5
7F7C
  8
3
  6
CONTINUOUS
 62
     0
  2
_OPEN
 10
3304.260857280342
 20
3455.3068759214611
 30
0.0
 41
60.0
 42
60.0
 43
60.0
 50
270.0
  0
TEXT
  8
3
  40
90
  5
7FFE
  62
0
  72
0
  71
0
 10
3049.26
 20
3556.01
 30
0.000000
  1
500
  0
POINT
  5
7F7E
  8
DEFPOINTS
  6
CONTINUOUS
 62
     0
 10
2486.2831622803401
 20
3955.3068759214611
 30
0.0
  0
POINT
  5
7F7F
  8
DEFPOINTS
  6
CONTINUOUS
 62
     0
 10
2979.378391280341
 20
3455.3068759214611
 30
0.0
  0
POINT
  5
7F80
  8
DEFPOINTS
  6
CONTINUOUS
 62
     0
 10
3304.260857280342
 20
3455.3068759214611
 30
0.0
  0
ENDBLK
  5
7CFB
  8
0
  0
BLOCK
  8
0
  2
*D5
 70
     1
 10
0.0
 20
0.0
 30
0.0
  3
*D5
  1

  0
LINE
  5
7F81
  8
3
  6
CONTINUOUS
 62
     0
 10
2994.378391280341
 20
3455.3068759214611
 30
0.0
 11
3334.260857280341
 21
3455.3068759214611
 31
0.0
  0
LINE
  5
7F82
  8
3
  6
CONTINUOUS
 62
     0
 10
2940.2831622803401
 20
2815.3068759214611
 30
0.0
 11
3334.260857280341
 21
2815.3068759214611
 31
0.0
  0
LINE
  5
7F83
  8
3
  6
CONTINUOUS
 62
     0
 10
3304.260857280342
 20
3395.3068759214611
 30
0.0
 11
3304.260857280341
 21
2875.3068759214598
 31
0.0
  0
INSERT
  5
7F84
  8
3
  6
CONTINUOUS
 62
     0
  2
_OPEN
 10
3304.260857280342
 20
3455.3068759214611
 30
0.0
 41
60.0
 42
60.0
 43
60.0
 50
90.0
  0
INSERT
  5
7F85
  8
3
  6
CONTINUOUS
 62
     0
  2
_OPEN
 10
3304.260857280341
 20
2815.3068759214611
 30
0.0
 41
60.0
 42
60.0
 43
60.0
 50
270.0
  0
TEXT
  8
3
  40
90
  5
7FFF
  62
0
  72
0
  71
0
 10
3049.26
 20
2976.01
 30
0.000000
  1
640
  0
POINT
  5
7F87
  8
DEFPOINTS
  6
CONTINUOUS
 62
     0
 10
2979.378391280341
 20
3455.3068759214611
 30
0.0
  0
POINT
  5
7F88
  8
DEFPOINTS
  6
CONTINUOUS
 62
     0
 10
2925.2831622803401
 20
2815.3068759214611
 30
0.0
  0
POINT
  5
7F89
  8
DEFPOINTS
  6
CONTINUOUS
 62
     0
 10
3304.260857280341
 20
2815.3068759214611
 30
0.0
  0
ENDBLK
  5
7CF0
  8
0
  0
BLOCK
  8
0
  2
*D6
 70
     1
 10
0.0
 20
0.0
 30
0.0
  3
*D6
  1

  0
LINE
  5
7F8A
  8
3
  6
CONTINUOUS
 62
     0
 10
1375.283162280341
 20
5452.4068759214633
 30
0.0
 11
1375.283162280341
 21
5038.4059979214608
 31
0.0
  0
LINE
  5
7F8B
  8
3
  6
CONTINUOUS
 62
     0
 10
2925.2831622803401
 20
5452.4068759214633
 30
0.0
 11
2925.2831622803401
 21
5038.4059979214608
 31
0.0
  0
LINE
  5
7F8C
  8
3
  6
CONTINUOUS
 62
     0
 10
1435.283162280341
 20
5068.4059979214617
 30
0.0
 11
2865.2831622803401
 21
5068.4059979214617
 31
0.0
  0
INSERT
  5
7F8D
  8
3
  6
CONTINUOUS
 62
     0
  2
_OPEN
 10
1375.283162280341
 20
5068.4059979214617
 30
0.0
 41
60.0
 42
60.0
 43
60.0
 50
180.0
  0
INSERT
  5
7F8E
  8
3
  6
CONTINUOUS
 62
     0
  2
_OPEN
 10
2925.2831622803401
 20
5068.4059979214617
 30
0.0
 41
60.0
 42
60.0
 43
60.0
  0
TEXT
  8
3
  40
90
  5
8000
  62
0
  72
0
  71
0
 10
2057.61
 20
4984.11
 30
0.000000
  1
1550
  0
POINT
  5
7F90
  8
DEFPOINTS
  6
CONTINUOUS
 62
     0
 10
1375.283162280341
 20
5467.4068759214624
 30
0.0
  0
POINT
  5
7F91
  8
DEFPOINTS
  6
CONTINUOUS
 62
     0
 10
2925.2831622803401
 20
5467.4068759214624
 30
0.0
  0
POINT
  5
7F92
  8
DEFPOINTS
  6
CONTINUOUS
 62
     0
 10
2925.2831622803401
 20
5068.4059979214617
 30
0.0
  0
ENDBLK
  5
7CCD
  8
0
  0
BLOCK
  8
0
  2
*D7
 70
     1
 10
0.0
 20
0.0
 30
0.0
  3
*D7
  1

  0
LINE
  5
7F93
  8
3
  6
CONTINUOUS
 62
     0
 10
2940.2831622803401
 20
6217.4068759214624
 30
0.0
 11
3293.4105422803432
 21
6217.4068759214624
 31
0.0
  0
LINE
  5
7F94
  8
3
  6
CONTINUOUS
 62
     0
 10
2940.2831622803401
 20
5467.4068759214624
 30
0.0
 11
3293.4105422803432
 21
5467.4068759214624
 31
0.0
  0
LINE
  5
7F95
  8
3
  6
CONTINUOUS
 62
     0
 10
3263.4105422803418
 20
6157.4068759214633
 30
0.0
 11
3263.4105422803418
 21
5527.4068759214633
 31
0.0
  0
INSERT
  5
7F96
  8
3
  6
CONTINUOUS
 62
     0
  2
_OPEN
 10
3263.4105422803418
 20
6217.4068759214624
 30
0.0
 41
60.0
 42
60.0
 43
60.0
 50
90.0
  0
INSERT
  5
7F97
  8
3
  6
CONTINUOUS
 62
     0
  2
_OPEN
 10
3263.4105422803418
 20
5467.4068759214624
 30
0.0
 41
60.0
 42
60.0
 43
60.0
 50
270.0
  0
TEXT
  8
3
  40
90
  5
8001
  62
0
  72
0
  71
0
 10
3008.41
 20
5648.41
 30
0.000000
  1
750
  0
POINT
  5
7F99
  8
DEFPOINTS
  6
CONTINUOUS
 62
     0
 10
2925.2831622803401
 20
6217.4068759214624
 30
0.0
  0
POINT
  5
7F9A
  8
DEFPOINTS
  6
CONTINUOUS
 62
     0
 10
2925.2831622803401
 20
5467.4068759214624
 30
0.0
  0
POINT
  5
7F9B
  8
DEFPOINTS
  6
CONTINUOUS
 62
     0
 10
3263.4105422803418
 20
5467.4068759214624
 30
0.0
  0
ENDBLK
  5
7CC2
  8
0
  0
BLOCK
  8
0
  2
*D8
 70
     1
 10
0.0
 20
0.0
 30
0.0
  3
*D8
  1

  0
LINE
  5
7F9C
  8
3
  6
CONTINUOUS
 62
     0
 10
5176.9512849088114
 20
3810.3068759214611
 30
0.0
 11
5480.2809929088126
 21
3810.3068759214611
 31
0.0
  0
LINE
  5
7F9D
  8
3
  6
CONTINUOUS
 62
     0
 10
5176.9512849088114
 20
3100.3068759214611
 30
0.0
 11
5480.2809929088126
 21
3100.3068759214611
 31
0.0
  0
LINE
  5
7F9E
  8
3
  6
CONTINUOUS
 62
     0
 10
5450.2809929088126
 20
3750.3068759214611
 30
0.0
 11
5450.2809929088126
 21
3160.3068759214611
 31
0.0
  0
INSERT
  5
7F9F
  8
3
  6
CONTINUOUS
 62
     0
  2
_OPEN
 10
5450.2809929088126
 20
3810.3068759214611
 30
0.0
 41
60.0
 42
60.0
 43
60.0
 50
90.0
  0
INSERT
  5
7FA0
  8
3
  6
CONTINUOUS
 62
     0
  2
_OPEN
 10
5450.2809929088126
 20
3100.3068759214611
 30
0.0
 41
60.0
 42
60.0
 43
60.0
 50
270.0
  0
TEXT
  8
3
  40
90
  5
8002
  62
0
  72
0
  71
0
 10
5195.28
 20
3276.76
 30
0.000000
  1
φ710
  0
POINT
  5
7FA2
  8
DEFPOINTS
  6
CONTINUOUS
 62
     0
 10
5161.9512849088123
 20
3810.3068759214611
 30
0.0
  0
POINT
  5
7FA3
  8
DEFPOINTS
  6
CONTINUOUS
 62
     0
 10
5161.9512849088123
 20
3100.3068759214611
 30
0.0
  0
POINT
  5
7FA4
  8
DEFPOINTS
  6
CONTINUOUS
 62
     0
 10
5450.2809929088126
 20
3100.3068759214611
 30
0.0
  0
ENDBLK
  5
7D69
  8
0
  0
BLOCK
  8
0
  2
*D9
 70
     1
 10
0.0
 20
0.0
 30
0.0
  3
*D9
  1

  0
LINE
  5
7FA5
  8
3
  6
CONTINUOUS
 62
     0
 10
4548.9512849088114
 20
3970.3068759214598
 30
0.0
 11
4548.9512849088114
 21
4123.7262449214613
 31
0.0
  0
LINE
  5
7FA6
  8
3
  6
CONTINUOUS
 62
     0
 10
5078.9512849088114
 20
3970.3068759214598
 30
0.0
 11
5078.9512849088114
 21
4123.7262449214613
 31
0.0
  0
LINE
  5
7FA7
  8
3
  6
CONTINUOUS
 62
     0
 10
4608.9512849088114
 20
4093.7262449214609
 30
0.0
 11
5018.9512849088123
 21
4093.7262449214609
 31
0.0
  0
INSERT
  5
7FA8
  8
3
  6
CONTINUOUS
 62
     0
  2
_OPEN
 10
4548.9512849088114
 20
4093.7262449214609
 30
0.0
 41
60.0
 42
60.0
 43
60.0
 50
180.0
  0
INSERT
  5
7FA9
  8
3
  6
CONTINUOUS
 62
     0
  2
_OPEN
 10
5078.9512849088114
 20
4093.7262449214609
 30
0.0
 41
60.0
 42
60.0
 43
60.0
  0
TEXT
  8
3
  40
90
  5
8003
  62
0
  72
0
  71
0
 10
4608.95
 20
4009.43
 30
0.000000
  1
530
  0
POINT
  5
7FAB
  8
DEFPOINTS
  6
CONTINUOUS
 62
     0
 10
4548.9512849088114
 20
3955.3068759214611
 30
0.0
  0
POINT
  5
7FAC
  8
DEFPOINTS
  6
CONTINUOUS
 62
     0
 10
5078.9512849088114
 20
3955.3068759214611
 30
0.0
  0
POINT
  5
7FAD
  8
DEFPOINTS
  6
CONTINUOUS
 62
     0
 10
5078.9512849088114
 20
4093.7262449214609
 30
0.0
  0
ENDBLK
  5
7C94
  8
0
  0
BLOCK
  8
0
  2
*D10
 70
     1
 10
0.0
 20
0.0
 30
0.0
  3
*D10
  1

  0
LINE
  5
7FAE
  8
3
  6
CONTINUOUS
 62
     0
 10
4303.9512849088114
 20
3660.0068759214619
 30
0.0
 11
4303.9512849088114
 21
4325.8142739321192
 31
0.0
  0
LINE
  5
7FAF
  8
3
  6
CONTINUOUS
 62
     0
 10
4813.9512849088114
 20
4251.2656081691048
 30
0.0
 11
4813.9512849088114
 21
4325.8142739321192
 31
0.0
  0
LINE
  5
7FB0
  8
3
  6
CONTINUOUS
 62
     0
 10
4363.9512849088114
 20
4295.8142739321183
 30
0.0
 11
4753.9512849088114
 21
4295.8142739321183
 31
0.0
  0
INSERT
  5
7FB1
  8
3
  6
CONTINUOUS
 62
     0
  2
_OPEN
 10
4303.9512849088114
 20
4295.8142739321183
 30
0.0
 41
60.0
 42
60.0
 43
60.0
 50
180.0
  0
INSERT
  5
7FB2
  8
3
  6
CONTINUOUS
 62
     0
  2
_OPEN
 10
4813.9512849088114
 20
4295.8142739321183
 30
0.0
 41
60.0
 42
60.0
 43
60.0
  0
TEXT
  8
3
  40
90
  5
8004
  62
0
  72
0
  71
0
 10
4415.38
 20
4286.51
 30
0.000000
  1
MAX
  0
TEXT
  8
3
  40
90
  5
8005
  62
0
  72
0
  71
0
 10
4415.38
 20
4169.51
 30
0.000000
  1
590
  0
POINT
  5
7FB4
  8
DEFPOINTS
  6
CONTINUOUS
 62
     0
 10
4303.9512849088114
 20
3645.006875921461
 30
0.0
  0
POINT
  5
7FB5
  8
DEFPOINTS
  6
CONTINUOUS
 62
     0
 10
4813.9512849088114
 20
4236.2656081691048
 30
0.0
  0
POINT
  5
7FB6
  8
DEFPOINTS
  6
CONTINUOUS
 62
     0
 10
4813.9512849088114
 20
4295.8142739321183
 30
0.0
  0
ENDBLK
  5
7DB6
  8
0
  0
BLOCK
  8
0
  2
*D11
 70
     1
 10
0.0
 20
0.0
 30
0.0
  3
*D11
  1

  0
LINE
  5
7D97
  8
0
  6
BYBLOCK
 62
     0
 10
4813.9512849088114
 20
4254.1637254496382
 30
0.0
 11
4813.9512849088114
 21
4325.8142739321192
 31
0.0
  0
LINE
  5
7D98
  8
0
  6
BYBLOCK
 62
     0
 10
5161.9512849088123
 20
3865.3068759214611
 30
0.0
 11
5161.9512849088123
 21
4325.8142739321192
 31
0.0
  0
LINE
  5
7D99
  8
0
  6
BYBLOCK
 62
     0
 10
4873.9512849088123
 20
4295.8142739321183
 30
0.0
 11
5101.9512849088114
 21
4295.8142739321183
 31
0.0
  0
TEXT
  5
7D9A
  8
3
 62
     0
 10
4872.236999194527
 20
4341.0011929190578
 30
0.0
 40
90.0
  1
348
  0
INSERT
  5
7D9B
  8
0
  6
BYBLOCK
 62
     0
  2
_OPEN
 10
4813.9512849088114
 20
4295.8142739321183
 30
0.0
 41
60.0
 42
60.0
 43
60.0
 50
180.0
  0
INSERT
  5
7D9C
  8
0
  6
BYBLOCK
 62
     0
  2
_OPEN
 10
5161.9512849088123
 20
4295.8142739321183
 30
0.0
 41
60.0
 42
60.0
 43
60.0
  0
POINT
  5
7D9D
  8
DEFPOINTS
  6
BYBLOCK
 62
     0
 10
4813.9512849088114
 20
4239.1637254496382
 30
0.0
  0
POINT
  5
7D9E
  8
DEFPOINTS
  6
BYBLOCK
 62
     0
 10
5161.9512849088123
 20
3850.3068759214611
 30
0.0
  0
POINT
  5
7D9F
  8
DEFPOINTS
  6
BYBLOCK
 62
     0
 10
5161.9512849088123
 20
4295.8142739321183
 30
0.0
  0
ENDBLK
  5
7DA0
  8
0
  0
BLOCK
  8
0
  2
*D12
 70
     1
 10
0.0
 20
0.0
 30
0.0
  3
*D12
  1

  0
LINE
  5
7FB7
  8
3
 62
     0
 10
2981.2831622803401
 20
3470.3068759214611
 30
0.0
 11
2981.2831622803401
 21
4586.5065854385184
 31
0.0
  0
LINE
  5
7FB8
  8
3
 62
     0
 10
1375.283162280341
 20
2930.3068759214611
 30
0.0
 11
1375.283162280341
 21
4586.5065854385184
 31
0.0
  0
LINE
  5
7FB9
  8
3
 62
     0
 10
2921.283162280341
 20
4556.5065854385166
 30
0.0
 11
1435.283162280341
 21
4556.5065854385166
 31
0.0
  0
INSERT
  5
7FBA
  8
3
 62
     0
  2
_OPEN
 10
2981.2831622803401
 20
4556.5065854385166
 30
0.0
 41
60.0
 42
60.0
 43
60.0
  0
INSERT
  5
7FBB
  8
3
 62
     0
  2
_OPEN
 10
1375.283162280341
 20
4556.5065854385166
 30
0.0
 41
60.0
 42
60.0
 43
60.0
 50
180.0
  0
TEXT
  8
3
  40
90
  5
8006
  62
0
  72
0
  71
0
 10
1993.38
 20
4472.21
 30
0.000000
  1
1606
  0
POINT
  5
7FBD
  8
DEFPOINTS
 62
     0
 10
2981.2831622803401
 20
3455.3068759214611
 30
0.0
  0
POINT
  5
7FBE
  8
DEFPOINTS
 62
     0
 10
1375.283162280341
 20
2915.3068759214611
 30
0.0
  0
POINT
  5
7FBF
  8
DEFPOINTS
 62
     0
 10
1375.283162280341
 20
4556.5065854385166
 30
0.0
  0
ENDBLK
  5
7DF6
  8
0
  0
BLOCK
  8
0
  2
*D13
 70
     1
 10
0.0
 20
0.0
 30
0.0
  3
*D13
  1

  0
LINE
  5
7FC0
  8
3
 62
     0
 10
1375.283162280341
 20
2605.3068759214621
 30
0.0
 11
1375.283162280341
 21
2390.6648466300212
 31
0.0
  0
LINE
  5
7FC1
  8
3
 62
     0
 10
2475.2831622803401
 20
2605.3068759214621
 30
0.0
 11
2475.2831622803401
 21
2390.6648466300212
 31
0.0
  0
LINE
  5
7FC2
  8
3
 62
     0
 10
1435.283162280341
 20
2420.6648466300212
 30
0.0
 11
2415.2831622803401
 21
2420.6648466300212
 31
0.0
  0
INSERT
  5
7FC3
  8
3
 62
     0
  2
_OPEN
 10
1375.283162280341
 20
2420.6648466300212
 30
0.0
 41
60.0
 42
60.0
 43
60.0
 50
180.0
  0
INSERT
  5
7FC4
  8
3
 62
     0
  2
_OPEN
 10
2475.2831622803401
 20
2420.6648466300212
 30
0.0
 41
60.0
 42
60.0
 43
60.0
  0
TEXT
  8
3
  40
90
  5
8007
  62
0
  72
0
  71
0
 10
1745.28
 20
2336.36
 30
0.000000
  1
1100
  0
POINT
  5
7FC6
  8
DEFPOINTS
 62
     0
 10
1375.283162280341
 20
2620.3068759214621
 30
0.0
  0
POINT
  5
7FC7
  8
DEFPOINTS
 62
     0
 10
2475.2831622803401
 20
2620.3068759214621
 30
0.0
  0
POINT
  5
7FC8
  8
DEFPOINTS
 62
     0
 10
2475.2831622803401
 20
2420.6648466300212
 30
0.0
  0
ENDBLK
  5
7E15
  8
0
  0
BLOCK
  8
0
  2
*D14
 70
     1
 10
0.0
 20
0.0
 30
0.0
  3
*D14
  1

  0
LINE
  5
7FC9
  8
3
 62
     0
 10
2475.2831622803401
 20
2605.3068759214621
 30
0.0
 11
2475.2831622803401
 21
2390.6648466300212
 31
0.0
  0
LINE
  5
7FCA
  8
3
 62
     0
 10
2925.2831622803401
 20
2605.3068759214621
 30
0.0
 11
2925.2831622803401
 21
2390.6648466300212
 31
0.0
  0
LINE
  5
7FCB
  8
3
 62
     0
 10
2535.2831622803401
 20
2420.6648466300212
 30
0.0
 11
2865.2831622803401
 21
2420.6648466300212
 31
0.0
  0
INSERT
  5
7FCC
  8
3
 62
     0
  2
_OPEN
 10
2475.2831622803401
 20
2420.6648466300212
 30
0.0
 41
60.0
 42
60.0
 43
60.0
 50
180.0
  0
INSERT
  5
7FCD
  8
3
 62
     0
  2
_OPEN
 10
2925.2831622803401
 20
2420.6648466300212
 30
0.0
 41
60.0
 42
60.0
 43
60.0
  0
TEXT
  8
3
  40
90
  5
8008
  62
0
  72
0
  71
0
 10
2520.28
 20
2336.36
 30
0.000000
  1
450
  0
POINT
  5
7FCF
  8
DEFPOINTS
 62
     0
 10
2475.2831622803401
 20
2620.3068759214621
 30
0.0
  0
POINT
  5
7FD0
  8
DEFPOINTS
 62
     0
 10
2925.2831622803401
 20
2620.3068759214621
 30
0.0
  0
POINT
  5
7FD1
  8
DEFPOINTS
 62
     0
 10
2925.2831622803401
 20
2420.6648466300212
 30
0.0
  0
ENDBLK
  5
7E22
  8
0
  0
BLOCK
  8
0
  2
*D15
 70
     1
 10
0.0
 20
0.0
 30
0.0
  3
*D15
  1

  0
LINE
  5
7FD2
  8
3
 62
     0
 10
4381.9512849088114
 20
2605.3068759214621
 30
0.0
 11
4381.9512849088114
 21
2390.6648466300212
 31
0.0
  0
LINE
  5
7FD3
  8
3
 62
     0
 10
4813.9512849088114
 20
2605.3068759214621
 30
0.0
 11
4813.9512849088114
 21
2390.6648466300212
 31
0.0
  0
LINE
  5
7FD4
  8
3
 62
     0
 10
4441.9512849088114
 20
2420.6648466300212
 30
0.0
 11
4753.9512849088114
 21
2420.6648466300212
 31
0.0
  0
INSERT
  5
7FD5
  8
3
 62
     0
  2
_OPEN
 10
4381.9512849088114
 20
2420.6648466300212
 30
0.0
 41
60.0
 42
60.0
 43
60.0
 50
180.0
  0
INSERT
  5
7FD6
  8
3
 62
     0
  2
_OPEN
 10
4813.9512849088114
 20
2420.6648466300212
 30
0.0
 41
60.0
 42
60.0
 43
60.0
  0
TEXT
  8
3
  40
90
  5
8009
  62
0
  72
0
  71
0
 10
4417.95
 20
2336.36
 30
0.000000
  1
432
  0
POINT
  5
7FD8
  8
DEFPOINTS
 62
     0
 10
4381.9512849088114
 20
2620.3068759214621
 30
0.0
  0
POINT
  5
7FD9
  8
DEFPOINTS
 62
     0
 10
4813.9512849088114
 20
2620.3068759214621
 30
0.0
  0
POINT
  5
7FDA
  8
DEFPOINTS
 62
     0
 10
4813.9512849088114
 20
2420.6648466300212
 30
0.0
  0
ENDBLK
  5
7E2F
  8
0
  0
BLOCK
  8
0
  2
*D16
 70
     1
 10
0.0
 20
0.0
 30
0.0
  3
*D16
  1

  0
LINE
  5
7FDB
  8
3
 62
     0
 10
4813.9512849088114
 20
2605.3068759214621
 30
0.0
 11
4813.9512849088114
 21
2390.6648466300212
 31
0.0
  0
LINE
  5
7FDC
  8
3
 62
     0
 10
5131.9512849088123
 20
2605.3068759214621
 30
0.0
 11
5131.9512849088123
 21
2390.6648466300212
 31
0.0
  0
LINE
  5
7FDD
  8
3
 62
     0
 10
4873.9512849088123
 20
2420.6648466300212
 30
0.0
 11
5071.9512849088123
 21
2420.6648466300212
 31
0.0
  0
INSERT
  5
7FDE
  8
3
 62
     0
  2
_OPEN
 10
4813.9512849088114
 20
2420.6648466300212
 30
0.0
 41
60.0
 42
60.0
 43
60.0
 50
180.0
  0
INSERT
  5
7FDF
  8
3
 62
     0
  2
_OPEN
 10
5131.9512849088123
 20
2420.6648466300212
 30
0.0
 41
60.0
 42
60.0
 43
60.0
  0
TEXT
  8
3
  40
90
  5
800A
  62
0
  72
0
  71
0
 10
4792.95
 20
2336.36
 30
0.000000
  1
318
  0
POINT
  5
7FE1
  8
DEFPOINTS
 62
     0
 10
4813.9512849088114
 20
2620.3068759214621
 30
0.0
  0
POINT
  5
7FE2
  8
DEFPOINTS
 62
     0
 10
5131.9512849088123
 20
2620.3068759214621
 30
0.0
  0
POINT
  5
7FE3
  8
DEFPOINTS
 62
     0
 10
5131.9512849088123
 20
2420.6648466300212
 30
0.0
  0
ENDBLK
  5
7E3E
  8
0
  0
BLOCK
  8
0
  2
_DOT
 70
     0
 10
0.0
 20
0.0
 30
0.0
  3
_DOT
  1

  0
POLYLINE
  5
7E42
  8
0
  6
BYBLOCK
 62
     0
 66
     1
 10
0.0
 20
0.0
 30
0.0
 70
     1
 40
0.5
 41
0.5
  0
VERTEX
  5
7FE4
  8
0
  6
BYBLOCK
 62
     0
 10
-0.25
 20
0.0
 30
0.0
 42
1.0
  0
VERTEX
  5
7FE5
  8
0
  6
BYBLOCK
 62
     0
 10
0.25
 20
0.0
 30
0.0
 42
1.0
  0
SEQEND
  5
7FE6
  8
0
  6
BYBLOCK
 62
     0
  0
LINE
  5
7E46
  8
0
  6
BYBLOCK
 62
     0
 10
-0.5
 20
0.0
 30
0.0
 11
-1.0
 21
0.0
 31
0.0
  0
ENDBLK
  5
7E47
  8
0
  0
BLOCK
  8
0
  2
*D18
 70
     1
 10
0.0
 20
0.0
 30
0.0
  3
*D18
  1

  0
LINE
  5
7FE7
  8
3
 62
     0
 10
2940.2831622803401
 20
2720.3068759214611
 30
0.0
 11
3336.7410638420579
 21
2720.3068759214598
 31
0.0
  0
LINE
  5
7FE8
  8
3
 62
     0
 10
2940.2831622803401
 20
2620.3068759214621
 30
0.0
 11
3336.7410638420579
 21
2620.3068759214611
 31
0.0
  0
LINE
  5
7FE9
  8
3
 62
     0
 10
3306.7410638420588
 20
2780.3068759214611
 30
0.0
 11
3306.7410638420588
 21
2840.3068759214611
 31
0.0
  0
LINE
  5
7FEA
  8
3
 62
     0
 10
3306.7410638420588
 20
2560.3068759214611
 30
0.0
 11
3306.7410638420588
 21
2226.0211616357469
 31
0.0
  0
LINE
  5
7FEB
  8
3
 62
     0
 10
3306.7410638420588
 20
2720.3068759214598
 30
0.0
 11
3306.7410638420588
 21
2620.3068759214611
 31
0.0
  0
INSERT
  5
7FEC
  8
3
 62
     0
  2
_DOT
 10
3306.7410638420588
 20
2720.3068759214598
 30
0.0
 41
60.0
 42
60.0
 43
60.0
 50
270.0
  0
INSERT
  5
7FED
  8
3
 62
     0
  2
_OPEN
 10
3306.7410638420588
 20
2620.3068759214611
 30
0.0
 41
60.0
 42
60.0
 43
60.0
 50
90.0
  0
TEXT
  8
3
  40
90
  5
800B
  62
0
  72
0
  71
0
 10
3051.74
 20
2203.86
 30
0.000000
  1
100
  0
POINT
  5
7FEF
  8
DEFPOINTS
 62
     0
 10
2925.2831622803401
 20
2720.3068759214611
 30
0.0
  0
POINT
  5
7FF0
  8
DEFPOINTS
 62
     0
 10
2925.2831622803401
 20
2620.3068759214621
 30
0.0
  0
POINT
  5
7FF1
  8
DEFPOINTS
 62
     0
 10
3306.7410638420588
 20
2620.3068759214611
 30
0.0
  0
ENDBLK
  5
7E55
  8
0
  0
BLOCK
  8
0
  2
*D19
 70
     1
 10
0.0
 20
0.0
 30
0.0
  3
*D19
  1

  0
LINE
  5
7E59
  8
0
  6
BYBLOCK
 62
     0
 10
2940.2831622803401
 20
2720.3068759214611
 30
0.0
 11
3336.7410638420579
 21
2720.3068759214611
 31
0.0
  0
LINE
  5
7E5A
  8
0
  6
BYBLOCK
 62
     0
 10
2940.2831622803401
 20
2815.3068759214611
 30
0.0
 11
3336.7410638420579
 21
2815.3068759214611
 31
0.0
  0
LINE
  5
7E5B
  8
0
  6
BYBLOCK
 62
     0
 10
3306.7410638420588
 20
2660.3068759214611
 30
0.0
 11
3306.7410638420588
 21
2600.3068759214611
 31
0.0
  0
LINE
  5
7E5C
  8
0
  6
BYBLOCK
 62
     0
 10
3306.7410638420588
 20
2875.3068759214611
 30
0.0
 11
3306.7410638420588
 21
2935.3068759214611
 31
0.0
  0
TEXT
  5
7E5D
  8
3
 62
     0
 10
3480.3124924134868
 20
2637.0925902071749
 30
0.0
 40
90.0
  1
(95)
 50
90.0
  0
LINE
  5
7E5E
  8
0
  6
BYBLOCK
 62
     0
 10
3306.7410638420588
 20
2720.3068759214611
 30
0.0
 11
3306.7410638420588
 21
2815.3068759214611
 31
0.0
  0
INSERT
  5
7E5F
  8
0
  6
BYBLOCK
 62
     0
  2
_DOT
 10
3306.7410638420588
 20
2720.3068759214611
 30
0.0
 41
60.0
 42
60.0
 43
60.0
 50
90.0
  0
INSERT
  5
7E60
  8
0
  6
BYBLOCK
 62
     0
  2
_OPEN
 10
3306.7410638420588
 20
2815.3068759214611
 30
0.0
 41
60.0
 42
60.0
 43
60.0
 50
270.0
  0
POINT
  5
7E61
  8
DEFPOINTS
  6
BYBLOCK
 62
     0
 10
2925.2831622803401
 20
2720.3068759214611
 30
0.0
  0
POINT
  5
7E62
  8
DEFPOINTS
  6
BYBLOCK
 62
     0
 10
2925.2831622803401
 20
2815.3068759214611
 30
0.0
  0
POINT
  5
7E63
  8
DEFPOINTS
  6
BYBLOCK
 62
     0
 10
3306.7410638420588
 20
2815.3068759214611
 30
0.0
  0
ENDBLK
  5
7E64
  8
0
  0
BLOCK
  8
0
  2
*D20
 70
     1
 10
0.0
 20
0.0
 30
0.0
  3
*D20
  1

  0
LINE
  5
7FF2
  8
3
 62
     0
 10
2501.283162280341
 20
3955.3068759214611
 30
0.0
 11
3594.632275420212
 21
3955.3068759214611
 31
0.0
  0
LINE
  5
7FF3
  8
3
 62
     0
 10
2940.2831622803401
 20
2620.3068759214621
 30
0.0
 11
3594.632275420212
 21
2620.3068759214611
 31
0.0
  0
LINE
  5
7FF4
  8
3
 62
     0
 10
3564.632275420212
 20
3895.3068759214611
 30
0.0
 11
3564.632275420211
 21
2680.3068759214611
 31
0.0
  0
INSERT
  5
7FF5
  8
3
 62
     0
  2
_OPEN
 10
3564.632275420212
 20
3955.3068759214611
 30
0.0
 41
60.0
 42
60.0
 43
60.0
 50
90.0
  0
INSERT
  5
7FF6
  8
3
 62
     0
  2
_OPEN
 10
3564.632275420211
 20
2620.3068759214611
 30
0.0
 41
60.0
 42
60.0
 43
60.0
 50
270.0
  0
TEXT
  8
3
  40
90
  5
800C
  62
0
  72
0
  71
0
 10
3286.06
 20
3128.51
 30
0.000000
  1
(1335)
  0
POINT
  5
7FF8
  8
DEFPOINTS
 62
     0
 10
2486.2831622803401
 20
3955.3068759214611
 30
0.0
  0
POINT
  5
7FF9
  8
DEFPOINTS
 62
     0
 10
2925.2831622803401
 20
2620.3068759214621
 30
0.0
  0
POINT
  5
7FFA
  8
DEFPOINTS
 62
     0
 10
3564.632275420211
 20
2620.3068759214611
 30
0.0
  0
ENDBLK
  5
7E71
  8
0
  0
ENDSEC
  0
SECTION
  2
ENTITIES
  0
LINE
  5
7A76
  8
1
  6
CONTINUOUS
 10
2523.3755362803408
 20
3324.1458549214608
 30
0.0
 11
1623.3755362803411
 21
2994.1458549214608
 31
0.0
  0
LINE
  5
7A77
  8
1
  6
CONTINUOUS
 10
2540.5882692803398
 20
3277.2020389214622
 30
0.0
 11
1640.58826928034
 21
2947.2020389214622
 31
0.0
  0
ARC
  5
7A78
  8
1
  6
CONTINUOUS
 10
1575.283162280341
 20
3125.3068759214611
 30
0.0
 40
189.69999999999999
 50
110.136303
 51
290.136303
  0
LINE
  5
7A79
  8
2
  6
CENTER
 10
1575.283162280341
 20
2980.6068759214609
 30
0.0
 11
1575.283162280341
 21
3270.006875921461
 31
0.0
  0
CIRCLE
  5
7A7A
  8
1
  6
CONTINUOUS
 10
1575.283162280341
 20
3125.3068759214611
 30
0.0
 40
139.69999999999999
  0
ARC
  5
7A7B
  8
1
  6
CONTINUOUS
 10
1575.283162280341
 20
3125.3068759214611
 30
0.0
 40
162.0
 50
324.972283
 51
215.02771699999991
  0
CIRCLE
  5
7A7C
  8
1
  6
CONTINUOUS
 10
2475.2831622803401
 20
3455.3068759214611
 30
0.0
 40
395.0
  0
ARC
  5
7A7D
  8
1
  6
CONTINUOUS
 10
2422.2831622803401
 20
3402.3068759214598
 30
0.0
 40
559.0
 50
299.40177899999998
 51
5.4405089999999987
  0
ARC
  5
7A7E
  8
1
  6
CONTINUOUS
 10
2422.2831622803401
 20
3508.3068759214611
 30
0.0
 40
665.0
 50
184.571279
 51
243.091364
  0
LINE
  5
7A7F
  8
1
  6
CONTINUOUS
 10
1375.283162280341
 20
2915.3068759214611
 30
0.0
 11
2925.2831622803401
 21
2915.3068759214611
 31
0.0
  0
LINE
  5
7A80
  8
1
  6
CONTINUOUS
 10
1375.283162280341
 20
2815.3068759214611
 30
0.0
 11
2925.2831622803401
 21
2815.3068759214611
 31
0.0
  0
LINE
  5
7A81
  8
1
  6
CONTINUOUS
 10
1375.283162280341
 20
2620.3068759214621
 30
0.0
 11
2925.2831622803401
 21
2620.3068759214621
 31
0.0
  0
LINE
  5
7A82
  8
1
  6
CONTINUOUS
 10
1375.283162280341
 20
2720.3068759214611
 30
0.0
 11
2925.2831622803401
 21
2720.3068759214611
 31
0.0
  0
LINE
  5
7A83
  8
1
  6
CONTINUOUS
 10
1772.7831622803401
 20
2965.3068759214611
 30
0.0
 11
1377.783162280341
 21
2965.3068759214611
 31
0.0
  0
LINE
  5
7A84
  8
1
  6
CONTINUOUS
 10
1772.7831622803401
 20
2915.3068759214611
 30
0.0
 11
1772.7831622803401
 21
2965.3068759214611
 31
0.0
  0
LINE
  5
7A85
  8
1
  6
CONTINUOUS
 10
1377.783162280341
 20
2915.3068759214611
 30
0.0
 11
1377.783162280341
 21
2965.3068759214611
 31
0.0
  0
LINE
  5
7A86
  8
1
  6
CONTINUOUS
 10
1421.283162280341
 20
2983.3068759214611
 30
0.0
 11
1442.6254962803409
 21
3032.3233089214609
 31
0.0
  0
LINE
  5
7A87
  8
1
  6
CONTINUOUS
 10
1421.283162280341
 20
2965.3068759214611
 30
0.0
 11
1421.283162280341
 21
2983.3068759214611
 31
0.0
  0
LINE
  5
7A88
  8
1
  6
CONTINUOUS
 10
1729.2831622803401
 20
2965.3068759214611
 30
0.0
 11
1729.2831622803401
 21
2983.3068759214611
 31
0.0
  0
LINE
  5
7A89
  8
1
  6
CONTINUOUS
 10
1729.2831622803401
 20
2983.3068759214611
 30
0.0
 11
1707.9408282803411
 21
3032.3233089214609
 31
0.0
  0
LINE
  5
7A8A
  8
1
  6
CONTINUOUS
 10
1375.283162280341
 20
2915.3068759214611
 30
0.0
 11
1375.283162280341
 21
2815.3068759214611
 31
0.0
  0
LINE
  5
7A8B
  8
1
  6
CONTINUOUS
 10
1375.283162280341
 20
2720.3068759214611
 30
0.0
 11
1375.283162280341
 21
2620.3068759214621
 31
0.0
  0
LINE
  5
7A8C
  8
1
  6
CONTINUOUS
 10
2925.2831622803401
 20
2915.3068759214611
 30
0.0
 11
2925.2831622803401
 21
2815.3068759214611
 31
0.0
  0
LINE
  5
7A8D
  8
1
  6
CONTINUOUS
 10
2925.2831622803401
 20
2720.3068759214611
 30
0.0
 11
2925.2831622803401
 21
2620.3068759214621
 31
0.0
  0
LINE
  5
7A8E
  8
1
  6
CONTINUOUS
 10
2427.1907882803398
 20
3586.4678969214619
 30
0.0
 11
1527.1907882803409
 21
3256.4678969214619
 31
0.0
  0
LINE
  5
7A8F
  8
1
  6
CONTINUOUS
 10
2409.9780552803409
 20
3633.411712921461
 30
0.0
 11
1509.9780552803411
 21
3303.411712921461
 31
0.0
  0
LINE
  5
7A90
  8
1
  6
CONTINUOUS
 10
1719.7323942803409
 20
3915.3068759214611
 30
0.0
 11
2446.2831622803401
 21
3915.3068759214611
 31
0.0
  0
LINE
  5
7A91
  8
1
  6
CONTINUOUS
 10
1676.283162280341
 20
3955.3068759214611
 30
0.0
 11
2486.2831622803401
 21
3955.3068759214611
 31
0.0
  0
LINE
  5
7A92
  8
1
  6
CONTINUOUS
 10
1759.398557280341
 20
3455.3068759214611
 30
0.0
 11
1716.283162280341
 21
3955.3068759214611
 31
0.0
  0
LINE
  5
7A93
  8
2
  6
CENTER
 10
1430.583162280341
 20
3125.3068759214611
 30
0.0
 11
1719.983162280341
 21
3125.3068759214611
 31
0.0
  0
LINE
  5
7A94
  8
1
  6
CONTINUOUS
 10
2446.2831622803401
 20
3870.615059921462
 30
0.0
 11
2446.2831622803401
 21
3955.3068759214611
 31
0.0
  0
ARC
  5
7A95
  8
1
  6
CONTINUOUS
 10
2517.283162280341
 20
3413.3068759214611
 30
0.0
 40
464.0
 50
5.193363999999999
 51
95.193364000000017
  0
ARC
  5
7A96
  8
1
  6
CONTINUOUS
 10
2475.2831622803401
 20
3455.3068759214611
 30
0.0
 40
189.69999999999999
 50
290.136303
 51
110.136303
  0
LINE
  5
7A97
  8
2
  6
CENTER
 10
5159.0759529088109
 20
3455.3068759214611
 30
0.0
 11
4215.2401109088114
 21
3455.3068759214611
 31
0.0
  0
CIRCLE
  5
7A98
  8
1
  6
CONTINUOUS
 10
2475.2831622803401
 20
3455.3068759214611
 30
0.0
 40
139.69999999999999
  0
CIRCLE
  5
7A99
  8
1
  6
CONTINUOUS
 10
2475.2831622803401
 20
3455.3068759214611
 30
0.0
 40
355.0
  0
LINE
  5
7A9A
  8
2
  6
CENTER
 10
2475.2831622803401
 20
2620.3068759214621
 30
0.0
 11
2475.2831622803401
 21
3924.5303709214618
 31
0.0
  0
ARC
  5
7A9B
  8
1
  6
CONTINUOUS
 10
2517.283162280341
 20
3497.3068759214611
 30
0.0
 40
380.0
 50
96.345656000000005
 51
100.76855
  0
LINE
  5
7A9C
  8
1
  6
CONTINUOUS
 10
4303.9512849088114
 20
2935.6068759214609
 30
0.0
 11
4303.9512849088114
 21
3645.006875921461
 31
0.0
  0
LINE
  5
7A9D
  8
1
  6
CONTINUOUS
 10
4413.9512849088114
 20
2935.6068759214609
 30
0.0
 11
4413.9512849088114
 21
3645.006875921461
 31
0.0
  0
LINE
  5
7A9E
  8
1
  6
CONTINUOUS
 10
4311.9512849088114
 20
3265.0068759214619
 30
0.0
 11
4311.9512849088114
 21
2985.6068759214609
 31
0.0
  0
LINE
  5
7A9F
  8
1
  6
CONTINUOUS
 10
4396.9512849088114
 20
3265.0068759214619
 30
0.0
 11
4396.9512849088114
 21
2985.6068759214609
 31
0.0
  0
LINE
  5
7AA0
  8
1
  6
CONTINUOUS
 10
4436.9512849088114
 20
3287.3068759214611
 30
0.0
 11
4436.9512849088114
 21
2915.3068759214611
 31
0.0
  0
LINE
  5
7AA1
  8
1
  6
CONTINUOUS
 10
5161.9512849088123
 20
3850.3068759214611
 30
0.0
 11
5161.9512849088123
 21
3060.3068759214611
 31
0.0
  0
LINE
  5
7AA2
  8
1
  6
CONTINUOUS
 10
4548.9512849088114
 20
3955.3068759214611
 30
0.0
 11
4548.9512849088114
 21
2915.3068759214611
 31
0.0
  0
LINE
  5
7AA3
  8
1
  6
CONTINUOUS
 10
5078.9512849088114
 20
3955.3068759214611
 30
0.0
 11
5078.9512849088114
 21
2915.3068759214611
 31
0.0
  0
LINE
  5
7AA4
  8
1
  6
CONTINUOUS
 10
4381.9512849088114
 20
2720.3068759214611
 30
0.0
 11
5131.9512849088123
 21
2720.3068759214611
 31
0.0
  0
LINE
  5
7AA5
  8
1
  6
CONTINUOUS
 10
4381.9512849088114
 20
2620.3068759214621
 30
0.0
 11
5131.9512849088123
 21
2620.3068759214621
 31
0.0
  0
LINE
  5
7AA6
  8
1
  6
CONTINUOUS
 10
4381.9512849088114
 20
2815.3068759214611
 30
0.0
 11
5131.9512849088123
 21
2815.3068759214611
 31
0.0
  0
LINE
  5
7AA7
  8
1
  6
CONTINUOUS
 10
4381.9512849088114
 20
2915.3068759214611
 30
0.0
 11
5131.9512849088123
 21
2915.3068759214611
 31
0.0
  0
LINE
  5
7AA8
  8
1
  6
CONTINUOUS
 10
4303.9512849088114
 20
2935.6068759214609
 30
0.0
 11
4413.9512849088114
 21
2935.6068759214609
 31
0.0
  0
LINE
  5
7AA9
  8
1
  6
CONTINUOUS
 10
4311.9512849088114
 20
2985.6068759214609
 30
0.0
 11
4396.9512849088114
 21
2985.6068759214609
 31
0.0
  0
LINE
  5
7AAA
  8
1
  6
CONTINUOUS
 10
4548.9512849088114
 20
2965.3068759214611
 30
0.0
 11
4436.9512849088114
 21
2965.3068759214611
 31
0.0
  0
LINE
  5
7AAB
  8
1
  6
CONTINUOUS
 10
4381.9512849088114
 20
2720.3068759214611
 30
0.0
 11
4381.9512849088114
 21
2620.3068759214621
 31
0.0
  0
LINE
  5
7AAC
  8
1
  6
CONTINUOUS
 10
4381.9512849088114
 20
2915.3068759214611
 30
0.0
 11
4381.9512849088114
 21
2815.3068759214611
 31
0.0
  0
LINE
  5
7AAD
  8
1
  6
CONTINUOUS
 10
5131.9512849088123
 20
2720.3068759214611
 30
0.0
 11
5131.9512849088123
 21
2620.3068759214621
 31
0.0
  0
LINE
  5
7AAE
  8
1
  6
CONTINUOUS
 10
5131.9512849088123
 20
2915.3068759214611
 30
0.0
 11
5131.9512849088123
 21
2815.3068759214611
 31
0.0
  0
LINE
  5
7AAF
  8
1
  6
CONTINUOUS
 10
4508.9512849088114
 20
3955.3068759214611
 30
0.0
 11
5118.9512849088123
 21
3955.3068759214611
 31
0.0
  0
LINE
  5
7AB0
  8
1
  6
CONTINUOUS
 10
4548.9512849088114
 20
3915.3068759214611
 30
0.0
 11
5078.9512849088114
 21
3915.3068759214611
 31
0.0
  0
LINE
  5
7AB1
  8
1
  6
CONTINUOUS
 10
4436.9512849088114
 20
3287.3068759214611
 30
0.0
 11
4548.9512849088114
 21
3287.3068759214611
 31
0.0
  0
LINE
  5
7AB2
  8
1
  6
CONTINUOUS
 10
4396.9512849088114
 20
3104.3068759214611
 30
0.0
 11
4436.9512849088114
 21
3104.3068759214611
 31
0.0
  0
LINE
  5
7AB3
  8
1
  6
CONTINUOUS
 10
4396.9512849088114
 20
3146.3068759214611
 30
0.0
 11
4436.9512849088114
 21
3146.3068759214611
 31
0.0
  0
LINE
  5
7AB4
  8
1
  6
CONTINUOUS
 10
4396.9512849088114
 20
3432.8068759214598
 30
0.0
 11
4548.9512849088114
 21
3432.8068759214598
 31
0.0
  0
LINE
  5
7AB5
  8
1
  6
CONTINUOUS
 10
4396.9512849088114
 20
3477.8068759214611
 30
0.0
 11
4548.9512849088114
 21
3477.8068759214611
 31
0.0
  0
LINE
  5
7AB6
  8
1
  6
CONTINUOUS
 10
4303.9512849088114
 20
3645.006875921461
 30
0.0
 11
4413.9512849088114
 21
3645.006875921461
 31
0.0
  0
LINE
  5
7AB7
  8
1
  6
CONTINUOUS
 10
4311.9512849088114
 20
3586.4639229214622
 30
0.0
 11
4396.9512849088114
 21
3586.4639229214622
 31
0.0
  0
LINE
  5
7AB8
  8
1
  6
CONTINUOUS
 10
4311.9512849088114
 20
3324.149828921461
 30
0.0
 11
4396.9512849088114
 21
3324.149828921461
 31
0.0
  0
LINE
  5
7AB9
  8
1
  6
CONTINUOUS
 10
4311.9512849088114
 20
3265.0068759214619
 30
0.0
 11
4396.9512849088114
 21
3265.0068759214619
 31
0.0
  0
LINE
  5
7ABA
  8
1
  6
CONTINUOUS
 10
4311.9512849088114
 20
3586.4639229214622
 30
0.0
 11
4311.9512849088114
 21
3324.149828921461
 31
0.0
  0
LINE
  5
7ABB
  8
1
  6
CONTINUOUS
 10
4396.9512849088114
 20
3586.4639229214622
 30
0.0
 11
4396.9512849088114
 21
3324.149828921461
 31
0.0
  0
LINE
  5
7ABC
  8
1
  6
CONTINUOUS
 10
5078.9512849088114
 20
3100.3068759214611
 30
0.0
 11
5161.9512849088123
 21
3100.3068759214611
 31
0.0
  0
LINE
  5
7ABD
  8
1
  6
CONTINUOUS
 10
5078.9512849088114
 20
3810.3068759214611
 30
0.0
 11
5161.9512849088123
 21
3810.3068759214611
 31
0.0
  0
LINE
  5
7ABE
  8
1
  6
CONTINUOUS
 10
1385.583162280341
 20
5499.4068759214624
 30
0.0
 11
2664.9831622803408
 21
5499.4068759214624
 31
0.0
  0
LINE
  5
7ABF
  8
1
  6
CONTINUOUS
 10
1385.583162280341
 20
5389.4068759214624
 30
0.0
 11
2664.9831622803408
 21
5389.4068759214624
 31
0.0
  0
LINE
  5
7AC0
  8
1
  6
CONTINUOUS
 10
1714.983162280341
 20
5467.4068759214624
 30
0.0
 11
2335.5831622803412
 21
5467.4068759214624
 31
0.0
  0
LINE
  5
7AC1
  8
1
  6
CONTINUOUS
 10
1716.283162280341
 20
5634.4068759214624
 30
0.0
 11
2981.2831622803401
 21
5634.4068759214624
 31
0.0
  0
LINE
  5
7AC2
  8
1
  6
CONTINUOUS
 10
1716.283162280341
 20
6164.4068759214624
 30
0.0
 11
2981.2831622803401
 21
6164.4068759214624
 31
0.0
  0
LINE
  5
7AC3
  8
1
  6
CONTINUOUS
 10
1375.283162280341
 20
6217.4068759214624
 30
0.0
 11
2120.2831622803401
 21
6217.4068759214624
 31
0.0
  0
LINE
  5
7AC4
  8
1
  6
CONTINUOUS
 10
1716.283162280341
 20
6164.4068759214624
 30
0.0
 11
2446.2831622803401
 21
5634.4068759214624
 31
0.0
  0
LINE
  5
7AC5
  8
1
  6
CONTINUOUS
 10
2446.2831622803401
 20
6164.4068759214624
 30
0.0
 11
1716.283162280341
 21
5634.4068759214624
 31
0.0
  0
LINE
  5
7AC6
  8
1
  6
CONTINUOUS
 10
1413.283162280341
 20
5522.4068759214624
 30
0.0
 11
1413.283162280341
 21
6059.4068759214624
 31
0.0
  0
LINE
  5
7AC7
  8
1
  6
CONTINUOUS
 10
1375.283162280341
 20
5467.4068759214624
 30
0.0
 11
1375.283162280341
 21
6217.4068759214624
 31
0.0
  0
LINE
  5
7AC8
  8
1
  6
CONTINUOUS
 10
1716.283162280341
 20
5634.4068759214624
 30
0.0
 11
1716.283162280341
 21
6164.4068759214624
 31
0.0
  0
LINE
  5
7AC9
  8
1
  6
CONTINUOUS
 10
1385.583162280341
 20
5389.4068759214624
 30
0.0
 11
1385.583162280341
 21
5499.4068759214624
 31
0.0
  0
LINE
  5
7ACA
  8
1
  6
CONTINUOUS
 10
1435.583162280341
 20
5397.4068759214624
 30
0.0
 11
1435.583162280341
 21
5482.4068759214624
 31
0.0
  0
LINE
  5
7ACB
  8
1
  6
CONTINUOUS
 10
1714.983162280341
 20
5397.4068759214624
 30
0.0
 11
1714.983162280341
 21
5482.4068759214624
 31
0.0
  0
LINE
  5
7ACC
  8
1
  6
CONTINUOUS
 10
1435.583162280341
 20
5397.4068759214624
 30
0.0
 11
1714.983162280341
 21
5397.4068759214624
 31
0.0
  0
LINE
  5
7ACD
  8
1
  6
CONTINUOUS
 10
1435.583162280341
 20
5482.4068759214624
 30
0.0
 11
1714.983162280341
 21
5482.4068759214624
 31
0.0
  0
LINE
  5
7ACE
  8
1
  6
CONTINUOUS
 10
1737.2831622803401
 20
5522.4068759214624
 30
0.0
 11
1737.2831622803401
 21
5634.4068759214624
 31
0.0
  0
LINE
  5
7ACF
  8
1
  6
CONTINUOUS
 10
1413.283162280341
 20
5522.4068759214624
 30
0.0
 11
1737.2831622803401
 21
5522.4068759214624
 31
0.0
  0
LINE
  5
7AD0
  8
1
  6
CONTINUOUS
 10
1554.283162280341
 20
5482.4068759214624
 30
0.0
 11
1554.283162280341
 21
5522.4068759214624
 31
0.0
  0
LINE
  5
7AD1
  8
1
  6
CONTINUOUS
 10
1596.283162280341
 20
5482.4068759214624
 30
0.0
 11
1596.283162280341
 21
5522.4068759214624
 31
0.0
  0
LINE
  5
7AD2
  8
1
  6
CONTINUOUS
 10
1375.283162280341
 20
5467.4068759214624
 30
0.0
 11
1435.583162280341
 21
5467.4068759214624
 31
0.0
  0
LINE
  5
7AD3
  8
1
  6
CONTINUOUS
 10
1413.283162280341
 20
6059.4068759214624
 30
0.0
 11
1716.283162280341
 21
6059.4068759214624
 31
0.0
  0
LINE
  5
7AD4
  8
1
  6
CONTINUOUS
 10
2981.2831622803401
 20
5634.4068759214624
 30
0.0
 11
2981.2831622803401
 21
6164.4068759214624
 31
0.0
  0
LINE
  5
7AD5
  8
1
  6
CONTINUOUS
 10
2446.2831622803401
 20
5634.4068759214624
 30
0.0
 11
2446.2831622803401
 21
6164.4068759214624
 31
0.0
  0
LINE
  5
7AD6
  8
1
  6
CONTINUOUS
 10
2335.5831622803412
 20
5482.4068759214624
 30
0.0
 11
2614.9831622803408
 21
5482.4068759214624
 31
0.0
  0
LINE
  5
7AD7
  8
1
  6
CONTINUOUS
 10
2335.5831622803412
 20
5397.4068759214624
 30
0.0
 11
2614.9831622803408
 21
5397.4068759214624
 31
0.0
  0
LINE
  5
7AD8
  8
1
  6
CONTINUOUS
 10
2335.5831622803412
 20
5397.4068759214624
 30
0.0
 11
2335.5831622803412
 21
5482.4068759214624
 31
0.0
  0
LINE
  5
7AD9
  8
1
  6
CONTINUOUS
 10
2452.7831622803401
 20
5482.4068759214624
 30
0.0
 11
2452.7831622803401
 21
5634.4068759214624
 31
0.0
  0
LINE
  5
7ADA
  8
1
  6
CONTINUOUS
 10
2664.9831622803408
 20
5389.4068759214624
 30
0.0
 11
2664.9831622803408
 21
5499.4068759214624
 31
0.0
  0
LINE
  5
7ADB
  8
1
  6
CONTINUOUS
 10
2614.9831622803408
 20
5397.4068759214624
 30
0.0
 11
2614.9831622803408
 21
5482.4068759214624
 31
0.0
  0
LINE
  5
7ADC
  8
1
  6
CONTINUOUS
 10
2614.9831622803408
 20
5467.4068759214624
 30
0.0
 11
2925.2831622803401
 21
5467.4068759214624
 31
0.0
  0
LINE
  5
7ADD
  8
1
  6
CONTINUOUS
 10
2497.7831622803401
 20
5482.4068759214624
 30
0.0
 11
2497.7831622803401
 21
5634.4068759214624
 31
0.0
  0
LINE
  5
7ADE
  8
1
  6
CONTINUOUS
 10
2925.2831622803401
 20
5467.4068759214624
 30
0.0
 11
2925.2831622803401
 21
5634.4068759214624
 31
0.0
  0
LINE
  5
7ADF
  8
1
  6
CONTINUOUS
 10
2080.2831622803401
 20
6247.4068759214633
 30
0.0
 11
2870.2831622803401
 21
6247.4068759214633
 31
0.0
  0
LINE
  5
7AE0
  8
1
  6
CONTINUOUS
 10
2120.2831622803401
 20
6164.4068759214624
 30
0.0
 11
2120.2831622803401
 21
6247.4068759214633
 31
0.0
  0
LINE
  5
7AE1
  8
1
  6
CONTINUOUS
 10
2830.2831622803401
 20
6217.4068759214624
 30
0.0
 11
2925.2831622803401
 21
6217.4068759214624
 31
0.0
  0
LINE
  5
7AE2
  8
1
  6
CONTINUOUS
 10
2830.2831622803401
 20
6164.4068759214624
 30
0.0
 11
2830.2831622803401
 21
6247.4068759214633
 31
0.0
  0
LINE
  5
7AE3
  8
1
  6
CONTINUOUS
 10
2925.2831622803401
 20
6164.4068759214624
 30
0.0
 11
2925.2831622803401
 21
6217.4068759214624
 31
0.0
  0
DIMENSION
  5
7B28
  8
3
  6
CONTINUOUS
  2
*D1
 10
2446.2831622803401
 20
4175.8014359214612
 30
0.0
 11
2056.0565842803398
 21
4175.8014359214612
 31
0.0
 70
   128
 13
1716.283162280341
 23
3955.3068759214611
 33
0.0
 14
2446.2831622803401
 24
3955.3068759214611
 34
0.0
1001
ACAD
1000
DSTYLE
1002
{
1070
   287
1070
     3
1070
   287
1070
     3
1070
    40
1040
30.0
1070
   143
1040
0.039
1070
   172
1070
     1
1070
   271
1070
     0
1070
   279
1070
     0
1070
   288
1070
     1
1002
}
  0
DIMENSION
  5
7B35
  8
3
  6
CONTINUOUS
  2
*D2
 10
2475.2831622803401
 20
4375.368257921461
 30
0.0
 11
2056.0565842803398
 21
4375.368257921461
 31
0.0
 70
   128
 13
1716.283162280341
 23
3955.3068759214611
 33
0.0
 14
2475.2831622803401
 24
3875.4021049214612
 34
0.0
1001
ACAD
1000
DSTYLE
1002
{
1070
   287
1070
     3
1070
   287
1070
     3
1070
    40
1040
30.0
1070
   143
1040
0.039
1070
   172
1070
     1
1070
   271
1070
     0
1070
   279
1070
     0
1070
   288
1070
     1
1002
}
  0
DIMENSION
  5
7B41
  8
3
  6
CONTINUOUS
  2
*D3
 10
2981.2831622803401
 20
4375.368257921461
 30
0.0
 11
2728.2831622803401
 21
4450.3682579214619
 31
0.0
 70
     0
 13
2475.2831622803401
 23
3875.4021049214612
 33
0.0
 14
2981.2831622803401
 24
3455.3068759214611
 34
0.0
1001
ACAD
1000
DSTYLE
1002
{
1070
   287
1070
     3
1070
   287
1070
     3
1070
    40
1040
30.0
1070
   143
1040
0.039
1070
   172
1070
     1
1070
   271
1070
     0
1070
   279
1070
     0
1070
   288
1070
     1
1002
}
  0
DIMENSION
  5
7B4E
  8
3
  6
CONTINUOUS
  2
*D4
 10
3304.260857280342
 20
3455.3068759214611
 30
0.0
 11
3304.260857280341
 21
3715.3068759214611
 31
0.0
 70
   128
 13
2486.2831622803401
 23
3955.3068759214611
 33
0.0
 14
2979.378391280341
 24
3455.3068759214611
 34
0.0
 50
90.0
1001
ACAD
1000
DSTYLE
1002
{
1070
   287
1070
     3
1070
   287
1070
     3
1070
    40
1040
30.0
1070
   143
1040
0.039
1070
   172
1070
     1
1070
   271
1070
     0
1070
   279
1070
     0
1070
   288
1070
     1
1002
}
  0
DIMENSION
  5
7B5A
  8
3
  6
CONTINUOUS
  2
*D5
 10
3304.260857280341
 20
2815.3068759214611
 30
0.0
 11
3229.2608572803401
 21
3135.3068759214611
 31
0.0
 70
     0
 13
2979.378391280341
 23
3455.3068759214611
 33
0.0
 14
2925.2831622803401
 24
2815.3068759214611
 34
0.0
 50
90.0
1001
ACAD
1000
DSTYLE
1002
{
1070
   287
1070
     3
1070
   287
1070
     3
1070
    40
1040
30.0
1070
   143
1040
0.039
1070
   172
1070
     1
1070
   271
1070
     0
1070
   279
1070
     0
1070
   288
1070
     1
1002
}
  0
DIMENSION
  5
7BAA
  8
3
  6
CONTINUOUS
  2
*D6
 10
2925.2831622803401
 20
5068.4059979214617
 30
0.0
 11
2237.6135642803411
 21
5068.4059979214617
 31
0.0
 70
   128
 13
1375.283162280341
 23
5467.4068759214624
 33
0.0
 14
2925.2831622803401
 24
5467.4068759214624
 34
0.0
1001
ACAD
1000
DSTYLE
1002
{
1070
   287
1070
     3
1070
   287
1070
     3
1070
    40
1040
30.0
1070
   143
1040
0.039
1070
   172
1070
     1
1070
   271
1070
     0
1070
   279
1070
     0
1070
   288
1070
     1
1002
}
  0
DIMENSION
  5
7BB7
  8
3
  6
CONTINUOUS
  2
*D7
 10
3263.4105422803418
 20
5467.4068759214624
 30
0.0
 11
3263.4105422803409
 21
5807.7103319214621
 31
0.0
 70
   128
 13
2925.2831622803401
 23
6217.4068759214624
 33
0.0
 14
2925.2831622803401
 24
5467.4068759214624
 34
0.0
 50
90.0
1001
ACAD
1000
DSTYLE
1002
{
1070
   287
1070
     3
1070
   287
1070
     3
1070
    40
1040
30.0
1070
   143
1040
0.039
1070
   172
1070
     1
1070
   271
1070
     0
1070
   279
1070
     0
1070
   288
1070
     1
1002
}
  0
LINE
  5
7BB8
  8
2
  6
CENTER
 10
3153.7623222803409
 20
5899.4068759214633
 30
0.0
 11
1602.16413228034
 21
5899.4068759214633
 31
0.0
  0
LINE
  5
7BB9
  8
2
  6
CENTER
 10
2475.2831622803401
 20
5330.5692889214624
 30
0.0
 11
2475.2831622803401
 21
6352.1944239214608
 31
0.0
  0
LINE
  5
7BBA
  8
2
  6
CENTER
 10
4813.9512849088114
 20
4106.0613819214614
 30
0.0
 11
4813.9512849088114
 21
2620.3068759214621
 31
0.0
  0
DIMENSION
  5
7BFA
  8
3
  6
CONTINUOUS
  2
*D8
 10
5450.2809929088126
 20
3100.3068759214611
 30
0.0
 11
5450.2809929088116
 21
3436.0628969214608
 31
0.0
 70
   128
 13
5161.9512849088123
 23
3810.3068759214611
 33
0.0
 14
5161.9512849088123
 24
3100.3068759214611
 34
0.0
 50
90.0
1001
ACAD
1000
DSTYLE
1002
{
1070
   287
1070
     3
1070
   287
1070
     3
1070
     3
1000
φ<>
1070
    40
1040
30.0
1070
   143
1040
0.039
1070
   172
1070
     1
1070
   271
1070
     0
1070
   279
1070
     0
1070
   288
1070
     1
1002
}
  0
DIMENSION
  5
7C07
  8
3
  6
CONTINUOUS
  2
*D9
 10
5078.9512849088114
 20
4093.7262449214609
 30
0.0
 11
4788.9512849088114
 21
4093.7262449214609
 31
0.0
 70
   128
 13
4548.9512849088114
 23
3955.3068759214611
 33
0.0
 14
5078.9512849088114
 24
3955.3068759214611
 34
0.0
1001
ACAD
1000
DSTYLE
1002
{
1070
   287
1070
     3
1070
   287
1070
     3
1070
    40
1040
30.0
1070
   143
1040
0.039
1070
   172
1070
     1
1070
   271
1070
     0
1070
   279
1070
     0
1070
   288
1070
     1
1002
}
  0
DIMENSION
  5
7C14
  8
3
  6
CONTINUOUS
  2
*D10
 10
4813.9512849088114
 20
4295.8142739321183
 30
0.0
 11
4595.379856337383
 21
4295.8142739321183
 31
0.0
 70
   128
  1
MAX\P590
 13
4303.9512849088114
 23
3645.006875921461
 33
0.0
 14
4813.9512849088114
 24
4236.2656081691048
 34
0.0
1001
ACAD
1000
DSTYLE
1002
{
1070
   287
1070
     3
1070
   287
1070
     3
1070
    40
1040
30.0
1070
   143
1040
0.039
1070
   172
1070
     1
1070
   271
1070
     0
1070
   279
1070
     0
1070
   288
1070
     1
1002
}
  0
DIMENSION
  5
7C22
  8
3
  6
CONTINUOUS
  2
*D11
 10
5161.9512849088123
 20
4295.8142739321183
 30
0.0
 11
4987.9512849088114
 21
4386.0011929190578
 31
0.0
 70
   128
 13
4813.9512849088114
 23
4239.1637254496382
 33
0.0
 14
5161.9512849088123
 24
3850.3068759214611
 34
0.0
1001
ACAD
1000
DSTYLE
1002
{
1070
   288
1070
     1
1070
   172
1070
     1
1070
    40
1040
30.0
1070
   271
1070
     0
1070
   143
1040
0.039
1002
}
  0
LINE
  5
7C39
  8
2
  6
CENTER
 10
3021.4823572803411
 20
3455.3068759214611
 30
0.0
 11
1577.1217362803411
 21
3455.3068759214611
 31
0.0
  0
LINE
  5
7C3A
  8
4
  6
CONTINUOUS
 10
5550.0
 20
1500.0
 30
0.0
 11
5550.0
 21
900.0
 31
0.0
  0
LINE
  5
7C3B
  8
4
  6
CONTINUOUS
 10
3450.0
 20
1500.0
 30
0.0
 11
3450.0
 21
900.0
 31
0.0
  0
LINE
  5
7C3C
  8
4
  6
CONTINUOUS
 10
1950.0
 20
1500.0
 30
0.0
 11
1950.0
 21
900.0
 31
0.0
  0
LINE
  5
7C3F
  8
4
  6
CONTINUOUS
 10
1950.0
 20
900.0
 30
0.0
 11
5550.0
 21
900.0
 31
0.0
  0
LINE
  5
7C40
  8
4
  6
CONTINUOUS
 10
1950.0
 20
1200.0
 30
0.0
 11
5550.0
 21
1200.0
 31
0.0
  0
TEXT
  5
7C41
  8
4
  6
CONTINUOUS
 10
2065.50624225
 20
1294.6290779999999
 30
0.0
 40
150.0
  1
機器名称
  0
TEXT
  5
7C42
  8
4
  6
CONTINUOUS
 10
2058.7743179999989
 20
964.93547024999998
 30
0.0
 40
150.0
  1
機器型番
  0
TEXT
  5
7C43
  8
4
  6
CONTINUOUS
 10
3533.0362365000001
 20
1267.715306249999
 30
0.0
 40
120.0
  1
ミツヤリミットロードファン
  0
TEXT
  5
7C44
  8
4
  6
CONTINUOUS
 10
3559.9634872500001
 20
951.4787527499999
 30
0.0
 40
150.0
  1
LLE#4 1/2-4
  0
TEXT
  5
7C46
  8
4
  6
CONTINUOUS
 10
2421.3123802499999
 20
7150.2865245000012
 30
0.0
 40
162.0
  1
床置防振ベット
  0
TEXT
  5
7C47
  8
4
  6
CONTINUOUS
 10
948.50278049999986
 20
7601.6429287499996
 30
0.0
 40
171.42857175
  1
ベルト駆動式片吸込両持排煙ファン
  0
LINE
  5
7C48
  8
4
  6
CONTINUOUS
 10
750.0
 20
7408.2262627500004
 30
0.0
 11
5550.0
 21
7408.2262627500004
 31
0.0
  0
LINE
  5
7C49
  8
4
  6
CONTINUOUS
 10
750.0
 20
8008.2262627500004
 30
0.0
 11
5550.0
 21
8008.2262627500004
 31
0.0
  0
LINE
  5
7C4A
  8
4
  6
CONTINUOUS
 10
1950.0
 20
1500.0
 30
0.0
 11
5550.0
 21
1500.0
 31
0.0
  0
LINE
  5
7C4B
  8
4
  6
CONTINUOUS
 10
750.0
 20
8008.2262627500004
 30
0.0
 11
750.0
 21
7408.2262627500004
 31
0.0
  0
TEXT
  5
7C4C
  8
4
  6
CONTINUOUS
 10
1113.7358835
 20
7146.9584324999987
 30
0.0
 40
162.0
  1
右回転上向
  0
TEXT
  5
7C4D
  8
4
  6
CONTINUOUS
 10
4406.9086777499988
 20
8118.1832445
 30
0.0
 40
168.0
  1
No.
  0
TEXT
  5
7C4E
  8
4
  6
CONTINUOUS
 10
3933.8881875000002
 20
7150.2865245000012
 30
0.0
 40
162.0
  1
縮尺：1/30
  0
LINE
  5
7C4F
  8
4
  6
CONTINUOUS
 10
5550.0
 20
8008.2262627500004
 30
0.0
 11
5550.0
 21
7408.2262627500004
 31
0.0
  0
LINE
  5
7C51
  8
4
  6
CONTINUOUS
 10
4321.8522667500001
 20
8043.79074975
 30
0.0
 11
4321.8522667500001
 21
8359.9567845000001
 31
0.0
  0
LINE
  5
7C52
  8
4
  6
CONTINUOUS
 10
4321.8522667500001
 20
8359.9567845000001
 30
0.0
 11
5550.0
 21
8359.9567845000001
 31
0.0
  0
LINE
  5
7C53
  8
4
  6
CONTINUOUS
 10
5550.0
 20
8359.9567845000001
 30
0.0
 11
5550.0
 21
8043.79074975
 31
0.0
  0
LINE
  5
7C54
  8
4
  6
CONTINUOUS
 10
5550.0
 20
8043.79074975
 30
0.0
 11
4321.8522667500001
 21
8043.79074975
 31
0.0
  0
DIMENSION
  5
7DD9
  8
3
  2
*D12
 10
1375.283162280341
 20
4556.5065854385166
 30
0.0
 11
2173.3820819288658
 21
4556.5065854385166
 31
0.0
 70
   128
 13
2981.2831622803401
 23
3455.3068759214611
 33
0.0
 14
1375.283162280341
 24
2915.3068759214611
 34
0.0
1001
ACAD
1000
DSTYLE
1002
{
1070
   287
1070
     3
1070
   287
1070
     3
1070
    40
1040
30.0
1070
   143
1040
0.039
1070
   172
1070
     1
1070
   271
1070
     0
1070
   279
1070
     0
1070
   288
1070
     1
1002
}
  0
DIMENSION
  5
7E16
  8
3
  2
*D13
 10
2475.2831622803401
 20
2420.6648466300212
 30
0.0
 11
1925.2831622803401
 21
2495.6648466300212
 31
0.0
 70
     0
 13
1375.283162280341
 23
2620.3068759214621
 33
0.0
 14
2475.2831622803401
 24
2620.3068759214621
 34
0.0
1001
ACAD
1000
DSTYLE
1002
{
1070
   287
1070
     3
1070
   287
1070
     3
1070
    40
1040
30.0
1070
   143
1040
0.039
1070
   172
1070
     1
1070
   271
1070
     0
1070
   279
1070
     0
1002
}
  0
DIMENSION
  5
7E23
  8
3
  2
*D14
 10
2925.2831622803401
 20
2420.6648466300212
 30
0.0
 11
2700.2831622803401
 21
2495.6648466300212
 31
0.0
 70
     0
 13
2475.2831622803401
 23
2620.3068759214621
 33
0.0
 14
2925.2831622803401
 24
2620.3068759214621
 34
0.0
1001
ACAD
1000
DSTYLE
1002
{
1070
   287
1070
     3
1070
   287
1070
     3
1070
    40
1040
30.0
1070
   143
1040
0.039
1070
   172
1070
     1
1070
   271
1070
     0
1070
   279
1070
     0
1002
}
  0
DIMENSION
  5
7E30
  8
3
  2
*D15
 10
4813.9512849088114
 20
2420.6648466300212
 30
0.0
 11
4597.9512849088123
 21
2495.6648466300212
 31
0.0
 70
     0
 13
4381.9512849088114
 23
2620.3068759214621
 33
0.0
 14
4813.9512849088114
 24
2620.3068759214621
 34
0.0
1001
ACAD
1000
DSTYLE
1002
{
1070
   287
1070
     3
1070
   287
1070
     3
1070
    40
1040
30.0
1070
   143
1040
0.039
1070
   172
1070
     1
1070
   271
1070
     0
1070
   279
1070
     0
1002
}
  0
DIMENSION
  5
7E3F
  8
3
  2
*D16
 10
5131.9512849088123
 20
2420.6648466300212
 30
0.0
 11
4972.9512849088123
 21
2495.6648466300212
 31
0.0
 70
     0
 13
4813.9512849088114
 23
2620.3068759214621
 33
0.0
 14
5131.9512849088123
 24
2620.3068759214621
 34
0.0
1001
ACAD
1000
DSTYLE
1002
{
1070
   287
1070
     3
1070
   287
1070
     3
1070
    40
1040
30.0
1070
   143
1040
0.039
1070
   172
1070
     1
1070
   271
1070
     0
1070
   279
1070
     0
1002
}
  0
DIMENSION
  5
7E56
  8
3
  2
*D18
 10
3306.7410638420588
 20
2620.3068759214611
 30
0.0
 11
3231.7410638420579
 21
2363.1640187786052
 31
0.0
 70
     0
 13
2925.2831622803401
 23
2720.3068759214611
 33
0.0
 14
2925.2831622803401
 24
2620.3068759214621
 34
0.0
 50
90.0
1001
ACAD
1000
DSTYLE
1002
{
1070
   287
1070
     3
1070
   287
1070
     3
1070
    40
1040
30.0
1070
   143
1040
0.039
1070
   172
1070
     1
1070
   271
1070
     0
1070
   279
1070
     0
1070
     6
1000
DOT
1002
}
  0
DIMENSION
  5
7E65
  8
3
  2
*D19
 10
3306.7410638420588
 20
2815.3068759214611
 30
0.0
 11
3450.3124924134868
 21
2767.8068759214611
 31
0.0
 70
     0
 13
2925.2831622803401
 23
2720.3068759214611
 33
0.0
 14
2925.2831622803401
 24
2815.3068759214611
 34
0.0
 50
90.0
1001
ACAD
1000
DSTYLE
1002
{
1070
   172
1070
     1
1070
    40
1040
30.0
1070
     3
1000
(<>)
1070
   271
1070
     0
1070
     6
1000
_DOT
1070
   143
1040
0.039
1002
}
  0
DIMENSION
  5
7E72
  8
3
  2
*D20
 10
3564.632275420211
 20
2620.3068759214611
 30
0.0
 11
3466.0608468487831
 21
3287.8068759214621
 31
0.0
 70
     0
 13
2486.2831622803401
 23
3955.3068759214611
 33
0.0
 14
2925.2831622803401
 24
2620.3068759214621
 34
0.0
 50
90.0
1001
ACAD
1000
DSTYLE
1002
{
1070
   287
1070
     3
1070
   287
1070
     3
1070
     3
1000
(<>)
1070
    40
1040
30.0
1070
   143
1040
0.039
1070
   172
1070
     1
1070
   271
1070
     0
1070
   279
1070
     0
1002
}
  0
ENDSEC
  0
EOF
