  0
SECTION
  2
HEADER
  9
$ACADVER
  1
AC1009
  9
$INSBASE
 10
0.0
 20
0.0
 30
0.0
  9
$EXTMIN
 10
750.0
 20
900.0
 30
0.0
  9
$EXTMAX
 10
5550.0
 20
8359.9567845000001
 30
0.0
  9
$LIMMIN
 10
0.0
 20
0.0
  9
$LIMMAX
 10
297.0
 20
210.0
  9
$ORTHOMODE
 70
     0
  9
$REGENMODE
 70
     1
  9
$FILLMODE
 70
     0
  9
$QTEXTMODE
 70
     0
  9
$MIRRTEXT
 70
     1
  9
$DRAGMODE
 70
     2
  9
$LTSCALE
 40
100.0
  9
$OSMODE
 70
    37
  9
$ATTMODE
 70
     1
  9
$TEXTSIZE
 40
180.0
  9
$TRACEWID
 40
0.05
  9
$TEXTSTYLE
  7
STANDARD
  9
$CLAYER
  8
3
  9
$CELTYPE
  6
BYLAYER
  9
$CECOLOR
 62
   256
  9
$DIMSCALE
 40
30.0
  9
$DIMASZ
 40
2.0
  9
$DIMEXO
 40
0.5
  9
$DIMDLI
 40
10.0
  9
$DIMRND
 40
0.0
  9
$DIMDLE
 40
0.0
  9
$DIMEXE
 40
1.0
  9
$DIMTP
 40
1.0
  9
$DIMTM
 40
1.0
  9
$DIMTXT
 40
3.0
  9
$DIMCEN
 40
0.0
  9
$DIMTSZ
 40
0.0
  9
$DIMTOL
 70
     0
  9
$DIMLIM
 70
     0
  9
$DIMTIH
 70
     0
  9
$DIMTOH
 70
     0
  9
$DIMSE1
 70
     0
  9
$DIMSE2
 70
     0
  9
$DIMTAD
 70
     1
  9
$DIMZIN
 70
     8
  9
$DIMBLK
  1

  9
$DIMASO
 70
     1
  9
$DIMSHO
 70
     1
  9
$DIMPOST
  1
(<>)
  9
$DIMAPOST
  1

  9
$DIMALT
 70
     0
  9
$DIMALTD
 70
     2
  9
$DIMALTF
 40
0.039
  9
$DIMLFAC
 40
1.0
  9
$DIMTOFL
 70
     1
  9
$DIMTVP
 40
0.0
  9
$DIMTIX
 70
     0
  9
$DIMSOXD
 70
     0
  9
$DIMSAH
 70
     1
  9
$DIMBLK1
  1
OPEN
  9
$DIMBLK2
  1
OPEN
  9
$DIMSTYLE
  2
IGA
  9
$DIMCLRD
 70
     0
  9
$DIMCLRE
 70
     0
  9
$DIMCLRT
 70
     0
  9
$DIMTFAC
 40
10.0
  9
$DIMGAP
 40
1.0
  9
$LUNITS
 70
     2
  9
$LUPREC
 70
     3
  9
$SKETCHINC
 40
0.1
  9
$FILLETRAD
 40
50.0
  9
$AUNITS
 70
     0
  9
$AUPREC
 70
     0
  9
$MENU
  1
acad
  9
$ELEVATION
 40
0.0
  9
$PELEVATION
 40
0.0
  9
$THICKNESS
 40
0.0
  9
$LIMCHECK
 70
     0
  9
$BLIPMODE
 70
     0
  9
$CHAMFERA
 40
0.5
  9
$CHAMFERB
 40
0.5
  9
$SKPOLY
 70
     0
  9
$TDCREATE
 40
2450754.4861274301
  9
$TDUPDATE
 40
2454953.684533773
  9
$TDINDWG
 40
0.0069813889
  9
$TDUSRTIMER
 40
0.0069813889
  9
$USRTIMER
 70
     1
  9
$ANGBASE
 50
0.0
  9
$ANGDIR
 70
     0
  9
$PDMODE
 70
     0
  9
$PDSIZE
 40
0.0
  9
$PLINEWID
 40
0.0
  9
$COORDS
 70
     1
  9
$SPLFRAME
 70
     0
  9
$SPLINETYPE
 70
     6
  9
$SPLINESEGS
 70
     8
  9
$ATTDIA
 70
     0
  9
$ATTREQ
 70
     1
  9
$HANDLING
 70
 10241
  9
$HANDSEED
  5
809C
  9
$SURFTAB1
 70
     6
  9
$SURFTAB2
 70
     6
  9
$SURFTYPE
 70
     6
  9
$SURFU
 70
     6
  9
$SURFV
 70
     6
  9
$UCSNAME
  2

  9
$UCSORG
 10
0.0
 20
0.0
 30
0.0
  9
$UCSXDIR
 10
1.0
 20
0.0
 30
0.0
  9
$UCSYDIR
 10
0.0
 20
1.0
 30
0.0
  9
$PUCSNAME
  2

  9
$PUCSORG
 10
0.0
 20
0.0
 30
0.0
  9
$PUCSXDIR
 10
1.0
 20
0.0
 30
0.0
  9
$PUCSYDIR
 10
0.0
 20
1.0
 30
0.0
  9
$USERI1
 70
     0
  9
$USERI2
 70
     0
  9
$USERI3
 70
     0
  9
$USERI4
 70
     0
  9
$USERI5
 70
     0
  9
$USERR1
 40
0.0
  9
$USERR2
 40
0.0
  9
$USERR3
 40
0.0
  9
$USERR4
 40
0.0
  9
$USERR5
 40
0.0
  9
$WORLDVIEW
 70
     1
  9
$SHADEDGE
 70
     3
  9
$SHADEDIF
 70
    70
  9
$TILEMODE
 70
     1
  9
$MAXACTVP
 70
    16
  9
$PLIMCHECK
 70
     0
  9
$PEXTMIN
 10
1.0000000000000000E+020
 20
1.0000000000000000E+020
 30
1.0000000000000000E+020
  9
$PEXTMAX
 10
-1.0000000000000000E+020
 20
-1.0000000000000000E+020
 30
-1.0000000000000000E+020
  9
$PLIMMIN
 10
0.0
 20
0.0
  9
$PLIMMAX
 10
12.0
 20
9.0
  9
$UNITMODE
 70
     0
  9
$VISRETAIN
 70
     0
  9
$PLINEGEN
 70
     0
  9
$PSLTSCALE
 70
     1
  0
ENDSEC
  0
SECTION
  2
TABLES
  0
TABLE
  2
VPORT
 70
     2
  0
VPORT
  2
*ACTIVE
 70
     0
 10
0.0
 20
0.0
 11
1.0
 21
1.0
 12
14240.890648538751
 22
3985.906191591263
 13
0.0
 23
0.0
 14
10.0
 24
10.0
 15
10.0
 25
10.0
 16
0.0
 26
0.0
 36
1.0
 17
0.0
 27
0.0
 37
0.0
 40
10736.54875937912
 41
3.1666666666666661
 42
50.0
 43
0.0
 44
0.0
 50
0.0
 51
0.0
 71
     0
 72
   100
 73
     1
 74
     0
 75
     0
 76
     0
 77
     0
 78
     0
  0
ENDTAB
  0
TABLE
  2
LTYPE
 70
     2
  0
LTYPE
  2
CONTINUOUS
 70
     0
  3
Solid line
 72
    65
 73
     0
 40
0.0
  0
LTYPE
  2
CENTER
 70
     0
  3
____ _ ____ _ ____ _ ____ _ ____ _ ____ _ ____ 
 72
    65
 73
     4
 40
2.0
 49
1.25
 49
-0.25
 49
0.25
 49
-0.25
  0
ENDTAB
  0
TABLE
  2
LAYER
 70
     6
  0
LAYER
  2
0
 70
     0
 62
     7
  6
CONTINUOUS
  0
LAYER
  2
3
 70
     0
 62
     2
  6
CONTINUOUS
  0
LAYER
  2
2
 70
     0
 62
     3
  6
CENTER
  0
LAYER
  2
1
 70
     0
 62
     4
  6
CONTINUOUS
  0
LAYER
  2
4
 70
     0
 62
     7
  6
CONTINUOUS
  0
LAYER
  2
DEFPOINTS
 70
     0
 62
     7
  6
CONTINUOUS
  0
ENDTAB
  0
TABLE
  2
STYLE
 70
     1
  0
STYLE
  2
STANDARD
 70
     0
 40
0.0
 41
1.0
 50
0.0
 71
     0
 42
180.0
  3
simplex.shx
  4
extfont.shx
  0
ENDTAB
  0
TABLE
  2
VIEW
 70
     0
  0
ENDTAB
  0
TABLE
  2
UCS
 70
     0
  0
ENDTAB
  0
TABLE
  2
APPID
 70
     1
  0
APPID
  2
ACAD
 70
     0
  0
ENDTAB
  0
TABLE
  2
DIMSTYLE
 70
     1
  0
DIMSTYLE
  2
IGA
 70
     0
  3

  4

  5

  6
OPEN
  7
OPEN
 40
2.0
 41
2.0
 42
0.5
 43
10.0
 44
1.0
 45
0.0
 46
0.0
 47
1.0
 48
1.0
140
3.0
141
0.0
142
0.0
143
0.03937
144
1.0
145
0.0
146
10.0
147
1.0
 71
     0
 72
     0
 73
     0
 74
     0
 75
     0
 76
     0
 77
     1
 78
     8
170
     0
171
     2
172
     0
173
     1
174
     0
175
     0
176
     0
177
     0
178
     0
  0
ENDTAB
  0
ENDSEC
  0
SECTION
  2
BLOCKS
  0
BLOCK
  8
0
  2
$MODEL_SPACE
 70
     0
 10
0.0
 20
0.0
 30
0.0
  3
$MODEL_SPACE
  1

  0
ENDBLK
  5
1B
  8
0
  0
BLOCK
 67
     1
  8
0
  2
$PAPER_SPACE
 70
     0
 10
0.0
 20
0.0
 30
0.0
  3
$PAPER_SPACE
  1

  0
ENDBLK
  5
18
 67
     1
  8
0
  0
BLOCK
  8
0
  2
_OPEN
 70
     0
 10
0.0
 20
0.0
 30
0.0
  3
_OPEN
  1

  0
LINE
  5
7AE8
  8
0
  6
BYBLOCK
 62
     0
 10
-1.0
 20
0.166667
 30
0.0
 11
0.0
 21
0.0
 31
0.0
  0
LINE
  5
7AE9
  8
0
  6
BYBLOCK
 62
     0
 10
0.0
 20
0.0
 30
0.0
 11
-1.0
 21
-0.166667
 31
0.0
  0
LINE
  5
7AEA
  8
0
  6
BYBLOCK
 62
     0
 10
0.0
 20
0.0
 30
0.0
 11
-1.0
 21
0.0
 31
0.0
  0
ENDBLK
  5
7AEB
  8
0
  0
BLOCK
  8
0
  2
*D1
 70
     1
 10
0.0
 20
0.0
 30
0.0
  3
*D1
  1

  0
LINE
  5
7FE2
  8
3
  6
CONTINUOUS
 62
     0
 10
2858.0816809999992
 20
3484.7517441441141
 30
0.0
 11
3167.077643000001
 21
3484.7517441441132
 31
0.0
  0
LINE
  5
7FE3
  8
3
  6
CONTINUOUS
 62
     0
 10
2858.0816809999992
 20
2754.7517441441141
 30
0.0
 11
3167.077643000001
 21
2754.7517441441141
 31
0.0
  0
LINE
  5
7FE4
  8
3
  6
CONTINUOUS
 62
     0
 10
3137.077643000001
 20
3424.7517441441132
 30
0.0
 11
3137.077643000001
 21
2814.7517441441141
 31
0.0
  0
INSERT
  5
7FE5
  8
3
  6
CONTINUOUS
 62
     0
  2
_OPEN
 10
3137.077643000001
 20
3484.7517441441132
 30
0.0
 41
60.0
 42
60.0
 43
60.0
 50
90.0
  0
INSERT
  5
7FE6
  8
3
  6
CONTINUOUS
 62
     0
  2
_OPEN
 10
3137.077643000001
 20
2754.7517441441141
 30
0.0
 41
60.0
 42
60.0
 43
60.0
 50
270.0
  0
TEXT
  8
3
  40
90
  5
8089
  62
0
  72
0
  71
0
 10
2882.08
 20
3002.22
 30
0.000000
  1
730
  0
POINT
  5
7FE8
  8
DEFPOINTS
  6
CONTINUOUS
 62
     0
 10
2843.0816809999992
 20
3484.7517441441141
 30
0.0
  0
POINT
  5
7FE9
  8
DEFPOINTS
  6
CONTINUOUS
 62
     0
 10
2843.0816809999992
 20
2754.7517441441141
 30
0.0
  0
POINT
  5
7FEA
  8
DEFPOINTS
  6
CONTINUOUS
 62
     0
 10
3137.077643000001
 20
2754.7517441441141
 30
0.0
  0
ENDBLK
  5
7D44
  8
0
  0
BLOCK
  8
0
  2
*D2
 70
     1
 10
0.0
 20
0.0
 30
0.0
  3
*D2
  1

  0
LINE
  5
7FEB
  8
3
  6
CONTINUOUS
 62
     0
 10
2777.7534959999998
 20
3513.7517441441141
 30
0.0
 11
3338.7476632340508
 21
3513.7517441441141
 31
0.0
  0
LINE
  5
7FEC
  8
3
  6
CONTINUOUS
 62
     0
 10
2858.0816809999992
 20
2754.7517441441141
 30
0.0
 11
3338.7476632340499
 21
2754.7517441441141
 31
0.0
  0
LINE
  5
7FED
  8
3
  6
CONTINUOUS
 62
     0
 10
3308.7476632340508
 20
3453.7517441441132
 30
0.0
 11
3308.7476632340508
 21
2814.7517441441141
 31
0.0
  0
INSERT
  5
7FEE
  8
3
  6
CONTINUOUS
 62
     0
  2
_OPEN
 10
3308.7476632340508
 20
3513.7517441441141
 30
0.0
 41
60.0
 42
60.0
 43
60.0
 50
90.0
  0
INSERT
  5
7FEF
  8
3
  6
CONTINUOUS
 62
     0
  2
_OPEN
 10
3308.7476632340508
 20
2754.7517441441141
 30
0.0
 41
60.0
 42
60.0
 43
60.0
 50
270.0
  0
TEXT
  8
3
  40
90
  5
808A
  62
0
  72
0
  71
0
 10
3053.75
 20
2996.00
 30
0.000000
  1
759
  0
POINT
  5
7FF1
  8
DEFPOINTS
  6
CONTINUOUS
 62
     0
 10
2762.7534959999998
 20
3513.7517441441141
 30
0.0
  0
POINT
  5
7FF2
  8
DEFPOINTS
  6
CONTINUOUS
 62
     0
 10
2843.0816809999992
 20
2754.7517441441141
 30
0.0
  0
POINT
  5
7FF3
  8
DEFPOINTS
  6
CONTINUOUS
 62
     0
 10
3308.7476632340508
 20
2754.7517441441141
 30
0.0
  0
ENDBLK
  5
7E3A
  8
0
  0
BLOCK
  8
0
  2
*D3
 70
     1
 10
0.0
 20
0.0
 30
0.0
  3
*D3
  1

  0
LINE
  5
7FF4
  8
3
  6
CONTINUOUS
 62
     0
 10
2358.0816809999992
 20
4019.7517441441132
 30
0.0
 11
3521.6468867834678
 21
4019.7517441441132
 31
0.0
  0
LINE
  5
7FF5
  8
3
  6
CONTINUOUS
 62
     0
 10
2778.1769089999989
 20
3513.7517441441141
 30
0.0
 11
3521.6468867834678
 21
3513.7517441441141
 31
0.0
  0
LINE
  5
7FF6
  8
3
  6
CONTINUOUS
 62
     0
 10
3491.6468867834692
 20
3959.7517441441132
 30
0.0
 11
3491.6468867834692
 21
3573.7517441441132
 31
0.0
  0
INSERT
  5
7FF7
  8
3
  6
CONTINUOUS
 62
     0
  2
_OPEN
 10
3491.6468867834692
 20
4019.7517441441132
 30
0.0
 41
60.0
 42
60.0
 43
60.0
 50
90.0
  0
INSERT
  5
7FF8
  8
3
  6
CONTINUOUS
 62
     0
  2
_OPEN
 10
3491.6468867834692
 20
3513.7517441441141
 30
0.0
 41
60.0
 42
60.0
 43
60.0
 50
270.0
  0
TEXT
  8
3
  40
90
  5
808B
  62
0
  72
0
  71
0
 10
3236.65
 20
3616.05
 30
0.000000
  1
506
  0
POINT
  5
7FFA
  8
DEFPOINTS
  6
CONTINUOUS
 62
     0
 10
2343.0816809999992
 20
4019.7517441441132
 30
0.0
  0
POINT
  5
7FFB
  8
DEFPOINTS
  6
CONTINUOUS
 62
     0
 10
2763.1769089999998
 20
3513.7517441441141
 30
0.0
  0
POINT
  5
7FFC
  8
DEFPOINTS
  6
CONTINUOUS
 62
     0
 10
3491.6468867834692
 20
3513.7517441441141
 30
0.0
  0
ENDBLK
  5
7E79
  8
0
  0
BLOCK
  8
0
  2
*D4
 70
     1
 10
0.0
 20
0.0
 30
0.0
  3
*D4
  1

  0
LINE
  5
7FFD
  8
3
  6
CONTINUOUS
 62
     0
 10
2778.1769089999989
 20
3513.7517441441141
 30
0.0
 11
3521.6468867834678
 21
3513.7517441441141
 31
0.0
  0
LINE
  5
7FFE
  8
3
  6
CONTINUOUS
 62
     0
 10
2808.0816809999992
 20
2643.7517441441141
 30
0.0
 11
3521.6468867834678
 21
2643.7517441441132
 31
0.0
  0
LINE
  5
7FFF
  8
3
  6
CONTINUOUS
 62
     0
 10
3491.6468867834692
 20
3453.7517441441132
 30
0.0
 11
3491.6468867834678
 21
2703.7517441441132
 31
0.0
  0
INSERT
  5
8000
  8
3
  6
CONTINUOUS
 62
     0
  2
_OPEN
 10
3491.6468867834692
 20
3513.7517441441141
 30
0.0
 41
60.0
 42
60.0
 43
60.0
 50
90.0
  0
INSERT
  5
8001
  8
3
  6
CONTINUOUS
 62
     0
  2
_OPEN
 10
3491.6468867834678
 20
2643.7517441441132
 30
0.0
 41
60.0
 42
60.0
 43
60.0
 50
270.0
  0
TEXT
  8
3
  40
90
  5
808C
  62
0
  72
0
  71
0
 10
3236.65
 20
2919.45
 30
0.000000
  1
870
  0
POINT
  5
8003
  8
DEFPOINTS
  6
CONTINUOUS
 62
     0
 10
2763.1769089999998
 20
3513.7517441441141
 30
0.0
  0
POINT
  5
8004
  8
DEFPOINTS
  6
CONTINUOUS
 62
     0
 10
2793.0816809999992
 20
2643.7517441441141
 30
0.0
  0
POINT
  5
8005
  8
DEFPOINTS
  6
CONTINUOUS
 62
     0
 10
3491.6468867834678
 20
2643.7517441441132
 30
0.0
  0
ENDBLK
  5
7E2F
  8
0
  0
BLOCK
  8
0
  2
*D5
 70
     1
 10
0.0
 20
0.0
 30
0.0
  3
*D5
  1

  0
LINE
  5
8006
  8
3
  6
CONTINUOUS
 62
     0
 10
1731.0816809999999
 20
3528.7517441441141
 30
0.0
 11
1731.0816809999999
 21
4230.2338926212697
 31
0.0
  0
LINE
  5
8007
  8
3
  6
CONTINUOUS
 62
     0
 10
2343.0816809999992
 20
4032.8469721441138
 30
0.0
 11
2343.0816809999992
 21
4230.2338926212697
 31
0.0
  0
LINE
  5
8008
  8
3
  6
CONTINUOUS
 62
     0
 10
1791.081680999999
 20
4200.2338926212688
 30
0.0
 11
2283.0816810000001
 21
4200.2338926212688
 31
0.0
  0
INSERT
  5
8009
  8
3
  6
CONTINUOUS
 62
     0
  2
_OPEN
 10
1731.0816809999999
 20
4200.2338926212688
 30
0.0
 41
60.0
 42
60.0
 43
60.0
 50
180.0
  0
INSERT
  5
800A
  8
3
  6
CONTINUOUS
 62
     0
  2
_OPEN
 10
2343.0816809999992
 20
4200.2338926212688
 30
0.0
 41
60.0
 42
60.0
 43
60.0
  0
TEXT
  8
3
  40
90
  5
808D
  62
0
  72
0
  71
0
 10
1849.59
 20
4115.93
 30
0.000000
  1
612
  0
POINT
  5
800C
  8
DEFPOINTS
  6
CONTINUOUS
 62
     0
 10
1731.0816809999999
 20
3513.7517441441141
 30
0.0
  0
POINT
  5
800D
  8
DEFPOINTS
  6
CONTINUOUS
 62
     0
 10
2343.0816809999992
 20
4017.8469721441152
 30
0.0
  0
POINT
  5
800E
  8
DEFPOINTS
  6
CONTINUOUS
 62
     0
 10
2343.0816809999992
 20
4200.2338926212688
 30
0.0
  0
ENDBLK
  5
7E62
  8
0
  0
BLOCK
  8
0
  2
*D6
 70
     1
 10
0.0
 20
0.0
 30
0.0
  3
*D6
  1

  0
LINE
  5
800F
  8
3
  6
CONTINUOUS
 62
     0
 10
2343.0816809999992
 20
4032.8469721441138
 30
0.0
 11
2343.0816809999992
 21
4230.2338926212697
 31
0.0
  0
LINE
  5
8010
  8
3
  6
CONTINUOUS
 62
     0
 10
2843.0816809999992
 20
3539.7517441441141
 30
0.0
 11
2843.0816809999992
 21
4230.2338926212697
 31
0.0
  0
LINE
  5
8011
  8
3
  6
CONTINUOUS
 62
     0
 10
2403.0816809999992
 20
4200.2338926212688
 30
0.0
 11
2783.0816810000001
 21
4200.2338926212688
 31
0.0
  0
INSERT
  5
8012
  8
3
  6
CONTINUOUS
 62
     0
  2
_OPEN
 10
2343.0816809999992
 20
4200.2338926212688
 30
0.0
 41
60.0
 42
60.0
 43
60.0
 50
180.0
  0
INSERT
  5
8013
  8
3
  6
CONTINUOUS
 62
     0
  2
_OPEN
 10
2843.0816809999992
 20
4200.2338926212688
 30
0.0
 41
60.0
 42
60.0
 43
60.0
  0
TEXT
  8
3
  40
90
  5
808E
  62
0
  72
0
  71
0
 10
2413.08
 20
4115.93
 30
0.000000
  1
500
  0
POINT
  5
8015
  8
DEFPOINTS
  6
CONTINUOUS
 62
     0
 10
2343.0816809999992
 20
4017.8469721441152
 30
0.0
  0
POINT
  5
8016
  8
DEFPOINTS
  6
CONTINUOUS
 62
     0
 10
2843.0816809999992
 20
3524.7517441441141
 30
0.0
  0
POINT
  5
8017
  8
DEFPOINTS
  6
CONTINUOUS
 62
     0
 10
2843.0816809999992
 20
4200.2338926212688
 30
0.0
  0
ENDBLK
  5
7DBD
  8
0
  0
BLOCK
  8
0
  2
*D7
 70
     1
 10
0.0
 20
0.0
 30
0.0
  3
*D7
  1

  0
LINE
  5
8018
  8
3
  6
CONTINUOUS
 62
     0
 10
1243.081680999999
 20
5603.5079751441144
 30
0.0
 11
1243.081680999999
 21
5195.9909381441148
 31
0.0
  0
LINE
  5
8019
  8
3
  6
CONTINUOUS
 62
     0
 10
2793.0816809999992
 20
5603.5079751441144
 30
0.0
 11
2793.0816809999992
 21
5195.9909381441148
 31
0.0
  0
LINE
  5
801A
  8
3
  6
CONTINUOUS
 62
     0
 10
1303.081680999999
 20
5225.9909381441139
 30
0.0
 11
2733.0816809999992
 21
5225.9909381441139
 31
0.0
  0
INSERT
  5
801B
  8
3
  6
CONTINUOUS
 62
     0
  2
_OPEN
 10
1243.081680999999
 20
5225.9909381441139
 30
0.0
 41
60.0
 42
60.0
 43
60.0
 50
180.0
  0
INSERT
  5
801C
  8
3
  6
CONTINUOUS
 62
     0
  2
_OPEN
 10
2793.0816809999992
 20
5225.9909381441139
 30
0.0
 41
60.0
 42
60.0
 43
60.0
  0
TEXT
  8
3
  40
90
  5
808F
  62
0
  72
0
  71
0
 10
1834.04
 20
5141.69
 30
0.000000
  1
1550
  0
POINT
  5
801E
  8
DEFPOINTS
  6
CONTINUOUS
 62
     0
 10
1243.081680999999
 20
5618.5079751441144
 30
0.0
  0
POINT
  5
801F
  8
DEFPOINTS
  6
CONTINUOUS
 62
     0
 10
2793.0816809999992
 20
5618.5079751441144
 30
0.0
  0
POINT
  5
8020
  8
DEFPOINTS
  6
CONTINUOUS
 62
     0
 10
2793.0816809999992
 20
5225.9909381441139
 30
0.0
  0
ENDBLK
  5
7CEA
  8
0
  0
BLOCK
  8
0
  2
*D8
 70
     1
 10
0.0
 20
0.0
 30
0.0
  3
*D8
  1

  0
LINE
  5
8021
  8
3
  6
CONTINUOUS
 62
     0
 10
2808.0816809999992
 20
6368.5079751441144
 30
0.0
 11
3129.400752
 21
6368.5079751441144
 31
0.0
  0
LINE
  5
8022
  8
3
  6
CONTINUOUS
 62
     0
 10
2808.0816809999992
 20
5618.5079751441144
 30
0.0
 11
3129.400752
 21
5618.5079751441144
 31
0.0
  0
LINE
  5
8023
  8
3
  6
CONTINUOUS
 62
     0
 10
3099.400752
 20
6308.5079751441126
 30
0.0
 11
3099.400752
 21
5678.5079751441144
 31
0.0
  0
INSERT
  5
8024
  8
3
  6
CONTINUOUS
 62
     0
  2
_OPEN
 10
3099.400752
 20
6368.5079751441144
 30
0.0
 41
60.0
 42
60.0
 43
60.0
 50
90.0
  0
INSERT
  5
8025
  8
3
  6
CONTINUOUS
 62
     0
  2
_OPEN
 10
3099.400752
 20
5618.5079751441144
 30
0.0
 41
60.0
 42
60.0
 43
60.0
 50
270.0
  0
TEXT
  8
3
  40
90
  5
8090
  62
0
  72
0
  71
0
 10
2844.40
 20
5857.67
 30
0.000000
  1
750
  0
POINT
  5
8027
  8
DEFPOINTS
  6
CONTINUOUS
 62
     0
 10
2793.0816809999992
 20
6368.5079751441144
 30
0.0
  0
POINT
  5
8028
  8
DEFPOINTS
  6
CONTINUOUS
 62
     0
 10
2793.0816809999992
 20
5618.5079751441144
 30
0.0
  0
POINT
  5
8029
  8
DEFPOINTS
  6
CONTINUOUS
 62
     0
 10
3099.400752
 20
5618.5079751441144
 30
0.0
  0
ENDBLK
  5
7CDF
  8
0
  0
BLOCK
  8
0
  2
*D9
 70
     1
 10
0.0
 20
0.0
 30
0.0
  3
*D9
  1

  0
LINE
  5
802A
  8
3
  6
CONTINUOUS
 62
     0
 10
4666.5286657909683
 20
4034.7517441441141
 30
0.0
 11
4666.5286657909683
 21
4184.5835401441136
 31
0.0
  0
LINE
  5
802B
  8
3
  6
CONTINUOUS
 62
     0
 10
5196.5286657909683
 20
4034.7517441441141
 30
0.0
 11
5196.5286657909683
 21
4184.5835401441136
 31
0.0
  0
LINE
  5
802C
  8
3
  6
CONTINUOUS
 62
     0
 10
4726.5286657909683
 20
4154.5835401441136
 30
0.0
 11
5136.5286657909692
 21
4154.5835401441136
 31
0.0
  0
INSERT
  5
802D
  8
3
  6
CONTINUOUS
 62
     0
  2
_OPEN
 10
4666.5286657909683
 20
4154.5835401441136
 30
0.0
 41
60.0
 42
60.0
 43
60.0
 50
180.0
  0
INSERT
  5
802E
  8
3
  6
CONTINUOUS
 62
     0
  2
_OPEN
 10
5196.5286657909683
 20
4154.5835401441136
 30
0.0
 41
60.0
 42
60.0
 43
60.0
  0
TEXT
  8
3
  40
90
  5
8091
  62
0
  72
0
  71
0
 10
4726.53
 20
4070.28
 30
0.000000
  1
530
  0
POINT
  5
8030
  8
DEFPOINTS
  6
CONTINUOUS
 62
     0
 10
4666.5286657909683
 20
4019.7517441441141
 30
0.0
  0
POINT
  5
8031
  8
DEFPOINTS
  6
CONTINUOUS
 62
     0
 10
5196.5286657909683
 20
4019.7517441441141
 30
0.0
  0
POINT
  5
8032
  8
DEFPOINTS
  6
CONTINUOUS
 62
     0
 10
5196.5286657909683
 20
4154.5835401441136
 30
0.0
  0
ENDBLK
  5
7CBC
  8
0
  0
BLOCK
  8
0
  2
*D10
 70
     1
 10
0.0
 20
0.0
 30
0.0
  3
*D10
  1

  0
LINE
  5
8033
  8
3
  6
CONTINUOUS
 62
     0
 10
4421.5286657909683
 20
3718.451744144113
 30
0.0
 11
4421.5286657909683
 21
4422.9123651441141
 31
0.0
  0
LINE
  5
8034
  8
3
  6
CONTINUOUS
 62
     0
 10
4931.5286657909683
 20
4342.1614041441144
 30
0.0
 11
4931.5286657909683
 21
4422.9123651441141
 31
0.0
  0
LINE
  5
8035
  8
3
  6
CONTINUOUS
 62
     0
 10
4481.5286657909683
 20
4392.9123651441141
 30
0.0
 11
4871.5286657909683
 21
4392.9123651441141
 31
0.0
  0
INSERT
  5
8036
  8
3
  6
CONTINUOUS
 62
     0
  2
_OPEN
 10
4421.5286657909683
 20
4392.9123651441141
 30
0.0
 41
60.0
 42
60.0
 43
60.0
 50
180.0
  0
INSERT
  5
8037
  8
3
  6
CONTINUOUS
 62
     0
  2
_OPEN
 10
4931.5286657909683
 20
4392.9123651441141
 30
0.0
 41
60.0
 42
60.0
 43
60.0
  0
TEXT
  8
3
  40
90
  5
8092
  62
0
  72
0
  71
0
 10
4532.96
 20
4383.61
 30
0.000000
  1
MAX
  0
TEXT
  8
3
  40
90
  5
8093
  62
0
  72
0
  71
0
 10
4532.96
 20
4266.61
 30
0.000000
  1
590
  0
POINT
  5
8039
  8
DEFPOINTS
  6
CONTINUOUS
 62
     0
 10
4421.5286657909683
 20
3703.4517441441139
 30
0.0
  0
POINT
  5
803A
  8
DEFPOINTS
  6
CONTINUOUS
 62
     0
 10
4931.5286657909683
 20
4327.1614041441144
 30
0.0
  0
POINT
  5
803B
  8
DEFPOINTS
  6
CONTINUOUS
 62
     0
 10
4931.5286657909683
 20
4392.9123651441141
 30
0.0
  0
ENDBLK
  5
7E45
  8
0
  0
BLOCK
  8
0
  2
*D11
 70
     1
 10
0.0
 20
0.0
 30
0.0
  3
*D11
  1

  0
LINE
  5
7DA9
  8
0
  6
BYBLOCK
 62
     0
 10
4931.5286657909683
 20
4342.1614041441144
 30
0.0
 11
4931.5286657909683
 21
4422.9123651441141
 31
0.0
  0
LINE
  5
7DAA
  8
0
  6
BYBLOCK
 62
     0
 10
5279.5286657909692
 20
3923.7517441441141
 30
0.0
 11
5279.5286657909692
 21
4422.9123651441141
 31
0.0
  0
LINE
  5
7DAB
  8
0
  6
BYBLOCK
 62
     0
 10
4991.5286657909683
 20
4392.9123651441141
 30
0.0
 11
5219.5286657909683
 21
4392.9123651441141
 31
0.0
  0
TEXT
  5
7DAC
  8
3
 62
     0
 10
4989.8143800766829
 20
4441.5444155722098
 30
0.0
 40
90.0
  1
348
  0
INSERT
  5
7DAD
  8
0
  6
BYBLOCK
 62
     0
  2
_OPEN
 10
4931.5286657909683
 20
4392.9123651441141
 30
0.0
 41
60.0
 42
60.0
 43
60.0
 50
180.0
  0
INSERT
  5
7DAE
  8
0
  6
BYBLOCK
 62
     0
  2
_OPEN
 10
5279.5286657909692
 20
4392.9123651441141
 30
0.0
 41
60.0
 42
60.0
 43
60.0
  0
POINT
  5
7DAF
  8
DEFPOINTS
  6
BYBLOCK
 62
     0
 10
4931.5286657909683
 20
4327.1614041441144
 30
0.0
  0
POINT
  5
7DB0
  8
DEFPOINTS
  6
BYBLOCK
 62
     0
 10
5279.5286657909692
 20
3908.7517441441141
 30
0.0
  0
POINT
  5
7DB1
  8
DEFPOINTS
  6
BYBLOCK
 62
     0
 10
5279.5286657909692
 20
4392.9123651441141
 30
0.0
  0
ENDBLK
  5
7DB2
  8
0
  0
BLOCK
  8
0
  2
*D12
 70
     1
 10
0.0
 20
0.0
 30
0.0
  3
*D12
  1

  0
LINE
  5
803C
  8
3
  6
CONTINUOUS
 62
     0
 10
5294.5286657909683
 20
3868.7517441441141
 30
0.0
 11
5517.7757197233659
 21
3868.7517441441141
 31
0.0
  0
LINE
  5
803D
  8
3
  6
CONTINUOUS
 62
     0
 10
5294.5286657909683
 20
3158.7517441441141
 30
0.0
 11
5517.7757197233659
 21
3158.7517441441141
 31
0.0
  0
LINE
  5
803E
  8
3
  6
CONTINUOUS
 62
     0
 10
5487.7757197233659
 20
3808.7517441441141
 30
0.0
 11
5487.7757197233659
 21
3218.7517441441141
 31
0.0
  0
INSERT
  5
803F
  8
3
  6
CONTINUOUS
 62
     0
  2
_OPEN
 10
5487.7757197233659
 20
3868.7517441441141
 30
0.0
 41
60.0
 42
60.0
 43
60.0
 50
90.0
  0
INSERT
  5
8040
  8
3
  6
CONTINUOUS
 62
     0
  2
_OPEN
 10
5487.7757197233659
 20
3158.7517441441141
 30
0.0
 41
60.0
 42
60.0
 43
60.0
 50
270.0
  0
TEXT
  8
3
  40
90
  5
8094
  62
0
  72
0
  71
0
 10
5232.78
 20
3356.29
 30
0.000000
  1
φ710
  0
POINT
  5
8042
  8
DEFPOINTS
  6
CONTINUOUS
 62
     0
 10
5279.5286657909692
 20
3868.7517441441141
 30
0.0
  0
POINT
  5
8043
  8
DEFPOINTS
  6
CONTINUOUS
 62
     0
 10
5279.5286657909692
 20
3158.7517441441141
 30
0.0
  0
POINT
  5
8044
  8
DEFPOINTS
  6
CONTINUOUS
 62
     0
 10
5487.7757197233659
 20
3158.7517441441141
 30
0.0
  0
ENDBLK
  5
7D9C
  8
0
  0
BLOCK
  8
0
  2
*D13
 70
     1
 10
0.0
 20
0.0
 30
0.0
  3
*D13
  1

  0
LINE
  5
8045
  8
3
 62
     0
 10
2843.0816809999992
 20
3539.7517441441141
 30
0.0
 11
2843.0816809999992
 21
4392.7710475615968
 31
0.0
  0
LINE
  5
8046
  8
3
 62
     0
 10
1243.081680999999
 20
2758.7517441441141
 30
0.0
 11
1243.081680999999
 21
4392.7710475615968
 31
0.0
  0
LINE
  5
8047
  8
3
 62
     0
 10
2783.0816810000001
 20
4362.7710475615959
 30
0.0
 11
1303.081680999999
 21
4362.7710475615959
 31
0.0
  0
INSERT
  5
8048
  8
3
 62
     0
  2
_OPEN
 10
2843.0816809999992
 20
4362.7710475615959
 30
0.0
 41
60.0
 42
60.0
 43
60.0
  0
INSERT
  5
8049
  8
3
 62
     0
  2
_OPEN
 10
1243.081680999999
 20
4362.7710475615959
 30
0.0
 41
60.0
 42
60.0
 43
60.0
 50
180.0
  0
TEXT
  8
3
  40
90
  5
8095
  62
0
  72
0
  71
0
 10
1813.26
 20
4278.47
 30
0.000000
  1
1600
  0
POINT
  5
804B
  8
DEFPOINTS
 62
     0
 10
2843.0816809999992
 20
3524.7517441441141
 30
0.0
  0
POINT
  5
804C
  8
DEFPOINTS
 62
     0
 10
1243.081680999999
 20
2743.7517441441141
 30
0.0
  0
POINT
  5
804D
  8
DEFPOINTS
 62
     0
 10
1243.081680999999
 20
4362.7710475615959
 30
0.0
  0
ENDBLK
  5
7E51
  8
0
  0
BLOCK
  8
0
  2
*D14
 70
     1
 10
0.0
 20
0.0
 30
0.0
  3
*D14
  1

  0
LINE
  5
804E
  8
3
 62
     0
 10
1243.081680999999
 20
2433.7517441441141
 30
0.0
 11
1243.081680999999
 21
2225.010513879718
 31
0.0
  0
LINE
  5
804F
  8
3
 62
     0
 10
2343.0816809999992
 20
2433.7517441441141
 30
0.0
 11
2343.0816809999992
 21
2225.010513879718
 31
0.0
  0
LINE
  5
8050
  8
3
 62
     0
 10
1303.081680999999
 20
2255.0105138797189
 30
0.0
 11
2283.0816810000001
 21
2255.0105138797189
 31
0.0
  0
INSERT
  5
8051
  8
3
 62
     0
  2
_OPEN
 10
1243.081680999999
 20
2255.0105138797189
 30
0.0
 41
60.0
 42
60.0
 43
60.0
 50
180.0
  0
INSERT
  5
8052
  8
3
 62
     0
  2
_OPEN
 10
2343.0816809999992
 20
2255.0105138797189
 30
0.0
 41
60.0
 42
60.0
 43
60.0
  0
TEXT
  8
3
  40
90
  5
8096
  62
0
  72
0
  71
0
 10
1613.08
 20
2170.71
 30
0.000000
  1
1100
  0
POINT
  5
8054
  8
DEFPOINTS
 62
     0
 10
1243.081680999999
 20
2448.7517441441141
 30
0.0
  0
POINT
  5
8055
  8
DEFPOINTS
 62
     0
 10
2343.0816809999992
 20
2448.7517441441141
 30
0.0
  0
POINT
  5
8056
  8
DEFPOINTS
 62
     0
 10
2343.0816809999992
 20
2255.0105138797189
 30
0.0
  0
ENDBLK
  5
7E8D
  8
0
  0
BLOCK
  8
0
  2
*D15
 70
     1
 10
0.0
 20
0.0
 30
0.0
  3
*D15
  1

  0
LINE
  5
8057
  8
3
 62
     0
 10
2343.0816809999992
 20
2433.7517441441141
 30
0.0
 11
2343.0816809999992
 21
2225.010513879718
 31
0.0
  0
LINE
  5
8058
  8
3
 62
     0
 10
2793.0816809999992
 20
2433.7517441441141
 30
0.0
 11
2793.0816809999992
 21
2225.010513879718
 31
0.0
  0
LINE
  5
8059
  8
3
 62
     0
 10
2403.0816809999992
 20
2255.0105138797189
 30
0.0
 11
2733.0816809999992
 21
2255.0105138797189
 31
0.0
  0
INSERT
  5
805A
  8
3
 62
     0
  2
_OPEN
 10
2343.0816809999992
 20
2255.0105138797189
 30
0.0
 41
60.0
 42
60.0
 43
60.0
 50
180.0
  0
INSERT
  5
805B
  8
3
 62
     0
  2
_OPEN
 10
2793.0816809999992
 20
2255.0105138797189
 30
0.0
 41
60.0
 42
60.0
 43
60.0
  0
TEXT
  8
3
  40
90
  5
8097
  62
0
  72
0
  71
0
 10
2388.08
 20
2170.71
 30
0.000000
  1
450
  0
POINT
  5
805D
  8
DEFPOINTS
 62
     0
 10
2343.0816809999992
 20
2448.7517441441141
 30
0.0
  0
POINT
  5
805E
  8
DEFPOINTS
 62
     0
 10
2793.0816809999992
 20
2448.7517441441141
 30
0.0
  0
POINT
  5
805F
  8
DEFPOINTS
 62
     0
 10
2793.0816809999992
 20
2255.0105138797189
 30
0.0
  0
ENDBLK
  5
7E9A
  8
0
  0
BLOCK
  8
0
  2
*D16
 70
     1
 10
0.0
 20
0.0
 30
0.0
  3
*D16
  1

  0
LINE
  5
8060
  8
3
 62
     0
 10
4499.5286657909674
 20
2433.7517441441141
 30
0.0
 11
4499.5286657909674
 21
2225.010513879718
 31
0.0
  0
LINE
  5
8061
  8
3
 62
     0
 10
4931.5286657909683
 20
2433.7517441441141
 30
0.0
 11
4931.5286657909683
 21
2225.010513879718
 31
0.0
  0
LINE
  5
8062
  8
3
 62
     0
 10
4559.5286657909683
 20
2255.0105138797189
 30
0.0
 11
4871.5286657909683
 21
2255.0105138797189
 31
0.0
  0
INSERT
  5
8063
  8
3
 62
     0
  2
_OPEN
 10
4499.5286657909674
 20
2255.0105138797189
 30
0.0
 41
60.0
 42
60.0
 43
60.0
 50
180.0
  0
INSERT
  5
8064
  8
3
 62
     0
  2
_OPEN
 10
4931.5286657909683
 20
2255.0105138797189
 30
0.0
 41
60.0
 42
60.0
 43
60.0
  0
TEXT
  8
3
  40
90
  5
8098
  62
0
  72
0
  71
0
 10
4535.53
 20
2170.71
 30
0.000000
  1
432
  0
POINT
  5
8066
  8
DEFPOINTS
 62
     0
 10
4499.5286657909674
 20
2448.7517441441141
 30
0.0
  0
POINT
  5
8067
  8
DEFPOINTS
 62
     0
 10
4931.5286657909683
 20
2448.7517441441141
 30
0.0
  0
POINT
  5
8068
  8
DEFPOINTS
 62
     0
 10
4931.5286657909683
 20
2255.0105138797189
 30
0.0
  0
ENDBLK
  5
7EA7
  8
0
  0
BLOCK
  8
0
  2
*D17
 70
     1
 10
0.0
 20
0.0
 30
0.0
  3
*D17
  1

  0
LINE
  5
8069
  8
3
 62
     0
 10
4931.5286657909683
 20
2433.7517441441141
 30
0.0
 11
4931.5286657909683
 21
2225.010513879718
 31
0.0
  0
LINE
  5
806A
  8
3
 62
     0
 10
5249.5286657909683
 20
2433.7517441441141
 30
0.0
 11
5249.5286657909683
 21
2225.010513879718
 31
0.0
  0
LINE
  5
806B
  8
3
 62
     0
 10
4991.5286657909683
 20
2255.0105138797189
 30
0.0
 11
5189.5286657909692
 21
2255.0105138797189
 31
0.0
  0
INSERT
  5
806C
  8
3
 62
     0
  2
_OPEN
 10
4931.5286657909683
 20
2255.0105138797189
 30
0.0
 41
60.0
 42
60.0
 43
60.0
 50
180.0
  0
INSERT
  5
806D
  8
3
 62
     0
  2
_OPEN
 10
5249.5286657909683
 20
2255.0105138797189
 30
0.0
 41
60.0
 42
60.0
 43
60.0
  0
TEXT
  8
3
  40
90
  5
8099
  62
0
  72
0
  71
0
 10
4910.53
 20
2170.71
 30
0.000000
  1
318
  0
POINT
  5
806F
  8
DEFPOINTS
 62
     0
 10
4931.5286657909683
 20
2448.7517441441141
 30
0.0
  0
POINT
  5
8070
  8
DEFPOINTS
 62
     0
 10
5249.5286657909683
 20
2448.7517441441141
 30
0.0
  0
POINT
  5
8071
  8
DEFPOINTS
 62
     0
 10
5249.5286657909683
 20
2255.0105138797189
 30
0.0
  0
ENDBLK
  5
7EB6
  8
0
  0
BLOCK
  8
0
  2
_DOT
 70
     0
 10
0.0
 20
0.0
 30
0.0
  3
_DOT
  1

  0
POLYLINE
  5
7EBA
  8
0
  6
BYBLOCK
 62
     0
 66
     1
 10
0.0
 20
0.0
 30
0.0
 70
     1
 40
0.5
 41
0.5
  0
VERTEX
  5
8072
  8
0
  6
BYBLOCK
 62
     0
 10
-0.25
 20
0.0
 30
0.0
 42
1.0
  0
VERTEX
  5
8073
  8
0
  6
BYBLOCK
 62
     0
 10
0.25
 20
0.0
 30
0.0
 42
1.0
  0
SEQEND
  5
8074
  8
0
  6
BYBLOCK
 62
     0
  0
LINE
  5
7EBE
  8
0
  6
BYBLOCK
 62
     0
 10
-0.5
 20
0.0
 30
0.0
 11
-1.0
 21
0.0
 31
0.0
  0
ENDBLK
  5
7EBF
  8
0
  0
BLOCK
  8
0
  2
*D19
 70
     1
 10
0.0
 20
0.0
 30
0.0
  3
*D19
  1

  0
LINE
  5
8075
  8
3
 62
     0
 10
2808.0816809999992
 20
2548.7517441441141
 30
0.0
 11
3523.6036633967228
 21
2548.7517441441141
 31
0.0
  0
LINE
  5
8076
  8
3
 62
     0
 10
2808.0816809999992
 20
2448.7517441441141
 30
0.0
 11
3523.6036633967228
 21
2448.7517441441141
 31
0.0
  0
LINE
  5
8077
  8
3
 62
     0
 10
3493.6036633967228
 20
2608.7517441441132
 30
0.0
 11
3493.6036633967228
 21
2668.7517441441132
 31
0.0
  0
LINE
  5
8078
  8
3
 62
     0
 10
3493.6036633967228
 20
2388.7517441441132
 30
0.0
 11
3493.6036633967228
 21
2054.466029858399
 31
0.0
  0
LINE
  5
8079
  8
3
 62
     0
 10
3493.6036633967228
 20
2548.7517441441141
 30
0.0
 11
3493.6036633967228
 21
2448.7517441441141
 31
0.0
  0
INSERT
  5
807A
  8
3
 62
     0
  2
_DOT
 10
3493.6036633967228
 20
2548.7517441441141
 30
0.0
 41
60.0
 42
60.0
 43
60.0
 50
270.0
  0
INSERT
  5
807B
  8
3
 62
     0
  2
_OPEN
 10
3493.6036633967228
 20
2448.7517441441141
 30
0.0
 41
60.0
 42
60.0
 43
60.0
 50
90.0
  0
TEXT
  8
3
  40
90
  5
809A
  62
0
  72
0
  71
0
 10
3238.60
 20
2032.31
 30
0.000000
  1
100
  0
POINT
  5
807D
  8
DEFPOINTS
 62
     0
 10
2793.0816809999992
 20
2548.7517441441141
 30
0.0
  0
POINT
  5
807E
  8
DEFPOINTS
 62
     0
 10
2793.0816809999992
 20
2448.7517441441141
 30
0.0
  0
POINT
  5
807F
  8
DEFPOINTS
 62
     0
 10
3493.6036633967228
 20
2448.7517441441141
 30
0.0
  0
ENDBLK
  5
7ECD
  8
0
  0
BLOCK
  8
0
  2
*D20
 70
     1
 10
0.0
 20
0.0
 30
0.0
  3
*D20
  1

  0
LINE
  5
7ED1
  8
0
  6
BYBLOCK
 62
     0
 10
2808.0816809999992
 20
2548.7517441441141
 30
0.0
 11
3523.6036633967228
 21
2548.7517441441141
 31
0.0
  0
LINE
  5
7ED2
  8
0
  6
BYBLOCK
 62
     0
 10
2808.0816809999992
 20
2643.7517441441141
 30
0.0
 11
3523.6036633967228
 21
2643.7517441441141
 31
0.0
  0
LINE
  5
7ED3
  8
0
  6
BYBLOCK
 62
     0
 10
3493.6036633967228
 20
2488.7517441441141
 30
0.0
 11
3493.6036633967228
 21
2428.7517441441141
 31
0.0
  0
LINE
  5
7ED4
  8
0
  6
BYBLOCK
 62
     0
 10
3493.6036633967228
 20
2703.7517441441141
 30
0.0
 11
3493.6036633967228
 21
2763.7517441441141
 31
0.0
  0
TEXT
  5
7ED5
  8
3
 62
     0
 10
3667.1750919681522
 20
2465.5374584298279
 30
0.0
 40
90.0
  1
(95)
 50
90.0
  0
LINE
  5
7ED6
  8
0
  6
BYBLOCK
 62
     0
 10
3493.6036633967228
 20
2548.7517441441141
 30
0.0
 11
3493.6036633967228
 21
2643.7517441441141
 31
0.0
  0
INSERT
  5
7ED7
  8
0
  6
BYBLOCK
 62
     0
  2
_DOT
 10
3493.6036633967228
 20
2548.7517441441141
 30
0.0
 41
60.0
 42
60.0
 43
60.0
 50
90.0
  0
INSERT
  5
7ED8
  8
0
  6
BYBLOCK
 62
     0
  2
_OPEN
 10
3493.6036633967228
 20
2643.7517441441141
 30
0.0
 41
60.0
 42
60.0
 43
60.0
 50
270.0
  0
POINT
  5
7ED9
  8
DEFPOINTS
  6
BYBLOCK
 62
     0
 10
2793.0816809999992
 20
2548.7517441441141
 30
0.0
  0
POINT
  5
7EDA
  8
DEFPOINTS
  6
BYBLOCK
 62
     0
 10
2793.0816809999992
 20
2643.7517441441141
 30
0.0
  0
POINT
  5
7EDB
  8
DEFPOINTS
  6
BYBLOCK
 62
     0
 10
3493.6036633967228
 20
2643.7517441441141
 30
0.0
  0
ENDBLK
  5
7EDC
  8
0
  0
BLOCK
  8
0
  2
*D21
 70
     1
 10
0.0
 20
0.0
 30
0.0
  3
*D21
  1

  0
LINE
  5
8080
  8
3
 62
     0
 10
2373.0816809999992
 20
4019.7517441441132
 30
0.0
 11
3804.4185466508029
 21
4019.7517441441132
 31
0.0
  0
LINE
  5
8081
  8
3
 62
     0
 10
2808.0816809999992
 20
2448.7517441441141
 30
0.0
 11
3804.418546650802
 21
2448.7517441441141
 31
0.0
  0
LINE
  5
8082
  8
3
 62
     0
 10
3774.4185466508029
 20
3959.7517441441132
 30
0.0
 11
3774.4185466508029
 21
2508.7517441441132
 31
0.0
  0
INSERT
  5
8083
  8
3
 62
     0
  2
_OPEN
 10
3774.4185466508029
 20
4019.7517441441132
 30
0.0
 41
60.0
 42
60.0
 43
60.0
 50
90.0
  0
INSERT
  5
8084
  8
3
 62
     0
  2
_OPEN
 10
3774.4185466508029
 20
2448.7517441441141
 30
0.0
 41
60.0
 42
60.0
 43
60.0
 50
270.0
  0
TEXT
  8
3
  40
90
  5
809B
  62
0
  72
0
  71
0
 10
3495.85
 20
3074.95
 30
0.000000
  1
(1571)
  0
POINT
  5
8086
  8
DEFPOINTS
 62
     0
 10
2358.0816809999992
 20
4019.7517441441132
 30
0.0
  0
POINT
  5
8087
  8
DEFPOINTS
 62
     0
 10
2793.0816809999992
 20
2448.7517441441141
 30
0.0
  0
POINT
  5
8088
  8
DEFPOINTS
 62
     0
 10
3774.4185466508029
 20
2448.7517441441141
 30
0.0
  0
ENDBLK
  5
7EE9
  8
0
  0
ENDSEC
  0
SECTION
  2
ENTITIES
  0
LINE
  5
7A77
  8
2
  6
CENTER
 10
1443.081680999999
 20
2809.0517441441139
 30
0.0
 11
1443.081680999999
 21
3098.4517441441139
 31
0.0
  0
CIRCLE
  5
7A78
  8
1
  6
CONTINUOUS
 10
1443.081680999999
 20
2953.7517441441141
 30
0.0
 40
139.69999999999999
  0
ARC
  5
7A79
  8
1
  6
CONTINUOUS
 10
1443.081680999999
 20
2953.7517441441141
 30
0.0
 40
162.0
 50
324.972283
 51
215.02771699999991
  0
LINE
  5
7A7A
  8
1
  6
CONTINUOUS
 10
2803.0816810000001
 20
2758.2009761441141
 30
0.0
 11
2803.0816810000001
 21
3484.7517441441141
 31
0.0
  0
LINE
  5
7A7B
  8
1
  6
CONTINUOUS
 10
2843.0816809999992
 20
2714.7517441441141
 30
0.0
 11
2843.0816809999992
 21
3524.7517441441141
 31
0.0
  0
ARC
  5
7A7C
  8
1
  6
CONTINUOUS
 10
2396.0816809999992
 20
3460.7517441441141
 30
0.0
 40
665.0
 50
175.428721
 51
265.428721
  0
ARC
  5
7A7D
  8
1
  6
CONTINUOUS
 10
1443.081680999999
 20
2953.7517441441141
 30
0.0
 40
189.69999999999999
 50
121.890792
 51
301.89079199999992
  0
LINE
  5
7A7E
  8
1
  6
CONTINUOUS
 10
1543.3005489999989
 20
2792.6857061441142
 30
0.0
 11
2443.3005489999991
 21
3352.6857061441142
 31
0.0
  0
LINE
  5
7A7F
  8
1
  6
CONTINUOUS
 10
1516.885454999999
 20
2835.1385361441139
 30
0.0
 11
2416.8854549999992
 21
3395.1385361441148
 31
0.0
  0
LINE
  5
7A80
  8
1
  6
CONTINUOUS
 10
1243.081680999999
 20
2743.7517441441141
 30
0.0
 11
2793.0816809999992
 21
2743.7517441441141
 31
0.0
  0
LINE
  5
7A81
  8
1
  6
CONTINUOUS
 10
1243.081680999999
 20
2643.7517441441141
 30
0.0
 11
2793.0816809999992
 21
2643.7517441441141
 31
0.0
  0
LINE
  5
7A82
  8
1
  6
CONTINUOUS
 10
2343.0816809999992
 20
2797.8671391441148
 30
0.0
 11
2843.0816809999992
 21
2754.7517441441141
 31
0.0
  0
LINE
  5
7A83
  8
1
  6
CONTINUOUS
 10
1243.081680999999
 20
2448.7517441441141
 30
0.0
 11
2793.0816809999992
 21
2448.7517441441141
 31
0.0
  0
LINE
  5
7A84
  8
1
  6
CONTINUOUS
 10
1243.081680999999
 20
2548.7517441441141
 30
0.0
 11
2793.0816809999992
 21
2548.7517441441141
 31
0.0
  0
LINE
  5
7A85
  8
1
  6
CONTINUOUS
 10
1640.581680999999
 20
2793.7517441441141
 30
0.0
 11
1245.581680999999
 21
2793.7517441441141
 31
0.0
  0
LINE
  5
7A86
  8
1
  6
CONTINUOUS
 10
1640.581680999999
 20
2743.7517441441141
 30
0.0
 11
1640.581680999999
 21
2793.7517441441141
 31
0.0
  0
LINE
  5
7A87
  8
1
  6
CONTINUOUS
 10
1245.581680999999
 20
2743.7517441441141
 30
0.0
 11
1245.581680999999
 21
2793.7517441441141
 31
0.0
  0
LINE
  5
7A88
  8
1
  6
CONTINUOUS
 10
1289.081680999999
 20
2811.7517441441141
 30
0.0
 11
1310.4240150000001
 21
2860.7681771441139
 31
0.0
  0
LINE
  5
7A89
  8
1
  6
CONTINUOUS
 10
1289.081680999999
 20
2793.7517441441141
 30
0.0
 11
1289.081680999999
 21
2811.7517441441141
 31
0.0
  0
LINE
  5
7A8A
  8
1
  6
CONTINUOUS
 10
1597.081680999999
 20
2793.7517441441141
 30
0.0
 11
1597.081680999999
 21
2811.7517441441141
 31
0.0
  0
LINE
  5
7A8B
  8
1
  6
CONTINUOUS
 10
1597.081680999999
 20
2811.7517441441141
 30
0.0
 11
1575.739347
 21
2860.7681771441139
 31
0.0
  0
LINE
  5
7A8C
  8
1
  6
CONTINUOUS
 10
1243.081680999999
 20
2743.7517441441141
 30
0.0
 11
1243.081680999999
 21
2643.7517441441141
 31
0.0
  0
LINE
  5
7A8D
  8
1
  6
CONTINUOUS
 10
1243.081680999999
 20
2548.7517441441141
 30
0.0
 11
1243.081680999999
 21
2448.7517441441141
 31
0.0
  0
LINE
  5
7A8E
  8
1
  6
CONTINUOUS
 10
2793.0816809999992
 20
2743.7517441441141
 30
0.0
 11
2793.0816809999992
 21
2643.7517441441141
 31
0.0
  0
LINE
  5
7A8F
  8
1
  6
CONTINUOUS
 10
2793.0816809999992
 20
2548.7517441441141
 30
0.0
 11
2793.0816809999992
 21
2448.7517441441141
 31
0.0
  0
LINE
  5
7A90
  8
2
  6
CENTER
 10
1584.8460004542351
 20
3513.7517441441141
 30
0.0
 11
2796.6039449999998
 21
3513.7517441441141
 31
0.0
  0
CIRCLE
  5
7A91
  8
1
  6
CONTINUOUS
 10
2343.0816809999992
 20
3513.7517441441141
 30
0.0
 40
139.69999999999999
  0
CIRCLE
  5
7A92
  8
1
  6
CONTINUOUS
 10
2343.0816809999992
 20
3513.7517441441141
 30
0.0
 40
395.0
  0
CIRCLE
  5
7A93
  8
1
  6
CONTINUOUS
 10
2343.0816809999992
 20
3513.7517441441141
 30
0.0
 40
355.0
  0
ARC
  5
7A94
  8
1
  6
CONTINUOUS
 10
2301.0816809999992
 20
3555.7517441441141
 30
0.0
 40
464.0
 50
354.80663599999991
 51
84.806635999999983
  0
ARC
  5
7A95
  8
1
  6
CONTINUOUS
 10
2343.0816809999992
 20
3513.7517441441141
 30
0.0
 40
189.69999999999999
 50
301.89079199999992
 51
121.890792
  0
ARC
  5
7A96
  8
1
  6
CONTINUOUS
 10
2290.0816809999992
 20
3460.7517441441141
 30
0.0
 40
559.0
 50
84.559491000000008
 51
174.55949099999989
  0
LINE
  5
7A97
  8
1
  6
CONTINUOUS
 10
1342.8628129999991
 20
3114.817782144115
 30
0.0
 11
2242.8628129999988
 21
3674.817782144115
 31
0.0
  0
LINE
  5
7A98
  8
1
  6
CONTINUOUS
 10
1369.277906999999
 20
3072.3649521441139
 30
0.0
 11
2269.2779069999988
 21
3632.3649521441139
 31
0.0
  0
LINE
  5
7A99
  8
2
  6
CENTER
 10
1298.3816810000001
 20
2953.7517441441141
 30
0.0
 11
1587.7816809999999
 21
2953.7517441441141
 31
0.0
  0
LINE
  5
7A9A
  8
2
  6
CENTER
 10
2343.0816809999992
 20
6474.8499581441138
 30
0.0
 11
2343.0816809999992
 21
5359.1496191441147
 31
0.0
  0
LINE
  5
7A9B
  8
1
  6
CONTINUOUS
 10
2758.3898649999992
 20
3484.7517441441141
 30
0.0
 11
2843.0816809999992
 21
3484.7517441441141
 31
0.0
  0
ARC
  5
7A9C
  8
1
  6
CONTINUOUS
 10
2385.0816809999992
 20
3555.7517441441141
 30
0.0
 40
380.0
 50
349.23144999999988
 51
353.65434399999992
  0
LINE
  5
7A9D
  8
1
  6
CONTINUOUS
 10
4531.5286657909674
 20
2764.0517441441139
 30
0.0
 11
4531.5286657909674
 21
3703.4517441441139
 31
0.0
  0
LINE
  5
7A9E
  8
1
  6
CONTINUOUS
 10
4421.5286657909683
 20
2764.0517441441139
 30
0.0
 11
4421.5286657909683
 21
3703.4517441441139
 31
0.0
  0
LINE
  5
7A9F
  8
1
  6
CONTINUOUS
 10
4554.5286657909683
 20
3115.7517441441141
 30
0.0
 11
4554.5286657909683
 21
2743.7517441441141
 31
0.0
  0
LINE
  5
7AA0
  8
1
  6
CONTINUOUS
 10
4666.5286657909683
 20
4019.7517441441141
 30
0.0
 11
4666.5286657909683
 21
2743.7517441441141
 31
0.0
  0
LINE
  5
7AA1
  8
1
  6
CONTINUOUS
 10
5196.5286657909683
 20
4019.7517441441141
 30
0.0
 11
5196.5286657909683
 21
2743.7517441441141
 31
0.0
  0
LINE
  5
7AA2
  8
1
  6
CONTINUOUS
 10
4514.5286657909683
 20
3093.4517441441139
 30
0.0
 11
4514.5286657909683
 21
2814.0517441441139
 31
0.0
  0
LINE
  5
7AA3
  8
1
  6
CONTINUOUS
 10
4429.5286657909683
 20
3093.4517441441139
 30
0.0
 11
4429.5286657909683
 21
2814.0517441441139
 31
0.0
  0
LINE
  5
7AA4
  8
1
  6
CONTINUOUS
 10
4666.5286657909683
 20
3484.7517441441141
 30
0.0
 11
5196.5286657909683
 21
2754.7517441441141
 31
0.0
  0
LINE
  5
7AA5
  8
1
  6
CONTINUOUS
 10
5196.5286657909683
 20
3484.7517441441141
 30
0.0
 11
4666.5286657909683
 21
2754.7517441441141
 31
0.0
  0
LINE
  5
7AA6
  8
1
  6
CONTINUOUS
 10
4499.5286657909674
 20
2548.7517441441141
 30
0.0
 11
5249.5286657909683
 21
2548.7517441441141
 31
0.0
  0
LINE
  5
7AA7
  8
1
  6
CONTINUOUS
 10
4499.5286657909674
 20
2448.7517441441141
 30
0.0
 11
5249.5286657909683
 21
2448.7517441441141
 31
0.0
  0
LINE
  5
7AA8
  8
1
  6
CONTINUOUS
 10
4499.5286657909674
 20
2643.7517441441141
 30
0.0
 11
5249.5286657909683
 21
2643.7517441441141
 31
0.0
  0
LINE
  5
7AA9
  8
1
  6
CONTINUOUS
 10
4499.5286657909674
 20
2743.7517441441141
 30
0.0
 11
5249.5286657909683
 21
2743.7517441441141
 31
0.0
  0
LINE
  5
7AAA
  8
1
  6
CONTINUOUS
 10
4666.5286657909683
 20
2754.7517441441141
 30
0.0
 11
5196.5286657909683
 21
2754.7517441441141
 31
0.0
  0
LINE
  5
7AAB
  8
1
  6
CONTINUOUS
 10
4499.5286657909674
 20
2548.7517441441141
 30
0.0
 11
4499.5286657909674
 21
2448.7517441441141
 31
0.0
  0
LINE
  5
7AAC
  8
1
  6
CONTINUOUS
 10
4421.5286657909683
 20
2764.0517441441139
 30
0.0
 11
4531.5286657909674
 21
2764.0517441441139
 31
0.0
  0
LINE
  5
7AAD
  8
1
  6
CONTINUOUS
 10
4429.5286657909683
 20
2814.0517441441139
 30
0.0
 11
4514.5286657909683
 21
2814.0517441441139
 31
0.0
  0
LINE
  5
7AAE
  8
1
  6
CONTINUOUS
 10
4666.5286657909683
 20
2793.7517441441141
 30
0.0
 11
4554.5286657909683
 21
2793.7517441441141
 31
0.0
  0
LINE
  5
7AAF
  8
1
  6
CONTINUOUS
 10
4499.5286657909674
 20
2743.7517441441141
 30
0.0
 11
4499.5286657909674
 21
2643.7517441441141
 31
0.0
  0
LINE
  5
7AB0
  8
1
  6
CONTINUOUS
 10
5249.5286657909683
 20
2548.7517441441141
 30
0.0
 11
5249.5286657909683
 21
2448.7517441441141
 31
0.0
  0
LINE
  5
7AB1
  8
1
  6
CONTINUOUS
 10
5249.5286657909683
 20
2743.7517441441141
 30
0.0
 11
5249.5286657909683
 21
2643.7517441441141
 31
0.0
  0
LINE
  5
7AB2
  8
1
  6
CONTINUOUS
 10
5279.5286657909692
 20
3908.7517441441141
 30
0.0
 11
5279.5286657909692
 21
3118.7517441441141
 31
0.0
  0
LINE
  5
7AB3
  8
1
  6
CONTINUOUS
 10
4666.5286657909683
 20
3484.7517441441141
 30
0.0
 11
5196.5286657909683
 21
3484.7517441441141
 31
0.0
  0
LINE
  5
7AB4
  8
1
  6
CONTINUOUS
 10
4421.5286657909683
 20
3703.4517441441139
 30
0.0
 11
4531.5286657909674
 21
3703.4517441441139
 31
0.0
  0
LINE
  5
7AB5
  8
1
  6
CONTINUOUS
 10
4554.5286657909683
 20
3115.7517441441141
 30
0.0
 11
4666.5286657909683
 21
3115.7517441441141
 31
0.0
  0
LINE
  5
7AB6
  8
1
  6
CONTINUOUS
 10
4514.5286657909683
 20
2932.7517441441141
 30
0.0
 11
4554.5286657909683
 21
2932.7517441441141
 31
0.0
  0
LINE
  5
7AB7
  8
1
  6
CONTINUOUS
 10
4514.5286657909683
 20
2974.7517441441141
 30
0.0
 11
4554.5286657909683
 21
2974.7517441441141
 31
0.0
  0
LINE
  5
7AB8
  8
1
  6
CONTINUOUS
 10
4429.5286657909683
 20
3374.0517441441139
 30
0.0
 11
4514.5286657909683
 21
3374.0517441441139
 31
0.0
  0
LINE
  5
7AB9
  8
1
  6
CONTINUOUS
 10
4429.5286657909683
 20
3653.451744144113
 30
0.0
 11
4514.5286657909683
 21
3653.451744144113
 31
0.0
  0
LINE
  5
7ABA
  8
1
  6
CONTINUOUS
 10
4429.5286657909683
 20
3653.451744144113
 30
0.0
 11
4429.5286657909683
 21
3374.0517441441139
 31
0.0
  0
LINE
  5
7ABB
  8
1
  6
CONTINUOUS
 10
4514.5286657909683
 20
3653.451744144113
 30
0.0
 11
4514.5286657909683
 21
3374.0517441441139
 31
0.0
  0
LINE
  5
7ABC
  8
1
  6
CONTINUOUS
 10
4514.5286657909683
 20
3536.2517441441141
 30
0.0
 11
4666.5286657909683
 21
3536.2517441441141
 31
0.0
  0
LINE
  5
7ABD
  8
1
  6
CONTINUOUS
 10
4514.5286657909683
 20
3491.2517441441132
 30
0.0
 11
4666.5286657909683
 21
3491.2517441441132
 31
0.0
  0
LINE
  5
7ABE
  8
1
  6
CONTINUOUS
 10
4429.5286657909683
 20
3093.4517441441139
 30
0.0
 11
4514.5286657909683
 21
3093.4517441441139
 31
0.0
  0
LINE
  5
7ABF
  8
1
  6
CONTINUOUS
 10
5196.5286657909683
 20
3158.7517441441141
 30
0.0
 11
5279.5286657909692
 21
3158.7517441441141
 31
0.0
  0
LINE
  5
7AC0
  8
1
  6
CONTINUOUS
 10
4666.5286657909683
 20
4019.7517441441141
 30
0.0
 11
5196.5286657909683
 21
4019.7517441441141
 31
0.0
  0
LINE
  5
7AC1
  8
1
  6
CONTINUOUS
 10
5196.5286657909683
 20
3868.7517441441141
 30
0.0
 11
5279.5286657909692
 21
3868.7517441441141
 31
0.0
  0
LINE
  5
7AC2
  8
1
  6
CONTINUOUS
 10
1253.3816810000001
 20
5650.5079751441144
 30
0.0
 11
2532.7816809999999
 21
5650.5079751441144
 31
0.0
  0
LINE
  5
7AC3
  8
1
  6
CONTINUOUS
 10
1253.3816810000001
 20
5540.5079751441126
 30
0.0
 11
2532.7816809999999
 21
5540.5079751441126
 31
0.0
  0
LINE
  5
7AC4
  8
1
  6
CONTINUOUS
 10
2203.3816809999989
 20
5633.5079751441126
 30
0.0
 11
2482.7816809999999
 21
5633.5079751441126
 31
0.0
  0
LINE
  5
7AC5
  8
1
  6
CONTINUOUS
 10
2203.3816809999989
 20
5548.5079751441126
 30
0.0
 11
2482.7816809999999
 21
5548.5079751441126
 31
0.0
  0
LINE
  5
7AC6
  8
1
  6
CONTINUOUS
 10
1948.081680999999
 20
6398.5079751441126
 30
0.0
 11
2738.0816810000001
 21
6398.5079751441126
 31
0.0
  0
LINE
  5
7AC7
  8
1
  6
CONTINUOUS
 10
1731.0816809999999
 20
5785.5079751441126
 30
0.0
 11
2843.0816809999992
 21
5785.5079751441126
 31
0.0
  0
LINE
  5
7AC8
  8
1
  6
CONTINUOUS
 10
1731.0816809999999
 20
6315.5079751441144
 30
0.0
 11
2843.0816809999992
 21
6315.5079751441144
 31
0.0
  0
LINE
  5
7AC9
  8
1
  6
CONTINUOUS
 10
1281.081680999999
 20
5673.5079751441126
 30
0.0
 11
1281.081680999999
 21
6210.5079751441144
 31
0.0
  0
LINE
  5
7ACA
  8
1
  6
CONTINUOUS
 10
1605.081680999999
 20
5673.5079751441126
 30
0.0
 11
1605.081680999999
 21
6210.5079751441144
 31
0.0
  0
LINE
  5
7ACB
  8
1
  6
CONTINUOUS
 10
1731.0816809999999
 20
5785.5079751441126
 30
0.0
 11
1731.0816809999999
 21
6315.5079751441144
 31
0.0
  0
LINE
  5
7ACC
  8
1
  6
CONTINUOUS
 10
1243.081680999999
 20
5618.5079751441144
 30
0.0
 11
1243.081680999999
 21
6368.5079751441144
 31
0.0
  0
LINE
  5
7ACD
  8
1
  6
CONTINUOUS
 10
1582.7816809999999
 20
5618.5079751441144
 30
0.0
 11
2203.3816809999989
 21
5618.5079751441144
 31
0.0
  0
LINE
  5
7ACE
  8
1
  6
CONTINUOUS
 10
1253.3816810000001
 20
5540.5079751441126
 30
0.0
 11
1253.3816810000001
 21
5650.5079751441144
 31
0.0
  0
LINE
  5
7ACF
  8
1
  6
CONTINUOUS
 10
1303.3816810000001
 20
5548.5079751441126
 30
0.0
 11
1303.3816810000001
 21
5633.5079751441126
 31
0.0
  0
LINE
  5
7AD0
  8
1
  6
CONTINUOUS
 10
1582.7816809999999
 20
5548.5079751441126
 30
0.0
 11
1582.7816809999999
 21
5633.5079751441126
 31
0.0
  0
LINE
  5
7AD1
  8
1
  6
CONTINUOUS
 10
1303.3816810000001
 20
5548.5079751441126
 30
0.0
 11
1582.7816809999999
 21
5548.5079751441126
 31
0.0
  0
LINE
  5
7AD2
  8
1
  6
CONTINUOUS
 10
1303.3816810000001
 20
5633.5079751441126
 30
0.0
 11
1582.7816809999999
 21
5633.5079751441126
 31
0.0
  0
LINE
  5
7AD3
  8
1
  6
CONTINUOUS
 10
1281.081680999999
 20
5673.5079751441126
 30
0.0
 11
1605.081680999999
 21
5673.5079751441126
 31
0.0
  0
LINE
  5
7AD4
  8
1
  6
CONTINUOUS
 10
1422.081680999999
 20
5633.5079751441126
 30
0.0
 11
1422.081680999999
 21
5673.5079751441126
 31
0.0
  0
LINE
  5
7AD5
  8
1
  6
CONTINUOUS
 10
1464.081680999999
 20
5633.5079751441126
 30
0.0
 11
1464.081680999999
 21
5673.5079751441126
 31
0.0
  0
LINE
  5
7AD6
  8
1
  6
CONTINUOUS
 10
1243.081680999999
 20
5618.5079751441144
 30
0.0
 11
1303.3816810000001
 21
5618.5079751441144
 31
0.0
  0
LINE
  5
7AD7
  8
1
  6
CONTINUOUS
 10
2203.3816809999989
 20
5548.5079751441126
 30
0.0
 11
2203.3816809999989
 21
5633.5079751441126
 31
0.0
  0
LINE
  5
7AD8
  8
1
  6
CONTINUOUS
 10
2365.5816809999992
 20
5633.5079751441126
 30
0.0
 11
2365.5816809999992
 21
5785.5079751441126
 31
0.0
  0
LINE
  5
7AD9
  8
1
  6
CONTINUOUS
 10
2320.5816809999992
 20
5633.5079751441126
 30
0.0
 11
2320.5816809999992
 21
5785.5079751441126
 31
0.0
  0
LINE
  5
7ADA
  8
1
  6
CONTINUOUS
 10
1243.081680999999
 20
6368.5079751441144
 30
0.0
 11
1988.081680999999
 21
6368.5079751441144
 31
0.0
  0
LINE
  5
7ADB
  8
1
  6
CONTINUOUS
 10
1281.081680999999
 20
6210.5079751441144
 30
0.0
 11
1605.081680999999
 21
6210.5079751441144
 31
0.0
  0
LINE
  5
7ADC
  8
1
  6
CONTINUOUS
 10
1988.081680999999
 20
6315.5079751441144
 30
0.0
 11
1988.081680999999
 21
6398.5079751441126
 31
0.0
  0
LINE
  5
7ADD
  8
1
  6
CONTINUOUS
 10
2803.0816810000001
 20
5785.5079751441126
 30
0.0
 11
2803.0816810000001
 21
6315.5079751441144
 31
0.0
  0
LINE
  5
7ADE
  8
1
  6
CONTINUOUS
 10
2843.0816809999992
 20
5745.5079751441126
 30
0.0
 11
2843.0816809999992
 21
6355.5079751441144
 31
0.0
  0
LINE
  5
7ADF
  8
1
  6
CONTINUOUS
 10
2532.7816809999999
 20
5540.5079751441126
 30
0.0
 11
2532.7816809999999
 21
5650.5079751441144
 31
0.0
  0
LINE
  5
7AE0
  8
1
  6
CONTINUOUS
 10
2482.7816809999999
 20
5548.5079751441126
 30
0.0
 11
2482.7816809999999
 21
5633.5079751441126
 31
0.0
  0
LINE
  5
7AE1
  8
1
  6
CONTINUOUS
 10
2482.7816809999999
 20
5618.5079751441144
 30
0.0
 11
2793.0816809999992
 21
5618.5079751441144
 31
0.0
  0
LINE
  5
7AE2
  8
1
  6
CONTINUOUS
 10
2793.0816809999992
 20
5618.5079751441144
 30
0.0
 11
2793.0816809999992
 21
5785.5079751441126
 31
0.0
  0
LINE
  5
7AE3
  8
1
  6
CONTINUOUS
 10
2698.0816809999992
 20
6368.5079751441144
 30
0.0
 11
2793.0816809999992
 21
6368.5079751441144
 31
0.0
  0
LINE
  5
7AE4
  8
1
  6
CONTINUOUS
 10
2698.0816809999992
 20
6315.5079751441144
 30
0.0
 11
2698.0816809999992
 21
6398.5079751441126
 31
0.0
  0
LINE
  5
7AE5
  8
1
  6
CONTINUOUS
 10
2793.0816809999992
 20
6315.5079751441144
 30
0.0
 11
2793.0816809999992
 21
6368.5079751441144
 31
0.0
  0
DIMENSION
  5
7B2A
  8
3
  6
CONTINUOUS
  2
*D1
 10
3137.077643000001
 20
2754.7517441441141
 30
0.0
 11
3137.0776430000001
 21
3161.517742144114
 31
0.0
 70
   128
 13
2843.0816809999992
 23
3484.7517441441141
 33
0.0
 14
2843.0816809999992
 24
2754.7517441441141
 34
0.0
 50
90.0
1001
ACAD
1000
DSTYLE
1002
{
1070
   287
1070
     3
1070
   287
1070
     3
1070
    40
1040
30.0
1070
   143
1040
0.039
1070
   172
1070
     1
1070
   271
1070
     0
1070
   279
1070
     0
1070
   288
1070
     1
1002
}
  0
DIMENSION
  5
7B37
  8
3
  6
CONTINUOUS
  2
*D2
 10
3308.7476632340508
 20
2754.7517441441141
 30
0.0
 11
3308.7476632340499
 21
3155.2966351441141
 31
0.0
 70
   128
 13
2762.7534959999998
 23
3513.7517441441141
 33
0.0
 14
2843.0816809999992
 24
2754.7517441441141
 34
0.0
 50
90.0
1001
ACAD
1000
DSTYLE
1002
{
1070
   287
1070
     3
1070
   287
1070
     3
1070
    40
1040
30.0
1070
   143
1040
0.039
1070
   172
1070
     1
1070
   271
1070
     0
1070
   279
1070
     0
1070
   288
1070
     1
1002
}
  0
DIMENSION
  5
7B44
  8
3
  6
CONTINUOUS
  2
*D3
 10
3491.6468867834692
 20
3513.7517441441141
 30
0.0
 11
3491.6468867834678
 21
3775.3469721441138
 31
0.0
 70
   128
 13
2343.0816809999992
 23
4019.7517441441132
 33
0.0
 14
2763.1769089999998
 24
3513.7517441441141
 34
0.0
 50
90.0
1001
ACAD
1000
DSTYLE
1002
{
1070
   287
1070
     3
1070
   287
1070
     3
1070
    40
1040
30.0
1070
   143
1040
0.039
1070
   172
1070
     1
1070
   271
1070
     0
1070
   279
1070
     0
1070
   288
1070
     1
1002
}
  0
DIMENSION
  5
7B50
  8
3
  6
CONTINUOUS
  2
*D4
 10
3491.6468867834678
 20
2643.7517441441132
 30
0.0
 11
3416.6468867834678
 21
3078.7517441441141
 31
0.0
 70
     0
 13
2763.1769089999998
 23
3513.7517441441141
 33
0.0
 14
2793.0816809999992
 24
2643.7517441441141
 34
0.0
 50
90.0
1001
ACAD
1000
DSTYLE
1002
{
1070
   287
1070
     3
1070
   287
1070
     3
1070
    40
1040
30.0
1070
   143
1040
0.039
1070
   172
1070
     1
1070
   271
1070
     0
1070
   279
1070
     0
1070
   288
1070
     1
1002
}
  0
DIMENSION
  5
7B94
  8
3
  6
CONTINUOUS
  2
*D5
 10
2343.0816809999992
 20
4200.2338926212688
 30
0.0
 11
2029.5936780000011
 21
4200.2338926212688
 31
0.0
 70
   128
 13
1731.0816809999999
 23
3513.7517441441141
 33
0.0
 14
2343.0816809999992
 24
4017.8469721441152
 34
0.0
1001
ACAD
1000
DSTYLE
1002
{
1070
   287
1070
     3
1070
   287
1070
     3
1070
    40
1040
30.0
1070
   143
1040
0.039
1070
   172
1070
     1
1070
   271
1070
     0
1070
   279
1070
     0
1070
   288
1070
     1
1002
}
  0
DIMENSION
  5
7BA0
  8
3
  6
CONTINUOUS
  2
*D6
 10
2843.0816809999992
 20
4200.2338926212688
 30
0.0
 11
2593.0816809999992
 21
4275.2338926212688
 31
0.0
 70
     0
 13
2343.0816809999992
 23
4017.8469721441152
 33
0.0
 14
2843.0816809999992
 24
3524.7517441441141
 34
0.0
1001
ACAD
1000
DSTYLE
1002
{
1070
   287
1070
     3
1070
   287
1070
     3
1070
    40
1040
30.0
1070
   143
1040
0.039
1070
   172
1070
     1
1070
   271
1070
     0
1070
   279
1070
     0
1070
   288
1070
     1
1002
}
  0
DIMENSION
  5
7BAD
  8
3
  6
CONTINUOUS
  2
*D7
 10
2793.0816809999992
 20
5225.9909381441139
 30
0.0
 11
2014.039130000001
 21
5225.9909381441139
 31
0.0
 70
   128
 13
1243.081680999999
 23
5618.5079751441144
 33
0.0
 14
2793.0816809999992
 24
5618.5079751441144
 34
0.0
1001
ACAD
1000
DSTYLE
1002
{
1070
   287
1070
     3
1070
   287
1070
     3
1070
    40
1040
30.0
1070
   143
1040
0.039
1070
   172
1070
     1
1070
   271
1070
     0
1070
   279
1070
     0
1070
   288
1070
     1
1002
}
  0
DIMENSION
  5
7BBA
  8
3
  6
CONTINUOUS
  2
*D8
 10
3099.400752
 20
5618.5079751441144
 30
0.0
 11
3099.4007519999991
 21
6016.9663161441149
 31
0.0
 70
   128
 13
2793.0816809999992
 23
6368.5079751441144
 33
0.0
 14
2793.0816809999992
 24
5618.5079751441144
 34
0.0
 50
90.0
1001
ACAD
1000
DSTYLE
1002
{
1070
   287
1070
     3
1070
   287
1070
     3
1070
    40
1040
30.0
1070
   143
1040
0.039
1070
   172
1070
     1
1070
   271
1070
     0
1070
   279
1070
     0
1070
   288
1070
     1
1002
}
  0
LINE
  5
7BBB
  8
2
  6
CENTER
 10
1499.491814999999
 20
6050.5079751441144
 30
0.0
 11
2883.560708
 21
6050.5079751441144
 31
0.0
  0
LINE
  5
7BBC
  8
2
  6
CENTER
 10
4931.5286657909683
 20
4168.676875144115
 30
0.0
 11
4931.5286657909683
 21
2448.7517441441141
 31
0.0
  0
DIMENSION
  5
7C16
  8
3
  6
CONTINUOUS
  2
*D9
 10
5196.5286657909683
 20
4154.5835401441136
 30
0.0
 11
4906.5286657909683
 21
4154.5835401441136
 31
0.0
 70
   128
 13
4666.5286657909683
 23
4019.7517441441141
 33
0.0
 14
5196.5286657909683
 24
4019.7517441441141
 34
0.0
1001
ACAD
1000
DSTYLE
1002
{
1070
   287
1070
     3
1070
   287
1070
     3
1070
    40
1040
30.0
1070
   143
1040
0.039
1070
   172
1070
     1
1070
   271
1070
     0
1070
   279
1070
     0
1070
   288
1070
     1
1002
}
  0
DIMENSION
  5
7C23
  8
3
  6
CONTINUOUS
  2
*D10
 10
4931.5286657909683
 20
4392.9123651441141
 30
0.0
 11
4712.9572372195398
 21
4392.9123651441141
 31
0.0
 70
   128
  1
MAX\P590
 13
4421.5286657909683
 23
3703.4517441441139
 33
0.0
 14
4931.5286657909683
 24
4327.1614041441144
 34
0.0
1001
ACAD
1000
DSTYLE
1002
{
1070
   287
1070
     3
1070
   287
1070
     3
1070
    40
1040
30.0
1070
   143
1040
0.039
1070
   172
1070
     1
1070
   271
1070
     0
1070
   279
1070
     0
1070
   288
1070
     1
1002
}
  0
DIMENSION
  5
7C31
  8
3
  6
CONTINUOUS
  2
*D11
 10
5279.5286657909692
 20
4392.9123651441141
 30
0.0
 11
5105.5286657909683
 21
4486.5444155722098
 31
0.0
 70
   128
 13
4931.5286657909683
 23
4327.1614041441144
 33
0.0
 14
5279.5286657909692
 24
3908.7517441441141
 34
0.0
1001
ACAD
1000
DSTYLE
1002
{
1070
   288
1070
     1
1070
   172
1070
     1
1070
    40
1040
30.0
1070
   271
1070
     0
1070
   143
1040
0.039
1002
}
  0
DIMENSION
  5
7C54
  8
3
  6
CONTINUOUS
  2
*D12
 10
5487.7757197233659
 20
3158.7517441441141
 30
0.0
 11
5487.775719723365
 21
3515.585963144114
 31
0.0
 70
   128
 13
5279.5286657909692
 23
3868.7517441441141
 33
0.0
 14
5279.5286657909692
 24
3158.7517441441141
 34
0.0
 50
90.0
1001
ACAD
1000
DSTYLE
1002
{
1070
   287
1070
     3
1070
   287
1070
     3
1070
     3
1000
φ<>
1070
    40
1040
30.0
1070
   143
1040
0.039
1070
   172
1070
     1
1070
   271
1070
     0
1070
   279
1070
     0
1070
   288
1070
     1
1002
}
  0
LINE
  5
7C55
  8
2
  6
CENTER
 10
4321.596908790968
 20
3513.7517441441141
 30
0.0
 11
5315.2053127909667
 21
3513.7517441441141
 31
0.0
  0
LINE
  5
7C56
  8
2
  6
CENTER
 10
2343.0816809999992
 20
4181.1619936212701
 30
0.0
 11
2343.0816809999992
 21
2448.7517441441141
 31
0.0
  0
LINE
  5
7C57
  8
4
  6
CONTINUOUS
 10
5550.0
 20
1500.0
 30
0.0
 11
5550.0
 21
900.0
 31
0.0
  0
LINE
  5
7C58
  8
4
  6
CONTINUOUS
 10
3450.0
 20
1500.0
 30
0.0
 11
3450.0
 21
900.0
 31
0.0
  0
LINE
  5
7C59
  8
4
  6
CONTINUOUS
 10
1950.0
 20
1500.0
 30
0.0
 11
1950.0
 21
900.0
 31
0.0
  0
LINE
  5
7C5C
  8
4
  6
CONTINUOUS
 10
1950.0
 20
900.0
 30
0.0
 11
5550.0
 21
900.0
 31
0.0
  0
LINE
  5
7C5D
  8
4
  6
CONTINUOUS
 10
1950.0
 20
1200.0
 30
0.0
 11
5550.0
 21
1200.0
 31
0.0
  0
TEXT
  5
7C5E
  8
4
  6
CONTINUOUS
 10
2065.50624225
 20
1294.6290779999999
 30
0.0
 40
150.0
  1
機器名称
  0
TEXT
  5
7C5F
  8
4
  6
CONTINUOUS
 10
2058.7743179999989
 20
964.93547024999998
 30
0.0
 40
150.0
  1
機器型番
  0
TEXT
  5
7C60
  8
4
  6
CONTINUOUS
 10
3533.0362365000001
 20
1267.715306249999
 30
0.0
 40
120.0
  1
ミツヤリミットロードファン
  0
TEXT
  5
7C61
  8
4
  6
CONTINUOUS
 10
3559.9634872500001
 20
951.4787527499999
 30
0.0
 40
150.0
  1
LLE#4 1/2-4
  0
TEXT
  5
7C63
  8
4
  6
CONTINUOUS
 10
2258.5096304999988
 20
7150.2865245000012
 30
0.0
 40
162.0
  1
床置防振ベット
  0
TEXT
  5
7C64
  8
4
  6
CONTINUOUS
 10
948.50278049999986
 20
7601.6429287499996
 30
0.0
 40
171.42857175
  1
ベルト駆動式片吸込両持排煙ファン
  0
LINE
  5
7C65
  8
4
  6
CONTINUOUS
 10
750.0
 20
7408.2262627500004
 30
0.0
 11
5550.0
 21
7408.2262627500004
 31
0.0
  0
LINE
  5
7C66
  8
4
  6
CONTINUOUS
 10
750.0
 20
8008.2262627500004
 30
0.0
 11
5550.0
 21
8008.2262627500004
 31
0.0
  0
LINE
  5
7C67
  8
4
  6
CONTINUOUS
 10
1950.0
 20
1500.0
 30
0.0
 11
5550.0
 21
1500.0
 31
0.0
  0
LINE
  5
7C68
  8
4
  6
CONTINUOUS
 10
750.0
 20
8008.2262627500004
 30
0.0
 11
750.0
 21
7408.2262627500004
 31
0.0
  0
TEXT
  5
7C69
  8
4
  6
CONTINUOUS
 10
950.93313374999991
 20
7146.9584324999987
 30
0.0
 40
162.0
  1
左回転右横向
  0
TEXT
  5
7C6A
  8
4
  6
CONTINUOUS
 10
4406.9086777499988
 20
8118.1832445
 30
0.0
 40
168.0
  1
No.
  0
TEXT
  5
7C6B
  8
4
  6
CONTINUOUS
 10
3933.8881875000002
 20
7150.2865245000012
 30
0.0
 40
162.0
  1
縮尺：1/30
  0
LINE
  5
7C6C
  8
4
  6
CONTINUOUS
 10
5550.0
 20
8008.2262627500004
 30
0.0
 11
5550.0
 21
7408.2262627500004
 31
0.0
  0
LINE
  5
7C6E
  8
4
  6
CONTINUOUS
 10
4321.8522667500001
 20
8043.79074975
 30
0.0
 11
4321.8522667500001
 21
8359.9567845000001
 31
0.0
  0
LINE
  5
7C6F
  8
4
  6
CONTINUOUS
 10
4321.8522667500001
 20
8359.9567845000001
 30
0.0
 11
5550.0
 21
8359.9567845000001
 31
0.0
  0
LINE
  5
7C70
  8
4
  6
CONTINUOUS
 10
5550.0
 20
8359.9567845000001
 30
0.0
 11
5550.0
 21
8043.79074975
 31
0.0
  0
LINE
  5
7C71
  8
4
  6
CONTINUOUS
 10
5550.0
 20
8043.79074975
 30
0.0
 11
4321.8522667500001
 21
8043.79074975
 31
0.0
  0
DIMENSION
  5
7E52
  8
3
  2
*D13
 10
1243.081680999999
 20
4362.7710475615959
 30
0.0
 11
1993.2578270473889
 21
4362.7710475615959
 31
0.0
 70
   128
 13
2843.0816809999992
 23
3524.7517441441141
 33
0.0
 14
1243.081680999999
 24
2743.7517441441141
 34
0.0
1001
ACAD
1000
DSTYLE
1002
{
1070
   287
1070
     3
1070
   287
1070
     3
1070
    40
1040
30.0
1070
   143
1040
0.039
1070
   172
1070
     1
1070
   271
1070
     0
1070
   279
1070
     0
1070
   288
1070
     1
1002
}
  0
DIMENSION
  5
7E8E
  8
3
  2
*D14
 10
2343.0816809999992
 20
2255.0105138797189
 30
0.0
 11
1793.081680999999
 21
2330.010513879718
 31
0.0
 70
     0
 13
1243.081680999999
 23
2448.7517441441141
 33
0.0
 14
2343.0816809999992
 24
2448.7517441441141
 34
0.0
1001
ACAD
1000
DSTYLE
1002
{
1070
   287
1070
     3
1070
   287
1070
     3
1070
    40
1040
30.0
1070
   143
1040
0.039
1070
   172
1070
     1
1070
   271
1070
     0
1070
   279
1070
     0
1002
}
  0
DIMENSION
  5
7E9B
  8
3
  2
*D15
 10
2793.0816809999992
 20
2255.0105138797189
 30
0.0
 11
2568.0816809999992
 21
2330.010513879718
 31
0.0
 70
     0
 13
2343.0816809999992
 23
2448.7517441441141
 33
0.0
 14
2793.0816809999992
 24
2448.7517441441141
 34
0.0
1001
ACAD
1000
DSTYLE
1002
{
1070
   287
1070
     3
1070
   287
1070
     3
1070
    40
1040
30.0
1070
   143
1040
0.039
1070
   172
1070
     1
1070
   271
1070
     0
1070
   279
1070
     0
1002
}
  0
DIMENSION
  5
7EA8
  8
3
  2
*D16
 10
4931.5286657909683
 20
2255.0105138797189
 30
0.0
 11
4715.5286657909683
 21
2330.010513879718
 31
0.0
 70
     0
 13
4499.5286657909674
 23
2448.7517441441141
 33
0.0
 14
4931.5286657909683
 24
2448.7517441441141
 34
0.0
1001
ACAD
1000
DSTYLE
1002
{
1070
   287
1070
     3
1070
   287
1070
     3
1070
    40
1040
30.0
1070
   143
1040
0.039
1070
   172
1070
     1
1070
   271
1070
     0
1070
   279
1070
     0
1002
}
  0
DIMENSION
  5
7EB7
  8
3
  2
*D17
 10
5249.5286657909683
 20
2255.0105138797189
 30
0.0
 11
5090.5286657909683
 21
2330.010513879718
 31
0.0
 70
     0
 13
4931.5286657909683
 23
2448.7517441441141
 33
0.0
 14
5249.5286657909683
 24
2448.7517441441141
 34
0.0
1001
ACAD
1000
DSTYLE
1002
{
1070
   287
1070
     3
1070
   287
1070
     3
1070
    40
1040
30.0
1070
   143
1040
0.039
1070
   172
1070
     1
1070
   271
1070
     0
1070
   279
1070
     0
1002
}
  0
DIMENSION
  5
7ECE
  8
3
  2
*D19
 10
3493.6036633967228
 20
2448.7517441441141
 30
0.0
 11
3418.6036633967219
 21
2191.6088870012568
 31
0.0
 70
     0
 13
2793.0816809999992
 23
2548.7517441441141
 33
0.0
 14
2793.0816809999992
 24
2448.7517441441141
 34
0.0
 50
90.0
1001
ACAD
1000
DSTYLE
1002
{
1070
   287
1070
     3
1070
   287
1070
     3
1070
    40
1040
30.0
1070
   143
1040
0.039
1070
   172
1070
     1
1070
   271
1070
     0
1070
   279
1070
     0
1070
     6
1000
DOT
1002
}
  0
DIMENSION
  5
7EDD
  8
3
  2
*D20
 10
3493.6036633967228
 20
2643.7517441441141
 30
0.0
 11
3637.1750919681508
 21
2596.2517441441141
 31
0.0
 70
     0
 13
2793.0816809999992
 23
2548.7517441441141
 33
0.0
 14
2793.0816809999992
 24
2643.7517441441141
 34
0.0
 50
90.0
1001
ACAD
1000
DSTYLE
1002
{
1070
   172
1070
     1
1070
    40
1040
30.0
1070
     3
1000
(<>)
1070
   271
1070
     0
1070
     6
1000
_DOT
1070
   143
1040
0.039
1002
}
  0
DIMENSION
  5
7EEA
  8
3
  2
*D21
 10
3774.4185466508029
 20
2448.7517441441141
 30
0.0
 11
3675.8471180793731
 21
3234.2517441441132
 31
0.0
 70
     0
 13
2358.0816809999992
 23
4019.7517441441132
 33
0.0
 14
2793.0816809999992
 24
2448.7517441441141
 34
0.0
 50
90.0
1001
ACAD
1000
DSTYLE
1002
{
1070
   287
1070
     3
1070
   287
1070
     3
1070
     3
1000
(<>)
1070
    40
1040
30.0
1070
   143
1040
0.039
1070
   172
1070
     1
1070
   271
1070
     0
1070
   279
1070
     0
1002
}
  0
ENDSEC
  0
EOF
