  0
SECTION
  2
HEADER
  9
$ACADVER
  1
AC1009
  9
$INSBASE
 10
0.0
 20
0.0
 30
0.0
  9
$EXTMIN
 10
750.0
 20
900.0
 30
0.0
  9
$EXTMAX
 10
5550.0
 20
8359.9567845000001
 30
0.0
  9
$LIMMIN
 10
0.0
 20
0.0
  9
$LIMMAX
 10
297.0
 20
210.0
  9
$ORTHOMODE
 70
     0
  9
$REGENMODE
 70
     1
  9
$FILLMODE
 70
     0
  9
$QTEXTMODE
 70
     0
  9
$MIRRTEXT
 70
     1
  9
$DRAGMODE
 70
     2
  9
$LTSCALE
 40
100.0
  9
$OSMODE
 70
    37
  9
$ATTMODE
 70
     1
  9
$TEXTSIZE
 40
180.0
  9
$TRACEWID
 40
0.05
  9
$TEXTSTYLE
  7
STANDARD
  9
$CLAYER
  8
3
  9
$CELTYPE
  6
BYLAYER
  9
$CECOLOR
 62
   256
  9
$DIMSCALE
 40
30.0
  9
$DIMASZ
 40
2.0
  9
$DIMEXO
 40
0.5
  9
$DIMDLI
 40
10.0
  9
$DIMRND
 40
0.0
  9
$DIMDLE
 40
0.0
  9
$DIMEXE
 40
1.0
  9
$DIMTP
 40
1.0
  9
$DIMTM
 40
1.0
  9
$DIMTXT
 40
3.0
  9
$DIMCEN
 40
0.0
  9
$DIMTSZ
 40
0.0
  9
$DIMTOL
 70
     0
  9
$DIMLIM
 70
     0
  9
$DIMTIH
 70
     0
  9
$DIMTOH
 70
     0
  9
$DIMSE1
 70
     0
  9
$DIMSE2
 70
     0
  9
$DIMTAD
 70
     1
  9
$DIMZIN
 70
     8
  9
$DIMBLK
  1

  9
$DIMASO
 70
     1
  9
$DIMSHO
 70
     1
  9
$DIMPOST
  1
(<>)
  9
$DIMAPOST
  1

  9
$DIMALT
 70
     0
  9
$DIMALTD
 70
     2
  9
$DIMALTF
 40
0.039
  9
$DIMLFAC
 40
1.0
  9
$DIMTOFL
 70
     1
  9
$DIMTVP
 40
0.0
  9
$DIMTIX
 70
     0
  9
$DIMSOXD
 70
     0
  9
$DIMSAH
 70
     1
  9
$DIMBLK1
  1
OPEN
  9
$DIMBLK2
  1
OPEN
  9
$DIMSTYLE
  2
IGA
  9
$DIMCLRD
 70
     0
  9
$DIMCLRE
 70
     0
  9
$DIMCLRT
 70
     0
  9
$DIMTFAC
 40
10.0
  9
$DIMGAP
 40
1.0
  9
$LUNITS
 70
     2
  9
$LUPREC
 70
     3
  9
$SKETCHINC
 40
0.1
  9
$FILLETRAD
 40
50.0
  9
$AUNITS
 70
     0
  9
$AUPREC
 70
     0
  9
$MENU
  1
acad
  9
$ELEVATION
 40
0.0
  9
$PELEVATION
 40
0.0
  9
$THICKNESS
 40
0.0
  9
$LIMCHECK
 70
     0
  9
$BLIPMODE
 70
     0
  9
$CHAMFERA
 40
0.5
  9
$CHAMFERB
 40
0.5
  9
$SKPOLY
 70
     0
  9
$TDCREATE
 40
2450754.364300231
  9
$TDUPDATE
 40
2454953.6844278011
  9
$TDINDWG
 40
0.0101192361
  9
$TDUSRTIMER
 40
0.0101192361
  9
$USRTIMER
 70
     1
  9
$ANGBASE
 50
0.0
  9
$ANGDIR
 70
     0
  9
$PDMODE
 70
     0
  9
$PDSIZE
 40
0.0
  9
$PLINEWID
 40
0.0
  9
$COORDS
 70
     1
  9
$SPLFRAME
 70
     0
  9
$SPLINETYPE
 70
     6
  9
$SPLINESEGS
 70
     8
  9
$ATTDIA
 70
     0
  9
$ATTREQ
 70
     1
  9
$HANDLING
 70
 10241
  9
$HANDSEED
  5
7FE4
  9
$SURFTAB1
 70
     6
  9
$SURFTAB2
 70
     6
  9
$SURFTYPE
 70
     6
  9
$SURFU
 70
     6
  9
$SURFV
 70
     6
  9
$UCSNAME
  2

  9
$UCSORG
 10
0.0
 20
0.0
 30
0.0
  9
$UCSXDIR
 10
1.0
 20
0.0
 30
0.0
  9
$UCSYDIR
 10
0.0
 20
1.0
 30
0.0
  9
$PUCSNAME
  2

  9
$PUCSORG
 10
0.0
 20
0.0
 30
0.0
  9
$PUCSXDIR
 10
1.0
 20
0.0
 30
0.0
  9
$PUCSYDIR
 10
0.0
 20
1.0
 30
0.0
  9
$USERI1
 70
     0
  9
$USERI2
 70
     0
  9
$USERI3
 70
     0
  9
$USERI4
 70
     0
  9
$USERI5
 70
     0
  9
$USERR1
 40
0.0
  9
$USERR2
 40
0.0
  9
$USERR3
 40
0.0
  9
$USERR4
 40
0.0
  9
$USERR5
 40
0.0
  9
$WORLDVIEW
 70
     1
  9
$SHADEDGE
 70
     3
  9
$SHADEDIF
 70
    70
  9
$TILEMODE
 70
     1
  9
$MAXACTVP
 70
    16
  9
$PLIMCHECK
 70
     0
  9
$PEXTMIN
 10
1.0000000000000000E+020
 20
1.0000000000000000E+020
 30
1.0000000000000000E+020
  9
$PEXTMAX
 10
-1.0000000000000000E+020
 20
-1.0000000000000000E+020
 30
-1.0000000000000000E+020
  9
$PLIMMIN
 10
0.0
 20
0.0
  9
$PLIMMAX
 10
12.0
 20
9.0
  9
$UNITMODE
 70
     0
  9
$VISRETAIN
 70
     0
  9
$PLINEGEN
 70
     0
  9
$PSLTSCALE
 70
     1
  0
ENDSEC
  0
SECTION
  2
TABLES
  0
TABLE
  2
VPORT
 70
     2
  0
VPORT
  2
*ACTIVE
 70
     0
 10
0.0
 20
0.0
 11
1.0
 21
1.0
 12
13707.9198527382
 22
4149.9932195150277
 13
0.0
 23
0.0
 14
10.0
 24
10.0
 15
10.0
 25
10.0
 16
0.0
 26
0.0
 36
1.0
 17
0.0
 27
0.0
 37
0.0
 40
10974.939530226089
 41
3.1666666666666661
 42
50.0
 43
0.0
 44
0.0
 50
0.0
 51
0.0
 71
     0
 72
   100
 73
     1
 74
     0
 75
     0
 76
     0
 77
     0
 78
     0
  0
ENDTAB
  0
TABLE
  2
LTYPE
 70
     2
  0
LTYPE
  2
CONTINUOUS
 70
     0
  3
Solid line
 72
    65
 73
     0
 40
0.0
  0
LTYPE
  2
CENTER
 70
     0
  3
____ _ ____ _ ____ _ ____ _ ____ _ ____ _ ____ 
 72
    65
 73
     4
 40
2.0
 49
1.25
 49
-0.25
 49
0.25
 49
-0.25
  0
ENDTAB
  0
TABLE
  2
LAYER
 70
     6
  0
LAYER
  2
0
 70
     0
 62
     7
  6
CONTINUOUS
  0
LAYER
  2
3
 70
     0
 62
     2
  6
CONTINUOUS
  0
LAYER
  2
2
 70
     0
 62
     3
  6
CENTER
  0
LAYER
  2
1
 70
     0
 62
     4
  6
CONTINUOUS
  0
LAYER
  2
4
 70
     0
 62
     7
  6
CONTINUOUS
  0
LAYER
  2
DEFPOINTS
 70
     0
 62
     7
  6
CONTINUOUS
  0
ENDTAB
  0
TABLE
  2
STYLE
 70
     1
  0
STYLE
  2
STANDARD
 70
     0
 40
0.0
 41
1.0
 50
0.0
 71
     0
 42
180.0
  3
simplex.shx
  4
extfont.shx
  0
ENDTAB
  0
TABLE
  2
VIEW
 70
     0
  0
ENDTAB
  0
TABLE
  2
UCS
 70
     0
  0
ENDTAB
  0
TABLE
  2
APPID
 70
     1
  0
APPID
  2
ACAD
 70
     0
  0
ENDTAB
  0
TABLE
  2
DIMSTYLE
 70
     1
  0
DIMSTYLE
  2
IGA
 70
     0
  3

  4

  5

  6
OPEN
  7
OPEN
 40
2.0
 41
2.0
 42
0.5
 43
10.0
 44
1.0
 45
0.0
 46
0.0
 47
1.0
 48
1.0
140
3.0
141
0.0
142
0.0
143
0.03937
144
1.0
145
0.0
146
10.0
147
1.0
 71
     0
 72
     0
 73
     0
 74
     0
 75
     0
 76
     0
 77
     1
 78
     8
170
     0
171
     2
172
     0
173
     1
174
     0
175
     0
176
     0
177
     0
178
     0
  0
ENDTAB
  0
ENDSEC
  0
SECTION
  2
BLOCKS
  0
BLOCK
  8
0
  2
$MODEL_SPACE
 70
     0
 10
0.0
 20
0.0
 30
0.0
  3
$MODEL_SPACE
  1

  0
ENDBLK
  5
1B
  8
0
  0
BLOCK
 67
     1
  8
0
  2
$PAPER_SPACE
 70
     0
 10
0.0
 20
0.0
 30
0.0
  3
$PAPER_SPACE
  1

  0
ENDBLK
  5
18
 67
     1
  8
0
  0
BLOCK
  8
0
  2
_OPEN
 70
     0
 10
0.0
 20
0.0
 30
0.0
  3
_OPEN
  1

  0
LINE
  5
7AE0
  8
0
  6
BYBLOCK
 62
     0
 10
-1.0
 20
0.166667
 30
0.0
 11
0.0
 21
0.0
 31
0.0
  0
LINE
  5
7AE1
  8
0
  6
BYBLOCK
 62
     0
 10
0.0
 20
0.0
 30
0.0
 11
-1.0
 21
-0.166667
 31
0.0
  0
LINE
  5
7AE2
  8
0
  6
BYBLOCK
 62
     0
 10
0.0
 20
0.0
 30
0.0
 11
-1.0
 21
0.0
 31
0.0
  0
ENDBLK
  5
7AE3
  8
0
  0
BLOCK
  8
0
  2
*D1
 70
     1
 10
0.0
 20
0.0
 30
0.0
  3
*D1
  1

  0
LINE
  5
7F34
  8
3
  6
CONTINUOUS
 62
     0
 10
1824.531496790961
 20
4142.281078310134
 30
0.0
 11
1617.1810257909599
 21
4142.281078310134
 31
0.0
  0
LINE
  5
7F35
  8
3
  6
CONTINUOUS
 62
     0
 10
1824.531496790961
 20
3412.2810783101349
 30
0.0
 11
1617.1810257909599
 21
3412.2810783101349
 31
0.0
  0
LINE
  5
7F36
  8
3
  6
CONTINUOUS
 62
     0
 10
1647.181025790961
 20
4082.281078310134
 30
0.0
 11
1647.1810257909599
 21
3472.2810783101349
 31
0.0
  0
INSERT
  5
7F37
  8
3
  6
CONTINUOUS
 62
     0
  2
_OPEN
 10
1647.181025790961
 20
4142.281078310134
 30
0.0
 41
60.0
 42
60.0
 43
60.0
 50
90.0
  0
INSERT
  5
7F38
  8
3
  6
CONTINUOUS
 62
     0
  2
_OPEN
 10
1647.1810257909599
 20
3412.2810783101349
 30
0.0
 41
60.0
 42
60.0
 43
60.0
 50
270.0
  0
TEXT
  8
3
  40
90
  5
7FD2
  62
0
  72
0
  71
0
 10
1392.18
 20
3633.15
 30
0.000000
  1
730
  0
POINT
  5
7F3A
  8
DEFPOINTS
  6
CONTINUOUS
 62
     0
 10
1839.531496790961
 20
4142.281078310134
 30
0.0
  0
POINT
  5
7F3B
  8
DEFPOINTS
  6
CONTINUOUS
 62
     0
 10
1839.531496790961
 20
3412.2810783101349
 30
0.0
  0
POINT
  5
7F3C
  8
DEFPOINTS
  6
CONTINUOUS
 62
     0
 10
1647.1810257909599
 20
3412.2810783101349
 30
0.0
  0
ENDBLK
  5
7D4C
  8
0
  0
BLOCK
  8
0
  2
*D2
 70
     1
 10
0.0
 20
0.0
 30
0.0
  3
*D2
  1

  0
LINE
  5
7F3D
  8
3
  6
CONTINUOUS
 62
     0
 10
1824.531496790961
 20
4142.281078310134
 30
0.0
 11
1420.1218717909619
 21
4142.281078310134
 31
0.0
  0
LINE
  5
7F3E
  8
3
  6
CONTINUOUS
 62
     0
 10
1904.436267790961
 20
3383.2810783101349
 30
0.0
 11
1420.1218717909619
 21
3383.2810783101349
 31
0.0
  0
LINE
  5
7F3F
  8
3
  6
CONTINUOUS
 62
     0
 10
1450.1218717909619
 20
4082.281078310134
 30
0.0
 11
1450.1218717909619
 21
3443.2810783101349
 31
0.0
  0
INSERT
  5
7F40
  8
3
  6
CONTINUOUS
 62
     0
  2
_OPEN
 10
1450.1218717909619
 20
4142.281078310134
 30
0.0
 41
60.0
 42
60.0
 43
60.0
 50
90.0
  0
INSERT
  5
7F41
  8
3
  6
CONTINUOUS
 62
     0
  2
_OPEN
 10
1450.1218717909619
 20
3383.2810783101349
 30
0.0
 41
60.0
 42
60.0
 43
60.0
 50
270.0
  0
TEXT
  8
3
  40
90
  5
7FD3
  62
0
  72
0
  71
0
 10
1195.12
 20
3612.88
 30
0.000000
  1
759
  0
POINT
  5
7F43
  8
DEFPOINTS
  6
CONTINUOUS
 62
     0
 10
1839.531496790961
 20
4142.281078310134
 30
0.0
  0
POINT
  5
7F44
  8
DEFPOINTS
  6
CONTINUOUS
 62
     0
 10
1919.436267790961
 20
3383.2810783101349
 30
0.0
  0
POINT
  5
7F45
  8
DEFPOINTS
  6
CONTINUOUS
 62
     0
 10
1450.1218717909619
 20
3383.2810783101349
 30
0.0
  0
ENDBLK
  5
7D41
  8
0
  0
BLOCK
  8
0
  2
*D3
 70
     1
 10
0.0
 20
0.0
 30
0.0
  3
*D3
  1

  0
LINE
  5
7F46
  8
3
  6
CONTINUOUS
 62
     0
 10
1904.436267790961
 20
3383.2810783101349
 30
0.0
 11
1420.121871790961
 21
3383.2810783101349
 31
0.0
  0
LINE
  5
7F47
  8
3
  6
CONTINUOUS
 62
     0
 10
1874.531496790961
 20
2838.2810783101349
 30
0.0
 11
1420.121871790961
 21
2838.2810783101349
 31
0.0
  0
LINE
  5
7F48
  8
3
  6
CONTINUOUS
 62
     0
 10
1450.121871790961
 20
3323.281078310134
 30
0.0
 11
1450.121871790961
 21
2898.2810783101359
 31
0.0
  0
INSERT
  5
7F49
  8
3
  6
CONTINUOUS
 62
     0
  2
_OPEN
 10
1450.121871790961
 20
3383.2810783101349
 30
0.0
 41
60.0
 42
60.0
 43
60.0
 50
90.0
  0
INSERT
  5
7F4A
  8
3
  6
CONTINUOUS
 62
     0
  2
_OPEN
 10
1450.121871790961
 20
2838.2810783101349
 30
0.0
 41
60.0
 42
60.0
 43
60.0
 50
270.0
  0
TEXT
  8
3
  40
90
  5
7FD4
  62
0
  72
0
  71
0
 10
1195.12
 20
2951.48
 30
0.000000
  1
545
  0
POINT
  5
7F4C
  8
DEFPOINTS
  6
CONTINUOUS
 62
     0
 10
1919.436267790961
 20
3383.2810783101349
 30
0.0
  0
POINT
  5
7F4D
  8
DEFPOINTS
  6
CONTINUOUS
 62
     0
 10
1889.531496790961
 20
2838.2810783101349
 30
0.0
  0
POINT
  5
7F4E
  8
DEFPOINTS
  6
CONTINUOUS
 62
     0
 10
1450.121871790961
 20
2838.2810783101349
 30
0.0
  0
ENDBLK
  5
7D36
  8
0
  0
BLOCK
  8
0
  2
*D4
 70
     1
 10
0.0
 20
0.0
 30
0.0
  3
*D4
  1

  0
LINE
  5
7F4F
  8
3
  6
CONTINUOUS
 62
     0
 10
1839.531496790961
 20
4197.2810783101349
 30
0.0
 11
1839.531496790961
 21
4304.0162753101349
 31
0.0
  0
LINE
  5
7F50
  8
3
  6
CONTINUOUS
 62
     0
 10
2339.5314967909599
 20
4114.1656843101364
 30
0.0
 11
2339.5314967909599
 21
4304.0162753101349
 31
0.0
  0
LINE
  5
7F51
  8
3
  6
CONTINUOUS
 62
     0
 10
1899.531496790961
 20
4274.0162753101349
 30
0.0
 11
2279.5314967909599
 21
4274.0162753101349
 31
0.0
  0
INSERT
  5
7F52
  8
3
  6
CONTINUOUS
 62
     0
  2
_OPEN
 10
1839.531496790961
 20
4274.0162753101349
 30
0.0
 41
60.0
 42
60.0
 43
60.0
 50
180.0
  0
INSERT
  5
7F53
  8
3
  6
CONTINUOUS
 62
     0
  2
_OPEN
 10
2339.5314967909599
 20
4274.0162753101349
 30
0.0
 41
60.0
 42
60.0
 43
60.0
  0
TEXT
  8
3
  40
90
  5
7FD5
  62
0
  72
0
  71
0
 10
1899.53
 20
4189.72
 30
0.000000
  1
500
  0
POINT
  5
7F55
  8
DEFPOINTS
  6
CONTINUOUS
 62
     0
 10
1839.531496790961
 20
4182.2810783101349
 30
0.0
  0
POINT
  5
7F56
  8
DEFPOINTS
  6
CONTINUOUS
 62
     0
 10
2339.5314967909599
 20
4099.1656843101346
 30
0.0
  0
POINT
  5
7F57
  8
DEFPOINTS
  6
CONTINUOUS
 62
     0
 10
2339.5314967909599
 20
4274.0162753101349
 30
0.0
  0
ENDBLK
  5
7D1E
  8
0
  0
BLOCK
  8
0
  2
*D5
 70
     1
 10
0.0
 20
0.0
 30
0.0
  3
*D5
  1

  0
LINE
  5
7F58
  8
3
  6
CONTINUOUS
 62
     0
 10
2339.5314967909599
 20
4114.1656843101364
 30
0.0
 11
2339.5314967909599
 21
4304.0162753101349
 31
0.0
  0
LINE
  5
7F59
  8
3
  6
CONTINUOUS
 62
     0
 10
2951.5314967909608
 20
3398.2810783101349
 30
0.0
 11
2951.5314967909608
 21
4304.0162753101349
 31
0.0
  0
LINE
  5
7F5A
  8
3
  6
CONTINUOUS
 62
     0
 10
2399.5314967909599
 20
4274.0162753101349
 30
0.0
 11
2891.5314967909599
 21
4274.0162753101349
 31
0.0
  0
INSERT
  5
7F5B
  8
3
  6
CONTINUOUS
 62
     0
  2
_OPEN
 10
2339.5314967909599
 20
4274.0162753101349
 30
0.0
 41
60.0
 42
60.0
 43
60.0
 50
180.0
  0
INSERT
  5
7F5C
  8
3
  6
CONTINUOUS
 62
     0
  2
_OPEN
 10
2951.5314967909608
 20
4274.0162753101349
 30
0.0
 41
60.0
 42
60.0
 43
60.0
  0
TEXT
  8
3
  40
90
  5
7FD6
  62
0
  72
0
  71
0
 10
2465.53
 20
4189.72
 30
0.000000
  1
612
  0
POINT
  5
7F5E
  8
DEFPOINTS
  6
CONTINUOUS
 62
     0
 10
2339.5314967909599
 20
4099.1656843101346
 30
0.0
  0
POINT
  5
7F5F
  8
DEFPOINTS
  6
CONTINUOUS
 62
     0
 10
2951.5314967909608
 20
3383.2810783101349
 30
0.0
  0
POINT
  5
7F60
  8
DEFPOINTS
  6
CONTINUOUS
 62
     0
 10
2951.5314967909608
 20
4274.0162753101349
 30
0.0
  0
ENDBLK
  5
7DD7
  8
0
  0
BLOCK
  8
0
  2
*D6
 70
     1
 10
0.0
 20
0.0
 30
0.0
  3
*D6
  1

  0
LINE
  5
7F61
  8
3
  6
CONTINUOUS
 62
     0
 10
1889.531496790961
 20
5646.1990833101354
 30
0.0
 11
1889.531496790961
 21
5204.8338833101352
 31
0.0
  0
LINE
  5
7F62
  8
3
  6
CONTINUOUS
 62
     0
 10
3439.5314967909599
 20
5646.1990833101354
 30
0.0
 11
3439.5314967909599
 21
5204.8338833101352
 31
0.0
  0
LINE
  5
7F63
  8
3
  6
CONTINUOUS
 62
     0
 10
1949.531496790961
 20
5234.8338833101352
 30
0.0
 11
3379.5314967909608
 21
5234.8338833101352
 31
0.0
  0
INSERT
  5
7F64
  8
3
  6
CONTINUOUS
 62
     0
  2
_OPEN
 10
1889.531496790961
 20
5234.8338833101352
 30
0.0
 41
60.0
 42
60.0
 43
60.0
 50
180.0
  0
INSERT
  5
7F65
  8
3
  6
CONTINUOUS
 62
     0
  2
_OPEN
 10
3439.5314967909599
 20
5234.8338833101352
 30
0.0
 41
60.0
 42
60.0
 43
60.0
  0
TEXT
  8
3
  40
90
  5
7FD7
  62
0
  72
0
  71
0
 10
2530.43
 20
5150.53
 30
0.000000
  1
1550
  0
POINT
  5
7F67
  8
DEFPOINTS
  6
CONTINUOUS
 62
     0
 10
1889.531496790961
 20
5661.1990833101354
 30
0.0
  0
POINT
  5
7F68
  8
DEFPOINTS
  6
CONTINUOUS
 62
     0
 10
3439.5314967909599
 20
5661.1990833101354
 30
0.0
  0
POINT
  5
7F69
  8
DEFPOINTS
  6
CONTINUOUS
 62
     0
 10
3439.5314967909599
 20
5234.8338833101352
 30
0.0
  0
ENDBLK
  5
7D08
  8
0
  0
BLOCK
  8
0
  2
*D7
 70
     1
 10
0.0
 20
0.0
 30
0.0
  3
*D7
  1

  0
LINE
  5
7F6A
  8
3
  6
CONTINUOUS
 62
     0
 10
3454.5314967909608
 20
6411.1990833101363
 30
0.0
 11
3723.4081707909609
 21
6411.1990833101363
 31
0.0
  0
LINE
  5
7F6B
  8
3
  6
CONTINUOUS
 62
     0
 10
3454.5314967909608
 20
5661.1990833101354
 30
0.0
 11
3723.4081707909609
 21
5661.1990833101354
 31
0.0
  0
LINE
  5
7F6C
  8
3
  6
CONTINUOUS
 62
     0
 10
3693.4081707909618
 20
6351.1990833101354
 30
0.0
 11
3693.4081707909618
 21
5721.1990833101363
 31
0.0
  0
INSERT
  5
7F6D
  8
3
  6
CONTINUOUS
 62
     0
  2
_OPEN
 10
3693.4081707909618
 20
6411.1990833101363
 30
0.0
 41
60.0
 42
60.0
 43
60.0
 50
90.0
  0
INSERT
  5
7F6E
  8
3
  6
CONTINUOUS
 62
     0
  2
_OPEN
 10
3693.4081707909618
 20
5661.1990833101354
 30
0.0
 41
60.0
 42
60.0
 43
60.0
 50
270.0
  0
TEXT
  8
3
  40
90
  5
7FD8
  62
0
  72
0
  71
0
 10
3438.41
 20
5855.66
 30
0.000000
  1
750
  0
POINT
  5
7F70
  8
DEFPOINTS
  6
CONTINUOUS
 62
     0
 10
3439.5314967909599
 20
6411.1990833101363
 30
0.0
  0
POINT
  5
7F71
  8
DEFPOINTS
  6
CONTINUOUS
 62
     0
 10
3439.5314967909599
 20
5661.1990833101354
 30
0.0
  0
POINT
  5
7F72
  8
DEFPOINTS
  6
CONTINUOUS
 62
     0
 10
3693.4081707909618
 20
5661.1990833101354
 30
0.0
  0
ENDBLK
  5
7CFD
  8
0
  0
BLOCK
  8
0
  2
*D8
 70
     1
 10
0.0
 20
0.0
 30
0.0
  3
*D8
  1

  0
LINE
  5
7F73
  8
3
  6
CONTINUOUS
 62
     0
 10
5035.338986699765
 20
3738.2810783101349
 30
0.0
 11
5299.441892699766
 21
3738.2810783101349
 31
0.0
  0
LINE
  5
7F74
  8
3
  6
CONTINUOUS
 62
     0
 10
5035.338986699765
 20
3028.2810783101349
 30
0.0
 11
5299.441892699766
 21
3028.2810783101349
 31
0.0
  0
LINE
  5
7F75
  8
3
  6
CONTINUOUS
 62
     0
 10
5269.4418926997669
 20
3678.281078310134
 30
0.0
 11
5269.4418926997669
 21
3088.281078310134
 31
0.0
  0
INSERT
  5
7F76
  8
3
  6
CONTINUOUS
 62
     0
  2
_OPEN
 10
5269.4418926997669
 20
3738.2810783101349
 30
0.0
 41
60.0
 42
60.0
 43
60.0
 50
90.0
  0
INSERT
  5
7F77
  8
3
  6
CONTINUOUS
 62
     0
  2
_OPEN
 10
5269.4418926997669
 20
3028.2810783101349
 30
0.0
 41
60.0
 42
60.0
 43
60.0
 50
270.0
  0
TEXT
  8
3
  40
90
  5
7FD9
  62
0
  72
0
  71
0
 10
5014.44
 20
3226.00
 30
0.000000
  1
φ710
  0
POINT
  5
7F79
  8
DEFPOINTS
  6
CONTINUOUS
 62
     0
 10
5020.3389866997659
 20
3738.2810783101349
 30
0.0
  0
POINT
  5
7F7A
  8
DEFPOINTS
  6
CONTINUOUS
 62
     0
 10
5020.3389866997659
 20
3028.2810783101349
 30
0.0
  0
POINT
  5
7F7B
  8
DEFPOINTS
  6
CONTINUOUS
 62
     0
 10
5269.4418926997669
 20
3028.2810783101349
 30
0.0
  0
ENDBLK
  5
7D99
  8
0
  0
BLOCK
  8
0
  2
*D9
 70
     1
 10
0.0
 20
0.0
 30
0.0
  3
*D9
  1

  0
LINE
  5
7F7C
  8
3
  6
CONTINUOUS
 62
     0
 10
4407.338986699765
 20
4157.2810783101349
 30
0.0
 11
4407.338986699765
 21
4347.7494613101362
 31
0.0
  0
LINE
  5
7F7D
  8
3
  6
CONTINUOUS
 62
     0
 10
4937.338986699765
 20
4157.2810783101349
 30
0.0
 11
4937.338986699765
 21
4347.7494613101362
 31
0.0
  0
LINE
  5
7F7E
  8
3
  6
CONTINUOUS
 62
     0
 10
4467.338986699765
 20
4317.7494613101353
 30
0.0
 11
4877.338986699765
 21
4317.7494613101353
 31
0.0
  0
INSERT
  5
7F7F
  8
3
  6
CONTINUOUS
 62
     0
  2
_OPEN
 10
4407.338986699765
 20
4317.7494613101353
 30
0.0
 41
60.0
 42
60.0
 43
60.0
 50
180.0
  0
INSERT
  5
7F80
  8
3
  6
CONTINUOUS
 62
     0
  2
_OPEN
 10
4937.338986699765
 20
4317.7494613101353
 30
0.0
 41
60.0
 42
60.0
 43
60.0
  0
TEXT
  8
3
  40
90
  5
7FDA
  62
0
  72
0
  71
0
 10
4467.34
 20
4233.45
 30
0.000000
  1
530
  0
POINT
  5
7F82
  8
DEFPOINTS
  6
CONTINUOUS
 62
     0
 10
4407.338986699765
 20
4142.281078310134
 30
0.0
  0
POINT
  5
7F83
  8
DEFPOINTS
  6
CONTINUOUS
 62
     0
 10
4937.338986699765
 20
4142.281078310134
 30
0.0
  0
POINT
  5
7F84
  8
DEFPOINTS
  6
CONTINUOUS
 62
     0
 10
4937.338986699765
 20
4317.7494613101353
 30
0.0
  0
ENDBLK
  5
7CCF
  8
0
  0
BLOCK
  8
0
  2
*D10
 70
     1
 10
0.0
 20
0.0
 30
0.0
  3
*D10
  1

  0
LINE
  5
7F85
  8
3
  6
CONTINUOUS
 62
     0
 10
4162.3389866997641
 20
3587.9810783101352
 30
0.0
 11
4162.3389866997641
 21
4564.9009364365602
 31
0.0
  0
LINE
  5
7F86
  8
3
  6
CONTINUOUS
 62
     0
 10
4672.338986699765
 20
4503.56794543656
 30
0.0
 11
4672.338986699765
 21
4564.9009364365602
 31
0.0
  0
LINE
  5
7F87
  8
3
  6
CONTINUOUS
 62
     0
 10
4222.338986699765
 20
4534.9009364365611
 30
0.0
 11
4612.3389866997641
 21
4534.9009364365611
 31
0.0
  0
INSERT
  5
7F88
  8
3
  6
CONTINUOUS
 62
     0
  2
_OPEN
 10
4162.3389866997641
 20
4534.9009364365611
 30
0.0
 41
60.0
 42
60.0
 43
60.0
 50
180.0
  0
INSERT
  5
7F89
  8
3
  6
CONTINUOUS
 62
     0
  2
_OPEN
 10
4672.338986699765
 20
4534.9009364365611
 30
0.0
 41
60.0
 42
60.0
 43
60.0
  0
TEXT
  8
3
  40
90
  5
7FDB
  62
0
  72
0
  71
0
 10
4200.91
 20
4525.60
 30
0.000000
  1
MAX
  0
TEXT
  8
3
  40
90
  5
7FDC
  62
0
  72
0
  71
0
 10
4200.91
 20
4408.60
 30
0.000000
  1
550
  0
POINT
  5
7F8B
  8
DEFPOINTS
  6
CONTINUOUS
 62
     0
 10
4162.3389866997641
 20
3572.9810783101352
 30
0.0
  0
POINT
  5
7F8C
  8
DEFPOINTS
  6
CONTINUOUS
 62
     0
 10
4672.338986699765
 20
4488.56794543656
 30
0.0
  0
POINT
  5
7F8D
  8
DEFPOINTS
  6
CONTINUOUS
 62
     0
 10
4672.338986699765
 20
4534.9009364365611
 30
0.0
  0
ENDBLK
  5
7DC7
  8
0
  0
BLOCK
  8
0
  2
*D11
 70
     1
 10
0.0
 20
0.0
 30
0.0
  3
*D11
  1

  0
LINE
  5
7DB3
  8
0
  6
BYBLOCK
 62
     0
 10
4672.338986699765
 20
4503.56794543656
 30
0.0
 11
4672.338986699765
 21
4564.9009364365602
 31
0.0
  0
LINE
  5
7DB4
  8
0
  6
BYBLOCK
 62
     0
 10
5020.3389866997659
 20
3793.2810783101349
 30
0.0
 11
5020.3389866997659
 21
4564.9009364365602
 31
0.0
  0
LINE
  5
7DB5
  8
0
  6
BYBLOCK
 62
     0
 10
4732.3389866997641
 20
4534.9009364365611
 30
0.0
 11
4960.338986699765
 21
4534.9009364365611
 31
0.0
  0
TEXT
  5
7DB6
  8
3
 62
     0
 10
4730.6247009854796
 20
4574.7668560241182
 30
0.0
 40
90.0
  1
348
  0
INSERT
  5
7DB7
  8
0
  6
BYBLOCK
 62
     0
  2
_OPEN
 10
4672.338986699765
 20
4534.9009364365611
 30
0.0
 41
60.0
 42
60.0
 43
60.0
 50
180.0
  0
INSERT
  5
7DB8
  8
0
  6
BYBLOCK
 62
     0
  2
_OPEN
 10
5020.3389866997659
 20
4534.9009364365611
 30
0.0
 41
60.0
 42
60.0
 43
60.0
  0
POINT
  5
7DB9
  8
DEFPOINTS
  6
BYBLOCK
 62
     0
 10
4672.338986699765
 20
4488.56794543656
 30
0.0
  0
POINT
  5
7DBA
  8
DEFPOINTS
  6
BYBLOCK
 62
     0
 10
5020.3389866997659
 20
3778.2810783101349
 30
0.0
  0
POINT
  5
7DBB
  8
DEFPOINTS
  6
BYBLOCK
 62
     0
 10
5020.3389866997659
 20
4534.9009364365611
 30
0.0
  0
ENDBLK
  5
7DBC
  8
0
  0
BLOCK
  8
0
  2
*D12
 70
     1
 10
0.0
 20
0.0
 30
0.0
  3
*D12
  1

  0
LINE
  5
7F8E
  8
3
 62
     0
 10
1839.531496790961
 20
4212.2810783101349
 30
0.0
 11
1839.531496790961
 21
4491.0048521909957
 31
0.0
  0
LINE
  5
7F8F
  8
3
 62
     0
 10
3439.5314967909599
 20
2953.2810783101349
 30
0.0
 11
3439.5314967909599
 21
4491.0048521909957
 31
0.0
  0
LINE
  5
7F90
  8
3
 62
     0
 10
1899.531496790961
 20
4461.0048521909948
 30
0.0
 11
3379.5314967909608
 21
4461.0048521909948
 31
0.0
  0
INSERT
  5
7F91
  8
3
 62
     0
  2
_OPEN
 10
1839.531496790961
 20
4461.0048521909948
 30
0.0
 41
60.0
 42
60.0
 43
60.0
 50
180.0
  0
INSERT
  5
7F92
  8
3
 62
     0
  2
_OPEN
 10
3439.5314967909599
 20
4461.0048521909948
 30
0.0
 41
60.0
 42
60.0
 43
60.0
  0
TEXT
  8
3
  40
90
  5
7FDD
  62
0
  72
0
  71
0
 10
2435.72
 20
4376.70
 30
0.000000
  1
1600
  0
POINT
  5
7F94
  8
DEFPOINTS
 62
     0
 10
1839.531496790961
 20
4197.2810783101349
 30
0.0
  0
POINT
  5
7F95
  8
DEFPOINTS
 62
     0
 10
3439.5314967909599
 20
2938.2810783101349
 30
0.0
  0
POINT
  5
7F96
  8
DEFPOINTS
 62
     0
 10
3439.5314967909599
 20
4461.0048521909948
 30
0.0
  0
ENDBLK
  5
7DA5
  8
0
  0
BLOCK
  8
0
  2
*D13
 70
     1
 10
0.0
 20
0.0
 30
0.0
  3
*D13
  1

  0
LINE
  5
7F97
  8
3
 62
     0
 10
1889.531496790961
 20
2628.2810783101359
 30
0.0
 11
1889.531496790961
 21
2416.9821409971769
 31
0.0
  0
LINE
  5
7F98
  8
3
 62
     0
 10
2339.5314967909599
 20
2628.2810783101359
 30
0.0
 11
2339.5314967909599
 21
2416.9821409971769
 31
0.0
  0
LINE
  5
7F99
  8
3
 62
     0
 10
1949.531496790961
 20
2446.9821409971769
 30
0.0
 11
2279.5314967909599
 21
2446.9821409971769
 31
0.0
  0
INSERT
  5
7F9A
  8
3
 62
     0
  2
_OPEN
 10
1889.531496790961
 20
2446.9821409971769
 30
0.0
 41
60.0
 42
60.0
 43
60.0
 50
180.0
  0
INSERT
  5
7F9B
  8
3
 62
     0
  2
_OPEN
 10
2339.5314967909599
 20
2446.9821409971769
 30
0.0
 41
60.0
 42
60.0
 43
60.0
  0
TEXT
  8
3
  40
90
  5
7FDE
  62
0
  72
0
  71
0
 10
1934.53
 20
2362.68
 30
0.000000
  1
450
  0
POINT
  5
7F9D
  8
DEFPOINTS
 62
     0
 10
1889.531496790961
 20
2643.2810783101359
 30
0.0
  0
POINT
  5
7F9E
  8
DEFPOINTS
 62
     0
 10
2339.5314967909599
 20
2643.2810783101359
 30
0.0
  0
POINT
  5
7F9F
  8
DEFPOINTS
 62
     0
 10
2339.5314967909599
 20
2446.9821409971769
 30
0.0
  0
ENDBLK
  5
7DEB
  8
0
  0
BLOCK
  8
0
  2
*D14
 70
     1
 10
0.0
 20
0.0
 30
0.0
  3
*D14
  1

  0
LINE
  5
7FA0
  8
3
 62
     0
 10
2339.5314967909599
 20
2628.2810783101359
 30
0.0
 11
2339.5314967909599
 21
2416.9821409971769
 31
0.0
  0
LINE
  5
7FA1
  8
3
 62
     0
 10
3439.5314967909599
 20
2628.2810783101359
 30
0.0
 11
3439.5314967909599
 21
2416.9821409971769
 31
0.0
  0
LINE
  5
7FA2
  8
3
 62
     0
 10
2399.5314967909599
 20
2446.9821409971769
 30
0.0
 11
3379.5314967909608
 21
2446.9821409971769
 31
0.0
  0
INSERT
  5
7FA3
  8
3
 62
     0
  2
_OPEN
 10
2339.5314967909599
 20
2446.9821409971769
 30
0.0
 41
60.0
 42
60.0
 43
60.0
 50
180.0
  0
INSERT
  5
7FA4
  8
3
 62
     0
  2
_OPEN
 10
3439.5314967909599
 20
2446.9821409971769
 30
0.0
 41
60.0
 42
60.0
 43
60.0
  0
TEXT
  8
3
  40
90
  5
7FDF
  62
0
  72
0
  71
0
 10
2709.53
 20
2362.68
 30
0.000000
  1
1100
  0
POINT
  5
7FA6
  8
DEFPOINTS
 62
     0
 10
2339.5314967909599
 20
2643.2810783101359
 30
0.0
  0
POINT
  5
7FA7
  8
DEFPOINTS
 62
     0
 10
3439.5314967909599
 20
2643.2810783101359
 30
0.0
  0
POINT
  5
7FA8
  8
DEFPOINTS
 62
     0
 10
3439.5314967909599
 20
2446.9821409971769
 30
0.0
  0
ENDBLK
  5
7DF8
  8
0
  0
BLOCK
  8
0
  2
*D15
 70
     1
 10
0.0
 20
0.0
 30
0.0
  3
*D15
  1

  0
LINE
  5
7FA9
  8
3
 62
     0
 10
4240.3389866997641
 20
2628.2810783101359
 30
0.0
 11
4240.3389866997641
 21
2416.9821409971769
 31
0.0
  0
LINE
  5
7FAA
  8
3
 62
     0
 10
4672.3389866997659
 20
2628.2810783101359
 30
0.0
 11
4672.3389866997659
 21
2416.9821409971769
 31
0.0
  0
LINE
  5
7FAB
  8
3
 62
     0
 10
4300.338986699765
 20
2446.9821409971769
 30
0.0
 11
4612.3389866997659
 21
2446.9821409971769
 31
0.0
  0
INSERT
  5
7FAC
  8
3
 62
     0
  2
_OPEN
 10
4240.3389866997641
 20
2446.9821409971769
 30
0.0
 41
60.0
 42
60.0
 43
60.0
 50
180.0
  0
INSERT
  5
7FAD
  8
3
 62
     0
  2
_OPEN
 10
4672.3389866997659
 20
2446.9821409971769
 30
0.0
 41
60.0
 42
60.0
 43
60.0
  0
TEXT
  8
3
  40
90
  5
7FE0
  62
0
  72
0
  71
0
 10
4276.34
 20
2362.68
 30
0.000000
  1
432
  0
POINT
  5
7FAF
  8
DEFPOINTS
 62
     0
 10
4240.3389866997641
 20
2643.2810783101359
 30
0.0
  0
POINT
  5
7FB0
  8
DEFPOINTS
 62
     0
 10
4672.3389866997659
 20
2643.2810783101359
 30
0.0
  0
POINT
  5
7FB1
  8
DEFPOINTS
 62
     0
 10
4672.3389866997659
 20
2446.9821409971769
 30
0.0
  0
ENDBLK
  5
7E05
  8
0
  0
BLOCK
  8
0
  2
*D16
 70
     1
 10
0.0
 20
0.0
 30
0.0
  3
*D16
  1

  0
LINE
  5
7FB2
  8
3
 62
     0
 10
4672.3389866997659
 20
2628.2810783101359
 30
0.0
 11
4672.3389866997659
 21
2416.9821409971769
 31
0.0
  0
LINE
  5
7FB3
  8
3
 62
     0
 10
4990.3389866997641
 20
2628.2810783101359
 30
0.0
 11
4990.3389866997641
 21
2416.9821409971769
 31
0.0
  0
LINE
  5
7FB4
  8
3
 62
     0
 10
4732.338986699765
 20
2446.9821409971769
 30
0.0
 11
4930.338986699765
 21
2446.9821409971769
 31
0.0
  0
INSERT
  5
7FB5
  8
3
 62
     0
  2
_OPEN
 10
4672.3389866997659
 20
2446.9821409971769
 30
0.0
 41
60.0
 42
60.0
 43
60.0
 50
180.0
  0
INSERT
  5
7FB6
  8
3
 62
     0
  2
_OPEN
 10
4990.3389866997641
 20
2446.9821409971769
 30
0.0
 41
60.0
 42
60.0
 43
60.0
  0
TEXT
  8
3
  40
90
  5
7FE1
  62
0
  72
0
  71
0
 10
4651.34
 20
2362.68
 30
0.000000
  1
318
  0
POINT
  5
7FB8
  8
DEFPOINTS
 62
     0
 10
4672.3389866997659
 20
2643.2810783101359
 30
0.0
  0
POINT
  5
7FB9
  8
DEFPOINTS
 62
     0
 10
4990.3389866997641
 20
2643.2810783101359
 30
0.0
  0
POINT
  5
7FBA
  8
DEFPOINTS
 62
     0
 10
4990.3389866997641
 20
2446.9821409971769
 30
0.0
  0
ENDBLK
  5
7E14
  8
0
  0
BLOCK
  8
0
  2
_DOT
 70
     0
 10
0.0
 20
0.0
 30
0.0
  3
_DOT
  1

  0
POLYLINE
  5
7E18
  8
0
  6
BYBLOCK
 62
     0
 66
     1
 10
0.0
 20
0.0
 30
0.0
 70
     1
 40
0.5
 41
0.5
  0
VERTEX
  5
7FBB
  8
0
  6
BYBLOCK
 62
     0
 10
-0.25
 20
0.0
 30
0.0
 42
1.0
  0
VERTEX
  5
7FBC
  8
0
  6
BYBLOCK
 62
     0
 10
0.25
 20
0.0
 30
0.0
 42
1.0
  0
SEQEND
  5
7FBD
  8
0
  6
BYBLOCK
 62
     0
  0
LINE
  5
7E1C
  8
0
  6
BYBLOCK
 62
     0
 10
-0.5
 20
0.0
 30
0.0
 11
-1.0
 21
0.0
 31
0.0
  0
ENDBLK
  5
7E1D
  8
0
  0
BLOCK
  8
0
  2
*D18
 70
     1
 10
0.0
 20
0.0
 30
0.0
  3
*D18
  1

  0
LINE
  5
7FBE
  8
3
 62
     0
 10
1874.531496790961
 20
2743.2810783101359
 30
0.0
 11
1419.576935725396
 21
2743.2810783101359
 31
0.0
  0
LINE
  5
7FBF
  8
3
 62
     0
 10
1874.531496790961
 20
2643.2810783101359
 30
0.0
 11
1419.576935725396
 21
2643.2810783101359
 31
0.0
  0
LINE
  5
7FC0
  8
3
 62
     0
 10
1449.5769357253951
 20
2803.2810783101349
 30
0.0
 11
1449.5769357253951
 21
2863.2810783101349
 31
0.0
  0
LINE
  5
7FC1
  8
3
 62
     0
 10
1449.5769357253951
 20
2583.2810783101359
 30
0.0
 11
1449.5769357253951
 21
2248.9953640244212
 31
0.0
  0
LINE
  5
7FC2
  8
3
 62
     0
 10
1449.5769357253951
 20
2743.2810783101359
 30
0.0
 11
1449.5769357253951
 21
2643.2810783101359
 31
0.0
  0
INSERT
  5
7FC3
  8
3
 62
     0
  2
_DOT
 10
1449.5769357253951
 20
2743.2810783101359
 30
0.0
 41
60.0
 42
60.0
 43
60.0
 50
270.0
  0
INSERT
  5
7FC4
  8
3
 62
     0
  2
_OPEN
 10
1449.5769357253951
 20
2643.2810783101359
 30
0.0
 41
60.0
 42
60.0
 43
60.0
 50
90.0
  0
TEXT
  8
3
  40
90
  5
7FE2
  62
0
  72
0
  71
0
 10
1194.58
 20
2226.84
 30
0.000000
  1
100
  0
POINT
  5
7FC6
  8
DEFPOINTS
 62
     0
 10
1889.531496790961
 20
2743.2810783101359
 30
0.0
  0
POINT
  5
7FC7
  8
DEFPOINTS
 62
     0
 10
1889.531496790961
 20
2643.2810783101359
 30
0.0
  0
POINT
  5
7FC8
  8
DEFPOINTS
 62
     0
 10
1449.5769357253951
 20
2643.2810783101359
 30
0.0
  0
ENDBLK
  5
7E2B
  8
0
  0
BLOCK
  8
0
  2
*D19
 70
     1
 10
0.0
 20
0.0
 30
0.0
  3
*D19
  1

  0
LINE
  5
7E2F
  8
0
  6
BYBLOCK
 62
     0
 10
1874.531496790961
 20
2743.2810783101359
 30
0.0
 11
1419.576935725396
 21
2743.2810783101359
 31
0.0
  0
LINE
  5
7E30
  8
0
  6
BYBLOCK
 62
     0
 10
1874.531496790961
 20
2838.2810783101349
 30
0.0
 11
1419.576935725396
 21
2838.2810783101349
 31
0.0
  0
LINE
  5
7E31
  8
0
  6
BYBLOCK
 62
     0
 10
1449.5769357253951
 20
2683.2810783101359
 30
0.0
 11
1449.5769357253951
 21
2623.2810783101359
 31
0.0
  0
LINE
  5
7E32
  8
0
  6
BYBLOCK
 62
     0
 10
1449.5769357253951
 20
2898.2810783101359
 30
0.0
 11
1449.5769357253951
 21
2958.2810783101359
 31
0.0
  0
TEXT
  5
7E33
  8
3
 62
     0
 10
1336.0055071539671
 20
2660.0667925958501
 30
0.0
 40
90.0
  1
(95)
 50
90.0
  0
LINE
  5
7E34
  8
0
  6
BYBLOCK
 62
     0
 10
1449.5769357253951
 20
2743.2810783101359
 30
0.0
 11
1449.5769357253951
 21
2838.2810783101349
 31
0.0
  0
INSERT
  5
7E35
  8
0
  6
BYBLOCK
 62
     0
  2
_DOT
 10
1449.5769357253951
 20
2743.2810783101359
 30
0.0
 41
60.0
 42
60.0
 43
60.0
 50
90.0
  0
INSERT
  5
7E36
  8
0
  6
BYBLOCK
 62
     0
  2
_OPEN
 10
1449.5769357253951
 20
2838.2810783101349
 30
0.0
 41
60.0
 42
60.0
 43
60.0
 50
270.0
  0
POINT
  5
7E37
  8
DEFPOINTS
  6
BYBLOCK
 62
     0
 10
1889.531496790961
 20
2743.2810783101359
 30
0.0
  0
POINT
  5
7E38
  8
DEFPOINTS
  6
BYBLOCK
 62
     0
 10
1889.531496790961
 20
2838.2810783101349
 30
0.0
  0
POINT
  5
7E39
  8
DEFPOINTS
  6
BYBLOCK
 62
     0
 10
1449.5769357253951
 20
2838.2810783101349
 30
0.0
  0
ENDBLK
  5
7E3A
  8
0
  0
BLOCK
  8
0
  2
*D20
 70
     1
 10
0.0
 20
0.0
 30
0.0
  3
*D20
  1

  0
LINE
  5
7FC9
  8
3
 62
     0
 10
1824.531496790961
 20
4182.2810783101349
 30
0.0
 11
1138.9357137786751
 21
4182.2810783101349
 31
0.0
  0
LINE
  5
7FCA
  8
3
 62
     0
 10
1874.531496790961
 20
2643.2810783101359
 30
0.0
 11
1138.9357137786751
 21
2643.2810783101359
 31
0.0
  0
LINE
  5
7FCB
  8
3
 62
     0
 10
1168.9357137786751
 20
4122.2810783101349
 30
0.0
 11
1168.9357137786751
 21
2703.2810783101349
 31
0.0
  0
INSERT
  5
7FCC
  8
3
 62
     0
  2
_OPEN
 10
1168.9357137786751
 20
4182.2810783101349
 30
0.0
 41
60.0
 42
60.0
 43
60.0
 50
90.0
  0
INSERT
  5
7FCD
  8
3
 62
     0
  2
_OPEN
 10
1168.9357137786751
 20
2643.2810783101359
 30
0.0
 41
60.0
 42
60.0
 43
60.0
 50
270.0
  0
TEXT
  8
3
  40
90
  5
7FE3
  62
0
  72
0
  71
0
 10
890.364
 20
3253.48
 30
0.000000
  1
(1539)
  0
POINT
  5
7FCF
  8
DEFPOINTS
 62
     0
 10
1839.531496790961
 20
4182.2810783101349
 30
0.0
  0
POINT
  5
7FD0
  8
DEFPOINTS
 62
     0
 10
1889.531496790961
 20
2643.2810783101359
 30
0.0
  0
POINT
  5
7FD1
  8
DEFPOINTS
 62
     0
 10
1168.9357137786751
 20
2643.2810783101359
 30
0.0
  0
ENDBLK
  5
7E47
  8
0
  0
ENDSEC
  0
SECTION
  2
ENTITIES
  0
LINE
  5
7A73
  8
1
  6
CONTINUOUS
 10
3439.5314967909599
 20
2643.2810783101359
 30
0.0
 11
1889.531496790961
 21
2643.2810783101359
 31
0.0
  0
LINE
  5
7A74
  8
1
  6
CONTINUOUS
 10
3439.5314967909599
 20
2743.2810783101359
 30
0.0
 11
1889.531496790961
 21
2743.2810783101359
 31
0.0
  0
LINE
  5
7A75
  8
1
  6
CONTINUOUS
 10
3274.825403790961
 20
3283.4492333101348
 30
0.0
 11
2374.825403790961
 21
3518.4492333101348
 31
0.0
  0
LINE
  5
7A76
  8
1
  6
CONTINUOUS
 10
3204.2375897909601
 20
3013.1129233101351
 30
0.0
 11
2304.2375897909601
 21
3248.1129233101342
 31
0.0
  0
LINE
  5
7A77
  8
1
  6
CONTINUOUS
 10
3191.6055537909619
 20
2964.734915310135
 30
0.0
 11
2291.605553790961
 21
3199.734915310135
 31
0.0
  0
LINE
  5
7A78
  8
1
  6
CONTINUOUS
 10
3287.457439790961
 20
3331.8272413101358
 30
0.0
 11
2387.4574397909601
 21
3566.8272413101349
 31
0.0
  0
LINE
  5
7A79
  8
1
  6
CONTINUOUS
 10
3439.5314967909599
 20
2938.2810783101349
 30
0.0
 11
1889.531496790961
 21
2938.2810783101349
 31
0.0
  0
LINE
  5
7A7A
  8
1
  6
CONTINUOUS
 10
3439.5314967909599
 20
2838.2810783101349
 30
0.0
 11
1889.531496790961
 21
2838.2810783101349
 31
0.0
  0
ARC
  5
7A7B
  8
1
  6
CONTINUOUS
 10
2392.5314967909599
 20
3436.2810783101349
 30
0.0
 40
559.0
 50
297.01639699999998
 51
354.55949099999998
  0
ARC
  5
7A7C
  8
1
  6
CONTINUOUS
 10
2286.5314967909599
 20
3436.2810783101349
 30
0.0
 40
665.0
 50
355.428721
 51
85.428720999999996
  0
CIRCLE
  5
7A7D
  8
1
  6
CONTINUOUS
 10
2339.5314967909599
 20
3383.2810783101349
 30
0.0
 40
395.0
  0
CIRCLE
  5
7A7E
  8
1
  6
CONTINUOUS
 10
2339.5314967909599
 20
3383.2810783101349
 30
0.0
 40
355.0
  0
ARC
  5
7A7F
  8
1
  6
CONTINUOUS
 10
2381.5314967909599
 20
3341.2810783101349
 30
0.0
 40
464.0
 50
174.80663599999991
 51
240.288781
  0
LINE
  5
7A80
  8
1
  6
CONTINUOUS
 10
1889.531496790961
 20
2743.2810783101359
 30
0.0
 11
1889.531496790961
 21
2643.2810783101359
 31
0.0
  0
LINE
  5
7A81
  8
1
  6
CONTINUOUS
 10
1889.531496790961
 20
2938.2810783101349
 30
0.0
 11
1889.531496790961
 21
2838.2810783101349
 31
0.0
  0
LINE
  5
7A82
  8
1
  6
CONTINUOUS
 10
1879.5314967909619
 20
4138.831846310135
 30
0.0
 11
1879.5314967909619
 21
3412.2810783101349
 31
0.0
  0
LINE
  5
7A83
  8
1
  6
CONTINUOUS
 10
1839.531496790961
 20
4182.2810783101349
 30
0.0
 11
1839.531496790961
 21
3372.2810783101349
 31
0.0
  0
LINE
  5
7A84
  8
2
  6
CENTER
 10
5055.4139966997654
 20
3383.2810783101349
 30
0.0
 11
4034.9242366997642
 21
3383.2810783101349
 31
0.0
  0
ARC
  5
7A85
  8
1
  6
CONTINUOUS
 10
2339.5314967909599
 20
3383.2810783101349
 30
0.0
 40
189.69999999999999
 50
75.366168999999999
 51
255.3661689999999
  0
CIRCLE
  5
7A86
  8
1
  6
CONTINUOUS
 10
2339.5314967909599
 20
3383.2810783101349
 30
0.0
 40
139.69999999999999
  0
LINE
  5
7A87
  8
1
  6
CONTINUOUS
 10
1924.2233127909601
 20
3412.2810783101349
 30
0.0
 11
1839.531496790961
 21
3412.2810783101349
 31
0.0
  0
ARC
  5
7A88
  8
1
  6
CONTINUOUS
 10
2297.5314967909608
 20
3341.2810783101349
 30
0.0
 40
380.0
 50
169.23144999999991
 51
173.6543439999999
  0
LINE
  5
7A89
  8
2
  6
CENTER
 10
2339.5314967909599
 20
2643.2810783101359
 30
0.0
 11
2339.5314967909599
 21
4151.2241893101354
 31
0.0
  0
LINE
  5
7A8A
  8
1
  6
CONTINUOUS
 10
2339.5314967909599
 20
4099.1656833101351
 30
0.0
 11
1839.531496790961
 21
4142.281078310134
 31
0.0
  0
LINE
  5
7A8B
  8
2
  6
CENTER
 10
3239.5314967909599
 20
3003.5810783101351
 30
0.0
 11
3239.5314967909599
 21
3292.9810783101361
 31
0.0
  0
ARC
  5
7A8C
  8
1
  6
CONTINUOUS
 10
3239.5314967909599
 20
3148.2810783101349
 30
0.0
 40
189.69999999999999
 50
255.3661689999999
 51
75.366168999999999
  0
CIRCLE
  5
7A8D
  8
1
  6
CONTINUOUS
 10
3239.5314967909599
 20
3148.2810783101349
 30
0.0
 40
139.69999999999999
  0
ARC
  5
7A8E
  8
1
  6
CONTINUOUS
 10
3239.5314967909599
 20
3148.2810783101349
 30
0.0
 40
162.0
 50
324.972283
 51
215.02771699999991
  0
LINE
  5
7A8F
  8
1
  6
CONTINUOUS
 10
3439.5314967909599
 20
2743.2810783101359
 30
0.0
 11
3439.5314967909599
 21
2643.2810783101359
 31
0.0
  0
LINE
  5
7A90
  8
1
  6
CONTINUOUS
 10
3042.0314967909599
 20
2988.2810783101349
 30
0.0
 11
3437.0314967909599
 21
2988.2810783101349
 31
0.0
  0
LINE
  5
7A91
  8
1
  6
CONTINUOUS
 10
3042.0314967909599
 20
2938.2810783101349
 30
0.0
 11
3042.0314967909599
 21
2988.2810783101349
 31
0.0
  0
LINE
  5
7A92
  8
1
  6
CONTINUOUS
 10
3437.0314967909599
 20
2938.2810783101349
 30
0.0
 11
3437.0314967909599
 21
2988.2810783101349
 31
0.0
  0
LINE
  5
7A93
  8
1
  6
CONTINUOUS
 10
3393.5314967909599
 20
3006.2810783101349
 30
0.0
 11
3372.1891627909599
 21
3055.2975113101352
 31
0.0
  0
LINE
  5
7A94
  8
1
  6
CONTINUOUS
 10
3393.5314967909599
 20
2988.2810783101349
 30
0.0
 11
3393.5314967909599
 21
3006.2810783101349
 31
0.0
  0
LINE
  5
7A95
  8
1
  6
CONTINUOUS
 10
3085.5314967909608
 20
2988.2810783101349
 30
0.0
 11
3085.5314967909608
 21
3006.2810783101349
 31
0.0
  0
LINE
  5
7A96
  8
1
  6
CONTINUOUS
 10
3085.5314967909608
 20
3006.2810783101349
 30
0.0
 11
3106.8738307909612
 21
3055.2975113101352
 31
0.0
  0
LINE
  5
7A97
  8
1
  6
CONTINUOUS
 10
3439.5314967909599
 20
2938.2810783101349
 30
0.0
 11
3439.5314967909599
 21
2838.2810783101349
 31
0.0
  0
LINE
  5
7A98
  8
2
  6
CENTER
 10
3384.231496790961
 20
3148.2810783101349
 30
0.0
 11
3094.831496790961
 21
3148.2810783101349
 31
0.0
  0
LINE
  5
7A99
  8
1
  6
CONTINUOUS
 10
3429.2314967909601
 20
5693.1990833101354
 30
0.0
 11
2149.831496790961
 21
5693.1990833101354
 31
0.0
  0
LINE
  5
7A9A
  8
1
  6
CONTINUOUS
 10
3429.2314967909601
 20
5583.1990833101363
 30
0.0
 11
2149.831496790961
 21
5583.1990833101363
 31
0.0
  0
LINE
  5
7A9B
  8
1
  6
CONTINUOUS
 10
3099.831496790961
 20
5661.1990833101354
 30
0.0
 11
2479.2314967909601
 21
5661.1990833101354
 31
0.0
  0
LINE
  5
7A9C
  8
1
  6
CONTINUOUS
 10
2951.5314967909608
 20
5828.1990833101354
 30
0.0
 11
1839.531496790961
 21
5828.1990833101354
 31
0.0
  0
LINE
  5
7A9D
  8
1
  6
CONTINUOUS
 10
2951.5314967909608
 20
6358.1990833101363
 30
0.0
 11
1839.531496790961
 21
6358.1990833101363
 31
0.0
  0
LINE
  5
7A9E
  8
1
  6
CONTINUOUS
 10
3439.5314967909599
 20
6411.1990833101363
 30
0.0
 11
2694.5314967909608
 21
6411.1990833101363
 31
0.0
  0
LINE
  5
7A9F
  8
1
  6
CONTINUOUS
 10
1879.5314967909619
 20
5828.1990833101354
 30
0.0
 11
1879.5314967909619
 21
6358.1990833101363
 31
0.0
  0
LINE
  5
7AA0
  8
1
  6
CONTINUOUS
 10
1839.531496790961
 20
5788.1990833101363
 30
0.0
 11
1839.531496790961
 21
6398.1990833101354
 31
0.0
  0
LINE
  5
7AA1
  8
1
  6
CONTINUOUS
 10
2479.2314967909601
 20
5676.1990833101363
 30
0.0
 11
2199.831496790961
 21
5676.1990833101363
 31
0.0
  0
LINE
  5
7AA2
  8
1
  6
CONTINUOUS
 10
2479.2314967909601
 20
5591.1990833101363
 30
0.0
 11
2199.831496790961
 21
5591.1990833101363
 31
0.0
  0
LINE
  5
7AA3
  8
1
  6
CONTINUOUS
 10
2149.831496790961
 20
5583.1990833101363
 30
0.0
 11
2149.831496790961
 21
5693.1990833101354
 31
0.0
  0
LINE
  5
7AA4
  8
1
  6
CONTINUOUS
 10
2199.831496790961
 20
5591.1990833101363
 30
0.0
 11
2199.831496790961
 21
5676.1990833101363
 31
0.0
  0
LINE
  5
7AA5
  8
1
  6
CONTINUOUS
 10
2199.831496790961
 20
5661.1990833101354
 30
0.0
 11
1889.531496790961
 21
5661.1990833101354
 31
0.0
  0
LINE
  5
7AA6
  8
1
  6
CONTINUOUS
 10
1889.531496790961
 20
5661.1990833101354
 30
0.0
 11
1889.531496790961
 21
5828.1990833101354
 31
0.0
  0
LINE
  5
7AA7
  8
1
  6
CONTINUOUS
 10
2479.2314967909601
 20
5591.1990833101363
 30
0.0
 11
2479.2314967909601
 21
5676.1990833101363
 31
0.0
  0
LINE
  5
7AA8
  8
1
  6
CONTINUOUS
 10
2317.0314967909599
 20
5676.1990833101363
 30
0.0
 11
2317.0314967909599
 21
5828.1990833101354
 31
0.0
  0
LINE
  5
7AA9
  8
1
  6
CONTINUOUS
 10
2362.0314967909599
 20
5676.1990833101363
 30
0.0
 11
2362.0314967909599
 21
5828.1990833101354
 31
0.0
  0
LINE
  5
7AAA
  8
1
  6
CONTINUOUS
 10
2734.5314967909599
 20
6441.1990833101354
 30
0.0
 11
1944.531496790961
 21
6441.1990833101354
 31
0.0
  0
LINE
  5
7AAB
  8
1
  6
CONTINUOUS
 10
1984.531496790961
 20
6411.1990833101363
 30
0.0
 11
1889.531496790961
 21
6411.1990833101363
 31
0.0
  0
LINE
  5
7AAC
  8
1
  6
CONTINUOUS
 10
1984.531496790961
 20
6358.1990833101363
 30
0.0
 11
1984.531496790961
 21
6441.1990833101354
 31
0.0
  0
LINE
  5
7AAD
  8
1
  6
CONTINUOUS
 10
1889.531496790961
 20
6358.1990833101363
 30
0.0
 11
1889.531496790961
 21
6411.1990833101363
 31
0.0
  0
LINE
  5
7AAE
  8
1
  6
CONTINUOUS
 10
2694.5314967909608
 20
6358.1990833101363
 30
0.0
 11
2694.5314967909608
 21
6441.1990833101354
 31
0.0
  0
LINE
  5
7AAF
  8
1
  6
CONTINUOUS
 10
3401.5314967909608
 20
5716.1990833101363
 30
0.0
 11
3401.5314967909608
 21
6253.1990833101363
 31
0.0
  0
LINE
  5
7AB0
  8
1
  6
CONTINUOUS
 10
3077.5314967909599
 20
5716.1990833101363
 30
0.0
 11
3077.5314967909599
 21
6253.1990833101363
 31
0.0
  0
LINE
  5
7AB1
  8
1
  6
CONTINUOUS
 10
2951.5314967909608
 20
5828.1990833101354
 30
0.0
 11
2951.5314967909608
 21
6358.1990833101363
 31
0.0
  0
LINE
  5
7AB2
  8
1
  6
CONTINUOUS
 10
3439.5314967909599
 20
5661.1990833101354
 30
0.0
 11
3439.5314967909599
 21
6411.1990833101363
 31
0.0
  0
LINE
  5
7AB3
  8
1
  6
CONTINUOUS
 10
3429.2314967909601
 20
5583.1990833101363
 30
0.0
 11
3429.2314967909601
 21
5693.1990833101354
 31
0.0
  0
LINE
  5
7AB4
  8
1
  6
CONTINUOUS
 10
3379.2314967909601
 20
5591.1990833101363
 30
0.0
 11
3379.2314967909601
 21
5676.1990833101363
 31
0.0
  0
LINE
  5
7AB5
  8
1
  6
CONTINUOUS
 10
3099.831496790961
 20
5591.1990833101363
 30
0.0
 11
3099.831496790961
 21
5676.1990833101363
 31
0.0
  0
LINE
  5
7AB6
  8
1
  6
CONTINUOUS
 10
3379.2314967909601
 20
5591.1990833101363
 30
0.0
 11
3099.831496790961
 21
5591.1990833101363
 31
0.0
  0
LINE
  5
7AB7
  8
1
  6
CONTINUOUS
 10
3379.2314967909601
 20
5676.1990833101363
 30
0.0
 11
3099.831496790961
 21
5676.1990833101363
 31
0.0
  0
LINE
  5
7AB8
  8
1
  6
CONTINUOUS
 10
3401.5314967909608
 20
5716.1990833101363
 30
0.0
 11
3077.5314967909599
 21
5716.1990833101363
 31
0.0
  0
LINE
  5
7AB9
  8
1
  6
CONTINUOUS
 10
3260.5314967909599
 20
5676.1990833101363
 30
0.0
 11
3260.5314967909599
 21
5716.1990833101363
 31
0.0
  0
LINE
  5
7ABA
  8
1
  6
CONTINUOUS
 10
3218.5314967909599
 20
5676.1990833101363
 30
0.0
 11
3218.5314967909599
 21
5716.1990833101363
 31
0.0
  0
LINE
  5
7ABB
  8
1
  6
CONTINUOUS
 10
3439.5314967909599
 20
5661.1990833101354
 30
0.0
 11
3379.2314967909601
 21
5661.1990833101354
 31
0.0
  0
LINE
  5
7ABC
  8
1
  6
CONTINUOUS
 10
3401.5314967909608
 20
6253.1990833101363
 30
0.0
 11
3077.5314967909599
 21
6253.1990833101363
 31
0.0
  0
LINE
  5
7ABD
  8
1
  6
CONTINUOUS
 10
4937.338986699765
 20
4142.281078310134
 30
0.0
 11
4937.338986699765
 21
2938.2810783101349
 31
0.0
  0
LINE
  5
7ABE
  8
1
  6
CONTINUOUS
 10
4407.338986699765
 20
4142.281078310134
 30
0.0
 11
4407.338986699765
 21
2938.2810783101349
 31
0.0
  0
LINE
  5
7ABF
  8
1
  6
CONTINUOUS
 10
5020.3389866997659
 20
3778.2810783101349
 30
0.0
 11
5020.3389866997659
 21
2988.2810783101349
 31
0.0
  0
LINE
  5
7AC0
  8
1
  6
CONTINUOUS
 10
4255.3389866997641
 20
3522.9810783101352
 30
0.0
 11
4255.3389866997641
 21
3008.5810783101351
 31
0.0
  0
LINE
  5
7AC1
  8
1
  6
CONTINUOUS
 10
4170.338986699765
 20
3522.9810783101352
 30
0.0
 11
4170.338986699765
 21
3008.5810783101351
 31
0.0
  0
LINE
  5
7AC2
  8
1
  6
CONTINUOUS
 10
4295.338986699765
 20
3310.2810783101349
 30
0.0
 11
4295.338986699765
 21
2938.2810783101349
 31
0.0
  0
LINE
  5
7AC3
  8
1
  6
CONTINUOUS
 10
4162.3389866997641
 20
2958.5810783101351
 30
0.0
 11
4162.3389866997641
 21
3572.9810783101352
 31
0.0
  0
LINE
  5
7AC4
  8
1
  6
CONTINUOUS
 10
4272.3389866997641
 20
2958.5810783101351
 30
0.0
 11
4272.3389866997641
 21
3572.9810783101352
 31
0.0
  0
LINE
  5
7AC5
  8
1
  6
CONTINUOUS
 10
4240.3389866997641
 20
2643.2810783101359
 30
0.0
 11
4990.3389866997641
 21
2643.2810783101359
 31
0.0
  0
LINE
  5
7AC6
  8
1
  6
CONTINUOUS
 10
4240.3389866997641
 20
2743.2810783101359
 30
0.0
 11
4990.3389866997641
 21
2743.2810783101359
 31
0.0
  0
LINE
  5
7AC7
  8
1
  6
CONTINUOUS
 10
4240.3389866997641
 20
2938.2810783101349
 30
0.0
 11
4990.3389866997641
 21
2938.2810783101349
 31
0.0
  0
LINE
  5
7AC8
  8
1
  6
CONTINUOUS
 10
4240.3389866997641
 20
2838.2810783101349
 30
0.0
 11
4990.3389866997641
 21
2838.2810783101349
 31
0.0
  0
LINE
  5
7AC9
  8
1
  6
CONTINUOUS
 10
4240.3389866997641
 20
2743.2810783101359
 30
0.0
 11
4240.3389866997641
 21
2643.2810783101359
 31
0.0
  0
LINE
  5
7ACA
  8
1
  6
CONTINUOUS
 10
4240.3389866997641
 20
2938.2810783101349
 30
0.0
 11
4240.3389866997641
 21
2838.2810783101349
 31
0.0
  0
LINE
  5
7ACB
  8
1
  6
CONTINUOUS
 10
4407.338986699765
 20
2988.2810783101349
 30
0.0
 11
4295.338986699765
 21
2988.2810783101349
 31
0.0
  0
LINE
  5
7ACC
  8
1
  6
CONTINUOUS
 10
4170.338986699765
 20
3008.5810783101351
 30
0.0
 11
4255.3389866997641
 21
3008.5810783101351
 31
0.0
  0
LINE
  5
7ACD
  8
1
  6
CONTINUOUS
 10
4162.3389866997641
 20
2958.5810783101351
 30
0.0
 11
4272.3389866997641
 21
2958.5810783101351
 31
0.0
  0
LINE
  5
7ACE
  8
1
  6
CONTINUOUS
 10
4990.3389866997641
 20
2743.2810783101359
 30
0.0
 11
4990.3389866997641
 21
2643.2810783101359
 31
0.0
  0
LINE
  5
7ACF
  8
1
  6
CONTINUOUS
 10
4990.3389866997641
 20
2938.2810783101349
 30
0.0
 11
4990.3389866997641
 21
2838.2810783101349
 31
0.0
  0
LINE
  5
7AD0
  8
1
  6
CONTINUOUS
 10
4937.338986699765
 20
3028.2810783101349
 30
0.0
 11
5020.3389866997659
 21
3028.2810783101349
 31
0.0
  0
LINE
  5
7AD1
  8
1
  6
CONTINUOUS
 10
4407.338986699765
 20
4142.281078310134
 30
0.0
 11
4937.338986699765
 21
3412.2810783101349
 31
0.0
  0
LINE
  5
7AD2
  8
1
  6
CONTINUOUS
 10
4937.338986699765
 20
4142.281078310134
 30
0.0
 11
4407.338986699765
 21
3412.2810783101349
 31
0.0
  0
LINE
  5
7AD3
  8
1
  6
CONTINUOUS
 10
4407.338986699765
 20
3412.2810783101349
 30
0.0
 11
4937.338986699765
 21
3412.2810783101349
 31
0.0
  0
LINE
  5
7AD4
  8
1
  6
CONTINUOUS
 10
4255.3389866997641
 20
3360.7810783101349
 30
0.0
 11
4407.338986699765
 21
3360.7810783101349
 31
0.0
  0
LINE
  5
7AD5
  8
1
  6
CONTINUOUS
 10
4255.3389866997641
 20
3405.7810783101349
 30
0.0
 11
4407.338986699765
 21
3405.7810783101349
 31
0.0
  0
LINE
  5
7AD6
  8
1
  6
CONTINUOUS
 10
4170.338986699765
 20
3522.9810783101352
 30
0.0
 11
4255.3389866997641
 21
3522.9810783101352
 31
0.0
  0
LINE
  5
7AD7
  8
1
  6
CONTINUOUS
 10
4170.338986699765
 20
3243.5810783101351
 30
0.0
 11
4255.3389866997641
 21
3243.5810783101351
 31
0.0
  0
LINE
  5
7AD8
  8
1
  6
CONTINUOUS
 10
4255.3389866997641
 20
3169.2810783101349
 30
0.0
 11
4295.338986699765
 21
3169.2810783101349
 31
0.0
  0
LINE
  5
7AD9
  8
1
  6
CONTINUOUS
 10
4255.3389866997641
 20
3127.2810783101349
 30
0.0
 11
4295.338986699765
 21
3127.2810783101349
 31
0.0
  0
LINE
  5
7ADA
  8
1
  6
CONTINUOUS
 10
4295.338986699765
 20
3310.2810783101349
 30
0.0
 11
4407.338986699765
 21
3310.2810783101349
 31
0.0
  0
LINE
  5
7ADB
  8
1
  6
CONTINUOUS
 10
4162.3389866997641
 20
3572.9810783101352
 30
0.0
 11
4272.3389866997641
 21
3572.9810783101352
 31
0.0
  0
LINE
  5
7ADC
  8
1
  6
CONTINUOUS
 10
4937.338986699765
 20
3738.2810783101349
 30
0.0
 11
5020.3389866997659
 21
3738.2810783101349
 31
0.0
  0
LINE
  5
7ADD
  8
1
  6
CONTINUOUS
 10
4407.338986699765
 20
4142.281078310134
 30
0.0
 11
4937.338986699765
 21
4142.281078310134
 31
0.0
  0
DIMENSION
  5
7B0C
  8
3
  6
CONTINUOUS
  2
*D1
 10
1647.1810257909599
 20
3412.2810783101349
 30
0.0
 11
1647.1810257909599
 21
3792.4474673101358
 31
0.0
 70
   128
 13
1839.531496790961
 23
4142.281078310134
 33
0.0
 14
1839.531496790961
 24
3412.2810783101349
 34
0.0
 50
90.0
1001
ACAD
1000
DSTYLE
1002
{
1070
   287
1070
     3
1070
   287
1070
     3
1070
    40
1040
30.0
1070
   143
1040
0.039
1070
   172
1070
     1
1070
   271
1070
     0
1070
   279
1070
     0
1070
   288
1070
     1
1002
}
  0
DIMENSION
  5
7B19
  8
3
  6
CONTINUOUS
  2
*D2
 10
1450.1218717909619
 20
3383.2810783101349
 30
0.0
 11
1450.121871790961
 21
3772.1767783101341
 31
0.0
 70
   128
 13
1839.531496790961
 23
4142.281078310134
 33
0.0
 14
1919.436267790961
 24
3383.2810783101349
 34
0.0
 50
90.0
1001
ACAD
1000
DSTYLE
1002
{
1070
   287
1070
     3
1070
   287
1070
     3
1070
    40
1040
30.0
1070
   143
1040
0.039
1070
   172
1070
     1
1070
   271
1070
     0
1070
   279
1070
     0
1070
   288
1070
     1
1002
}
  0
DIMENSION
  5
7B25
  8
3
  6
CONTINUOUS
  2
*D3
 10
1450.121871790961
 20
2838.2810783101349
 30
0.0
 11
1375.121871790961
 21
3110.7810783101359
 31
0.0
 70
     0
 13
1919.436267790961
 23
3383.2810783101349
 33
0.0
 14
1889.531496790961
 24
2838.2810783101349
 34
0.0
 50
90.0
1001
ACAD
1000
DSTYLE
1002
{
1070
   287
1070
     3
1070
   287
1070
     3
1070
    40
1040
30.0
1070
   143
1040
0.039
1070
   172
1070
     1
1070
   271
1070
     0
1070
   279
1070
     0
1070
   288
1070
     1
1002
}
  0
DIMENSION
  5
7B69
  8
3
  6
CONTINUOUS
  2
*D4
 10
2339.5314967909599
 20
4274.0162753101349
 30
0.0
 11
2079.5314967909608
 21
4274.0162753101349
 31
0.0
 70
   128
 13
1839.531496790961
 23
4182.2810783101349
 33
0.0
 14
2339.5314967909599
 24
4099.1656843101346
 34
0.0
1001
ACAD
1000
DSTYLE
1002
{
1070
   287
1070
     3
1070
   287
1070
     3
1070
    40
1040
30.0
1070
   143
1040
0.039
1070
   172
1070
     1
1070
   271
1070
     0
1070
   279
1070
     0
1070
   288
1070
     1
1002
}
  0
DIMENSION
  5
7B75
  8
3
  6
CONTINUOUS
  2
*D5
 10
2951.5314967909608
 20
4274.0162753101349
 30
0.0
 11
2645.5314967909599
 21
4349.0162753101349
 31
0.0
 70
     0
 13
2339.5314967909599
 23
4099.1656843101346
 33
0.0
 14
2951.5314967909608
 24
3383.2810783101349
 34
0.0
1001
ACAD
1000
DSTYLE
1002
{
1070
   287
1070
     3
1070
   287
1070
     3
1070
    40
1040
30.0
1070
   143
1040
0.039
1070
   172
1070
     1
1070
   271
1070
     0
1070
   279
1070
     0
1070
   288
1070
     1
1002
}
  0
DIMENSION
  5
7B82
  8
3
  6
CONTINUOUS
  2
*D6
 10
3439.5314967909599
 20
5234.8338833101352
 30
0.0
 11
2710.4314357909602
 21
5234.8338833101352
 31
0.0
 70
   128
 13
1889.531496790961
 23
5661.1990833101354
 33
0.0
 14
3439.5314967909599
 24
5661.1990833101354
 34
0.0
1001
ACAD
1000
DSTYLE
1002
{
1070
   287
1070
     3
1070
   287
1070
     3
1070
    40
1040
30.0
1070
   143
1040
0.039
1070
   172
1070
     1
1070
   271
1070
     0
1070
   279
1070
     0
1070
   288
1070
     1
1002
}
  0
DIMENSION
  5
7B8F
  8
3
  6
CONTINUOUS
  2
*D7
 10
3693.4081707909618
 20
5661.1990833101354
 30
0.0
 11
3693.4081707909609
 21
6014.9592263101349
 31
0.0
 70
   128
 13
3439.5314967909599
 23
6411.1990833101363
 33
0.0
 14
3439.5314967909599
 24
5661.1990833101354
 34
0.0
 50
90.0
1001
ACAD
1000
DSTYLE
1002
{
1070
   287
1070
     3
1070
   287
1070
     3
1070
    40
1040
30.0
1070
   143
1040
0.039
1070
   172
1070
     1
1070
   271
1070
     0
1070
   279
1070
     0
1070
   288
1070
     1
1002
}
  0
LINE
  5
7B90
  8
2
  6
CENTER
 10
3032.6735177909609
 20
6093.1990833101354
 30
0.0
 11
1740.2042007909599
 21
6093.1990833101354
 31
0.0
  0
LINE
  5
7B91
  8
2
  6
CENTER
 10
2339.5314967909599
 20
5483.2977773101347
 30
0.0
 11
2339.5314967909599
 21
6500.7960603101346
 31
0.0
  0
LINE
  5
7B92
  8
2
  6
CENTER
 10
4672.338986699765
 20
4333.2927323101349
 30
0.0
 11
4672.3389866997659
 21
2643.2810783101359
 31
0.0
  0
DIMENSION
  5
7C10
  8
3
  6
CONTINUOUS
  2
*D8
 10
5269.4418926997669
 20
3028.2810783101349
 30
0.0
 11
5269.441892699765
 21
3385.2979333101339
 31
0.0
 70
   128
 13
5020.3389866997659
 23
3738.2810783101349
 33
0.0
 14
5020.3389866997659
 24
3028.2810783101349
 34
0.0
 50
90.0
1001
ACAD
1000
DSTYLE
1002
{
1070
   287
1070
     3
1070
   287
1070
     3
1070
     3
1000
φ<>
1070
    40
1040
30.0
1070
   143
1040
0.039
1070
   172
1070
     1
1070
   271
1070
     0
1070
   279
1070
     0
1070
   288
1070
     1
1002
}
  0
DIMENSION
  5
7C1D
  8
3
  6
CONTINUOUS
  2
*D9
 10
4937.338986699765
 20
4317.7494613101353
 30
0.0
 11
4647.3389866997641
 21
4317.7494613101353
 31
0.0
 70
   128
 13
4407.338986699765
 23
4142.281078310134
 33
0.0
 14
4937.338986699765
 24
4142.281078310134
 34
0.0
1001
ACAD
1000
DSTYLE
1002
{
1070
   287
1070
     3
1070
   287
1070
     3
1070
    40
1040
30.0
1070
   143
1040
0.039
1070
   172
1070
     1
1070
   271
1070
     0
1070
   279
1070
     0
1070
   288
1070
     1
1002
}
  0
DIMENSION
  5
7C2B
  8
3
  6
CONTINUOUS
  2
*D10
 10
4672.338986699765
 20
4534.9009364365611
 30
0.0
 11
4380.9104152711934
 21
4534.9009364365611
 31
0.0
 70
   128
  1
MAX\P550
 13
4162.3389866997641
 23
3572.9810783101352
 33
0.0
 14
4672.338986699765
 24
4488.56794543656
 34
0.0
1001
ACAD
1000
DSTYLE
1002
{
1070
   287
1070
     3
1070
   287
1070
     3
1070
    40
1040
30.0
1070
   143
1040
0.039
1070
   172
1070
     1
1070
   271
1070
     0
1070
   279
1070
     0
1070
   288
1070
     1
1002
}
  0
DIMENSION
  5
7C39
  8
3
  6
CONTINUOUS
  2
*D11
 10
5020.3389866997659
 20
4534.9009364365611
 30
0.0
 11
4846.338986699765
 21
4619.7668560241182
 31
0.0
 70
   128
 13
4672.338986699765
 23
4488.56794543656
 33
0.0
 14
5020.3389866997659
 24
3778.2810783101349
 34
0.0
1001
ACAD
1000
DSTYLE
1002
{
1070
   288
1070
     1
1070
   172
1070
     1
1070
    40
1040
30.0
1070
   271
1070
     0
1070
   143
1040
0.039
1002
}
  0
LINE
  5
7C50
  8
2
  6
CENTER
 10
3187.4268877909599
 20
3383.2810783101349
 30
0.0
 11
1849.9779657909601
 21
3383.2810783101349
 31
0.0
  0
LINE
  5
7C51
  8
4
  6
CONTINUOUS
 10
5550.0
 20
1500.0
 30
0.0
 11
5550.0
 21
900.0
 31
0.0
  0
LINE
  5
7C52
  8
4
  6
CONTINUOUS
 10
3450.0
 20
1500.0
 30
0.0
 11
3450.0
 21
900.0
 31
0.0
  0
LINE
  5
7C53
  8
4
  6
CONTINUOUS
 10
1950.0
 20
1500.0
 30
0.0
 11
1950.0
 21
900.0
 31
0.0
  0
LINE
  5
7C56
  8
4
  6
CONTINUOUS
 10
1950.0
 20
900.0
 30
0.0
 11
5550.0
 21
900.0
 31
0.0
  0
LINE
  5
7C57
  8
4
  6
CONTINUOUS
 10
1950.0
 20
1200.0
 30
0.0
 11
5550.0
 21
1200.0
 31
0.0
  0
TEXT
  5
7C58
  8
4
  6
CONTINUOUS
 10
2065.50624225
 20
1294.6290779999999
 30
0.0
 40
150.0
  1
機器名称
  0
TEXT
  5
7C59
  8
4
  6
CONTINUOUS
 10
2058.7743179999989
 20
964.93547024999998
 30
0.0
 40
150.0
  1
機器型番
  0
TEXT
  5
7C5A
  8
4
  6
CONTINUOUS
 10
3533.0362365000001
 20
1267.715306249999
 30
0.0
 40
120.0
  1
ミツヤリミットロードファン
  0
TEXT
  5
7C5B
  8
4
  6
CONTINUOUS
 10
3559.9634872500001
 20
951.4787527499999
 30
0.0
 40
150.0
  1
LLE#4 1/2-4
  0
TEXT
  5
7C5D
  8
4
  6
CONTINUOUS
 10
2128.2674302499991
 20
7134.0181425000001
 30
0.0
 40
162.0
  1
床置防振ベット
  0
TEXT
  5
7C5E
  8
4
  6
CONTINUOUS
 10
948.50278049999986
 20
7601.6429287499996
 30
0.0
 40
171.42857175
  1
ベルト駆動式片吸込両持排煙ファン
  0
LINE
  5
7C5F
  8
4
  6
CONTINUOUS
 10
750.0
 20
7408.2262627500004
 30
0.0
 11
5550.0
 21
7408.2262627500004
 31
0.0
  0
LINE
  5
7C60
  8
4
  6
CONTINUOUS
 10
750.0
 20
8008.2262627500004
 30
0.0
 11
5550.0
 21
8008.2262627500004
 31
0.0
  0
LINE
  5
7C61
  8
4
  6
CONTINUOUS
 10
1950.0
 20
1500.0
 30
0.0
 11
5550.0
 21
1500.0
 31
0.0
  0
LINE
  5
7C62
  8
4
  6
CONTINUOUS
 10
750.0
 20
8008.2262627500004
 30
0.0
 11
750.0
 21
7408.2262627500004
 31
0.0
  0
TEXT
  5
7C63
  8
4
  6
CONTINUOUS
 10
820.69093350000003
 20
7130.6900512499988
 30
0.0
 40
162.0
  1
左回転左横向
  0
TEXT
  5
7C64
  8
4
  6
CONTINUOUS
 10
4406.9086777499988
 20
8118.1832445
 30
0.0
 40
168.0
  1
No.
  0
TEXT
  5
7C65
  8
4
  6
CONTINUOUS
 10
3933.8881875000002
 20
7150.2865245000012
 30
0.0
 40
162.0
  1
縮尺：1/30
  0
LINE
  5
7C66
  8
4
  6
CONTINUOUS
 10
5550.0
 20
8008.2262627500004
 30
0.0
 11
5550.0
 21
7408.2262627500004
 31
0.0
  0
LINE
  5
7C68
  8
4
  6
CONTINUOUS
 10
4321.8522667500001
 20
8043.79074975
 30
0.0
 11
4321.8522667500001
 21
8359.9567845000001
 31
0.0
  0
LINE
  5
7C69
  8
4
  6
CONTINUOUS
 10
4321.8522667500001
 20
8359.9567845000001
 30
0.0
 11
5550.0
 21
8359.9567845000001
 31
0.0
  0
LINE
  5
7C6A
  8
4
  6
CONTINUOUS
 10
5550.0
 20
8359.9567845000001
 30
0.0
 11
5550.0
 21
8043.79074975
 31
0.0
  0
LINE
  5
7C6B
  8
4
  6
CONTINUOUS
 10
5550.0
 20
8043.79074975
 30
0.0
 11
4321.8522667500001
 21
8043.79074975
 31
0.0
  0
DIMENSION
  5
7DA6
  8
3
  2
*D12
 10
3439.5314967909599
 20
4461.0048521909948
 30
0.0
 11
2615.7176136333728
 21
4461.0048521909948
 31
0.0
 70
   128
 13
1839.531496790961
 23
4197.2810783101349
 33
0.0
 14
3439.5314967909599
 24
2938.2810783101349
 34
0.0
1001
ACAD
1000
DSTYLE
1002
{
1070
   287
1070
     3
1070
   287
1070
     3
1070
    40
1040
30.0
1070
   143
1040
0.039
1070
   172
1070
     1
1070
   271
1070
     0
1070
   279
1070
     0
1070
   288
1070
     1
1002
}
  0
DIMENSION
  5
7DEC
  8
3
  2
*D13
 10
2339.5314967909599
 20
2446.9821409971769
 30
0.0
 11
2114.5314967909608
 21
2521.9821409971769
 31
0.0
 70
     0
 13
1889.531496790961
 23
2643.2810783101359
 33
0.0
 14
2339.5314967909599
 24
2643.2810783101359
 34
0.0
1001
ACAD
1000
DSTYLE
1002
{
1070
   287
1070
     3
1070
   287
1070
     3
1070
    40
1040
30.0
1070
   143
1040
0.039
1070
   172
1070
     1
1070
   271
1070
     0
1070
   279
1070
     0
1002
}
  0
DIMENSION
  5
7DF9
  8
3
  2
*D14
 10
3439.5314967909599
 20
2446.9821409971769
 30
0.0
 11
2889.5314967909608
 21
2521.9821409971769
 31
0.0
 70
     0
 13
2339.5314967909599
 23
2643.2810783101359
 33
0.0
 14
3439.5314967909599
 24
2643.2810783101359
 34
0.0
1001
ACAD
1000
DSTYLE
1002
{
1070
   287
1070
     3
1070
   287
1070
     3
1070
    40
1040
30.0
1070
   143
1040
0.039
1070
   172
1070
     1
1070
   271
1070
     0
1070
   279
1070
     0
1002
}
  0
DIMENSION
  5
7E06
  8
3
  2
*D15
 10
4672.3389866997659
 20
2446.9821409971769
 30
0.0
 11
4456.3389866997659
 21
2521.9821409971769
 31
0.0
 70
     0
 13
4240.3389866997641
 23
2643.2810783101359
 33
0.0
 14
4672.3389866997659
 24
2643.2810783101359
 34
0.0
1001
ACAD
1000
DSTYLE
1002
{
1070
   287
1070
     3
1070
   287
1070
     3
1070
    40
1040
30.0
1070
   143
1040
0.039
1070
   172
1070
     1
1070
   271
1070
     0
1070
   279
1070
     0
1002
}
  0
DIMENSION
  5
7E15
  8
3
  2
*D16
 10
4990.3389866997641
 20
2446.9821409971769
 30
0.0
 11
4831.3389866997659
 21
2521.9821409971769
 31
0.0
 70
     0
 13
4672.3389866997659
 23
2643.2810783101359
 33
0.0
 14
4990.3389866997641
 24
2643.2810783101359
 34
0.0
1001
ACAD
1000
DSTYLE
1002
{
1070
   287
1070
     3
1070
   287
1070
     3
1070
    40
1040
30.0
1070
   143
1040
0.039
1070
   172
1070
     1
1070
   271
1070
     0
1070
   279
1070
     0
1002
}
  0
DIMENSION
  5
7E2C
  8
3
  2
*D18
 10
1449.5769357253951
 20
2643.2810783101359
 30
0.0
 11
1374.5769357253951
 21
2386.138221167279
 31
0.0
 70
     0
 13
1889.531496790961
 23
2743.2810783101359
 33
0.0
 14
1889.531496790961
 24
2643.2810783101359
 34
0.0
 50
90.0
1001
ACAD
1000
DSTYLE
1002
{
1070
   287
1070
     3
1070
   287
1070
     3
1070
    40
1040
30.0
1070
   143
1040
0.039
1070
   172
1070
     1
1070
   271
1070
     0
1070
   279
1070
     0
1070
     6
1000
DOT
1002
}
  0
DIMENSION
  5
7E3B
  8
3
  2
*D19
 10
1449.5769357253951
 20
2838.2810783101349
 30
0.0
 11
1306.0055071539671
 21
2790.7810783101359
 31
0.0
 70
     0
 13
1889.531496790961
 23
2743.2810783101359
 33
0.0
 14
1889.531496790961
 24
2838.2810783101349
 34
0.0
 50
90.0
1001
ACAD
1000
DSTYLE
1002
{
1070
   172
1070
     1
1070
    40
1040
30.0
1070
     3
1000
(<>)
1070
   271
1070
     0
1070
     6
1000
_DOT
1070
   143
1040
0.039
1002
}
  0
DIMENSION
  5
7E48
  8
3
  2
*D20
 10
1168.9357137786751
 20
2643.2810783101359
 30
0.0
 11
1070.364285207246
 21
3412.7810783101349
 31
0.0
 70
     0
 13
1839.531496790961
 23
4182.2810783101349
 33
0.0
 14
1889.531496790961
 24
2643.2810783101359
 34
0.0
 50
90.0
1001
ACAD
1000
DSTYLE
1002
{
1070
   287
1070
     3
1070
   287
1070
     3
1070
     3
1000
(<>)
1070
    40
1040
30.0
1070
   143
1040
0.039
1070
   172
1070
     1
1070
   271
1070
     0
1070
   279
1070
     0
1002
}
  0
ENDSEC
  0
EOF
