  0
SECTION
  2
HEADER
  9
$ACADVER
  1
AC1009
  9
$INSBASE
 10
0.0
 20
0.0
 30
0.0
  9
$EXTMIN
 10
750.0
 20
900.0
 30
0.0
  9
$EXTMAX
 10
5550.0
 20
8359.9567845000001
 30
0.0
  9
$LIMMIN
 10
0.0
 20
0.0
  9
$LIMMAX
 10
297.0
 20
210.0
  9
$ORTHOMODE
 70
     0
  9
$REGENMODE
 70
     1
  9
$FILLMODE
 70
     0
  9
$QTEXTMODE
 70
     0
  9
$MIRRTEXT
 70
     1
  9
$DRAGMODE
 70
     2
  9
$LTSCALE
 40
100.0
  9
$OSMODE
 70
    37
  9
$ATTMODE
 70
     1
  9
$TEXTSIZE
 40
180.0
  9
$TRACEWID
 40
0.05
  9
$TEXTSTYLE
  7
STANDARD
  9
$CLAYER
  8
3
  9
$CELTYPE
  6
BYLAYER
  9
$CECOLOR
 62
   256
  9
$DIMSCALE
 40
30.0
  9
$DIMASZ
 40
2.0
  9
$DIMEXO
 40
0.5
  9
$DIMDLI
 40
10.0
  9
$DIMRND
 40
0.0
  9
$DIMDLE
 40
0.0
  9
$DIMEXE
 40
1.0
  9
$DIMTP
 40
1.0
  9
$DIMTM
 40
1.0
  9
$DIMTXT
 40
3.0
  9
$DIMCEN
 40
0.0
  9
$DIMTSZ
 40
0.0
  9
$DIMTOL
 70
     0
  9
$DIMLIM
 70
     0
  9
$DIMTIH
 70
     0
  9
$DIMTOH
 70
     0
  9
$DIMSE1
 70
     0
  9
$DIMSE2
 70
     0
  9
$DIMTAD
 70
     1
  9
$DIMZIN
 70
     8
  9
$DIMBLK
  1

  9
$DIMASO
 70
     1
  9
$DIMSHO
 70
     1
  9
$DIMPOST
  1

  9
$DIMAPOST
  1

  9
$DIMALT
 70
     0
  9
$DIMALTD
 70
     2
  9
$DIMALTF
 40
0.039
  9
$DIMLFAC
 40
1.0
  9
$DIMTOFL
 70
     1
  9
$DIMTVP
 40
0.0
  9
$DIMTIX
 70
     0
  9
$DIMSOXD
 70
     0
  9
$DIMSAH
 70
     1
  9
$DIMBLK1
  1
OPEN
  9
$DIMBLK2
  1
OPEN
  9
$DIMSTYLE
  2
IGA
  9
$DIMCLRD
 70
     0
  9
$DIMCLRE
 70
     0
  9
$DIMCLRT
 70
     0
  9
$DIMTFAC
 40
10.0
  9
$DIMGAP
 40
1.0
  9
$LUNITS
 70
     2
  9
$LUPREC
 70
     3
  9
$SKETCHINC
 40
0.1
  9
$FILLETRAD
 40
50.0
  9
$AUNITS
 70
     0
  9
$AUPREC
 70
     0
  9
$MENU
  1
acad
  9
$ELEVATION
 40
0.0
  9
$PELEVATION
 40
0.0
  9
$THICKNESS
 40
0.0
  9
$LIMCHECK
 70
     0
  9
$BLIPMODE
 70
     0
  9
$CHAMFERA
 40
0.5
  9
$CHAMFERB
 40
0.5
  9
$SKPOLY
 70
     0
  9
$TDCREATE
 40
2450754.46527986
  9
$TDUPDATE
 40
2454953.684377708
  9
$TDINDWG
 40
0.0352149769
  9
$TDUSRTIMER
 40
0.0352149769
  9
$USRTIMER
 70
     1
  9
$ANGBASE
 50
0.0
  9
$ANGDIR
 70
     0
  9
$PDMODE
 70
     0
  9
$PDSIZE
 40
0.0
  9
$PLINEWID
 40
0.0
  9
$COORDS
 70
     1
  9
$SPLFRAME
 70
     0
  9
$SPLINETYPE
 70
     6
  9
$SPLINESEGS
 70
     8
  9
$ATTDIA
 70
     0
  9
$ATTREQ
 70
     1
  9
$HANDLING
 70
 10241
  9
$HANDSEED
  5
8116
  9
$SURFTAB1
 70
     6
  9
$SURFTAB2
 70
     6
  9
$SURFTYPE
 70
     6
  9
$SURFU
 70
     6
  9
$SURFV
 70
     6
  9
$UCSNAME
  2

  9
$UCSORG
 10
0.0
 20
0.0
 30
0.0
  9
$UCSXDIR
 10
1.0
 20
0.0
 30
0.0
  9
$UCSYDIR
 10
0.0
 20
1.0
 30
0.0
  9
$PUCSNAME
  2

  9
$PUCSORG
 10
0.0
 20
0.0
 30
0.0
  9
$PUCSXDIR
 10
1.0
 20
0.0
 30
0.0
  9
$PUCSYDIR
 10
0.0
 20
1.0
 30
0.0
  9
$USERI1
 70
     0
  9
$USERI2
 70
     0
  9
$USERI3
 70
     0
  9
$USERI4
 70
     0
  9
$USERI5
 70
     0
  9
$USERR1
 40
0.0
  9
$USERR2
 40
0.0
  9
$USERR3
 40
0.0
  9
$USERR4
 40
0.0
  9
$USERR5
 40
0.0
  9
$WORLDVIEW
 70
     1
  9
$SHADEDGE
 70
     3
  9
$SHADEDIF
 70
    70
  9
$TILEMODE
 70
     1
  9
$MAXACTVP
 70
    16
  9
$PLIMCHECK
 70
     0
  9
$PEXTMIN
 10
1.0000000000000000E+020
 20
1.0000000000000000E+020
 30
1.0000000000000000E+020
  9
$PEXTMAX
 10
-1.0000000000000000E+020
 20
-1.0000000000000000E+020
 30
-1.0000000000000000E+020
  9
$PLIMMIN
 10
0.0
 20
0.0
  9
$PLIMMAX
 10
12.0
 20
9.0
  9
$UNITMODE
 70
     0
  9
$VISRETAIN
 70
     0
  9
$PLINEGEN
 70
     0
  9
$PSLTSCALE
 70
     1
  0
ENDSEC
  0
SECTION
  2
TABLES
  0
TABLE
  2
VPORT
 70
     2
  0
VPORT
  2
*ACTIVE
 70
     0
 10
0.0
 20
0.0
 11
1.0
 21
1.0
 12
13835.56313423029
 22
4124.2626966274529
 13
0.0
 23
0.0
 14
10.0
 24
10.0
 15
10.0
 25
10.0
 16
0.0
 26
0.0
 36
1.0
 17
0.0
 27
0.0
 37
0.0
 40
10030.73125279639
 41
3.1666666666666661
 42
50.0
 43
0.0
 44
0.0
 50
0.0
 51
0.0
 71
     0
 72
   100
 73
     1
 74
     0
 75
     0
 76
     0
 77
     0
 78
     0
  0
ENDTAB
  0
TABLE
  2
LTYPE
 70
     2
  0
LTYPE
  2
CONTINUOUS
 70
     0
  3
Solid line
 72
    65
 73
     0
 40
0.0
  0
LTYPE
  2
CENTER
 70
     0
  3
____ _ ____ _ ____ _ ____ _ ____ _ ____ _ ____ 
 72
    65
 73
     4
 40
2.0
 49
1.25
 49
-0.25
 49
0.25
 49
-0.25
  0
ENDTAB
  0
TABLE
  2
LAYER
 70
     6
  0
LAYER
  2
0
 70
     0
 62
     7
  6
CONTINUOUS
  0
LAYER
  2
3
 70
     0
 62
     2
  6
CONTINUOUS
  0
LAYER
  2
2
 70
     0
 62
     3
  6
CENTER
  0
LAYER
  2
1
 70
     0
 62
     4
  6
CONTINUOUS
  0
LAYER
  2
4
 70
     0
 62
     7
  6
CONTINUOUS
  0
LAYER
  2
DEFPOINTS
 70
     0
 62
     7
  6
CONTINUOUS
  0
ENDTAB
  0
TABLE
  2
STYLE
 70
     1
  0
STYLE
  2
STANDARD
 70
     0
 40
0.0
 41
1.0
 50
0.0
 71
     0
 42
180.0
  3
simplex.shx
  4
extfont.shx
  0
ENDTAB
  0
TABLE
  2
VIEW
 70
     0
  0
ENDTAB
  0
TABLE
  2
UCS
 70
     0
  0
ENDTAB
  0
TABLE
  2
APPID
 70
     1
  0
APPID
  2
ACAD
 70
     0
  0
ENDTAB
  0
TABLE
  2
DIMSTYLE
 70
     1
  0
DIMSTYLE
  2
IGA
 70
     0
  3

  4

  5

  6
OPEN
  7
OPEN
 40
2.0
 41
2.0
 42
0.5
 43
10.0
 44
1.0
 45
0.0
 46
0.0
 47
1.0
 48
1.0
140
3.0
141
0.0
142
0.0
143
0.03937
144
1.0
145
0.0
146
10.0
147
1.0
 71
     0
 72
     0
 73
     0
 74
     0
 75
     0
 76
     0
 77
     1
 78
     8
170
     0
171
     2
172
     0
173
     1
174
     0
175
     0
176
     0
177
     0
178
     0
  0
ENDTAB
  0
ENDSEC
  0
SECTION
  2
BLOCKS
  0
BLOCK
  8
0
  2
$MODEL_SPACE
 70
     0
 10
0.0
 20
0.0
 30
0.0
  3
$MODEL_SPACE
  1

  0
ENDBLK
  5
1B
  8
0
  0
BLOCK
 67
     1
  8
0
  2
$PAPER_SPACE
 70
     0
 10
0.0
 20
0.0
 30
0.0
  3
$PAPER_SPACE
  1

  0
ENDBLK
  5
18
 67
     1
  8
0
  0
BLOCK
  8
0
  2
_OPEN
 70
     0
 10
0.0
 20
0.0
 30
0.0
  3
_OPEN
  1

  0
LINE
  5
7B21
  8
0
  6
BYBLOCK
 62
     0
 10
-1.0
 20
0.166667
 30
0.0
 11
0.0
 21
0.0
 31
0.0
  0
LINE
  5
7B22
  8
0
  6
BYBLOCK
 62
     0
 10
0.0
 20
0.0
 30
0.0
 11
-1.0
 21
-0.166667
 31
0.0
  0
LINE
  5
7B23
  8
0
  6
BYBLOCK
 62
     0
 10
0.0
 20
0.0
 30
0.0
 11
-1.0
 21
0.0
 31
0.0
  0
ENDBLK
  5
7B24
  8
0
  0
BLOCK
  8
0
  2
*D1
 70
     1
 10
0.0
 20
0.0
 30
0.0
  3
*D1
  1

  0
LINE
  5
8069
  8
3
  6
CONTINUOUS
 62
     0
 10
2002.4367099999999
 20
2230.214021874544
 30
0.0
 11
2002.4367099999999
 21
2011.388075932218
 31
0.0
  0
LINE
  5
806A
  8
3
  6
CONTINUOUS
 62
     0
 10
2452.4367099999999
 20
2094.476580932218
 30
0.0
 11
2452.4367099999999
 21
2011.388075932218
 31
0.0
  0
LINE
  5
806B
  8
3
  6
CONTINUOUS
 62
     0
 10
2062.4367099999999
 20
2041.388075932218
 30
0.0
 11
2392.4367099999999
 21
2041.388075932218
 31
0.0
  0
INSERT
  5
806C
  8
3
  6
CONTINUOUS
 62
     0
  2
_OPEN
 10
2002.4367099999999
 20
2041.388075932218
 30
0.0
 41
60.0
 42
60.0
 43
60.0
 50
180.0
  0
INSERT
  5
806D
  8
3
  6
CONTINUOUS
 62
     0
  2
_OPEN
 10
2452.4367099999999
 20
2041.388075932218
 30
0.0
 41
60.0
 42
60.0
 43
60.0
  0
TEXT
  8
3
  40
90
  5
8104
  62
0
  72
0
  71
0
 10
2028.15
 20
1957.09
 30
0.000000
  1
450
  0
POINT
  5
806F
  8
DEFPOINTS
  6
CONTINUOUS
 62
     0
 10
2002.4367099999999
 20
2245.214021874544
 30
0.0
  0
POINT
  5
8070
  8
DEFPOINTS
  6
CONTINUOUS
 62
     0
 10
2452.4367099999999
 20
2109.476580932218
 30
0.0
  0
POINT
  5
8071
  8
DEFPOINTS
  6
CONTINUOUS
 62
     0
 10
2452.4367099999999
 20
2041.388075932218
 30
0.0
  0
ENDBLK
  5
7DEE
  8
0
  0
BLOCK
  8
0
  2
*D2
 70
     1
 10
0.0
 20
0.0
 30
0.0
  3
*D2
  1

  0
LINE
  5
8072
  8
3
  6
CONTINUOUS
 62
     0
 10
2452.4367099999999
 20
2094.476580932218
 30
0.0
 11
2452.4367099999999
 21
2011.388075932218
 31
0.0
  0
LINE
  5
8073
  8
3
  6
CONTINUOUS
 62
     0
 10
3552.4367099999999
 20
2230.214021874544
 30
0.0
 11
3552.4367099999999
 21
2011.388075932218
 31
0.0
  0
LINE
  5
8074
  8
3
  6
CONTINUOUS
 62
     0
 10
2512.4367099999999
 20
2041.388075932218
 30
0.0
 11
3492.436709999999
 21
2041.388075932218
 31
0.0
  0
INSERT
  5
8075
  8
3
  6
CONTINUOUS
 62
     0
  2
_OPEN
 10
2452.4367099999999
 20
2041.388075932218
 30
0.0
 41
60.0
 42
60.0
 43
60.0
 50
180.0
  0
INSERT
  5
8076
  8
3
  6
CONTINUOUS
 62
     0
  2
_OPEN
 10
3552.4367099999999
 20
2041.388075932218
 30
0.0
 41
60.0
 42
60.0
 43
60.0
  0
TEXT
  8
3
  40
90
  5
8105
  62
0
  72
0
  71
0
 10
2822.44
 20
1957.09
 30
0.000000
  1
1100
  0
POINT
  5
8078
  8
DEFPOINTS
  6
CONTINUOUS
 62
     0
 10
2452.4367099999999
 20
2109.476580932218
 30
0.0
  0
POINT
  5
8079
  8
DEFPOINTS
  6
CONTINUOUS
 62
     0
 10
3552.4367099999999
 20
2245.214021874544
 30
0.0
  0
POINT
  5
807A
  8
DEFPOINTS
  6
CONTINUOUS
 62
     0
 10
3552.4367099999999
 20
2041.388075932218
 30
0.0
  0
ENDBLK
  5
7DF9
  8
0
  0
BLOCK
  8
0
  2
*D3
 70
     1
 10
0.0
 20
0.0
 30
0.0
  3
*D3
  1

  0
LINE
  5
807B
  8
3
  6
CONTINUOUS
 62
     0
 10
1937.4367099999999
 20
3211.214021874544
 30
0.0
 11
1701.9156680000001
 21
3211.214021874544
 31
0.0
  0
LINE
  5
807C
  8
3
  6
CONTINUOUS
 62
     0
 10
1937.4367099999999
 20
2481.214021874544
 30
0.0
 11
1701.915667999999
 21
2481.214021874544
 31
0.0
  0
LINE
  5
807D
  8
3
  6
CONTINUOUS
 62
     0
 10
1731.9156680000001
 20
3151.214021874544
 30
0.0
 11
1731.9156680000001
 21
2541.214021874544
 31
0.0
  0
INSERT
  5
807E
  8
3
  6
CONTINUOUS
 62
     0
  2
_OPEN
 10
1731.9156680000001
 20
3211.214021874544
 30
0.0
 41
60.0
 42
60.0
 43
60.0
 50
90.0
  0
INSERT
  5
807F
  8
3
  6
CONTINUOUS
 62
     0
  2
_OPEN
 10
1731.9156680000001
 20
2481.214021874544
 30
0.0
 41
60.0
 42
60.0
 43
60.0
 50
270.0
  0
TEXT
  8
3
  40
90
  5
8106
  62
0
  72
0
  71
0
 10
1476.92
 20
2713.20
 30
0.000000
  1
730
  0
POINT
  5
8081
  8
DEFPOINTS
  6
CONTINUOUS
 62
     0
 10
1952.436709999999
 20
3211.214021874544
 30
0.0
  0
POINT
  5
8082
  8
DEFPOINTS
  6
CONTINUOUS
 62
     0
 10
1952.436709999999
 20
2481.214021874544
 30
0.0
  0
POINT
  5
8083
  8
DEFPOINTS
  6
CONTINUOUS
 62
     0
 10
1731.9156680000001
 20
2481.214021874544
 30
0.0
  0
ENDBLK
  5
7D6A
  8
0
  0
BLOCK
  8
0
  2
*D4
 70
     1
 10
0.0
 20
0.0
 30
0.0
  3
*D4
  1

  0
LINE
  5
8084
  8
3
  6
CONTINUOUS
 62
     0
 10
1937.4367099999999
 20
2481.214021874544
 30
0.0
 11
1518.6864929999999
 21
2481.214021874544
 31
0.0
  0
LINE
  5
8085
  8
3
  6
CONTINUOUS
 62
     0
 10
2017.341480999999
 20
3240.214021874544
 30
0.0
 11
1518.6864929999999
 21
3240.214021874544
 31
0.0
  0
LINE
  5
8086
  8
3
  6
CONTINUOUS
 62
     0
 10
1548.6864929999999
 20
2541.214021874544
 30
0.0
 11
1548.6864929999999
 21
3180.214021874544
 31
0.0
  0
INSERT
  5
8087
  8
3
  6
CONTINUOUS
 62
     0
  2
_OPEN
 10
1548.6864929999999
 20
2481.214021874544
 30
0.0
 41
60.0
 42
60.0
 43
60.0
 50
270.0
  0
INSERT
  5
8088
  8
3
  6
CONTINUOUS
 62
     0
  2
_OPEN
 10
1548.6864929999999
 20
3240.214021874544
 30
0.0
 41
60.0
 42
60.0
 43
60.0
 50
90.0
  0
TEXT
  8
3
  40
90
  5
8107
  62
0
  72
0
  71
0
 10
1293.69
 20
2724.46
 30
0.000000
  1
759
  0
POINT
  5
808A
  8
DEFPOINTS
  6
CONTINUOUS
 62
     0
 10
1952.436709999999
 20
2481.214021874544
 30
0.0
  0
POINT
  5
808B
  8
DEFPOINTS
  6
CONTINUOUS
 62
     0
 10
2032.341480999999
 20
3240.214021874544
 30
0.0
  0
POINT
  5
808C
  8
DEFPOINTS
  6
CONTINUOUS
 62
     0
 10
1548.6864929999999
 20
3240.214021874544
 30
0.0
  0
ENDBLK
  5
7D5F
  8
0
  0
BLOCK
  8
0
  2
*D5
 70
     1
 10
0.0
 20
0.0
 30
0.0
  3
*D5
  1

  0
LINE
  5
808D
  8
3
  6
CONTINUOUS
 62
     0
 10
2437.4367099999999
 20
3746.214021874544
 30
0.0
 11
1335.4572780000001
 21
3746.214021874544
 31
0.0
  0
LINE
  5
808E
  8
3
  6
CONTINUOUS
 62
     0
 10
2017.341480999999
 20
3240.214021874544
 30
0.0
 11
1335.4572780000001
 21
3240.214021874544
 31
0.0
  0
LINE
  5
808F
  8
3
  6
CONTINUOUS
 62
     0
 10
1365.4572780000001
 20
3686.214021874544
 30
0.0
 11
1365.4572780000001
 21
3300.214021874544
 31
0.0
  0
INSERT
  5
8090
  8
3
  6
CONTINUOUS
 62
     0
  2
_OPEN
 10
1365.4572780000001
 20
3746.214021874544
 30
0.0
 41
60.0
 42
60.0
 43
60.0
 50
90.0
  0
INSERT
  5
8091
  8
3
  6
CONTINUOUS
 62
     0
  2
_OPEN
 10
1365.4572780000001
 20
3240.214021874544
 30
0.0
 41
60.0
 42
60.0
 43
60.0
 50
270.0
  0
TEXT
  8
3
  40
90
  5
8108
  62
0
  72
0
  71
0
 10
1110.46
 20
3320.91
 30
0.000000
  1
506
  0
POINT
  5
8093
  8
DEFPOINTS
  6
CONTINUOUS
 62
     0
 10
2452.4367099999999
 20
3746.214021874544
 30
0.0
  0
POINT
  5
8094
  8
DEFPOINTS
  6
CONTINUOUS
 62
     0
 10
2032.341480999999
 20
3240.214021874544
 30
0.0
  0
POINT
  5
8095
  8
DEFPOINTS
  6
CONTINUOUS
 62
     0
 10
1365.4572780000001
 20
3240.214021874544
 30
0.0
  0
ENDBLK
  5
7E43
  8
0
  0
BLOCK
  8
0
  2
*D6
 70
     1
 10
0.0
 20
0.0
 30
0.0
  3
*D6
  1

  0
LINE
  5
8096
  8
3
  6
CONTINUOUS
 62
     0
 10
2017.341480999999
 20
3240.214021874544
 30
0.0
 11
1335.4572780000001
 21
3240.214021874544
 31
0.0
  0
LINE
  5
8097
  8
3
  6
CONTINUOUS
 62
     0
 10
1987.4367099999999
 20
2370.214021874544
 30
0.0
 11
1335.457277999999
 21
2370.214021874544
 31
0.0
  0
LINE
  5
8098
  8
3
  6
CONTINUOUS
 62
     0
 10
1365.4572780000001
 20
3180.214021874544
 30
0.0
 11
1365.4572780000001
 21
2430.214021874544
 31
0.0
  0
INSERT
  5
8099
  8
3
  6
CONTINUOUS
 62
     0
  2
_OPEN
 10
1365.4572780000001
 20
3240.214021874544
 30
0.0
 41
60.0
 42
60.0
 43
60.0
 50
90.0
  0
INSERT
  5
809A
  8
3
  6
CONTINUOUS
 62
     0
  2
_OPEN
 10
1365.4572780000001
 20
2370.214021874544
 30
0.0
 41
60.0
 42
60.0
 43
60.0
 50
270.0
  0
TEXT
  8
3
  40
90
  5
8109
  62
0
  72
0
  71
0
 10
1110.46
 20
2645.91
 30
0.000000
  1
870
  0
POINT
  5
809C
  8
DEFPOINTS
  6
CONTINUOUS
 62
     0
 10
2032.341480999999
 20
3240.214021874544
 30
0.0
  0
POINT
  5
809D
  8
DEFPOINTS
  6
CONTINUOUS
 62
     0
 10
2002.4367099999999
 20
2370.214021874544
 30
0.0
  0
POINT
  5
809E
  8
DEFPOINTS
  6
CONTINUOUS
 62
     0
 10
1365.4572780000001
 20
2370.214021874544
 30
0.0
  0
ENDBLK
  5
7D49
  8
0
  0
BLOCK
  8
0
  2
*D7
 70
     1
 10
0.0
 20
0.0
 30
0.0
  3
*D7
  1

  0
LINE
  5
809F
  8
3
  6
CONTINUOUS
 62
     0
 10
1987.4367099999999
 20
2370.214021874544
 30
0.0
 11
1335.4572780000001
 21
2370.214021874544
 31
0.0
  0
LINE
  5
80A0
  8
3
  6
CONTINUOUS
 62
     0
 10
1987.4367099999999
 20
2245.214021874544
 30
0.0
 11
1335.4572780000001
 21
2245.214021874544
 31
0.0
  0
LINE
  5
80A1
  8
3
  6
CONTINUOUS
 62
     0
 10
1365.4572780000001
 20
2430.214021874544
 30
0.0
 11
1365.4572780000001
 21
2490.214021874544
 31
0.0
  0
LINE
  5
80A2
  8
3
  6
CONTINUOUS
 62
     0
 10
1365.4572780000001
 20
2185.214021874544
 30
0.0
 11
1365.4572780000001
 21
1850.92830758883
 31
0.0
  0
LINE
  5
80A3
  8
3
  6
CONTINUOUS
 62
     0
 10
1365.4572780000001
 20
2370.214021874544
 30
0.0
 11
1365.4572780000001
 21
2245.214021874544
 31
0.0
  0
INSERT
  5
80A4
  8
3
  6
CONTINUOUS
 62
     0
  2
_OPEN
 10
1365.4572780000001
 20
2370.214021874544
 30
0.0
 41
60.0
 42
60.0
 43
60.0
 50
270.0
  0
INSERT
  5
80A5
  8
3
  6
CONTINUOUS
 62
     0
  2
_OPEN
 10
1365.4572780000001
 20
2245.214021874544
 30
0.0
 41
60.0
 42
60.0
 43
60.0
 50
90.0
  0
TEXT
  8
3
  40
90
  5
810A
  62
0
  72
0
  71
0
 10
1110.46
 20
1828.77
 30
0.000000
  1
125
  0
POINT
  5
80A7
  8
DEFPOINTS
  6
CONTINUOUS
 62
     0
 10
2002.4367099999999
 20
2370.214021874544
 30
0.0
  0
POINT
  5
80A8
  8
DEFPOINTS
  6
CONTINUOUS
 62
     0
 10
2002.4367099999999
 20
2245.214021874544
 30
0.0
  0
POINT
  5
80A9
  8
DEFPOINTS
  6
CONTINUOUS
 62
     0
 10
1365.4572780000001
 20
2245.214021874544
 30
0.0
  0
ENDBLK
  5
7D3E
  8
0
  0
BLOCK
  8
0
  2
*D8
 70
     1
 10
0.0
 20
0.0
 30
0.0
  3
*D8
  1

  0
LINE
  5
80AA
  8
3
  6
CONTINUOUS
 62
     0
 10
2437.4367099999999
 20
3746.214021874544
 30
0.0
 11
1131.0862810000001
 21
3746.214021874544
 31
0.0
  0
LINE
  5
80AB
  8
3
  6
CONTINUOUS
 62
     0
 10
1987.4367099999999
 20
2245.214021874544
 30
0.0
 11
1131.0862810000001
 21
2245.214021874544
 31
0.0
  0
LINE
  5
80AC
  8
3
  6
CONTINUOUS
 62
     0
 10
1161.0862810000001
 20
3686.214021874544
 30
0.0
 11
1161.086280999999
 21
2305.214021874544
 31
0.0
  0
INSERT
  5
80AD
  8
3
  6
CONTINUOUS
 62
     0
  2
_OPEN
 10
1161.0862810000001
 20
3746.214021874544
 30
0.0
 41
60.0
 42
60.0
 43
60.0
 50
90.0
  0
INSERT
  5
80AE
  8
3
  6
CONTINUOUS
 62
     0
  2
_OPEN
 10
1161.086280999999
 20
2245.214021874544
 30
0.0
 41
60.0
 42
60.0
 43
60.0
 50
270.0
  0
TEXT
  8
3
  40
90
  5
810B
  62
0
  72
0
  71
0
 10
906.086
 20
2857.91
 30
0.000000
  1
1501
  0
POINT
  5
80B0
  8
DEFPOINTS
  6
CONTINUOUS
 62
     0
 10
2452.4367099999999
 20
3746.214021874544
 30
0.0
  0
POINT
  5
80B1
  8
DEFPOINTS
  6
CONTINUOUS
 62
     0
 10
2002.4367099999999
 20
2245.214021874544
 30
0.0
  0
POINT
  5
80B2
  8
DEFPOINTS
  6
CONTINUOUS
 62
     0
 10
1161.086280999999
 20
2245.214021874544
 30
0.0
  0
ENDBLK
  5
7E38
  8
0
  0
BLOCK
  8
0
  2
*D9
 70
     1
 10
0.0
 20
0.0
 30
0.0
  3
*D9
  1

  0
LINE
  5
80B3
  8
3
  6
CONTINUOUS
 62
     0
 10
1952.436709999999
 20
3266.214021874544
 30
0.0
 11
1952.436709999999
 21
3875.7131468745451
 31
0.0
  0
LINE
  5
80B4
  8
3
  6
CONTINUOUS
 62
     0
 10
2452.4367099999999
 20
3759.309249874545
 30
0.0
 11
2452.4367099999999
 21
3875.7131468745451
 31
0.0
  0
LINE
  5
80B5
  8
3
  6
CONTINUOUS
 62
     0
 10
2012.4367099999999
 20
3845.7131468745438
 30
0.0
 11
2392.4367099999999
 21
3845.7131468745438
 31
0.0
  0
INSERT
  5
80B6
  8
3
  6
CONTINUOUS
 62
     0
  2
_OPEN
 10
1952.436709999999
 20
3845.7131468745438
 30
0.0
 41
60.0
 42
60.0
 43
60.0
 50
180.0
  0
INSERT
  5
80B7
  8
3
  6
CONTINUOUS
 62
     0
  2
_OPEN
 10
2452.4367099999999
 20
3845.7131468745438
 30
0.0
 41
60.0
 42
60.0
 43
60.0
  0
TEXT
  8
3
  40
90
  5
810C
  62
0
  72
0
  71
0
 10
2032.44
 20
3761.41
 30
0.000000
  1
500
  0
POINT
  5
80B9
  8
DEFPOINTS
  6
CONTINUOUS
 62
     0
 10
1952.436709999999
 20
3251.214021874544
 30
0.0
  0
POINT
  5
80BA
  8
DEFPOINTS
  6
CONTINUOUS
 62
     0
 10
2452.4367099999999
 20
3744.3092498745441
 30
0.0
  0
POINT
  5
80BB
  8
DEFPOINTS
  6
CONTINUOUS
 62
     0
 10
2452.4367099999999
 20
3845.7131468745438
 30
0.0
  0
ENDBLK
  5
7D26
  8
0
  0
BLOCK
  8
0
  2
*D10
 70
     1
 10
0.0
 20
0.0
 30
0.0
  3
*D10
  1

  0
LINE
  5
80BC
  8
3
  6
CONTINUOUS
 62
     0
 10
2452.4367099999999
 20
3759.309249874545
 30
0.0
 11
2452.4367099999999
 21
3875.7131468745451
 31
0.0
  0
LINE
  5
80BD
  8
3
  6
CONTINUOUS
 62
     0
 10
3064.4367099999999
 20
3255.214021874544
 30
0.0
 11
3064.4367099999999
 21
3875.7131468745451
 31
0.0
  0
LINE
  5
80BE
  8
3
  6
CONTINUOUS
 62
     0
 10
2512.4367099999999
 20
3845.7131468745438
 30
0.0
 11
3004.4367099999999
 21
3845.7131468745438
 31
0.0
  0
INSERT
  5
80BF
  8
3
  6
CONTINUOUS
 62
     0
  2
_OPEN
 10
2452.4367099999999
 20
3845.7131468745438
 30
0.0
 41
60.0
 42
60.0
 43
60.0
 50
180.0
  0
INSERT
  5
80C0
  8
3
  6
CONTINUOUS
 62
     0
  2
_OPEN
 10
3064.4367099999999
 20
3845.7131468745438
 30
0.0
 41
60.0
 42
60.0
 43
60.0
  0
TEXT
  8
3
  40
90
  5
810D
  62
0
  72
0
  71
0
 10
2578.44
 20
3761.41
 30
0.000000
  1
612
  0
POINT
  5
80C2
  8
DEFPOINTS
  6
CONTINUOUS
 62
     0
 10
2452.4367099999999
 20
3744.3092498745441
 30
0.0
  0
POINT
  5
80C3
  8
DEFPOINTS
  6
CONTINUOUS
 62
     0
 10
3064.4367099999999
 20
3240.214021874544
 30
0.0
  0
POINT
  5
80C4
  8
DEFPOINTS
  6
CONTINUOUS
 62
     0
 10
3064.4367099999999
 20
3845.7131468745438
 30
0.0
  0
ENDBLK
  5
7E2C
  8
0
  0
BLOCK
  8
0
  2
*D11
 70
     1
 10
0.0
 20
0.0
 30
0.0
  3
*D11
  1

  0
LINE
  5
80C5
  8
3
  6
CONTINUOUS
 62
     0
 10
2002.4367099999999
 20
5665.1484688745431
 30
0.0
 11
2002.4367099999999
 21
5266.0220638745441
 31
0.0
  0
LINE
  5
80C6
  8
3
  6
CONTINUOUS
 62
     0
 10
3552.4367099999999
 20
5665.1484688745431
 30
0.0
 11
3552.4367099999999
 21
5266.0220638745441
 31
0.0
  0
LINE
  5
80C7
  8
3
  6
CONTINUOUS
 62
     0
 10
2062.4367099999999
 20
5296.0220638745441
 30
0.0
 11
3492.436709999999
 21
5296.0220638745441
 31
0.0
  0
INSERT
  5
80C8
  8
3
  6
CONTINUOUS
 62
     0
  2
_OPEN
 10
2002.4367099999999
 20
5296.0220638745441
 30
0.0
 41
60.0
 42
60.0
 43
60.0
 50
180.0
  0
INSERT
  5
80C9
  8
3
  6
CONTINUOUS
 62
     0
  2
_OPEN
 10
3552.4367099999999
 20
5296.0220638745441
 30
0.0
 41
60.0
 42
60.0
 43
60.0
  0
TEXT
  8
3
  40
90
  5
810E
  62
0
  72
0
  71
0
 10
2609.01
 20
5211.72
 30
0.000000
  1
1550
  0
POINT
  5
80CB
  8
DEFPOINTS
  6
CONTINUOUS
 62
     0
 10
2002.4367099999999
 20
5680.1484688745431
 30
0.0
  0
POINT
  5
80CC
  8
DEFPOINTS
  6
CONTINUOUS
 62
     0
 10
3552.4367099999999
 20
5680.1484688745431
 30
0.0
  0
POINT
  5
80CD
  8
DEFPOINTS
  6
CONTINUOUS
 62
     0
 10
3552.4367099999999
 20
5296.0220638745441
 30
0.0
  0
ENDBLK
  5
7D10
  8
0
  0
BLOCK
  8
0
  2
*D12
 70
     1
 10
0.0
 20
0.0
 30
0.0
  3
*D12
  1

  0
LINE
  5
80CE
  8
3
  6
CONTINUOUS
 62
     0
 10
3567.436709999999
 20
6430.1484688745431
 30
0.0
 11
3869.4034069999998
 21
6430.1484688745431
 31
0.0
  0
LINE
  5
80CF
  8
3
  6
CONTINUOUS
 62
     0
 10
3567.436709999999
 20
5680.1484688745431
 30
0.0
 11
3869.4034069999998
 21
5680.1484688745431
 31
0.0
  0
LINE
  5
80D0
  8
3
  6
CONTINUOUS
 62
     0
 10
3839.4034070000012
 20
6370.1484688745431
 30
0.0
 11
3839.4034070000012
 21
5740.1484688745441
 31
0.0
  0
INSERT
  5
80D1
  8
3
  6
CONTINUOUS
 62
     0
  2
_OPEN
 10
3839.4034070000012
 20
6430.1484688745431
 30
0.0
 41
60.0
 42
60.0
 43
60.0
 50
90.0
  0
INSERT
  5
80D2
  8
3
  6
CONTINUOUS
 62
     0
  2
_OPEN
 10
3839.4034070000012
 20
5680.1484688745431
 30
0.0
 41
60.0
 42
60.0
 43
60.0
 50
270.0
  0
TEXT
  8
3
  40
90
  5
810F
  62
0
  72
0
  71
0
 10
3584.40
 20
5937.05
 30
0.000000
  1
750
  0
POINT
  5
80D4
  8
DEFPOINTS
  6
CONTINUOUS
 62
     0
 10
3552.4367099999999
 20
6430.1484688745431
 30
0.0
  0
POINT
  5
80D5
  8
DEFPOINTS
  6
CONTINUOUS
 62
     0
 10
3552.4367099999999
 20
5680.1484688745431
 30
0.0
  0
POINT
  5
80D6
  8
DEFPOINTS
  6
CONTINUOUS
 62
     0
 10
3839.4034070000012
 20
5680.1484688745431
 30
0.0
  0
ENDBLK
  5
7D05
  8
0
  0
BLOCK
  8
0
  2
*D13
 70
     1
 10
0.0
 20
0.0
 30
0.0
  3
*D13
  1

  0
LINE
  5
80D7
  8
3
  6
CONTINUOUS
 62
     0
 10
4478.1905748328127
 20
2230.214021874544
 30
0.0
 11
4478.1905748328127
 21
2010.92228758033
 31
0.0
  0
LINE
  5
80D8
  8
3
  6
CONTINUOUS
 62
     0
 10
4910.1905748328136
 20
2149.7548488745429
 30
0.0
 11
4910.1905748328136
 21
2010.92228758033
 31
0.0
  0
LINE
  5
80D9
  8
3
  6
CONTINUOUS
 62
     0
 10
4538.1905748328127
 20
2040.92228758033
 30
0.0
 11
4850.1905748328127
 21
2040.92228758033
 31
0.0
  0
INSERT
  5
80DA
  8
3
  6
CONTINUOUS
 62
     0
  2
_OPEN
 10
4478.1905748328127
 20
2040.92228758033
 30
0.0
 41
60.0
 42
60.0
 43
60.0
 50
180.0
  0
INSERT
  5
80DB
  8
3
  6
CONTINUOUS
 62
     0
  2
_OPEN
 10
4910.1905748328136
 20
2040.92228758033
 30
0.0
 41
60.0
 42
60.0
 43
60.0
  0
TEXT
  8
3
  40
90
  5
8110
  62
0
  72
0
  71
0
 10
4503.90
 20
1956.62
 30
0.000000
  1
432
  0
POINT
  5
80DD
  8
DEFPOINTS
  6
CONTINUOUS
 62
     0
 10
4478.1905748328127
 20
2245.214021874544
 30
0.0
  0
POINT
  5
80DE
  8
DEFPOINTS
  6
CONTINUOUS
 62
     0
 10
4910.1905748328136
 20
2164.7548488745429
 30
0.0
  0
POINT
  5
80DF
  8
DEFPOINTS
  6
CONTINUOUS
 62
     0
 10
4910.1905748328136
 20
2040.92228758033
 30
0.0
  0
ENDBLK
  5
7E0F
  8
0
  0
BLOCK
  8
0
  2
*D14
 70
     1
 10
0.0
 20
0.0
 30
0.0
  3
*D14
  1

  0
LINE
  5
7DFB
  8
0
  6
BYBLOCK
 62
     0
 10
4910.1905748328136
 20
2149.7548488745429
 30
0.0
 11
4910.1905748328136
 21
2010.22197258033
 31
0.0
  0
LINE
  5
7DFC
  8
0
  6
BYBLOCK
 62
     0
 10
5228.1905748328127
 20
2230.214021874544
 30
0.0
 11
5228.1905748328127
 21
2010.22197258033
 31
0.0
  0
LINE
  5
7DFD
  8
0
  6
BYBLOCK
 62
     0
 10
4970.1905748328127
 20
2040.22197258033
 30
0.0
 11
5168.1905748328127
 21
2040.22197258033
 31
0.0
  0
TEXT
  5
7DFE
  8
3
 62
     0
 10
4962.0477176899567
 20
2083.4653422182778
 30
0.0
 40
90.0
  1
318
  0
INSERT
  5
7DFF
  8
0
  6
BYBLOCK
 62
     0
  2
_OPEN
 10
4910.1905748328136
 20
2040.22197258033
 30
0.0
 41
60.0
 42
60.0
 43
60.0
 50
180.0
  0
INSERT
  5
7E00
  8
0
  6
BYBLOCK
 62
     0
  2
_OPEN
 10
5228.1905748328127
 20
2040.22197258033
 30
0.0
 41
60.0
 42
60.0
 43
60.0
  0
POINT
  5
7E01
  8
DEFPOINTS
  6
BYBLOCK
 62
     0
 10
4910.1905748328136
 20
2164.7548488745429
 30
0.0
  0
POINT
  5
7E02
  8
DEFPOINTS
  6
BYBLOCK
 62
     0
 10
5228.1905748328127
 20
2245.214021874544
 30
0.0
  0
POINT
  5
7E03
  8
DEFPOINTS
  6
BYBLOCK
 62
     0
 10
5228.1905748328127
 20
2040.22197258033
 30
0.0
  0
ENDBLK
  5
7E04
  8
0
  0
BLOCK
  8
0
  2
*D15
 70
     1
 10
0.0
 20
0.0
 30
0.0
  3
*D15
  1

  0
LINE
  5
80E0
  8
3
  6
CONTINUOUS
 62
     0
 10
5273.1905748328127
 20
3595.2140218745449
 30
0.0
 11
5527.3915614073539
 21
3595.2140218745449
 31
0.0
  0
LINE
  5
80E1
  8
3
  6
CONTINUOUS
 62
     0
 10
5273.1905748328127
 20
2885.214021874544
 30
0.0
 11
5527.3915614073539
 21
2885.214021874544
 31
0.0
  0
LINE
  5
80E2
  8
3
  6
CONTINUOUS
 62
     0
 10
5497.3915614073539
 20
3535.214021874544
 30
0.0
 11
5497.3915614073539
 21
2945.214021874544
 31
0.0
  0
INSERT
  5
80E3
  8
3
  6
CONTINUOUS
 62
     0
  2
_OPEN
 10
5497.3915614073539
 20
3595.2140218745449
 30
0.0
 41
60.0
 42
60.0
 43
60.0
 50
90.0
  0
INSERT
  5
80E4
  8
3
  6
CONTINUOUS
 62
     0
  2
_OPEN
 10
5497.3915614073539
 20
2885.214021874544
 30
0.0
 41
60.0
 42
60.0
 43
60.0
 50
270.0
  0
TEXT
  8
3
  40
90
  5
8111
  62
0
  72
0
  71
0
 10
5242.39
 20
3039.95
 30
0.000000
  1
φ710
  0
POINT
  5
80E6
  8
DEFPOINTS
  6
CONTINUOUS
 62
     0
 10
5258.1905748328136
 20
3595.2140218745449
 30
0.0
  0
POINT
  5
80E7
  8
DEFPOINTS
  6
CONTINUOUS
 62
     0
 10
5258.1905748328136
 20
2885.214021874544
 30
0.0
  0
POINT
  5
80E8
  8
DEFPOINTS
  6
CONTINUOUS
 62
     0
 10
5497.3915614073539
 20
2885.214021874544
 30
0.0
  0
ENDBLK
  5
7DCD
  8
0
  0
BLOCK
  8
0
  2
*D16
 70
     1
 10
0.0
 20
0.0
 30
0.0
  3
*D16
  1

  0
LINE
  5
80E9
  8
3
  6
CONTINUOUS
 62
     0
 10
4400.1905748328127
 20
3444.9140218745438
 30
0.0
 11
4400.1905748328127
 21
4152.5011731110799
 31
0.0
  0
LINE
  5
80EA
  8
3
  6
CONTINUOUS
 62
     0
 10
4910.1905748328136
 20
4057.7181041110812
 30
0.0
 11
4910.1905748328136
 21
4152.5011731110799
 31
0.0
  0
LINE
  5
80EB
  8
3
  6
CONTINUOUS
 62
     0
 10
4460.1905748328136
 20
4122.501173111079
 30
0.0
 11
4850.1905748328127
 21
4122.501173111079
 31
0.0
  0
INSERT
  5
80EC
  8
3
  6
CONTINUOUS
 62
     0
  2
_OPEN
 10
4400.1905748328127
 20
4122.501173111079
 30
0.0
 41
60.0
 42
60.0
 43
60.0
 50
180.0
  0
INSERT
  5
80ED
  8
3
  6
CONTINUOUS
 62
     0
  2
_OPEN
 10
4910.1905748328136
 20
4122.501173111079
 30
0.0
 41
60.0
 42
60.0
 43
60.0
  0
TEXT
  8
3
  40
90
  5
8112
  62
0
  72
0
  71
0
 10
4511.62
 20
4113.20
 30
0.000000
  1
MAX
  0
TEXT
  8
3
  40
90
  5
8113
  62
0
  72
0
  71
0
 10
4511.62
 20
3996.20
 30
0.000000
  1
590
  0
POINT
  5
80EF
  8
DEFPOINTS
  6
CONTINUOUS
 62
     0
 10
4400.1905748328127
 20
3429.9140218745438
 30
0.0
  0
POINT
  5
80F0
  8
DEFPOINTS
  6
CONTINUOUS
 62
     0
 10
4910.1905748328136
 20
4042.7181041110798
 30
0.0
  0
POINT
  5
80F1
  8
DEFPOINTS
  6
CONTINUOUS
 62
     0
 10
4910.1905748328136
 20
4122.501173111079
 30
0.0
  0
ENDBLK
  5
7DD8
  8
0
  0
BLOCK
  8
0
  2
*D17
 70
     1
 10
0.0
 20
0.0
 30
0.0
  3
*D17
  1

  0
LINE
  5
7DDA
  8
0
  6
BYBLOCK
 62
     0
 10
4910.1905748328136
 20
4057.7181041110812
 30
0.0
 11
4910.1905748328136
 21
4152.5011731110799
 31
0.0
  0
LINE
  5
7DDB
  8
0
  6
BYBLOCK
 62
     0
 10
5258.1905748328136
 20
3650.214021874544
 30
0.0
 11
5258.1905748328136
 21
4152.5011731110799
 31
0.0
  0
LINE
  5
7DDC
  8
0
  6
BYBLOCK
 62
     0
 10
4970.1905748328127
 20
4122.501173111079
 30
0.0
 11
5198.1905748328136
 21
4122.501173111079
 31
0.0
  0
TEXT
  5
7DDD
  8
3
 62
     0
 10
4968.4762891185292
 20
4166.7826536274624
 30
0.0
 40
90.0
  1
348
  0
INSERT
  5
7DDE
  8
0
  6
BYBLOCK
 62
     0
  2
_OPEN
 10
4910.1905748328136
 20
4122.501173111079
 30
0.0
 41
60.0
 42
60.0
 43
60.0
 50
180.0
  0
INSERT
  5
7DDF
  8
0
  6
BYBLOCK
 62
     0
  2
_OPEN
 10
5258.1905748328136
 20
4122.501173111079
 30
0.0
 41
60.0
 42
60.0
 43
60.0
  0
POINT
  5
7DE0
  8
DEFPOINTS
  6
BYBLOCK
 62
     0
 10
4910.1905748328136
 20
4042.7181041110798
 30
0.0
  0
POINT
  5
7DE1
  8
DEFPOINTS
  6
BYBLOCK
 62
     0
 10
5258.1905748328136
 20
3635.214021874544
 30
0.0
  0
POINT
  5
7DE2
  8
DEFPOINTS
  6
BYBLOCK
 62
     0
 10
5258.1905748328136
 20
4122.501173111079
 30
0.0
  0
ENDBLK
  5
7DE3
  8
0
  0
BLOCK
  8
0
  2
*D18
 70
     1
 10
0.0
 20
0.0
 30
0.0
  3
*D18
  1

  0
LINE
  5
80F2
  8
3
  6
CONTINUOUS
 62
     0
 10
4645.1905748328127
 20
3761.214021874544
 30
0.0
 11
4645.1905748328127
 21
3912.334125874544
 31
0.0
  0
LINE
  5
80F3
  8
3
  6
CONTINUOUS
 62
     0
 10
5175.1905748328127
 20
3761.214021874544
 30
0.0
 11
5175.1905748328127
 21
3912.334125874544
 31
0.0
  0
LINE
  5
80F4
  8
3
  6
CONTINUOUS
 62
     0
 10
4705.1905748328136
 20
3882.334125874544
 30
0.0
 11
5115.1905748328136
 21
3882.334125874544
 31
0.0
  0
INSERT
  5
80F5
  8
3
  6
CONTINUOUS
 62
     0
  2
_OPEN
 10
4645.1905748328127
 20
3882.334125874544
 30
0.0
 41
60.0
 42
60.0
 43
60.0
 50
180.0
  0
INSERT
  5
80F6
  8
3
  6
CONTINUOUS
 62
     0
  2
_OPEN
 10
5175.1905748328127
 20
3882.334125874544
 30
0.0
 41
60.0
 42
60.0
 43
60.0
  0
TEXT
  8
3
  40
90
  5
8114
  62
0
  72
0
  71
0
 10
4705.19
 20
3798.03
 30
0.000000
  1
530
  0
POINT
  5
80F8
  8
DEFPOINTS
  6
CONTINUOUS
 62
     0
 10
4645.1905748328127
 20
3746.214021874544
 30
0.0
  0
POINT
  5
80F9
  8
DEFPOINTS
  6
CONTINUOUS
 62
     0
 10
5175.1905748328127
 20
3746.214021874544
 30
0.0
  0
POINT
  5
80FA
  8
DEFPOINTS
  6
CONTINUOUS
 62
     0
 10
5175.1905748328127
 20
3882.334125874544
 30
0.0
  0
ENDBLK
  5
7CBF
  8
0
  0
BLOCK
  8
0
  2
*D19
 70
     1
 10
0.0
 20
0.0
 30
0.0
  3
*D19
  1

  0
LINE
  5
80FB
  8
3
 62
     0
 10
1952.436709999999
 20
3281.2140218745449
 30
0.0
 11
1952.436709999999
 21
4055.0961349400568
 31
0.0
  0
LINE
  5
80FC
  8
3
 62
     0
 10
3552.4367099999999
 20
2485.214021874544
 30
0.0
 11
3552.4367099999999
 21
4055.0961349400568
 31
0.0
  0
LINE
  5
80FD
  8
3
 62
     0
 10
2012.4367099999999
 20
4025.0961349400559
 30
0.0
 11
3492.436709999999
 21
4025.0961349400559
 31
0.0
  0
INSERT
  5
80FE
  8
3
 62
     0
  2
_OPEN
 10
1952.436709999999
 20
4025.0961349400559
 30
0.0
 41
60.0
 42
60.0
 43
60.0
 50
180.0
  0
INSERT
  5
80FF
  8
3
 62
     0
  2
_OPEN
 10
3552.4367099999999
 20
4025.0961349400559
 30
0.0
 41
60.0
 42
60.0
 43
60.0
  0
TEXT
  8
3
  40
90
  5
8115
  62
0
  72
0
  71
0
 10
2546.07
 20
3940.80
 30
0.000000
  1
1600
  0
POINT
  5
8101
  8
DEFPOINTS
 62
     0
 10
1952.436709999999
 20
3266.214021874544
 30
0.0
  0
POINT
  5
8102
  8
DEFPOINTS
 62
     0
 10
3552.4367099999999
 20
2470.214021874544
 30
0.0
  0
POINT
  5
8103
  8
DEFPOINTS
 62
     0
 10
3552.4367099999999
 20
4025.0961349400559
 30
0.0
  0
ENDBLK
  5
7E1B
  8
0
  0
ENDSEC
  0
SECTION
  2
ENTITIES
  0
LINE
  5
7A8F
  8
1
  6
CONTINUOUS
 10
3278.632936
 20
2561.6008138745442
 30
0.0
 11
2378.632936
 21
3121.6008138745428
 31
0.0
  0
LINE
  5
7A90
  8
1
  6
CONTINUOUS
 10
3252.217842
 20
2519.147983874544
 30
0.0
 11
2352.2178419999991
 21
3079.147983874544
 31
0.0
  0
ARC
  5
7A91
  8
1
  6
CONTINUOUS
 10
3352.4367099999999
 20
2680.214021874544
 30
0.0
 40
189.69999999999999
 50
238.109208
 51
58.109207999999988
  0
ARC
  5
7A92
  8
1
  6
CONTINUOUS
 10
2399.4367099999999
 20
3187.214021874544
 30
0.0
 40
665.0
 50
274.571279
 51
4.5712789999999988
  0
LINE
  5
7A93
  8
1
  6
CONTINUOUS
 10
1952.436709999999
 20
2441.214021874544
 30
0.0
 11
1952.436709999999
 21
3251.214021874544
 31
0.0
  0
LINE
  5
7A94
  8
1
  6
CONTINUOUS
 10
1992.4367099999999
 20
2484.6632538745439
 30
0.0
 11
1992.4367099999999
 21
3211.214021874544
 31
0.0
  0
ARC
  5
7A95
  8
1
  6
CONTINUOUS
 10
3352.4367099999999
 20
2680.214021874544
 30
0.0
 40
162.0
 50
324.972283
 51
215.02771699999991
  0
CIRCLE
  5
7A96
  8
1
  6
CONTINUOUS
 10
3352.4367099999999
 20
2680.214021874544
 30
0.0
 40
139.69999999999999
  0
LINE
  5
7A97
  8
2
  6
CENTER
 10
3352.4367099999999
 20
2535.5140218745441
 30
0.0
 11
3352.4367099999999
 21
2824.9140218745438
 31
0.0
  0
LINE
  5
7A98
  8
1
  6
CONTINUOUS
 10
3552.4367099999999
 20
2345.214021874544
 30
0.0
 11
2002.4367099999999
 21
2345.214021874544
 31
0.0
  0
LINE
  5
7A99
  8
1
  6
CONTINUOUS
 10
3552.4367099999999
 20
2245.214021874544
 30
0.0
 11
2002.4367099999999
 21
2245.214021874544
 31
0.0
  0
LINE
  5
7A9A
  8
1
  6
CONTINUOUS
 10
3552.4367099999999
 20
2370.214021874544
 30
0.0
 11
2002.4367099999999
 21
2370.214021874544
 31
0.0
  0
LINE
  5
7A9B
  8
1
  6
CONTINUOUS
 10
3552.4367099999999
 20
2470.214021874544
 30
0.0
 11
2002.4367099999999
 21
2470.214021874544
 31
0.0
  0
LINE
  5
7A9C
  8
1
  6
CONTINUOUS
 10
2452.4367099999999
 20
2524.3294168745442
 30
0.0
 11
1952.436709999999
 21
2481.214021874544
 31
0.0
  0
LINE
  5
7A9D
  8
1
  6
CONTINUOUS
 10
2002.4367099999999
 20
2345.214021874544
 30
0.0
 11
2002.4367099999999
 21
2245.214021874544
 31
0.0
  0
LINE
  5
7A9E
  8
1
  6
CONTINUOUS
 10
2002.4367099999999
 20
2470.214021874544
 30
0.0
 11
2002.4367099999999
 21
2370.214021874544
 31
0.0
  0
LINE
  5
7A9F
  8
1
  6
CONTINUOUS
 10
3552.4367099999999
 20
2345.214021874544
 30
0.0
 11
3552.4367099999999
 21
2245.214021874544
 31
0.0
  0
LINE
  5
7AA0
  8
1
  6
CONTINUOUS
 10
3552.4367099999999
 20
2470.214021874544
 30
0.0
 11
3552.4367099999999
 21
2370.214021874544
 31
0.0
  0
LINE
  5
7AA1
  8
1
  6
CONTINUOUS
 10
3198.4367099999999
 20
2538.214021874544
 30
0.0
 11
3219.7790439999999
 21
2587.2304548745442
 31
0.0
  0
LINE
  5
7AA2
  8
1
  6
CONTINUOUS
 10
3198.4367099999999
 20
2520.214021874544
 30
0.0
 11
3198.4367099999999
 21
2538.214021874544
 31
0.0
  0
LINE
  5
7AA3
  8
1
  6
CONTINUOUS
 10
3506.4367099999999
 20
2520.214021874544
 30
0.0
 11
3506.4367099999999
 21
2538.214021874544
 31
0.0
  0
LINE
  5
7AA4
  8
1
  6
CONTINUOUS
 10
3506.4367099999999
 20
2538.214021874544
 30
0.0
 11
3485.094376
 21
2587.2304548745442
 31
0.0
  0
LINE
  5
7AA5
  8
1
  6
CONTINUOUS
 10
3549.9367099999999
 20
2470.214021874544
 30
0.0
 11
3549.9367099999999
 21
2520.214021874544
 31
0.0
  0
LINE
  5
7AA6
  8
1
  6
CONTINUOUS
 10
3154.9367099999999
 20
2470.214021874544
 30
0.0
 11
3154.9367099999999
 21
2520.214021874544
 31
0.0
  0
LINE
  5
7AA7
  8
1
  6
CONTINUOUS
 10
3154.9367099999999
 20
2520.214021874544
 30
0.0
 11
3549.9367099999999
 21
2520.214021874544
 31
0.0
  0
LINE
  5
7AA8
  8
1
  6
CONTINUOUS
 10
3426.2404839999999
 20
2798.8272298745442
 30
0.0
 11
2526.2404839999999
 21
3358.8272298745442
 31
0.0
  0
LINE
  5
7AA9
  8
1
  6
CONTINUOUS
 10
3452.6555779999999
 20
2841.280059874543
 30
0.0
 11
2552.655577999999
 21
3401.280059874543
 31
0.0
  0
ARC
  5
7AAA
  8
1
  6
CONTINUOUS
 10
2505.4367099999999
 20
3187.214021874544
 30
0.0
 40
559.0
 50
5.4405089999999987
 51
95.440509000000006
  0
ARC
  5
7AAB
  8
1
  6
CONTINUOUS
 10
2494.4367099999999
 20
3282.214021874544
 30
0.0
 40
464.0
 50
95.193364000000017
 51
185.193364
  0
CIRCLE
  5
7AAC
  8
1
  6
CONTINUOUS
 10
2452.4367099999999
 20
3240.214021874544
 30
0.0
 40
355.0
  0
CIRCLE
  5
7AAD
  8
1
  6
CONTINUOUS
 10
2452.4367099999999
 20
3240.214021874544
 30
0.0
 40
395.0
  0
ARC
  5
7AAE
  8
1
  6
CONTINUOUS
 10
2452.4367099999999
 20
3240.214021874544
 30
0.0
 40
189.69999999999999
 50
58.109207999999988
 51
238.109208
  0
CIRCLE
  5
7AAF
  8
1
  6
CONTINUOUS
 10
2452.4367099999999
 20
3240.214021874544
 30
0.0
 40
139.69999999999999
  0
LINE
  5
7AB0
  8
2
  6
CENTER
 10
5374.2195738328137
 20
3240.214021874544
 30
0.0
 11
4324.7115038328138
 21
3240.214021874544
 31
0.0
  0
ARC
  5
7AB1
  8
1
  6
CONTINUOUS
 10
2410.4367099999999
 20
3282.214021874544
 30
0.0
 40
380.0
 50
186.34565599999999
 51
190.76855
  0
LINE
  5
7AB2
  8
1
  6
CONTINUOUS
 10
2037.128526
 20
3211.214021874544
 30
0.0
 11
1952.436709999999
 21
3211.214021874544
 31
0.0
  0
LINE
  5
7AB3
  8
2
  6
CENTER
 10
2452.4367099999999
 20
6545.0405728745454
 30
0.0
 11
2452.4367099999999
 21
5525.9515008745439
 31
0.0
  0
LINE
  5
7AB4
  8
2
  6
CENTER
 10
3497.1367100000011
 20
2680.214021874544
 30
0.0
 11
3207.7367100000001
 21
2680.214021874544
 31
0.0
  0
LINE
  5
7AB5
  8
1
  6
CONTINUOUS
 10
3552.4367099999999
 20
6430.1484688745431
 30
0.0
 11
2807.4367099999999
 21
6430.1484688745431
 31
0.0
  0
LINE
  5
7AB6
  8
1
  6
CONTINUOUS
 10
3064.4367099999999
 20
6377.1484688745431
 30
0.0
 11
1952.436709999999
 21
6377.1484688745431
 31
0.0
  0
LINE
  5
7AB7
  8
1
  6
CONTINUOUS
 10
3064.4367099999999
 20
5847.1484688745431
 30
0.0
 11
1952.436709999999
 21
5847.1484688745431
 31
0.0
  0
LINE
  5
7AB8
  8
1
  6
CONTINUOUS
 10
3212.7367100000001
 20
5680.1484688745431
 30
0.0
 11
2592.1367100000011
 21
5680.1484688745431
 31
0.0
  0
LINE
  5
7AB9
  8
1
  6
CONTINUOUS
 10
3542.1367100000002
 20
5602.1484688745431
 30
0.0
 11
2262.7367099999992
 21
5602.1484688745431
 31
0.0
  0
LINE
  5
7ABA
  8
1
  6
CONTINUOUS
 10
3542.1367100000002
 20
5712.1484688745431
 30
0.0
 11
2262.7367099999992
 21
5712.1484688745431
 31
0.0
  0
LINE
  5
7ABB
  8
1
  6
CONTINUOUS
 10
1952.436709999999
 20
5807.1484688745441
 30
0.0
 11
1952.436709999999
 21
6417.1484688745431
 31
0.0
  0
LINE
  5
7ABC
  8
1
  6
CONTINUOUS
 10
1992.4367099999999
 20
5847.1484688745431
 30
0.0
 11
1992.4367099999999
 21
6377.1484688745431
 31
0.0
  0
LINE
  5
7ABD
  8
1
  6
CONTINUOUS
 10
2592.1367100000011
 20
5610.1484688745431
 30
0.0
 11
2312.7367100000001
 21
5610.1484688745431
 31
0.0
  0
LINE
  5
7ABE
  8
1
  6
CONTINUOUS
 10
2592.1367100000011
 20
5695.1484688745431
 30
0.0
 11
2312.7367100000001
 21
5695.1484688745431
 31
0.0
  0
LINE
  5
7ABF
  8
1
  6
CONTINUOUS
 10
2002.4367099999999
 20
5680.1484688745431
 30
0.0
 11
2002.4367099999999
 21
5847.1484688745431
 31
0.0
  0
LINE
  5
7AC0
  8
1
  6
CONTINUOUS
 10
2312.7367100000001
 20
5680.1484688745431
 30
0.0
 11
2002.4367099999999
 21
5680.1484688745431
 31
0.0
  0
LINE
  5
7AC1
  8
1
  6
CONTINUOUS
 10
2312.7367100000001
 20
5610.1484688745431
 30
0.0
 11
2312.7367100000001
 21
5695.1484688745431
 31
0.0
  0
LINE
  5
7AC2
  8
1
  6
CONTINUOUS
 10
2262.7367099999992
 20
5602.1484688745431
 30
0.0
 11
2262.7367099999992
 21
5712.1484688745431
 31
0.0
  0
LINE
  5
7AC3
  8
1
  6
CONTINUOUS
 10
2474.9367099999999
 20
5695.1484688745431
 30
0.0
 11
2474.9367099999999
 21
5847.1484688745431
 31
0.0
  0
LINE
  5
7AC4
  8
1
  6
CONTINUOUS
 10
2429.9367099999999
 20
5695.1484688745431
 30
0.0
 11
2429.9367099999999
 21
5847.1484688745431
 31
0.0
  0
LINE
  5
7AC5
  8
1
  6
CONTINUOUS
 10
2592.1367100000011
 20
5610.1484688745431
 30
0.0
 11
2592.1367100000011
 21
5695.1484688745431
 31
0.0
  0
LINE
  5
7AC6
  8
1
  6
CONTINUOUS
 10
2847.4367099999999
 20
6460.1484688745422
 30
0.0
 11
2057.4367099999999
 21
6460.1484688745422
 31
0.0
  0
LINE
  5
7AC7
  8
1
  6
CONTINUOUS
 10
2002.4367099999999
 20
6377.1484688745431
 30
0.0
 11
2002.4367099999999
 21
6430.1484688745431
 31
0.0
  0
LINE
  5
7AC8
  8
1
  6
CONTINUOUS
 10
2097.436709999999
 20
6377.1484688745431
 30
0.0
 11
2097.436709999999
 21
6460.1484688745422
 31
0.0
  0
LINE
  5
7AC9
  8
1
  6
CONTINUOUS
 10
2097.436709999999
 20
6430.1484688745431
 30
0.0
 11
2002.4367099999999
 21
6430.1484688745431
 31
0.0
  0
LINE
  5
7ACA
  8
1
  6
CONTINUOUS
 10
2807.4367099999999
 20
6377.1484688745431
 30
0.0
 11
2807.4367099999999
 21
6460.1484688745422
 31
0.0
  0
LINE
  5
7ACB
  8
1
  6
CONTINUOUS
 10
3552.4367099999999
 20
5680.1484688745431
 30
0.0
 11
3552.4367099999999
 21
6430.1484688745431
 31
0.0
  0
LINE
  5
7ACC
  8
1
  6
CONTINUOUS
 10
3064.4367099999999
 20
5847.1484688745431
 30
0.0
 11
3064.4367099999999
 21
6377.1484688745431
 31
0.0
  0
LINE
  5
7ACD
  8
1
  6
CONTINUOUS
 10
3190.4367099999999
 20
5735.1484688745431
 30
0.0
 11
3190.4367099999999
 21
6272.1484688745441
 31
0.0
  0
LINE
  5
7ACE
  8
1
  6
CONTINUOUS
 10
3514.4367099999999
 20
5735.1484688745431
 30
0.0
 11
3514.4367099999999
 21
6272.1484688745441
 31
0.0
  0
LINE
  5
7ACF
  8
1
  6
CONTINUOUS
 10
3552.4367099999999
 20
5680.1484688745431
 30
0.0
 11
3492.1367100000002
 21
5680.1484688745431
 31
0.0
  0
LINE
  5
7AD0
  8
1
  6
CONTINUOUS
 10
3331.4367099999999
 20
5695.1484688745431
 30
0.0
 11
3331.4367099999999
 21
5735.1484688745431
 31
0.0
  0
LINE
  5
7AD1
  8
1
  6
CONTINUOUS
 10
3373.4367099999999
 20
5695.1484688745431
 30
0.0
 11
3373.4367099999999
 21
5735.1484688745431
 31
0.0
  0
LINE
  5
7AD2
  8
1
  6
CONTINUOUS
 10
3514.4367099999999
 20
5735.1484688745431
 30
0.0
 11
3190.4367099999999
 21
5735.1484688745431
 31
0.0
  0
LINE
  5
7AD3
  8
1
  6
CONTINUOUS
 10
3492.1367100000002
 20
5695.1484688745431
 30
0.0
 11
3212.7367100000001
 21
5695.1484688745431
 31
0.0
  0
LINE
  5
7AD4
  8
1
  6
CONTINUOUS
 10
3492.1367100000002
 20
5610.1484688745431
 30
0.0
 11
3212.7367100000001
 21
5610.1484688745431
 31
0.0
  0
LINE
  5
7AD5
  8
1
  6
CONTINUOUS
 10
3212.7367100000001
 20
5610.1484688745431
 30
0.0
 11
3212.7367100000001
 21
5695.1484688745431
 31
0.0
  0
LINE
  5
7AD6
  8
1
  6
CONTINUOUS
 10
3492.1367100000002
 20
5610.1484688745431
 30
0.0
 11
3492.1367100000002
 21
5695.1484688745431
 31
0.0
  0
LINE
  5
7AD7
  8
1
  6
CONTINUOUS
 10
3542.1367100000002
 20
5602.1484688745431
 30
0.0
 11
3542.1367100000002
 21
5712.1484688745431
 31
0.0
  0
LINE
  5
7AD8
  8
1
  6
CONTINUOUS
 10
3514.4367099999999
 20
6272.1484688745441
 30
0.0
 11
3190.4367099999999
 21
6272.1484688745441
 31
0.0
  0
LINE
  5
7ADA
  8
1
  6
CONTINUOUS
 10
4510.1905748328127
 20
2490.5140218745441
 30
0.0
 11
4510.1905748328127
 21
3429.9140218745438
 31
0.0
  0
LINE
  5
7ADB
  8
1
  6
CONTINUOUS
 10
4400.1905748328127
 20
2490.5140218745441
 30
0.0
 11
4400.1905748328127
 21
3429.9140218745438
 31
0.0
  0
LINE
  5
7ADC
  8
1
  6
CONTINUOUS
 10
4533.1905748328136
 20
2842.214021874544
 30
0.0
 11
4533.1905748328136
 21
2470.214021874544
 31
0.0
  0
LINE
  5
7ADD
  8
1
  6
CONTINUOUS
 10
4645.1905748328127
 20
3746.214021874544
 30
0.0
 11
4645.1905748328127
 21
2470.214021874544
 31
0.0
  0
LINE
  5
7ADE
  8
1
  6
CONTINUOUS
 10
5175.1905748328127
 20
3746.214021874544
 30
0.0
 11
5175.1905748328127
 21
2470.214021874544
 31
0.0
  0
LINE
  5
7ADF
  8
1
  6
CONTINUOUS
 10
4493.1905748328127
 20
2819.9140218745438
 30
0.0
 11
4493.1905748328127
 21
2540.5140218745441
 31
0.0
  0
LINE
  5
7AE0
  8
1
  6
CONTINUOUS
 10
4408.1905748328136
 20
2819.9140218745438
 30
0.0
 11
4408.1905748328136
 21
2540.5140218745441
 31
0.0
  0
LINE
  5
7AE1
  8
1
  6
CONTINUOUS
 10
4645.1905748328127
 20
3211.214021874544
 30
0.0
 11
5175.1905748328127
 21
2481.214021874544
 31
0.0
  0
LINE
  5
7AE2
  8
1
  6
CONTINUOUS
 10
5175.1905748328127
 20
3211.214021874544
 30
0.0
 11
4645.1905748328127
 21
2481.214021874544
 31
0.0
  0
LINE
  5
7AE3
  8
1
  6
CONTINUOUS
 10
4478.1905748328127
 20
2345.214021874544
 30
0.0
 11
5228.1905748328127
 21
2345.214021874544
 31
0.0
  0
LINE
  5
7AE4
  8
1
  6
CONTINUOUS
 10
4478.1905748328127
 20
2245.214021874544
 30
0.0
 11
5228.1905748328127
 21
2245.214021874544
 31
0.0
  0
LINE
  5
7AE5
  8
1
  6
CONTINUOUS
 10
4478.1905748328127
 20
2370.214021874544
 30
0.0
 11
5228.1905748328127
 21
2370.214021874544
 31
0.0
  0
LINE
  5
7AE6
  8
1
  6
CONTINUOUS
 10
4478.1905748328127
 20
2470.214021874544
 30
0.0
 11
5228.1905748328127
 21
2470.214021874544
 31
0.0
  0
LINE
  5
7AE7
  8
1
  6
CONTINUOUS
 10
4645.1905748328127
 20
2481.214021874544
 30
0.0
 11
5175.1905748328127
 21
2481.214021874544
 31
0.0
  0
LINE
  5
7AE8
  8
1
  6
CONTINUOUS
 10
4478.1905748328127
 20
2345.214021874544
 30
0.0
 11
4478.1905748328127
 21
2245.214021874544
 31
0.0
  0
LINE
  5
7AE9
  8
1
  6
CONTINUOUS
 10
4400.1905748328127
 20
2490.5140218745441
 30
0.0
 11
4510.1905748328127
 21
2490.5140218745441
 31
0.0
  0
LINE
  5
7AEA
  8
1
  6
CONTINUOUS
 10
4408.1905748328136
 20
2540.5140218745441
 30
0.0
 11
4493.1905748328127
 21
2540.5140218745441
 31
0.0
  0
LINE
  5
7AEB
  8
1
  6
CONTINUOUS
 10
4645.1905748328127
 20
2520.214021874544
 30
0.0
 11
4533.1905748328136
 21
2520.214021874544
 31
0.0
  0
LINE
  5
7AEC
  8
1
  6
CONTINUOUS
 10
4478.1905748328127
 20
2470.214021874544
 30
0.0
 11
4478.1905748328127
 21
2370.214021874544
 31
0.0
  0
LINE
  5
7AED
  8
1
  6
CONTINUOUS
 10
5228.1905748328127
 20
2345.214021874544
 30
0.0
 11
5228.1905748328127
 21
2245.214021874544
 31
0.0
  0
LINE
  5
7AEE
  8
1
  6
CONTINUOUS
 10
5228.1905748328127
 20
2470.214021874544
 30
0.0
 11
5228.1905748328127
 21
2370.214021874544
 31
0.0
  0
LINE
  5
7AEF
  8
1
  6
CONTINUOUS
 10
5258.1905748328136
 20
3635.214021874544
 30
0.0
 11
5258.1905748328136
 21
2845.214021874544
 31
0.0
  0
LINE
  5
7AF0
  8
1
  6
CONTINUOUS
 10
4645.1905748328127
 20
3211.214021874544
 30
0.0
 11
5175.1905748328127
 21
3211.214021874544
 31
0.0
  0
LINE
  5
7AF1
  8
1
  6
CONTINUOUS
 10
4400.1905748328127
 20
3429.9140218745438
 30
0.0
 11
4510.1905748328127
 21
3429.9140218745438
 31
0.0
  0
LINE
  5
7AF2
  8
1
  6
CONTINUOUS
 10
4533.1905748328136
 20
2842.214021874544
 30
0.0
 11
4645.1905748328127
 21
2842.214021874544
 31
0.0
  0
LINE
  5
7AF3
  8
1
  6
CONTINUOUS
 10
4493.1905748328127
 20
2659.214021874544
 30
0.0
 11
4533.1905748328136
 21
2659.214021874544
 31
0.0
  0
LINE
  5
7AF4
  8
1
  6
CONTINUOUS
 10
4493.1905748328127
 20
2701.214021874544
 30
0.0
 11
4533.1905748328136
 21
2701.214021874544
 31
0.0
  0
LINE
  5
7AF5
  8
1
  6
CONTINUOUS
 10
4408.1905748328136
 20
3100.5140218745441
 30
0.0
 11
4493.1905748328127
 21
3100.5140218745441
 31
0.0
  0
LINE
  5
7AF6
  8
1
  6
CONTINUOUS
 10
4408.1905748328136
 20
3379.9140218745438
 30
0.0
 11
4493.1905748328127
 21
3379.9140218745438
 31
0.0
  0
LINE
  5
7AF7
  8
1
  6
CONTINUOUS
 10
4408.1905748328136
 20
3379.9140218745438
 30
0.0
 11
4408.1905748328136
 21
3100.5140218745441
 31
0.0
  0
LINE
  5
7AF8
  8
1
  6
CONTINUOUS
 10
4493.1905748328127
 20
3379.9140218745438
 30
0.0
 11
4493.1905748328127
 21
3100.5140218745441
 31
0.0
  0
LINE
  5
7AF9
  8
1
  6
CONTINUOUS
 10
4493.1905748328127
 20
3262.714021874544
 30
0.0
 11
4645.1905748328127
 21
3262.714021874544
 31
0.0
  0
LINE
  5
7AFA
  8
1
  6
CONTINUOUS
 10
4493.1905748328127
 20
3217.714021874544
 30
0.0
 11
4645.1905748328127
 21
3217.714021874544
 31
0.0
  0
LINE
  5
7AFB
  8
1
  6
CONTINUOUS
 10
4408.1905748328136
 20
2819.9140218745438
 30
0.0
 11
4493.1905748328127
 21
2819.9140218745438
 31
0.0
  0
LINE
  5
7AFC
  8
1
  6
CONTINUOUS
 10
5175.1905748328127
 20
2885.214021874544
 30
0.0
 11
5258.1905748328136
 21
2885.214021874544
 31
0.0
  0
LINE
  5
7AFD
  8
1
  6
CONTINUOUS
 10
4645.1905748328127
 20
3746.214021874544
 30
0.0
 11
5175.1905748328127
 21
3746.214021874544
 31
0.0
  0
LINE
  5
7AFE
  8
1
  6
CONTINUOUS
 10
5175.1905748328127
 20
3595.2140218745449
 30
0.0
 11
5258.1905748328136
 21
3595.2140218745449
 31
0.0
  0
POINT
  5
7B1C
  8
1
  6
CONTINUOUS
 10
4478.1905748328127
 20
2370.214021874544
 30
0.0
  0
POINT
  5
7B1D
  8
1
  6
CONTINUOUS
 10
4478.1905748328127
 20
2345.214021874544
 30
0.0
  0
DIMENSION
  5
7B42
  8
3
  6
CONTINUOUS
  2
*D1
 10
2452.4367099999999
 20
2041.388075932218
 30
0.0
 11
2208.1509957142848
 21
2041.388075932218
 31
0.0
 70
   128
 13
2002.4367099999999
 23
2245.214021874544
 33
0.0
 14
2452.4367099999999
 24
2109.476580932218
 34
0.0
1001
ACAD
1000
DSTYLE
1002
{
1070
   287
1070
     3
1070
   287
1070
     3
1070
    40
1040
30.0
1070
   143
1040
0.039
1070
   172
1070
     1
1070
   271
1070
     0
1070
   279
1070
     0
1070
   288
1070
     1
1002
}
  0
DIMENSION
  5
7B4E
  8
3
  6
CONTINUOUS
  2
*D2
 10
3552.4367099999999
 20
2041.388075932218
 30
0.0
 11
3002.4367099999999
 21
2116.3880759322178
 31
0.0
 70
     0
 13
2452.4367099999999
 23
2109.476580932218
 33
0.0
 14
3552.4367099999999
 24
2245.214021874544
 34
0.0
1001
ACAD
1000
DSTYLE
1002
{
1070
   287
1070
     3
1070
   287
1070
     3
1070
    40
1040
30.0
1070
   143
1040
0.039
1070
   172
1070
     1
1070
   271
1070
     0
1070
   279
1070
     0
1070
   288
1070
     1
1002
}
  0
DIMENSION
  5
7B5B
  8
3
  6
CONTINUOUS
  2
*D3
 10
1731.9156680000001
 20
2481.214021874544
 30
0.0
 11
1731.915667999999
 21
2872.498687874544
 31
0.0
 70
   128
 13
1952.436709999999
 23
3211.214021874544
 33
0.0
 14
1952.436709999999
 24
2481.214021874544
 34
0.0
 50
90.0
1001
ACAD
1000
DSTYLE
1002
{
1070
   287
1070
     3
1070
   287
1070
     3
1070
    40
1040
30.0
1070
   143
1040
0.039
1070
   172
1070
     1
1070
   271
1070
     0
1070
   279
1070
     0
1070
   288
1070
     1
1002
}
  0
DIMENSION
  5
7B75
  8
3
  6
CONTINUOUS
  2
*D4
 10
1548.6864929999999
 20
3240.214021874544
 30
0.0
 11
1548.6864929999999
 21
2883.7621738745438
 31
0.0
 70
   128
 13
1952.436709999999
 23
2481.214021874544
 33
0.0
 14
2032.341480999999
 24
3240.214021874544
 34
0.0
 50
90.0
1001
ACAD
1000
DSTYLE
1002
{
1070
   287
1070
     3
1070
   287
1070
     3
1070
    40
1040
30.0
1070
   143
1040
0.039
1070
   172
1070
     1
1070
   271
1070
     0
1070
   279
1070
     0
1070
   288
1070
     1
1002
}
  0
DIMENSION
  5
7B82
  8
3
  6
CONTINUOUS
  2
*D5
 10
1365.4572780000001
 20
3240.214021874544
 30
0.0
 11
1365.4572780000001
 21
3480.214021874544
 31
0.0
 70
   128
 13
2452.4367099999999
 23
3746.214021874544
 33
0.0
 14
2032.341480999999
 24
3240.214021874544
 34
0.0
 50
90.0
1001
ACAD
1000
DSTYLE
1002
{
1070
   287
1070
     3
1070
   287
1070
     3
1070
    40
1040
30.0
1070
   143
1040
0.039
1070
   172
1070
     1
1070
   271
1070
     0
1070
   279
1070
     0
1070
   288
1070
     1
1002
}
  0
DIMENSION
  5
7B8E
  8
3
  6
CONTINUOUS
  2
*D6
 10
1365.4572780000001
 20
2370.214021874544
 30
0.0
 11
1290.457277999999
 21
2805.2140218745449
 31
0.0
 70
     0
 13
2032.341480999999
 23
3240.214021874544
 33
0.0
 14
2002.4367099999999
 24
2370.214021874544
 34
0.0
 50
90.0
1001
ACAD
1000
DSTYLE
1002
{
1070
   287
1070
     3
1070
   287
1070
     3
1070
    40
1040
30.0
1070
   143
1040
0.039
1070
   172
1070
     1
1070
   271
1070
     0
1070
   279
1070
     0
1070
   288
1070
     1
1002
}
  0
DIMENSION
  5
7B9E
  8
3
  6
CONTINUOUS
  2
*D7
 10
1365.4572780000001
 20
2245.214021874544
 30
0.0
 11
1365.4572780000001
 21
1988.0711647316871
 31
0.0
 70
   128
 13
2002.4367099999999
 23
2370.214021874544
 33
0.0
 14
2002.4367099999999
 24
2245.214021874544
 34
0.0
 50
90.0
1001
ACAD
1000
DSTYLE
1002
{
1070
   287
1070
     3
1070
   287
1070
     3
1070
    40
1040
30.0
1070
   143
1040
0.039
1070
   172
1070
     1
1070
   271
1070
     0
1070
   279
1070
     0
1070
   288
1070
     1
1002
}
  0
DIMENSION
  5
7BC5
  8
3
  6
CONTINUOUS
  2
*D8
 10
1161.086280999999
 20
2245.214021874544
 30
0.0
 11
1161.086280999999
 21
3017.2124908745441
 31
0.0
 70
   128
 13
2452.4367099999999
 23
3746.214021874544
 33
0.0
 14
2002.4367099999999
 24
2245.214021874544
 34
0.0
 50
90.0
1001
ACAD
1000
DSTYLE
1002
{
1070
   287
1070
     3
1070
   287
1070
     3
1070
    40
1040
30.0
1070
   143
1040
0.039
1070
   172
1070
     1
1070
   271
1070
     0
1070
   279
1070
     0
1070
   288
1070
     1
1002
}
  0
DIMENSION
  5
7BD2
  8
3
  6
CONTINUOUS
  2
*D9
 10
2452.4367099999999
 20
3845.7131468745438
 30
0.0
 11
2212.436709999999
 21
3845.7131468745438
 31
0.0
 70
   128
 13
1952.436709999999
 23
3251.214021874544
 33
0.0
 14
2452.4367099999999
 24
3744.3092498745441
 34
0.0
1001
ACAD
1000
DSTYLE
1002
{
1070
   287
1070
     3
1070
   287
1070
     3
1070
    40
1040
30.0
1070
   143
1040
0.039
1070
   172
1070
     1
1070
   271
1070
     0
1070
   279
1070
     0
1070
   288
1070
     1
1002
}
  0
DIMENSION
  5
7BDE
  8
3
  6
CONTINUOUS
  2
*D10
 10
3064.4367099999999
 20
3845.7131468745438
 30
0.0
 11
2758.4367099999999
 21
3920.7131468745438
 31
0.0
 70
     0
 13
2452.4367099999999
 23
3744.3092498745441
 33
0.0
 14
3064.4367099999999
 24
3240.214021874544
 34
0.0
1001
ACAD
1000
DSTYLE
1002
{
1070
   287
1070
     3
1070
   287
1070
     3
1070
    40
1040
30.0
1070
   143
1040
0.039
1070
   172
1070
     1
1070
   271
1070
     0
1070
   279
1070
     0
1070
   288
1070
     1
1002
}
  0
DIMENSION
  5
7BEB
  8
3
  6
CONTINUOUS
  2
*D11
 10
3552.4367099999999
 20
5296.0220638745441
 30
0.0
 11
2789.0071979999998
 21
5296.0220638745441
 31
0.0
 70
   128
 13
2002.4367099999999
 23
5680.1484688745431
 33
0.0
 14
3552.4367099999999
 24
5680.1484688745431
 34
0.0
1001
ACAD
1000
DSTYLE
1002
{
1070
   287
1070
     3
1070
   287
1070
     3
1070
    40
1040
30.0
1070
   143
1040
0.039
1070
   172
1070
     1
1070
   271
1070
     0
1070
   279
1070
     0
1070
   288
1070
     1
1002
}
  0
DIMENSION
  5
7BF8
  8
3
  6
CONTINUOUS
  2
*D12
 10
3839.4034070000012
 20
5680.1484688745431
 30
0.0
 11
3839.4034069999989
 21
6096.3542148745437
 31
0.0
 70
   128
 13
3552.4367099999999
 23
6430.1484688745431
 33
0.0
 14
3552.4367099999999
 24
5680.1484688745431
 34
0.0
 50
90.0
1001
ACAD
1000
DSTYLE
1002
{
1070
   287
1070
     3
1070
   287
1070
     3
1070
    40
1040
30.0
1070
   143
1040
0.039
1070
   172
1070
     1
1070
   271
1070
     0
1070
   279
1070
     0
1070
   288
1070
     1
1002
}
  0
LINE
  5
7BF9
  8
2
  6
CENTER
 10
3201.8586109999992
 20
6112.1484688745431
 30
0.0
 11
1837.976797999999
 21
6112.1484688745431
 31
0.0
  0
LINE
  5
7BFA
  8
2
  6
CENTER
 10
2452.4367099999999
 20
3779.5034038745439
 30
0.0
 11
2452.4367099999999
 21
2134.1240289322168
 31
0.0
  0
LINE
  5
7BFB
  8
2
  6
CENTER
 10
4910.1905748328136
 20
3847.1234818745438
 30
0.0
 11
4910.1905748328136
 21
2164.7548488745429
 31
0.0
  0
DIMENSION
  5
7C0A
  8
3
  6
CONTINUOUS
  2
*D13
 10
4910.1905748328136
 20
2040.92228758033
 30
0.0
 11
4683.9048605470989
 21
2040.92228758033
 31
0.0
 70
   128
 13
4478.1905748328127
 23
2245.214021874544
 33
0.0
 14
4910.1905748328136
 24
2164.7548488745429
 34
0.0
1001
ACAD
1000
DSTYLE
1002
{
1070
   287
1070
     3
1070
   287
1070
     3
1070
    40
1040
30.0
1070
   143
1040
0.039
1070
   172
1070
     1
1070
   271
1070
     0
1070
   279
1070
     0
1070
   288
1070
     1
1002
}
  0
DIMENSION
  5
7C18
  8
3
  6
CONTINUOUS
  2
*D14
 10
5228.1905748328127
 20
2040.22197258033
 30
0.0
 11
5069.1905748328136
 21
2128.4653422182778
 31
0.0
 70
   128
 13
4910.1905748328136
 23
2164.7548488745429
 33
0.0
 14
5228.1905748328127
 24
2245.214021874544
 34
0.0
1001
ACAD
1000
DSTYLE
1002
{
1070
   288
1070
     1
1070
   172
1070
     1
1070
    40
1040
30.0
1070
   271
1070
     0
1070
   143
1040
0.039
1002
}
  0
DIMENSION
  5
7C3B
  8
3
  6
CONTINUOUS
  2
*D15
 10
5497.3915614073539
 20
2885.214021874544
 30
0.0
 11
5497.391561407353
 21
3199.2475868745441
 31
0.0
 70
   128
 13
5258.1905748328136
 23
3595.2140218745449
 33
0.0
 14
5258.1905748328136
 24
2885.214021874544
 34
0.0
 50
90.0
1001
ACAD
1000
DSTYLE
1002
{
1070
   287
1070
     3
1070
   287
1070
     3
1070
     3
1000
φ<>
1070
    40
1040
30.0
1070
   143
1040
0.039
1070
   172
1070
     1
1070
   271
1070
     0
1070
   279
1070
     0
1070
   288
1070
     1
1002
}
  0
DIMENSION
  5
7C49
  8
3
  6
CONTINUOUS
  2
*D16
 10
4910.1905748328136
 20
4122.501173111079
 30
0.0
 11
4691.6191462613851
 21
4122.501173111079
 31
0.0
 70
   128
  1
MAX\P590
 13
4400.1905748328127
 23
3429.9140218745438
 33
0.0
 14
4910.1905748328136
 24
4042.7181041110798
 34
0.0
1001
ACAD
1000
DSTYLE
1002
{
1070
   287
1070
     3
1070
   287
1070
     3
1070
    40
1040
30.0
1070
   143
1040
0.039
1070
   172
1070
     1
1070
   271
1070
     0
1070
   279
1070
     0
1070
   288
1070
     1
1002
}
  0
DIMENSION
  5
7C57
  8
3
  6
CONTINUOUS
  2
*D17
 10
5258.1905748328136
 20
4122.501173111079
 30
0.0
 11
5084.1905748328127
 21
4211.7826536274624
 31
0.0
 70
   128
 13
4910.1905748328136
 23
4042.7181041110798
 33
0.0
 14
5258.1905748328136
 24
3635.214021874544
 34
0.0
1001
ACAD
1000
DSTYLE
1002
{
1070
   288
1070
     1
1070
   172
1070
     1
1070
    40
1040
30.0
1070
   271
1070
     0
1070
   143
1040
0.039
1002
}
  0
DIMENSION
  5
7C7A
  8
3
  6
CONTINUOUS
  2
*D18
 10
5175.1905748328127
 20
3882.334125874544
 30
0.0
 11
4885.1905748328127
 21
3882.334125874544
 31
0.0
 70
   128
 13
4645.1905748328127
 23
3746.214021874544
 33
0.0
 14
5175.1905748328127
 24
3746.214021874544
 34
0.0
1001
ACAD
1000
DSTYLE
1002
{
1070
   287
1070
     3
1070
   287
1070
     3
1070
    40
1040
30.0
1070
   143
1040
0.039
1070
   172
1070
     1
1070
   271
1070
     0
1070
   279
1070
     0
1070
   288
1070
     1
1002
}
  0
LINE
  5
7C7C
  8
2
  6
CENTER
 10
3163.2148999999999
 20
3240.214021874544
 30
0.0
 11
1951.84925
 21
3240.214021874544
 31
0.0
  0
LINE
  5
7C7D
  8
4
  6
CONTINUOUS
 10
5550.0
 20
1500.0
 30
0.0
 11
5550.0
 21
900.0
 31
0.0
  0
LINE
  5
7C7E
  8
4
  6
CONTINUOUS
 10
3450.0
 20
1500.0
 30
0.0
 11
3450.0
 21
900.0
 31
0.0
  0
LINE
  5
7C7F
  8
4
  6
CONTINUOUS
 10
1950.0
 20
1500.0
 30
0.0
 11
1950.0
 21
900.0
 31
0.0
  0
LINE
  5
7C82
  8
4
  6
CONTINUOUS
 10
1950.0
 20
900.0
 30
0.0
 11
5550.0
 21
900.0
 31
0.0
  0
LINE
  5
7C83
  8
4
  6
CONTINUOUS
 10
1950.0
 20
1200.0
 30
0.0
 11
5550.0
 21
1200.0
 31
0.0
  0
TEXT
  5
7C84
  8
4
  6
CONTINUOUS
 10
2065.50624225
 20
1294.6290779999999
 30
0.0
 40
150.0
  1
機器名称
  0
TEXT
  5
7C85
  8
4
  6
CONTINUOUS
 10
2058.7743179999989
 20
964.93547024999998
 30
0.0
 40
150.0
  1
機器型番
  0
TEXT
  5
7C86
  8
4
  6
CONTINUOUS
 10
3533.0362365000001
 20
1267.715306249999
 30
0.0
 40
120.0
  1
ミツヤリミットロードファン
  0
TEXT
  5
7C87
  8
4
  6
CONTINUOUS
 10
3559.9634872500001
 20
951.4787527499999
 30
0.0
 40
150.0
  1
LLE#4 1/2-4
  0
TEXT
  5
7C89
  8
4
  6
CONTINUOUS
 10
2453.8729177499999
 20
7150.2865245000012
 30
0.0
 40
162.0
  1
床置防振ベット
  0
TEXT
  5
7C8A
  8
4
  6
CONTINUOUS
 10
948.50278049999986
 20
7601.6429287499996
 30
0.0
 40
171.42857175
  1
ベルト駆動式片吸込両持排煙ファン
  0
LINE
  5
7C8B
  8
4
  6
CONTINUOUS
 10
750.0
 20
7408.2262627500004
 30
0.0
 11
5550.0
 21
7408.2262627500004
 31
0.0
  0
LINE
  5
7C8C
  8
4
  6
CONTINUOUS
 10
750.0
 20
8008.2262627500004
 30
0.0
 11
5550.0
 21
8008.2262627500004
 31
0.0
  0
LINE
  5
7C8D
  8
4
  6
CONTINUOUS
 10
1950.0
 20
1500.0
 30
0.0
 11
5550.0
 21
1500.0
 31
0.0
  0
LINE
  5
7C8E
  8
4
  6
CONTINUOUS
 10
750.0
 20
8008.2262627500004
 30
0.0
 11
750.0
 21
7408.2262627500004
 31
0.0
  0
TEXT
  5
7C8F
  8
4
  6
CONTINUOUS
 10
1146.29642025
 20
7146.9584324999987
 30
0.0
 40
162.0
  1
右回転左横向
  0
TEXT
  5
7C90
  8
4
  6
CONTINUOUS
 10
4406.9086777499988
 20
8118.1832445
 30
0.0
 40
168.0
  1
No.
  0
TEXT
  5
7C91
  8
4
  6
CONTINUOUS
 10
3933.8881875000002
 20
7150.2865245000012
 30
0.0
 40
162.0
  1
縮尺：1/30
  0
LINE
  5
7C92
  8
4
  6
CONTINUOUS
 10
5550.0
 20
8008.2262627500004
 30
0.0
 11
5550.0
 21
7408.2262627500004
 31
0.0
  0
LINE
  5
7C94
  8
4
  6
CONTINUOUS
 10
4321.8522667500001
 20
8043.79074975
 30
0.0
 11
4321.8522667500001
 21
8359.9567845000001
 31
0.0
  0
LINE
  5
7C95
  8
4
  6
CONTINUOUS
 10
4321.8522667500001
 20
8359.9567845000001
 30
0.0
 11
5550.0
 21
8359.9567845000001
 31
0.0
  0
LINE
  5
7C96
  8
4
  6
CONTINUOUS
 10
5550.0
 20
8359.9567845000001
 30
0.0
 11
5550.0
 21
8043.79074975
 31
0.0
  0
LINE
  5
7C97
  8
4
  6
CONTINUOUS
 10
5550.0
 20
8043.79074975
 30
0.0
 11
4321.8522667500001
 21
8043.79074975
 31
0.0
  0
DIMENSION
  5
7E1C
  8
3
  2
*D19
 10
3552.4367099999999
 20
4025.0961349400559
 30
0.0
 11
2726.0726306535789
 21
4025.0961349400559
 31
0.0
 70
   128
 13
1952.436709999999
 23
3266.214021874544
 33
0.0
 14
3552.4367099999999
 24
2470.214021874544
 34
0.0
1001
ACAD
1000
DSTYLE
1002
{
1070
   287
1070
     3
1070
   287
1070
     3
1070
    40
1040
30.0
1070
   143
1040
0.039
1070
   172
1070
     1
1070
   271
1070
     0
1070
   279
1070
     0
1070
   288
1070
     1
1002
}
  0
ENDSEC
  0
EOF
