  0
SECTION
  2
HEADER
  9
$ACADVER
  1
AC1009
  9
$INSBASE
 10
0.0
 20
0.0
 30
0.0
  9
$EXTMIN
 10
750.0
 20
900.0
 30
0.0
  9
$EXTMAX
 10
5550.0
 20
8359.9567845000001
 30
0.0
  9
$LIMMIN
 10
0.0
 20
0.0
  9
$LIMMAX
 10
297.0
 20
210.0
  9
$ORTHOMODE
 70
     0
  9
$REGENMODE
 70
     1
  9
$FILLMODE
 70
     0
  9
$QTEXTMODE
 70
     0
  9
$MIRRTEXT
 70
     1
  9
$DRAGMODE
 70
     2
  9
$LTSCALE
 40
100.0
  9
$OSMODE
 70
    37
  9
$ATTMODE
 70
     1
  9
$TEXTSIZE
 40
180.0
  9
$TRACEWID
 40
0.05
  9
$TEXTSTYLE
  7
STANDARD
  9
$CLAYER
  8
3
  9
$CELTYPE
  6
BYLAYER
  9
$CECOLOR
 62
   256
  9
$DIMSCALE
 40
30.0
  9
$DIMASZ
 40
2.0
  9
$DIMEXO
 40
0.5
  9
$DIMDLI
 40
10.0
  9
$DIMRND
 40
0.0
  9
$DIMDLE
 40
0.0
  9
$DIMEXE
 40
1.0
  9
$DIMTP
 40
1.0
  9
$DIMTM
 40
1.0
  9
$DIMTXT
 40
3.0
  9
$DIMCEN
 40
0.0
  9
$DIMTSZ
 40
0.0
  9
$DIMTOL
 70
     0
  9
$DIMLIM
 70
     0
  9
$DIMTIH
 70
     0
  9
$DIMTOH
 70
     0
  9
$DIMSE1
 70
     0
  9
$DIMSE2
 70
     0
  9
$DIMTAD
 70
     1
  9
$DIMZIN
 70
     8
  9
$DIMBLK
  1

  9
$DIMASO
 70
     1
  9
$DIMSHO
 70
     1
  9
$DIMPOST
  1

  9
$DIMAPOST
  1

  9
$DIMALT
 70
     0
  9
$DIMALTD
 70
     2
  9
$DIMALTF
 40
0.039
  9
$DIMLFAC
 40
1.0
  9
$DIMTOFL
 70
     1
  9
$DIMTVP
 40
0.0
  9
$DIMTIX
 70
     0
  9
$DIMSOXD
 70
     0
  9
$DIMSAH
 70
     1
  9
$DIMBLK1
  1
OPEN
  9
$DIMBLK2
  1
OPEN
  9
$DIMSTYLE
  2
IGA
  9
$DIMCLRD
 70
     0
  9
$DIMCLRE
 70
     0
  9
$DIMCLRT
 70
     0
  9
$DIMTFAC
 40
10.0
  9
$DIMGAP
 40
1.0
  9
$LUNITS
 70
     2
  9
$LUPREC
 70
     3
  9
$SKETCHINC
 40
0.1
  9
$FILLETRAD
 40
50.0
  9
$AUNITS
 70
     0
  9
$AUPREC
 70
     0
  9
$MENU
  1
acad
  9
$ELEVATION
 40
0.0
  9
$PELEVATION
 40
0.0
  9
$THICKNESS
 40
0.0
  9
$LIMCHECK
 70
     0
  9
$BLIPMODE
 70
     0
  9
$CHAMFERA
 40
0.5
  9
$CHAMFERB
 40
0.5
  9
$SKPOLY
 70
     0
  9
$TDCREATE
 40
2450754.3928557872
  9
$TDUPDATE
 40
2454953.6842719088
  9
$TDINDWG
 40
0.0041642477
  9
$TDUSRTIMER
 40
0.0041642477
  9
$USRTIMER
 70
     1
  9
$ANGBASE
 50
0.0
  9
$ANGDIR
 70
     0
  9
$PDMODE
 70
     0
  9
$PDSIZE
 40
0.0
  9
$PLINEWID
 40
0.0
  9
$COORDS
 70
     1
  9
$SPLFRAME
 70
     0
  9
$SPLINETYPE
 70
     6
  9
$SPLINESEGS
 70
     8
  9
$ATTDIA
 70
     0
  9
$ATTREQ
 70
     1
  9
$HANDLING
 70
 10241
  9
$HANDSEED
  5
8070
  9
$SURFTAB1
 70
     6
  9
$SURFTAB2
 70
     6
  9
$SURFTYPE
 70
     6
  9
$SURFU
 70
     6
  9
$SURFV
 70
     6
  9
$UCSNAME
  2

  9
$UCSORG
 10
0.0
 20
0.0
 30
0.0
  9
$UCSXDIR
 10
1.0
 20
0.0
 30
0.0
  9
$UCSYDIR
 10
0.0
 20
1.0
 30
0.0
  9
$PUCSNAME
  2

  9
$PUCSORG
 10
0.0
 20
0.0
 30
0.0
  9
$PUCSXDIR
 10
1.0
 20
0.0
 30
0.0
  9
$PUCSYDIR
 10
0.0
 20
1.0
 30
0.0
  9
$USERI1
 70
     0
  9
$USERI2
 70
     0
  9
$USERI3
 70
     0
  9
$USERI4
 70
     0
  9
$USERI5
 70
     0
  9
$USERR1
 40
0.0
  9
$USERR2
 40
0.0
  9
$USERR3
 40
0.0
  9
$USERR4
 40
0.0
  9
$USERR5
 40
0.0
  9
$WORLDVIEW
 70
     1
  9
$SHADEDGE
 70
     3
  9
$SHADEDIF
 70
    70
  9
$TILEMODE
 70
     1
  9
$MAXACTVP
 70
    16
  9
$PLIMCHECK
 70
     0
  9
$PEXTMIN
 10
1.0000000000000000E+020
 20
1.0000000000000000E+020
 30
1.0000000000000000E+020
  9
$PEXTMAX
 10
-1.0000000000000000E+020
 20
-1.0000000000000000E+020
 30
-1.0000000000000000E+020
  9
$PLIMMIN
 10
0.0
 20
0.0
  9
$PLIMMAX
 10
12.0
 20
9.0
  9
$UNITMODE
 70
     0
  9
$VISRETAIN
 70
     0
  9
$PLINEGEN
 70
     0
  9
$PSLTSCALE
 70
     1
  0
ENDSEC
  0
SECTION
  2
TABLES
  0
TABLE
  2
VPORT
 70
     2
  0
VPORT
  2
*ACTIVE
 70
     0
 10
0.0
 20
0.0
 11
1.0
 21
1.0
 12
14297.084983320119
 22
3539.0213231883181
 13
0.0
 23
0.0
 14
10.0
 24
10.0
 15
10.0
 25
10.0
 16
0.0
 26
0.0
 36
1.0
 17
0.0
 27
0.0
 37
0.0
 40
9815.4506442081001
 41
3.1666666666666661
 42
50.0
 43
0.0
 44
0.0
 50
0.0
 51
0.0
 71
     0
 72
   100
 73
     1
 74
     0
 75
     0
 76
     0
 77
     0
 78
     0
  0
ENDTAB
  0
TABLE
  2
LTYPE
 70
     2
  0
LTYPE
  2
CONTINUOUS
 70
     0
  3
Solid line
 72
    65
 73
     0
 40
0.0
  0
LTYPE
  2
CENTER
 70
     0
  3
____ _ ____ _ ____ _ ____ _ ____ _ ____ _ ____ 
 72
    65
 73
     4
 40
2.0
 49
1.25
 49
-0.25
 49
0.25
 49
-0.25
  0
ENDTAB
  0
TABLE
  2
LAYER
 70
     6
  0
LAYER
  2
0
 70
     0
 62
     7
  6
CONTINUOUS
  0
LAYER
  2
3
 70
     0
 62
     2
  6
CONTINUOUS
  0
LAYER
  2
2
 70
     0
 62
     3
  6
CENTER
  0
LAYER
  2
1
 70
     0
 62
     4
  6
CONTINUOUS
  0
LAYER
  2
4
 70
     0
 62
     7
  6
CONTINUOUS
  0
LAYER
  2
DEFPOINTS
 70
     0
 62
     7
  6
CONTINUOUS
  0
ENDTAB
  0
TABLE
  2
STYLE
 70
     1
  0
STYLE
  2
STANDARD
 70
     0
 40
0.0
 41
1.0
 50
0.0
 71
     0
 42
180.0
  3
simplex.shx
  4
extfont.shx
  0
ENDTAB
  0
TABLE
  2
VIEW
 70
     0
  0
ENDTAB
  0
TABLE
  2
UCS
 70
     0
  0
ENDTAB
  0
TABLE
  2
APPID
 70
     1
  0
APPID
  2
ACAD
 70
     0
  0
ENDTAB
  0
TABLE
  2
DIMSTYLE
 70
     1
  0
DIMSTYLE
  2
IGA
 70
     0
  3

  4

  5

  6
OPEN
  7
OPEN
 40
2.0
 41
2.0
 42
0.5
 43
10.0
 44
1.0
 45
0.0
 46
0.0
 47
1.0
 48
1.0
140
3.0
141
0.0
142
0.0
143
0.03937
144
1.0
145
0.0
146
10.0
147
1.0
 71
     0
 72
     0
 73
     0
 74
     0
 75
     0
 76
     0
 77
     1
 78
     8
170
     0
171
     2
172
     0
173
     1
174
     0
175
     0
176
     0
177
     0
178
     0
  0
ENDTAB
  0
ENDSEC
  0
SECTION
  2
BLOCKS
  0
BLOCK
  8
0
  2
$MODEL_SPACE
 70
     0
 10
0.0
 20
0.0
 30
0.0
  3
$MODEL_SPACE
  1

  0
ENDBLK
  5
1B
  8
0
  0
BLOCK
 67
     1
  8
0
  2
$PAPER_SPACE
 70
     0
 10
0.0
 20
0.0
 30
0.0
  3
$PAPER_SPACE
  1

  0
ENDBLK
  5
18
 67
     1
  8
0
  0
BLOCK
  8
0
  2
_OPEN
 70
     0
 10
0.0
 20
0.0
 30
0.0
  3
_OPEN
  1

  0
LINE
  5
7AE0
  8
0
  6
BYBLOCK
 62
     0
 10
-1.0
 20
0.166667
 30
0.0
 11
0.0
 21
0.0
 31
0.0
  0
LINE
  5
7AE1
  8
0
  6
BYBLOCK
 62
     0
 10
0.0
 20
0.0
 30
0.0
 11
-1.0
 21
-0.166667
 31
0.0
  0
LINE
  5
7AE2
  8
0
  6
BYBLOCK
 62
     0
 10
0.0
 20
0.0
 30
0.0
 11
-1.0
 21
0.0
 31
0.0
  0
ENDBLK
  5
7AE3
  8
0
  0
BLOCK
  8
0
  2
*D1
 70
     1
 10
0.0
 20
0.0
 30
0.0
  3
*D1
  1

  0
LINE
  5
7FCB
  8
3
  6
CONTINUOUS
 62
     0
 10
1137.616897441213
 20
2560.252429993719
 30
0.0
 11
1137.616897441213
 21
2302.0714893437439
 31
0.0
  0
LINE
  5
7FCC
  8
3
  6
CONTINUOUS
 62
     0
 10
2237.616897441213
 20
2480.3036769937198
 30
0.0
 11
2237.616897441213
 21
2302.0714893437439
 31
0.0
  0
LINE
  5
7FCD
  8
3
  6
CONTINUOUS
 62
     0
 10
1197.616897441214
 20
2332.0714893437439
 30
0.0
 11
2177.616897441214
 21
2332.0714893437439
 31
0.0
  0
INSERT
  5
7FCE
  8
3
  6
CONTINUOUS
 62
     0
  2
_OPEN
 10
1137.616897441213
 20
2332.0714893437439
 30
0.0
 41
60.0
 42
60.0
 43
60.0
 50
180.0
  0
INSERT
  5
7FCF
  8
3
  6
CONTINUOUS
 62
     0
  2
_OPEN
 10
2237.616897441213
 20
2332.0714893437439
 30
0.0
 41
60.0
 42
60.0
 43
60.0
  0
TEXT
  8
3
  40
90
  5
805F
  62
0
  72
0
  71
0
 10
1467.64
 20
2247.77
 30
0.000000
  1
1100
  0
POINT
  5
7FD1
  8
DEFPOINTS
  6
CONTINUOUS
 62
     0
 10
1137.616897441213
 20
2575.252429993719
 30
0.0
  0
POINT
  5
7FD2
  8
DEFPOINTS
  6
CONTINUOUS
 62
     0
 10
2237.616897441213
 20
2495.3036769937198
 30
0.0
  0
POINT
  5
7FD3
  8
DEFPOINTS
  6
CONTINUOUS
 62
     0
 10
2237.616897441213
 20
2332.0714893437439
 30
0.0
  0
ENDBLK
  5
7DC3
  8
0
  0
BLOCK
  8
0
  2
*D2
 70
     1
 10
0.0
 20
0.0
 30
0.0
  3
*D2
  1

  0
LINE
  5
7FD4
  8
3
  6
CONTINUOUS
 62
     0
 10
2237.616897441213
 20
2480.3036769937198
 30
0.0
 11
2237.616897441213
 21
2301.2177653437438
 31
0.0
  0
LINE
  5
7FD5
  8
3
  6
CONTINUOUS
 62
     0
 10
2687.616897441214
 20
2560.252429993719
 30
0.0
 11
2687.616897441214
 21
2301.2177653437438
 31
0.0
  0
LINE
  5
7FD6
  8
3
  6
CONTINUOUS
 62
     0
 10
2297.616897441213
 20
2331.2177653437438
 30
0.0
 11
2627.616897441214
 21
2331.2177653437438
 31
0.0
  0
INSERT
  5
7FD7
  8
3
  6
CONTINUOUS
 62
     0
  2
_OPEN
 10
2237.616897441213
 20
2331.2177653437438
 30
0.0
 41
60.0
 42
60.0
 43
60.0
 50
180.0
  0
INSERT
  5
7FD8
  8
3
  6
CONTINUOUS
 62
     0
  2
_OPEN
 10
2687.616897441214
 20
2331.2177653437438
 30
0.0
 41
60.0
 42
60.0
 43
60.0
  0
TEXT
  8
3
  40
90
  5
8060
  62
0
  72
0
  71
0
 10
2263.33
 20
2246.92
 30
0.000000
  1
450
  0
POINT
  5
7FDA
  8
DEFPOINTS
  6
CONTINUOUS
 62
     0
 10
2237.616897441213
 20
2495.3036769937198
 30
0.0
  0
POINT
  5
7FDB
  8
DEFPOINTS
  6
CONTINUOUS
 62
     0
 10
2687.616897441214
 20
2575.252429993719
 30
0.0
  0
POINT
  5
7FDC
  8
DEFPOINTS
  6
CONTINUOUS
 62
     0
 10
2687.616897441214
 20
2331.2177653437438
 30
0.0
  0
ENDBLK
  5
7DCE
  8
0
  0
BLOCK
  8
0
  2
*D3
 70
     1
 10
0.0
 20
0.0
 30
0.0
  3
*D3
  1

  0
LINE
  5
7FDD
  8
3
  6
CONTINUOUS
 62
     0
 10
2752.616897441214
 20
4004.252429993719
 30
0.0
 11
3078.0298014412142
 21
4004.2524299937181
 31
0.0
  0
LINE
  5
7FDE
  8
3
  6
CONTINUOUS
 62
     0
 10
2752.616897441214
 20
3274.252429993719
 30
0.0
 11
3078.0298014412142
 21
3274.252429993719
 31
0.0
  0
LINE
  5
7FDF
  8
3
  6
CONTINUOUS
 62
     0
 10
3048.0298014412142
 20
3944.252429993719
 30
0.0
 11
3048.0298014412142
 21
3334.252429993719
 31
0.0
  0
INSERT
  5
7FE0
  8
3
  6
CONTINUOUS
 62
     0
  2
_OPEN
 10
3048.0298014412142
 20
4004.252429993719
 30
0.0
 41
60.0
 42
60.0
 43
60.0
 50
90.0
  0
INSERT
  5
7FE1
  8
3
  6
CONTINUOUS
 62
     0
  2
_OPEN
 10
3048.0298014412142
 20
3274.252429993719
 30
0.0
 41
60.0
 42
60.0
 43
60.0
 50
270.0
  0
TEXT
  8
3
  40
90
  5
8061
  62
0
  72
0
  71
0
 10
2793.03
 20
3482.44
 30
0.000000
  1
730
  0
POINT
  5
7FE3
  8
DEFPOINTS
  6
CONTINUOUS
 62
     0
 10
2737.616897441213
 20
4004.252429993719
 30
0.0
  0
POINT
  5
7FE4
  8
DEFPOINTS
  6
CONTINUOUS
 62
     0
 10
2737.616897441213
 20
3274.252429993719
 30
0.0
  0
POINT
  5
7FE5
  8
DEFPOINTS
  6
CONTINUOUS
 62
     0
 10
3048.0298014412142
 20
3274.252429993719
 30
0.0
  0
ENDBLK
  5
7D11
  8
0
  0
BLOCK
  8
0
  2
*D4
 70
     1
 10
0.0
 20
0.0
 30
0.0
  3
*D4
  1

  0
LINE
  5
7FE6
  8
3
  6
CONTINUOUS
 62
     0
 10
2752.616897441214
 20
4004.252429993719
 30
0.0
 11
3284.9534383541531
 21
4004.2524299937181
 31
0.0
  0
LINE
  5
7FE7
  8
3
  6
CONTINUOUS
 62
     0
 10
2672.2887124412132
 20
3245.252429993719
 30
0.0
 11
3284.9534383541531
 21
3245.252429993719
 31
0.0
  0
LINE
  5
7FE8
  8
3
  6
CONTINUOUS
 62
     0
 10
3254.9534383541531
 20
3944.252429993719
 30
0.0
 11
3254.9534383541531
 21
3305.252429993719
 31
0.0
  0
INSERT
  5
7FE9
  8
3
  6
CONTINUOUS
 62
     0
  2
_OPEN
 10
3254.9534383541531
 20
4004.2524299937181
 30
0.0
 41
60.0
 42
60.0
 43
60.0
 50
90.0
  0
INSERT
  5
7FEA
  8
3
  6
CONTINUOUS
 62
     0
  2
_OPEN
 10
3254.9534383541531
 20
3245.252429993719
 30
0.0
 41
60.0
 42
60.0
 43
60.0
 50
270.0
  0
TEXT
  8
3
  40
90
  5
8062
  62
0
  72
0
  71
0
 10
2999.95
 20
3473.86
 30
0.000000
  1
759
  0
POINT
  5
7FEC
  8
DEFPOINTS
  6
CONTINUOUS
 62
     0
 10
2737.616897441213
 20
4004.252429993719
 30
0.0
  0
POINT
  5
7FED
  8
DEFPOINTS
  6
CONTINUOUS
 62
     0
 10
2657.2887124412132
 20
3245.252429993719
 30
0.0
  0
POINT
  5
7FEE
  8
DEFPOINTS
  6
CONTINUOUS
 62
     0
 10
3254.9534383541531
 20
3245.252429993719
 30
0.0
  0
ENDBLK
  5
7E17
  8
0
  0
BLOCK
  8
0
  2
*D5
 70
     1
 10
0.0
 20
0.0
 30
0.0
  3
*D5
  1

  0
LINE
  5
7FEF
  8
3
  6
CONTINUOUS
 62
     0
 10
2672.2887124412132
 20
3245.252429993719
 30
0.0
 11
3284.9534383541518
 21
3245.252429993719
 31
0.0
  0
LINE
  5
7FF0
  8
3
  6
CONTINUOUS
 62
     0
 10
2702.616897441214
 20
2700.252429993719
 30
0.0
 11
3284.9534383541518
 21
2700.252429993719
 31
0.0
  0
LINE
  5
7FF1
  8
3
  6
CONTINUOUS
 62
     0
 10
3254.9534383541518
 20
3185.252429993719
 30
0.0
 11
3254.9534383541518
 21
2760.252429993719
 31
0.0
  0
INSERT
  5
7FF2
  8
3
  6
CONTINUOUS
 62
     0
  2
_OPEN
 10
3254.9534383541518
 20
3245.252429993719
 30
0.0
 41
60.0
 42
60.0
 43
60.0
 50
90.0
  0
INSERT
  5
7FF3
  8
3
  6
CONTINUOUS
 62
     0
  2
_OPEN
 10
3254.9534383541518
 20
2700.252429993719
 30
0.0
 41
60.0
 42
60.0
 43
60.0
 50
270.0
  0
TEXT
  8
3
  40
90
  5
8063
  62
0
  72
0
  71
0
 10
2999.95
 20
2813.45
 30
0.000000
  1
545
  0
POINT
  5
7FF5
  8
DEFPOINTS
  6
CONTINUOUS
 62
     0
 10
2657.2887124412132
 20
3245.252429993719
 30
0.0
  0
POINT
  5
7FF6
  8
DEFPOINTS
  6
CONTINUOUS
 62
     0
 10
2687.616897441214
 20
2700.252429993719
 30
0.0
  0
POINT
  5
7FF7
  8
DEFPOINTS
  6
CONTINUOUS
 62
     0
 10
3254.9534383541518
 20
2700.252429993719
 30
0.0
  0
ENDBLK
  5
7DFF
  8
0
  0
BLOCK
  8
0
  2
*D6
 70
     1
 10
0.0
 20
0.0
 30
0.0
  3
*D6
  1

  0
LINE
  5
7FF8
  8
3
  6
CONTINUOUS
 62
     0
 10
2702.616897441214
 20
2700.252429993719
 30
0.0
 11
3284.9534383541518
 21
2700.252429993719
 31
0.0
  0
LINE
  5
7FF9
  8
3
  6
CONTINUOUS
 62
     0
 10
2702.616897441214
 20
2575.252429993719
 30
0.0
 11
3284.9534383541518
 21
2575.252429993719
 31
0.0
  0
LINE
  5
7FFA
  8
3
  6
CONTINUOUS
 62
     0
 10
3254.9534383541518
 20
2760.252429993719
 30
0.0
 11
3254.9534383541518
 21
2820.252429993719
 31
0.0
  0
LINE
  5
7FFB
  8
3
  6
CONTINUOUS
 62
     0
 10
3254.9534383541518
 20
2515.252429993719
 30
0.0
 11
3254.9534383541518
 21
2180.9667157080039
 31
0.0
  0
LINE
  5
7FFC
  8
3
  6
CONTINUOUS
 62
     0
 10
3254.9534383541518
 20
2700.252429993719
 30
0.0
 11
3254.9534383541518
 21
2575.252429993719
 31
0.0
  0
INSERT
  5
7FFD
  8
3
  6
CONTINUOUS
 62
     0
  2
_OPEN
 10
3254.9534383541518
 20
2700.252429993719
 30
0.0
 41
60.0
 42
60.0
 43
60.0
 50
270.0
  0
INSERT
  5
7FFE
  8
3
  6
CONTINUOUS
 62
     0
  2
_OPEN
 10
3254.9534383541518
 20
2575.252429993719
 30
0.0
 41
60.0
 42
60.0
 43
60.0
 50
90.0
  0
TEXT
  8
3
  40
90
  5
8064
  62
0
  72
0
  71
0
 10
2999.95
 20
2158.81
 30
0.000000
  1
125
  0
POINT
  5
8000
  8
DEFPOINTS
  6
CONTINUOUS
 62
     0
 10
2687.616897441214
 20
2700.252429993719
 30
0.0
  0
POINT
  5
8001
  8
DEFPOINTS
  6
CONTINUOUS
 62
     0
 10
2687.616897441214
 20
2575.252429993719
 30
0.0
  0
POINT
  5
8002
  8
DEFPOINTS
  6
CONTINUOUS
 62
     0
 10
3254.9534383541518
 20
2575.252429993719
 30
0.0
  0
ENDBLK
  5
7E0C
  8
0
  0
BLOCK
  8
0
  2
*D7
 70
     1
 10
0.0
 20
0.0
 30
0.0
  3
*D7
  1

  0
LINE
  5
8003
  8
3
  6
CONTINUOUS
 62
     0
 10
2752.616897441214
 20
4044.252429993719
 30
0.0
 11
3455.0804064885401
 21
4044.252429993719
 31
0.0
  0
LINE
  5
8004
  8
3
  6
CONTINUOUS
 62
     0
 10
2702.616897441214
 20
2575.252429993719
 30
0.0
 11
3455.0804064885401
 21
2575.252429993719
 31
0.0
  0
LINE
  5
8005
  8
3
  6
CONTINUOUS
 62
     0
 10
3425.0804064885401
 20
3984.2524299937181
 30
0.0
 11
3425.0804064885401
 21
2635.252429993719
 31
0.0
  0
INSERT
  5
8006
  8
3
  6
CONTINUOUS
 62
     0
  2
_OPEN
 10
3425.0804064885401
 20
4044.252429993719
 30
0.0
 41
60.0
 42
60.0
 43
60.0
 50
90.0
  0
INSERT
  5
8007
  8
3
  6
CONTINUOUS
 62
     0
  2
_OPEN
 10
3425.0804064885401
 20
2575.252429993719
 30
0.0
 41
60.0
 42
60.0
 43
60.0
 50
270.0
  0
TEXT
  8
3
  40
90
  5
8065
  62
0
  72
0
  71
0
 10
3170.08
 20
3092.25
 30
0.000000
  1
1469
  0
POINT
  5
8009
  8
DEFPOINTS
  6
CONTINUOUS
 62
     0
 10
2737.616897441213
 20
4044.252429993719
 30
0.0
  0
POINT
  5
800A
  8
DEFPOINTS
  6
CONTINUOUS
 62
     0
 10
2687.616897441214
 20
2575.252429993719
 30
0.0
  0
POINT
  5
800B
  8
DEFPOINTS
  6
CONTINUOUS
 62
     0
 10
3425.0804064885401
 20
2575.252429993719
 30
0.0
  0
ENDBLK
  5
7DF4
  8
0
  0
BLOCK
  8
0
  2
*D8
 70
     1
 10
0.0
 20
0.0
 30
0.0
  3
*D8
  1

  0
LINE
  5
800C
  8
3
  6
CONTINUOUS
 62
     0
 10
1625.616897441214
 20
3260.252429993719
 30
0.0
 11
1625.616897441214
 21
4149.4980069937192
 31
0.0
  0
LINE
  5
800D
  8
3
  6
CONTINUOUS
 62
     0
 10
2237.616897441213
 20
3976.1370349937192
 30
0.0
 11
2237.616897441213
 21
4149.4980069937192
 31
0.0
  0
LINE
  5
800E
  8
3
  6
CONTINUOUS
 62
     0
 10
1685.616897441214
 20
4119.4980069937201
 30
0.0
 11
2177.616897441214
 21
4119.4980069937201
 31
0.0
  0
INSERT
  5
800F
  8
3
  6
CONTINUOUS
 62
     0
  2
_OPEN
 10
1625.616897441214
 20
4119.4980069937201
 30
0.0
 41
60.0
 42
60.0
 43
60.0
 50
180.0
  0
INSERT
  5
8010
  8
3
  6
CONTINUOUS
 62
     0
  2
_OPEN
 10
2237.616897441213
 20
4119.4980069937201
 30
0.0
 41
60.0
 42
60.0
 43
60.0
  0
TEXT
  8
3
  40
90
  5
8066
  62
0
  72
0
  71
0
 10
1746.86
 20
4035.20
 30
0.000000
  1
612
  0
POINT
  5
8012
  8
DEFPOINTS
  6
CONTINUOUS
 62
     0
 10
1625.616897441214
 20
3245.252429993719
 30
0.0
  0
POINT
  5
8013
  8
DEFPOINTS
  6
CONTINUOUS
 62
     0
 10
2237.616897441213
 20
3961.1370349937192
 30
0.0
  0
POINT
  5
8014
  8
DEFPOINTS
  6
CONTINUOUS
 62
     0
 10
2237.616897441213
 20
4119.4980069937201
 30
0.0
  0
ENDBLK
  5
7DDE
  8
0
  0
BLOCK
  8
0
  2
*D9
 70
     1
 10
0.0
 20
0.0
 30
0.0
  3
*D9
  1

  0
LINE
  5
8015
  8
3
  6
CONTINUOUS
 62
     0
 10
2237.616897441213
 20
3976.1370349937192
 30
0.0
 11
2237.616897441213
 21
4149.4980069937192
 31
0.0
  0
LINE
  5
8016
  8
3
  6
CONTINUOUS
 62
     0
 10
2737.616897441213
 20
4059.252429993719
 30
0.0
 11
2737.616897441213
 21
4149.4980069937192
 31
0.0
  0
LINE
  5
8017
  8
3
  6
CONTINUOUS
 62
     0
 10
2297.616897441213
 20
4119.4980069937201
 30
0.0
 11
2677.616897441214
 21
4119.4980069937201
 31
0.0
  0
INSERT
  5
8018
  8
3
  6
CONTINUOUS
 62
     0
  2
_OPEN
 10
2237.616897441213
 20
4119.4980069937201
 30
0.0
 41
60.0
 42
60.0
 43
60.0
 50
180.0
  0
INSERT
  5
8019
  8
3
  6
CONTINUOUS
 62
     0
  2
_OPEN
 10
2737.616897441213
 20
4119.4980069937201
 30
0.0
 41
60.0
 42
60.0
 43
60.0
  0
TEXT
  8
3
  40
90
  5
8067
  62
0
  72
0
  71
0
 10
2307.62
 20
4035.20
 30
0.000000
  1
500
  0
POINT
  5
801B
  8
DEFPOINTS
  6
CONTINUOUS
 62
     0
 10
2237.616897441213
 20
3961.1370349937192
 30
0.0
  0
POINT
  5
801C
  8
DEFPOINTS
  6
CONTINUOUS
 62
     0
 10
2737.616897441213
 20
4044.252429993719
 30
0.0
  0
POINT
  5
801D
  8
DEFPOINTS
  6
CONTINUOUS
 62
     0
 10
2737.616897441213
 20
4119.4980069937201
 30
0.0
  0
ENDBLK
  5
7CCD
  8
0
  0
BLOCK
  8
0
  2
*D10
 70
     1
 10
0.0
 20
0.0
 30
0.0
  3
*D10
  1

  0
LINE
  5
801E
  8
3
  6
CONTINUOUS
 62
     0
 10
1137.616897441213
 20
5337.3524299937199
 30
0.0
 11
1137.616897441213
 21
4929.9750329937197
 31
0.0
  0
LINE
  5
801F
  8
3
  6
CONTINUOUS
 62
     0
 10
2687.616897441214
 20
5337.3524299937199
 30
0.0
 11
2687.616897441214
 21
4929.9750329937197
 31
0.0
  0
LINE
  5
8020
  8
3
  6
CONTINUOUS
 62
     0
 10
1197.616897441214
 20
4959.9750329937187
 30
0.0
 11
2627.616897441214
 21
4959.9750329937187
 31
0.0
  0
INSERT
  5
8021
  8
3
  6
CONTINUOUS
 62
     0
  2
_OPEN
 10
1137.616897441213
 20
4959.9750329937187
 30
0.0
 41
60.0
 42
60.0
 43
60.0
 50
180.0
  0
INSERT
  5
8022
  8
3
  6
CONTINUOUS
 62
     0
  2
_OPEN
 10
2687.616897441214
 20
4959.9750329937187
 30
0.0
 41
60.0
 42
60.0
 43
60.0
  0
TEXT
  8
3
  40
90
  5
8068
  62
0
  72
0
  71
0
 10
1764.04
 20
4875.68
 30
0.000000
  1
1550
  0
POINT
  5
8024
  8
DEFPOINTS
  6
CONTINUOUS
 62
     0
 10
1137.616897441213
 20
5352.3524299937199
 30
0.0
  0
POINT
  5
8025
  8
DEFPOINTS
  6
CONTINUOUS
 62
     0
 10
2687.616897441214
 20
5352.3524299937199
 30
0.0
  0
POINT
  5
8026
  8
DEFPOINTS
  6
CONTINUOUS
 62
     0
 10
2687.616897441214
 20
4959.9750329937187
 30
0.0
  0
ENDBLK
  5
7CC2
  8
0
  0
BLOCK
  8
0
  2
*D11
 70
     1
 10
0.0
 20
0.0
 30
0.0
  3
*D11
  1

  0
LINE
  5
8027
  8
3
  6
CONTINUOUS
 62
     0
 10
2702.616897441214
 20
6102.3524299937199
 30
0.0
 11
3103.8038794412141
 21
6102.3524299937199
 31
0.0
  0
LINE
  5
8028
  8
3
  6
CONTINUOUS
 62
     0
 10
2702.616897441214
 20
5352.3524299937199
 30
0.0
 11
3103.8038794412141
 21
5352.3524299937199
 31
0.0
  0
LINE
  5
8029
  8
3
  6
CONTINUOUS
 62
     0
 10
3073.8038794412141
 20
6042.3524299937189
 30
0.0
 11
3073.8038794412141
 21
5412.3524299937199
 31
0.0
  0
INSERT
  5
802A
  8
3
  6
CONTINUOUS
 62
     0
  2
_OPEN
 10
3073.8038794412141
 20
6102.3524299937199
 30
0.0
 41
60.0
 42
60.0
 43
60.0
 50
90.0
  0
INSERT
  5
802B
  8
3
  6
CONTINUOUS
 62
     0
  2
_OPEN
 10
3073.8038794412141
 20
5352.3524299937199
 30
0.0
 41
60.0
 42
60.0
 43
60.0
 50
270.0
  0
TEXT
  8
3
  40
90
  5
8069
  62
0
  72
0
  71
0
 10
2818.80
 20
5616.26
 30
0.000000
  1
750
  0
POINT
  5
802D
  8
DEFPOINTS
  6
CONTINUOUS
 62
     0
 10
2687.616897441214
 20
6102.3524299937199
 30
0.0
  0
POINT
  5
802E
  8
DEFPOINTS
  6
CONTINUOUS
 62
     0
 10
2687.616897441214
 20
5352.3524299937199
 30
0.0
  0
POINT
  5
802F
  8
DEFPOINTS
  6
CONTINUOUS
 62
     0
 10
3073.8038794412141
 20
5352.3524299937199
 30
0.0
  0
ENDBLK
  5
7CB7
  8
0
  0
BLOCK
  8
0
  2
*D12
 70
     1
 10
0.0
 20
0.0
 30
0.0
  3
*D12
  1

  0
LINE
  5
8030
  8
3
  6
CONTINUOUS
 62
     0
 10
3927.1648541846148
 20
2560.252429993719
 30
0.0
 11
3927.1648541846148
 21
2311.54679999372
 31
0.0
  0
LINE
  5
8031
  8
3
  6
CONTINUOUS
 62
     0
 10
4359.1648541846153
 20
2451.0305639937201
 30
0.0
 11
4359.1648541846153
 21
2311.54679999372
 31
0.0
  0
LINE
  5
8032
  8
3
  6
CONTINUOUS
 62
     0
 10
3867.1648541846148
 20
2341.5467999937191
 30
0.0
 11
3807.1648541846148
 21
2341.5467999937191
 31
0.0
  0
LINE
  5
8033
  8
3
  6
CONTINUOUS
 62
     0
 10
4419.1648541846153
 20
2341.5467999937191
 30
0.0
 11
4479.1648541846153
 21
2341.5467999937191
 31
0.0
  0
LINE
  5
8034
  8
3
  6
CONTINUOUS
 62
     0
 10
3927.1648541846148
 20
2341.5467999937191
 30
0.0
 11
4359.1648541846153
 21
2341.5467999937191
 31
0.0
  0
INSERT
  5
8035
  8
3
  6
CONTINUOUS
 62
     0
  2
_OPEN
 10
3927.1648541846148
 20
2341.5467999937191
 30
0.0
 41
60.0
 42
60.0
 43
60.0
  0
INSERT
  5
8036
  8
3
  6
CONTINUOUS
 62
     0
  2
_OPEN
 10
4359.1648541846153
 20
2341.5467999937191
 30
0.0
 41
60.0
 42
60.0
 43
60.0
 50
180.0
  0
TEXT
  8
3
  40
90
  5
806A
  62
0
  72
0
  71
0
 10
3952.88
 20
2257.25
 30
0.000000
  1
432
  0
POINT
  5
8038
  8
DEFPOINTS
  6
CONTINUOUS
 62
     0
 10
3927.1648541846148
 20
2575.252429993719
 30
0.0
  0
POINT
  5
8039
  8
DEFPOINTS
  6
CONTINUOUS
 62
     0
 10
4359.1648541846153
 20
2466.0305639937201
 30
0.0
  0
POINT
  5
803A
  8
DEFPOINTS
  6
CONTINUOUS
 62
     0
 10
4359.1648541846153
 20
2341.5467999937191
 30
0.0
  0
ENDBLK
  5
7CAC
  8
0
  0
BLOCK
  8
0
  2
*D13
 70
     1
 10
0.0
 20
0.0
 30
0.0
  3
*D13
  1

  0
LINE
  5
7D4A
  8
0
  6
BYBLOCK
 62
     0
 10
4359.1648541846153
 20
2451.0305639937201
 30
0.0
 11
4359.1648541846153
 21
2311.54679999372
 31
0.0
  0
LINE
  5
7D4B
  8
0
  6
BYBLOCK
 62
     0
 10
4677.1648541846153
 20
2560.252429993719
 30
0.0
 11
4677.1648541846153
 21
2311.54679999372
 31
0.0
  0
LINE
  5
7D4C
  8
0
  6
BYBLOCK
 62
     0
 10
4419.1648541846153
 20
2341.5467999937191
 30
0.0
 11
4617.1648541846153
 21
2341.5467999937191
 31
0.0
  0
TEXT
  5
7D4D
  8
3
 62
     0
 10
4423.0269239269819
 20
2373.6233552853291
 30
0.0
 40
90.0
  1
318
  0
INSERT
  5
7D4E
  8
0
  6
BYBLOCK
 62
     0
  2
_OPEN
 10
4359.1648541846153
 20
2341.5467999937191
 30
0.0
 41
60.0
 42
60.0
 43
60.0
 50
180.0
  0
INSERT
  5
7D4F
  8
0
  6
BYBLOCK
 62
     0
  2
_OPEN
 10
4677.1648541846153
 20
2341.5467999937191
 30
0.0
 41
60.0
 42
60.0
 43
60.0
  0
POINT
  5
7D50
  8
DEFPOINTS
  6
BYBLOCK
 62
     0
 10
4359.1648541846153
 20
2466.0305639937201
 30
0.0
  0
POINT
  5
7D51
  8
DEFPOINTS
  6
BYBLOCK
 62
     0
 10
4677.1648541846153
 20
2575.252429993719
 30
0.0
  0
POINT
  5
7D52
  8
DEFPOINTS
  6
BYBLOCK
 62
     0
 10
4677.1648541846153
 20
2341.5467999937191
 30
0.0
  0
ENDBLK
  5
7D53
  8
0
  0
BLOCK
  8
0
  2
*D14
 70
     1
 10
0.0
 20
0.0
 30
0.0
  3
*D14
  1

  0
LINE
  5
803B
  8
3
  6
CONTINUOUS
 62
     0
 10
4722.1648541846143
 20
3600.252429993719
 30
0.0
 11
5027.1569001846156
 21
3600.252429993719
 31
0.0
  0
LINE
  5
803C
  8
3
  6
CONTINUOUS
 62
     0
 10
4722.1648541846143
 20
2890.252429993719
 30
0.0
 11
5027.1569001846156
 21
2890.252429993719
 31
0.0
  0
LINE
  5
803D
  8
3
  6
CONTINUOUS
 62
     0
 10
4997.1569001846156
 20
3540.252429993719
 30
0.0
 11
4997.1569001846156
 21
2950.252429993719
 31
0.0
  0
INSERT
  5
803E
  8
3
  6
CONTINUOUS
 62
     0
  2
_OPEN
 10
4997.1569001846156
 20
3600.252429993719
 30
0.0
 41
60.0
 42
60.0
 43
60.0
 50
90.0
  0
INSERT
  5
803F
  8
3
  6
CONTINUOUS
 62
     0
  2
_OPEN
 10
4997.1569001846156
 20
2890.252429993719
 30
0.0
 41
60.0
 42
60.0
 43
60.0
 50
270.0
  0
TEXT
  8
3
  40
90
  5
806B
  62
0
  72
0
  71
0
 10
4742.16
 20
3079.39
 30
0.000000
  1
φ710
  0
POINT
  5
8041
  8
DEFPOINTS
  6
CONTINUOUS
 62
     0
 10
4707.1648541846153
 20
3600.252429993719
 30
0.0
  0
POINT
  5
8042
  8
DEFPOINTS
  6
CONTINUOUS
 62
     0
 10
4707.1648541846153
 20
2890.252429993719
 30
0.0
  0
POINT
  5
8043
  8
DEFPOINTS
  6
CONTINUOUS
 62
     0
 10
4997.1569001846156
 20
2890.252429993719
 30
0.0
  0
ENDBLK
  5
7D5E
  8
0
  0
BLOCK
  8
0
  2
*D15
 70
     1
 10
0.0
 20
0.0
 30
0.0
  3
*D15
  1

  0
LINE
  5
8044
  8
3
  6
CONTINUOUS
 62
     0
 10
4094.1648541846148
 20
4019.252429993719
 30
0.0
 11
4094.1648541846148
 21
4157.9696765638773
 31
0.0
  0
LINE
  5
8045
  8
3
  6
CONTINUOUS
 62
     0
 10
4624.1648541846153
 20
4019.252429993719
 30
0.0
 11
4624.1648541846153
 21
4157.9696765638773
 31
0.0
  0
LINE
  5
8046
  8
3
  6
CONTINUOUS
 62
     0
 10
4154.1648541846153
 20
4127.9696765638782
 30
0.0
 11
4564.1648541846153
 21
4127.9696765638782
 31
0.0
  0
INSERT
  5
8047
  8
3
  6
CONTINUOUS
 62
     0
  2
_OPEN
 10
4094.1648541846148
 20
4127.9696765638782
 30
0.0
 41
60.0
 42
60.0
 43
60.0
 50
180.0
  0
INSERT
  5
8048
  8
3
  6
CONTINUOUS
 62
     0
  2
_OPEN
 10
4624.1648541846153
 20
4127.9696765638782
 30
0.0
 41
60.0
 42
60.0
 43
60.0
  0
TEXT
  8
3
  40
90
  5
806C
  62
0
  72
0
  71
0
 10
4154.16
 20
4043.67
 30
0.000000
  1
530
  0
POINT
  5
804A
  8
DEFPOINTS
  6
CONTINUOUS
 62
     0
 10
4094.1648541846148
 20
4004.252429993719
 30
0.0
  0
POINT
  5
804B
  8
DEFPOINTS
  6
CONTINUOUS
 62
     0
 10
4624.1648541846153
 20
4004.252429993719
 30
0.0
  0
POINT
  5
804C
  8
DEFPOINTS
  6
CONTINUOUS
 62
     0
 10
4624.1648541846153
 20
4127.9696765638782
 30
0.0
  0
ENDBLK
  5
7DAB
  8
0
  0
BLOCK
  8
0
  2
*D16
 70
     1
 10
0.0
 20
0.0
 30
0.0
  3
*D16
  1

  0
LINE
  5
804D
  8
3
  6
CONTINUOUS
 62
     0
 10
3849.1648541846148
 20
3449.9524299937189
 30
0.0
 11
3849.1648541846148
 21
4361.686528418918
 31
0.0
  0
LINE
  5
804E
  8
3
  6
CONTINUOUS
 62
     0
 10
4359.1648541846153
 20
4285.8575214925513
 30
0.0
 11
4359.1648541846153
 21
4361.686528418918
 31
0.0
  0
LINE
  5
804F
  8
3
  6
CONTINUOUS
 62
     0
 10
3909.1648541846148
 20
4331.686528418918
 30
0.0
 11
4299.1648541846153
 21
4331.686528418918
 31
0.0
  0
INSERT
  5
8050
  8
3
  6
CONTINUOUS
 62
     0
  2
_OPEN
 10
3849.1648541846148
 20
4331.686528418918
 30
0.0
 41
60.0
 42
60.0
 43
60.0
 50
180.0
  0
INSERT
  5
8051
  8
3
  6
CONTINUOUS
 62
     0
  2
_OPEN
 10
4359.1648541846153
 20
4331.686528418918
 30
0.0
 41
60.0
 42
60.0
 43
60.0
  0
TEXT
  8
3
  40
90
  5
806D
  62
0
  72
0
  71
0
 10
3887.74
 20
4322.39
 30
0.000000
  1
MAX
  0
TEXT
  8
3
  40
90
  5
806E
  62
0
  72
0
  71
0
 10
3887.74
 20
4205.39
 30
0.000000
  1
590
  0
POINT
  5
8053
  8
DEFPOINTS
  6
CONTINUOUS
 62
     0
 10
3849.1648541846148
 20
3434.9524299937189
 30
0.0
  0
POINT
  5
8054
  8
DEFPOINTS
  6
CONTINUOUS
 62
     0
 10
4359.1648541846153
 20
4270.8575214925513
 30
0.0
  0
POINT
  5
8055
  8
DEFPOINTS
  6
CONTINUOUS
 62
     0
 10
4359.1648541846153
 20
4331.686528418918
 30
0.0
  0
ENDBLK
  5
7E26
  8
0
  0
BLOCK
  8
0
  2
*D17
 70
     1
 10
0.0
 20
0.0
 30
0.0
  3
*D17
  1

  0
LINE
  5
7D8C
  8
0
  6
BYBLOCK
 62
     0
 10
4359.1648541846153
 20
4288.6099495810231
 30
0.0
 11
4359.1648541846153
 21
4361.686528418918
 31
0.0
  0
LINE
  5
7D8D
  8
0
  6
BYBLOCK
 62
     0
 10
4707.1648541846153
 20
3655.252429993719
 30
0.0
 11
4707.1648541846153
 21
4361.686528418918
 31
0.0
  0
LINE
  5
7D8E
  8
0
  6
BYBLOCK
 62
     0
 10
4419.1648541846153
 20
4331.686528418918
 30
0.0
 11
4647.1648541846153
 21
4331.686528418918
 31
0.0
  0
TEXT
  5
7D8F
  8
3
 62
     0
 10
4433.9432219485443
 20
4364.7003774232498
 30
0.0
 40
90.0
  1
348
  0
INSERT
  5
7D90
  8
0
  6
BYBLOCK
 62
     0
  2
_OPEN
 10
4359.1648541846153
 20
4331.686528418918
 30
0.0
 41
60.0
 42
60.0
 43
60.0
 50
180.0
  0
INSERT
  5
7D91
  8
0
  6
BYBLOCK
 62
     0
  2
_OPEN
 10
4707.1648541846153
 20
4331.686528418918
 30
0.0
 41
60.0
 42
60.0
 43
60.0
  0
POINT
  5
7D92
  8
DEFPOINTS
  6
BYBLOCK
 62
     0
 10
4359.1648541846153
 20
4273.6099495810231
 30
0.0
  0
POINT
  5
7D93
  8
DEFPOINTS
  6
BYBLOCK
 62
     0
 10
4707.1648541846153
 20
3640.2524299937199
 30
0.0
  0
POINT
  5
7D94
  8
DEFPOINTS
  6
BYBLOCK
 62
     0
 10
4707.1648541846153
 20
4331.686528418918
 30
0.0
  0
ENDBLK
  5
7D95
  8
0
  0
BLOCK
  8
0
  2
*D18
 70
     1
 10
0.0
 20
0.0
 30
0.0
  3
*D18
  1

  0
LINE
  5
8056
  8
3
 62
     0
 10
2737.616897441213
 20
4074.252429993719
 30
0.0
 11
2737.616897441213
 21
4326.3195869654337
 31
0.0
  0
LINE
  5
8057
  8
3
 62
     0
 10
1137.616897441213
 20
2815.252429993719
 30
0.0
 11
1137.616897441213
 21
4326.3195869654337
 31
0.0
  0
LINE
  5
8058
  8
3
 62
     0
 10
2677.616897441214
 20
4296.3195869654337
 30
0.0
 11
1197.616897441214
 21
4296.3195869654337
 31
0.0
  0
INSERT
  5
8059
  8
3
 62
     0
  2
_OPEN
 10
2737.616897441213
 20
4296.3195869654337
 30
0.0
 41
60.0
 42
60.0
 43
60.0
  0
INSERT
  5
805A
  8
3
 62
     0
  2
_OPEN
 10
1137.616897441213
 20
4296.3195869654337
 30
0.0
 41
60.0
 42
60.0
 43
60.0
 50
180.0
  0
TEXT
  8
3
  40
90
  5
806F
  62
0
  72
0
  71
0
 10
1698.40
 20
4212.02
 30
0.000000
  1
1600
  0
POINT
  5
805C
  8
DEFPOINTS
 62
     0
 10
2737.616897441213
 20
4059.252429993719
 30
0.0
  0
POINT
  5
805D
  8
DEFPOINTS
 62
     0
 10
1137.616897441213
 20
2800.252429993719
 30
0.0
  0
POINT
  5
805E
  8
DEFPOINTS
 62
     0
 10
1137.616897441213
 20
4296.3195869654337
 30
0.0
  0
ENDBLK
  5
7DB7
  8
0
  0
ENDSEC
  0
SECTION
  2
ENTITIES
  0
LINE
  5
7A73
  8
1
  6
CONTINUOUS
 10
2237.616897441213
 20
3961.1370349937192
 30
0.0
 11
2737.616897441213
 21
4004.252429993719
 31
0.0
  0
LINE
  5
7A74
  8
1
  6
CONTINUOUS
 10
1137.616897441213
 20
2700.252429993719
 30
0.0
 11
2687.616897441214
 21
2700.252429993719
 31
0.0
  0
LINE
  5
7A75
  8
1
  6
CONTINUOUS
 10
1137.616897441213
 20
2800.252429993719
 30
0.0
 11
2687.616897441214
 21
2800.252429993719
 31
0.0
  0
CIRCLE
  5
7A76
  8
1
  6
CONTINUOUS
 10
2237.616897441213
 20
3245.252429993719
 30
0.0
 40
355.0
  0
CIRCLE
  5
7A77
  8
1
  6
CONTINUOUS
 10
2237.616897441213
 20
3245.252429993719
 30
0.0
 40
395.0
  0
CIRCLE
  5
7A78
  8
1
  6
CONTINUOUS
 10
2237.616897441213
 20
3245.252429993719
 30
0.0
 40
139.69999999999999
  0
ARC
  5
7A79
  8
1
  6
CONTINUOUS
 10
2237.616897441213
 20
3245.252429993719
 30
0.0
 40
189.69999999999999
 50
284.63383099999987
 51
104.6338309999999
  0
LINE
  5
7A7A
  8
1
  6
CONTINUOUS
 10
1385.5428404412121
 20
2826.70626699372
 30
0.0
 11
2285.5428404412119
 21
3061.70626699372
 31
0.0
  0
LINE
  5
7A7B
  8
1
  6
CONTINUOUS
 10
1372.910804441213
 20
2875.0842749937201
 30
0.0
 11
2272.9108044412128
 21
3110.0842749937201
 31
0.0
  0
LINE
  5
7A7C
  8
2
  6
CENTER
 10
1354.059619441213
 20
3245.252429993719
 30
0.0
 11
2710.816485441213
 21
3245.252429993719
 31
0.0
  0
LINE
  5
7A7D
  8
1
  6
CONTINUOUS
 10
1137.616897441213
 20
2675.252429993719
 30
0.0
 11
2687.616897441214
 21
2675.252429993719
 31
0.0
  0
LINE
  5
7A7E
  8
1
  6
CONTINUOUS
 10
1137.616897441213
 20
2575.252429993719
 30
0.0
 11
2687.616897441214
 21
2575.252429993719
 31
0.0
  0
ARC
  5
7A7F
  8
1
  6
CONTINUOUS
 10
2184.616897441214
 20
3298.252429993719
 30
0.0
 40
559.0
 50
185.44050899999999
 51
242.9836029999999
  0
ARC
  5
7A80
  8
1
  6
CONTINUOUS
 10
1337.616897441214
 20
3010.252429993719
 30
0.0
 40
162.0
 50
324.972283
 51
215.02771699999991
  0
CIRCLE
  5
7A81
  8
1
  6
CONTINUOUS
 10
1337.616897441214
 20
3010.252429993719
 30
0.0
 40
139.69999999999999
  0
ARC
  5
7A82
  8
1
  6
CONTINUOUS
 10
1337.616897441214
 20
3010.252429993719
 30
0.0
 40
189.69999999999999
 50
104.6338309999999
 51
284.63383099999987
  0
LINE
  5
7A83
  8
2
  6
CENTER
 10
1337.616897441214
 20
2865.5524299937192
 30
0.0
 11
1337.616897441214
 21
3154.9524299937189
 31
0.0
  0
LINE
  5
7A84
  8
1
  6
CONTINUOUS
 10
1137.616897441213
 20
2800.252429993719
 30
0.0
 11
1137.616897441213
 21
2700.252429993719
 31
0.0
  0
LINE
  5
7A85
  8
1
  6
CONTINUOUS
 10
1491.616897441214
 20
2868.252429993719
 30
0.0
 11
1470.2745634412131
 21
2917.2688629937202
 31
0.0
  0
LINE
  5
7A86
  8
1
  6
CONTINUOUS
 10
1491.616897441214
 20
2850.252429993719
 30
0.0
 11
1491.616897441214
 21
2868.252429993719
 31
0.0
  0
LINE
  5
7A87
  8
1
  6
CONTINUOUS
 10
1183.616897441214
 20
2850.252429993719
 30
0.0
 11
1183.616897441214
 21
2868.252429993719
 31
0.0
  0
LINE
  5
7A88
  8
1
  6
CONTINUOUS
 10
1183.616897441214
 20
2868.252429993719
 30
0.0
 11
1204.959231441213
 21
2917.2688629937202
 31
0.0
  0
LINE
  5
7A89
  8
1
  6
CONTINUOUS
 10
1140.116897441214
 20
2800.252429993719
 30
0.0
 11
1140.116897441214
 21
2850.252429993719
 31
0.0
  0
LINE
  5
7A8A
  8
1
  6
CONTINUOUS
 10
1535.116897441214
 20
2800.252429993719
 30
0.0
 11
1535.116897441214
 21
2850.252429993719
 31
0.0
  0
LINE
  5
7A8B
  8
1
  6
CONTINUOUS
 10
1535.116897441214
 20
2850.252429993719
 30
0.0
 11
1140.116897441214
 21
2850.252429993719
 31
0.0
  0
LINE
  5
7A8C
  8
1
  6
CONTINUOUS
 10
1137.616897441213
 20
2675.252429993719
 30
0.0
 11
1137.616897441213
 21
2575.252429993719
 31
0.0
  0
ARC
  5
7A8D
  8
1
  6
CONTINUOUS
 10
2290.616897441214
 20
3298.252429993719
 30
0.0
 40
665.0
 50
94.57127899999999
 51
184.571279
  0
LINE
  5
7A8E
  8
1
  6
CONTINUOUS
 10
1289.6909544412131
 20
3193.798592993719
 30
0.0
 11
2189.6909544412142
 21
3428.798592993719
 31
0.0
  0
LINE
  5
7A8F
  8
1
  6
CONTINUOUS
 10
1302.3229904412119
 20
3145.4205849937198
 30
0.0
 11
2202.3229904412128
 21
3380.4205849937198
 31
0.0
  0
LINE
  5
7A90
  8
2
  6
CENTER
 10
1192.916897441213
 20
3010.252429993719
 30
0.0
 11
1482.3168974412119
 21
3010.252429993719
 31
0.0
  0
LINE
  5
7A91
  8
2
  6
CENTER
 10
2237.616897441213
 20
2495.3036769937198
 30
0.0
 11
2237.616897441213
 21
4078.7228169937198
 31
0.0
  0
ARC
  5
7A92
  8
1
  6
CONTINUOUS
 10
2195.616897441214
 20
3203.252429993719
 30
0.0
 40
464.0
 50
299.71121899999991
 51
5.193363999999999
  0
LINE
  5
7A93
  8
1
  6
CONTINUOUS
 10
4624.1648541846153
 20
4004.252429993719
 30
0.0
 11
4624.1648541846153
 21
2800.252429993719
 31
0.0
  0
LINE
  5
7A94
  8
1
  6
CONTINUOUS
 10
4094.1648541846148
 20
4004.252429993719
 30
0.0
 11
4094.1648541846148
 21
2800.252429993719
 31
0.0
  0
LINE
  5
7A95
  8
1
  6
CONTINUOUS
 10
4707.1648541846153
 20
3640.2524299937199
 30
0.0
 11
4707.1648541846153
 21
2850.252429993719
 31
0.0
  0
LINE
  5
7A96
  8
1
  6
CONTINUOUS
 10
3942.1648541846148
 20
3384.9524299937189
 30
0.0
 11
3942.1648541846148
 21
2870.5524299937192
 31
0.0
  0
LINE
  5
7A97
  8
1
  6
CONTINUOUS
 10
3857.1648541846148
 20
3384.9524299937189
 30
0.0
 11
3857.1648541846148
 21
2870.5524299937192
 31
0.0
  0
LINE
  5
7A98
  8
1
  6
CONTINUOUS
 10
3982.1648541846148
 20
3172.252429993719
 30
0.0
 11
3982.1648541846148
 21
2800.252429993719
 31
0.0
  0
LINE
  5
7A99
  8
1
  6
CONTINUOUS
 10
3849.1648541846148
 20
2820.5524299937192
 30
0.0
 11
3849.1648541846148
 21
3434.9524299937189
 31
0.0
  0
LINE
  5
7A9A
  8
1
  6
CONTINUOUS
 10
3959.1648541846148
 20
2820.5524299937192
 30
0.0
 11
3959.1648541846148
 21
3434.9524299937189
 31
0.0
  0
LINE
  5
7A9B
  8
1
  6
CONTINUOUS
 10
2687.616897441214
 20
2800.252429993719
 30
0.0
 11
2687.616897441214
 21
2700.252429993719
 31
0.0
  0
LINE
  5
7A9C
  8
1
  6
CONTINUOUS
 10
2687.616897441214
 20
2675.252429993719
 30
0.0
 11
2687.616897441214
 21
2575.252429993719
 31
0.0
  0
LINE
  5
7A9D
  8
1
  6
CONTINUOUS
 10
3927.1648541846148
 20
2575.252429993719
 30
0.0
 11
4677.1648541846153
 21
2575.252429993719
 31
0.0
  0
LINE
  5
7A9E
  8
1
  6
CONTINUOUS
 10
3927.1648541846148
 20
2675.252429993719
 30
0.0
 11
4677.1648541846153
 21
2675.252429993719
 31
0.0
  0
LINE
  5
7A9F
  8
1
  6
CONTINUOUS
 10
3927.1648541846148
 20
2800.252429993719
 30
0.0
 11
4677.1648541846153
 21
2800.252429993719
 31
0.0
  0
LINE
  5
7AA0
  8
1
  6
CONTINUOUS
 10
3927.1648541846148
 20
2700.252429993719
 30
0.0
 11
4677.1648541846153
 21
2700.252429993719
 31
0.0
  0
LINE
  5
7AA1
  8
1
  6
CONTINUOUS
 10
3927.1648541846148
 20
2675.252429993719
 30
0.0
 11
3927.1648541846148
 21
2575.252429993719
 31
0.0
  0
LINE
  5
7AA2
  8
1
  6
CONTINUOUS
 10
3927.1648541846148
 20
2800.252429993719
 30
0.0
 11
3927.1648541846148
 21
2700.252429993719
 31
0.0
  0
LINE
  5
7AA3
  8
1
  6
CONTINUOUS
 10
4094.1648541846148
 20
2850.252429993719
 30
0.0
 11
3982.1648541846148
 21
2850.252429993719
 31
0.0
  0
LINE
  5
7AA4
  8
1
  6
CONTINUOUS
 10
3857.1648541846148
 20
2870.5524299937192
 30
0.0
 11
3942.1648541846148
 21
2870.5524299937192
 31
0.0
  0
LINE
  5
7AA5
  8
1
  6
CONTINUOUS
 10
3849.1648541846148
 20
2820.5524299937192
 30
0.0
 11
3959.1648541846148
 21
2820.5524299937192
 31
0.0
  0
LINE
  5
7AA6
  8
1
  6
CONTINUOUS
 10
4677.1648541846153
 20
2675.252429993719
 30
0.0
 11
4677.1648541846153
 21
2575.252429993719
 31
0.0
  0
LINE
  5
7AA7
  8
1
  6
CONTINUOUS
 10
4677.1648541846153
 20
2800.252429993719
 30
0.0
 11
4677.1648541846153
 21
2700.252429993719
 31
0.0
  0
LINE
  5
7AA8
  8
1
  6
CONTINUOUS
 10
4624.1648541846153
 20
2890.252429993719
 30
0.0
 11
4707.1648541846153
 21
2890.252429993719
 31
0.0
  0
LINE
  5
7AA9
  8
1
  6
CONTINUOUS
 10
2737.616897441213
 20
4044.252429993719
 30
0.0
 11
2737.616897441213
 21
3234.252429993719
 31
0.0
  0
LINE
  5
7AAA
  8
1
  6
CONTINUOUS
 10
2697.616897441214
 20
4000.8031979937191
 30
0.0
 11
2697.616897441214
 21
3274.252429993719
 31
0.0
  0
ARC
  5
7AAB
  8
1
  6
CONTINUOUS
 10
2279.616897441214
 20
3203.252429993719
 30
0.0
 40
380.0
 50
6.3456559999999991
 51
10.768549999999991
  0
LINE
  5
7AAC
  8
1
  6
CONTINUOUS
 10
2652.925081441213
 20
3274.252429993719
 30
0.0
 11
2737.616897441213
 21
3274.252429993719
 31
0.0
  0
LINE
  5
7AAD
  8
1
  6
CONTINUOUS
 10
4094.1648541846148
 20
4004.252429993719
 30
0.0
 11
4624.1648541846153
 21
3274.252429993719
 31
0.0
  0
LINE
  5
7AAE
  8
1
  6
CONTINUOUS
 10
4624.1648541846153
 20
4004.252429993719
 30
0.0
 11
4094.1648541846148
 21
3274.252429993719
 31
0.0
  0
LINE
  5
7AAF
  8
1
  6
CONTINUOUS
 10
4094.1648541846148
 20
3274.252429993719
 30
0.0
 11
4624.1648541846153
 21
3274.252429993719
 31
0.0
  0
LINE
  5
7AB0
  8
1
  6
CONTINUOUS
 10
3942.1648541846148
 20
3222.752429993719
 30
0.0
 11
4094.1648541846148
 21
3222.752429993719
 31
0.0
  0
LINE
  5
7AB1
  8
1
  6
CONTINUOUS
 10
3942.1648541846148
 20
3267.752429993719
 30
0.0
 11
4094.1648541846148
 21
3267.752429993719
 31
0.0
  0
LINE
  5
7AB2
  8
1
  6
CONTINUOUS
 10
3857.1648541846148
 20
3384.9524299937189
 30
0.0
 11
3942.1648541846148
 21
3384.9524299937189
 31
0.0
  0
LINE
  5
7AB3
  8
1
  6
CONTINUOUS
 10
3857.1648541846148
 20
3105.5524299937201
 30
0.0
 11
3942.1648541846148
 21
3105.5524299937201
 31
0.0
  0
LINE
  5
7AB4
  8
1
  6
CONTINUOUS
 10
3942.1648541846148
 20
3031.252429993719
 30
0.0
 11
3982.1648541846148
 21
3031.252429993719
 31
0.0
  0
LINE
  5
7AB5
  8
1
  6
CONTINUOUS
 10
3942.1648541846148
 20
2989.252429993719
 30
0.0
 11
3982.1648541846148
 21
2989.252429993719
 31
0.0
  0
LINE
  5
7AB6
  8
1
  6
CONTINUOUS
 10
3982.1648541846148
 20
3172.252429993719
 30
0.0
 11
4094.1648541846148
 21
3172.252429993719
 31
0.0
  0
LINE
  5
7AB7
  8
1
  6
CONTINUOUS
 10
3849.1648541846148
 20
3434.9524299937189
 30
0.0
 11
3959.1648541846148
 21
3434.9524299937189
 31
0.0
  0
LINE
  5
7AB8
  8
1
  6
CONTINUOUS
 10
4624.1648541846153
 20
3600.252429993719
 30
0.0
 11
4707.1648541846153
 21
3600.252429993719
 31
0.0
  0
LINE
  5
7AB9
  8
1
  6
CONTINUOUS
 10
4094.1648541846148
 20
4004.252429993719
 30
0.0
 11
4624.1648541846153
 21
4004.252429993719
 31
0.0
  0
LINE
  5
7ABA
  8
1
  6
CONTINUOUS
 10
1625.616897441214
 20
6049.3524299937199
 30
0.0
 11
2737.616897441213
 21
6049.3524299937199
 31
0.0
  0
LINE
  5
7ABB
  8
1
  6
CONTINUOUS
 10
1625.616897441214
 20
5519.3524299937199
 30
0.0
 11
2737.616897441213
 21
5519.3524299937199
 31
0.0
  0
LINE
  5
7ABC
  8
1
  6
CONTINUOUS
 10
1842.616897441214
 20
6132.3524299937189
 30
0.0
 11
2632.616897441214
 21
6132.3524299937189
 31
0.0
  0
LINE
  5
7ABD
  8
1
  6
CONTINUOUS
 10
2097.9168974412132
 20
5282.3524299937199
 30
0.0
 11
2377.3168974412119
 21
5282.3524299937199
 31
0.0
  0
LINE
  5
7ABE
  8
1
  6
CONTINUOUS
 10
2097.9168974412132
 20
5367.3524299937199
 30
0.0
 11
2377.3168974412119
 21
5367.3524299937199
 31
0.0
  0
LINE
  5
7ABF
  8
1
  6
CONTINUOUS
 10
1147.916897441213
 20
5274.3524299937199
 30
0.0
 11
2427.3168974412129
 21
5274.3524299937199
 31
0.0
  0
LINE
  5
7AC0
  8
1
  6
CONTINUOUS
 10
1147.916897441213
 20
5384.3524299937199
 30
0.0
 11
2427.3168974412129
 21
5384.3524299937199
 31
0.0
  0
LINE
  5
7AC1
  8
1
  6
CONTINUOUS
 10
1137.616897441213
 20
5352.3524299937199
 30
0.0
 11
1137.616897441213
 21
6102.3524299937199
 31
0.0
  0
LINE
  5
7AC2
  8
1
  6
CONTINUOUS
 10
1625.616897441214
 20
5519.3524299937199
 30
0.0
 11
1625.616897441214
 21
6049.3524299937199
 31
0.0
  0
LINE
  5
7AC3
  8
1
  6
CONTINUOUS
 10
1499.616897441214
 20
5407.3524299937199
 30
0.0
 11
1499.616897441214
 21
5944.3524299937199
 31
0.0
  0
LINE
  5
7AC4
  8
1
  6
CONTINUOUS
 10
1175.616897441214
 20
5407.3524299937199
 30
0.0
 11
1175.616897441214
 21
5944.3524299937199
 31
0.0
  0
LINE
  5
7AC5
  8
1
  6
CONTINUOUS
 10
1477.3168974412119
 20
5352.3524299937199
 30
0.0
 11
2097.9168974412132
 21
5352.3524299937199
 31
0.0
  0
LINE
  5
7AC6
  8
1
  6
CONTINUOUS
 10
1137.616897441213
 20
5352.3524299937199
 30
0.0
 11
1197.916897441213
 21
5352.3524299937199
 31
0.0
  0
LINE
  5
7AC7
  8
1
  6
CONTINUOUS
 10
1358.616897441214
 20
5367.3524299937199
 30
0.0
 11
1358.616897441214
 21
5407.3524299937199
 31
0.0
  0
LINE
  5
7AC8
  8
1
  6
CONTINUOUS
 10
1316.616897441214
 20
5367.3524299937199
 30
0.0
 11
1316.616897441214
 21
5407.3524299937199
 31
0.0
  0
LINE
  5
7AC9
  8
1
  6
CONTINUOUS
 10
1175.616897441214
 20
5407.3524299937199
 30
0.0
 11
1499.616897441214
 21
5407.3524299937199
 31
0.0
  0
LINE
  5
7ACA
  8
1
  6
CONTINUOUS
 10
1197.916897441213
 20
5367.3524299937199
 30
0.0
 11
1477.3168974412119
 21
5367.3524299937199
 31
0.0
  0
LINE
  5
7ACB
  8
1
  6
CONTINUOUS
 10
1197.916897441213
 20
5282.3524299937199
 30
0.0
 11
1477.3168974412119
 21
5282.3524299937199
 31
0.0
  0
LINE
  5
7ACC
  8
1
  6
CONTINUOUS
 10
1477.3168974412119
 20
5282.3524299937199
 30
0.0
 11
1477.3168974412119
 21
5367.3524299937199
 31
0.0
  0
LINE
  5
7ACD
  8
1
  6
CONTINUOUS
 10
1197.916897441213
 20
5282.3524299937199
 30
0.0
 11
1197.916897441213
 21
5367.3524299937199
 31
0.0
  0
LINE
  5
7ACE
  8
1
  6
CONTINUOUS
 10
1147.916897441213
 20
5274.3524299937199
 30
0.0
 11
1147.916897441213
 21
5384.3524299937199
 31
0.0
  0
LINE
  5
7ACF
  8
1
  6
CONTINUOUS
 10
2215.116897441214
 20
5367.3524299937199
 30
0.0
 11
2215.116897441214
 21
5519.3524299937199
 31
0.0
  0
LINE
  5
7AD0
  8
1
  6
CONTINUOUS
 10
2097.9168974412132
 20
5282.3524299937199
 30
0.0
 11
2097.9168974412132
 21
5367.3524299937199
 31
0.0
  0
LINE
  5
7AD1
  8
1
  6
CONTINUOUS
 10
1137.616897441213
 20
6102.3524299937199
 30
0.0
 11
1882.616897441214
 21
6102.3524299937199
 31
0.0
  0
LINE
  5
7AD2
  8
1
  6
CONTINUOUS
 10
1175.616897441214
 20
5944.3524299937199
 30
0.0
 11
1499.616897441214
 21
5944.3524299937199
 31
0.0
  0
LINE
  5
7AD3
  8
1
  6
CONTINUOUS
 10
1882.616897441214
 20
6049.3524299937199
 30
0.0
 11
1882.616897441214
 21
6132.3524299937189
 31
0.0
  0
LINE
  5
7AD4
  8
1
  6
CONTINUOUS
 10
2737.616897441213
 20
5479.3524299937199
 30
0.0
 11
2737.616897441213
 21
6089.3524299937199
 31
0.0
  0
LINE
  5
7AD5
  8
1
  6
CONTINUOUS
 10
2697.616897441214
 20
5519.3524299937199
 30
0.0
 11
2697.616897441214
 21
6049.3524299937199
 31
0.0
  0
LINE
  5
7AD6
  8
1
  6
CONTINUOUS
 10
2687.616897441214
 20
5352.3524299937199
 30
0.0
 11
2687.616897441214
 21
5519.3524299937199
 31
0.0
  0
LINE
  5
7AD7
  8
1
  6
CONTINUOUS
 10
2260.116897441214
 20
5367.3524299937199
 30
0.0
 11
2260.116897441214
 21
5519.3524299937199
 31
0.0
  0
LINE
  5
7AD8
  8
1
  6
CONTINUOUS
 10
2377.3168974412119
 20
5352.3524299937199
 30
0.0
 11
2687.616897441214
 21
5352.3524299937199
 31
0.0
  0
LINE
  5
7AD9
  8
1
  6
CONTINUOUS
 10
2377.3168974412119
 20
5282.3524299937199
 30
0.0
 11
2377.3168974412119
 21
5367.3524299937199
 31
0.0
  0
LINE
  5
7ADA
  8
1
  6
CONTINUOUS
 10
2427.3168974412129
 20
5274.3524299937199
 30
0.0
 11
2427.3168974412129
 21
5384.3524299937199
 31
0.0
  0
LINE
  5
7ADB
  8
1
  6
CONTINUOUS
 10
2687.616897441214
 20
6049.3524299937199
 30
0.0
 11
2687.616897441214
 21
6102.3524299937199
 31
0.0
  0
LINE
  5
7ADC
  8
1
  6
CONTINUOUS
 10
2592.616897441214
 20
6049.3524299937199
 30
0.0
 11
2592.616897441214
 21
6132.3524299937189
 31
0.0
  0
LINE
  5
7ADD
  8
1
  6
CONTINUOUS
 10
2592.616897441214
 20
6102.3524299937199
 30
0.0
 11
2687.616897441214
 21
6102.3524299937199
 31
0.0
  0
DIMENSION
  5
7AF1
  8
3
  6
CONTINUOUS
  2
*D1
 10
2237.616897441213
 20
2332.0714893437439
 30
0.0
 11
1647.637438441214
 21
2332.0714893437439
 31
0.0
 70
   128
 13
1137.616897441213
 23
2575.252429993719
 33
0.0
 14
2237.616897441213
 24
2495.3036769937198
 34
0.0
1001
ACAD
1000
DSTYLE
1002
{
1070
   287
1070
     3
1070
   287
1070
     3
1070
    40
1040
30.0
1070
   143
1040
0.039
1070
   172
1070
     1
1070
   271
1070
     0
1070
   279
1070
     0
1070
   288
1070
     1
1002
}
  0
DIMENSION
  5
7AFF
  8
3
  6
CONTINUOUS
  2
*D2
 10
2687.616897441214
 20
2331.2177653437438
 30
0.0
 11
2443.3311831555002
 21
2331.2177653437438
 31
0.0
 70
   128
 13
2237.616897441213
 23
2495.3036769937198
 33
0.0
 14
2687.616897441214
 24
2575.252429993719
 34
0.0
1001
ACAD
1000
DSTYLE
1002
{
1070
   287
1070
     3
1070
   287
1070
     3
1070
    40
1040
30.0
1070
   143
1040
0.039
1070
   172
1070
     1
1070
   271
1070
     0
1070
   279
1070
     0
1070
   288
1070
     1
1002
}
  0
DIMENSION
  5
7B22
  8
3
  6
CONTINUOUS
  2
*D3
 10
3048.0298014412142
 20
3274.252429993719
 30
0.0
 11
3048.0298014412128
 21
3641.7449109937188
 31
0.0
 70
   128
 13
2737.616897441213
 23
4004.252429993719
 33
0.0
 14
2737.616897441213
 24
3274.252429993719
 34
0.0
 50
90.0
1001
ACAD
1000
DSTYLE
1002
{
1070
   287
1070
     3
1070
   287
1070
     3
1070
    40
1040
30.0
1070
   143
1040
0.039
1070
   172
1070
     1
1070
   271
1070
     0
1070
   279
1070
     0
1070
   288
1070
     1
1002
}
  0
DIMENSION
  5
7B2F
  8
3
  6
CONTINUOUS
  2
*D4
 10
3254.9534383541531
 20
3245.252429993719
 30
0.0
 11
3254.9534383541518
 21
3633.1598309937199
 31
0.0
 70
   128
 13
2737.616897441213
 23
4004.252429993719
 33
0.0
 14
2657.2887124412132
 24
3245.252429993719
 34
0.0
 50
90.0
1001
ACAD
1000
DSTYLE
1002
{
1070
   287
1070
     3
1070
   287
1070
     3
1070
    40
1040
30.0
1070
   143
1040
0.039
1070
   172
1070
     1
1070
   271
1070
     0
1070
   279
1070
     0
1070
   288
1070
     1
1002
}
  0
DIMENSION
  5
7B47
  8
3
  6
CONTINUOUS
  2
*D5
 10
3254.9534383541518
 20
2700.252429993719
 30
0.0
 11
3179.9534383541518
 21
2972.7524299937199
 31
0.0
 70
     0
 13
2657.2887124412132
 23
3245.252429993719
 33
0.0
 14
2687.616897441214
 24
2700.252429993719
 34
0.0
 50
90.0
1001
ACAD
1000
DSTYLE
1002
{
1070
   287
1070
     3
1070
   287
1070
     3
1070
    40
1040
30.0
1070
   143
1040
0.039
1070
   172
1070
     1
1070
   271
1070
     0
1070
   279
1070
     0
1070
   288
1070
     1
1002
}
  0
DIMENSION
  5
7B57
  8
3
  6
CONTINUOUS
  2
*D6
 10
3254.9534383541518
 20
2575.252429993719
 30
0.0
 11
3254.9534383541518
 21
2318.1095728508622
 31
0.0
 70
   128
 13
2687.616897441214
 23
2700.252429993719
 33
0.0
 14
2687.616897441214
 24
2575.252429993719
 34
0.0
 50
90.0
1001
ACAD
1000
DSTYLE
1002
{
1070
   287
1070
     3
1070
   287
1070
     3
1070
    40
1040
30.0
1070
   143
1040
0.039
1070
   172
1070
     1
1070
   271
1070
     0
1070
   279
1070
     0
1070
   288
1070
     1
1002
}
  0
DIMENSION
  5
7B7E
  8
3
  6
CONTINUOUS
  2
*D7
 10
3425.0804064885401
 20
2575.252429993719
 30
0.0
 11
3425.0804064885401
 21
3251.550236993719
 31
0.0
 70
   128
 13
2737.616897441213
 23
4044.252429993719
 33
0.0
 14
2687.616897441214
 24
2575.252429993719
 34
0.0
 50
90.0
1001
ACAD
1000
DSTYLE
1002
{
1070
   287
1070
     3
1070
   287
1070
     3
1070
    40
1040
30.0
1070
   143
1040
0.039
1070
   172
1070
     1
1070
   271
1070
     0
1070
   279
1070
     0
1070
   288
1070
     1
1002
}
  0
DIMENSION
  5
7B8B
  8
3
  6
CONTINUOUS
  2
*D8
 10
2237.616897441213
 20
4119.4980069937201
 30
0.0
 11
1926.856785441214
 21
4119.4980069937201
 31
0.0
 70
   128
 13
1625.616897441214
 23
3245.252429993719
 33
0.0
 14
2237.616897441213
 24
3961.1370349937192
 34
0.0
1001
ACAD
1000
DSTYLE
1002
{
1070
   287
1070
     3
1070
   287
1070
     3
1070
    40
1040
30.0
1070
   143
1040
0.039
1070
   172
1070
     1
1070
   271
1070
     0
1070
   279
1070
     0
1070
   288
1070
     1
1002
}
  0
DIMENSION
  5
7B97
  8
3
  6
CONTINUOUS
  2
*D9
 10
2737.616897441213
 20
4119.4980069937201
 30
0.0
 11
2487.616897441213
 21
4194.4980069937201
 31
0.0
 70
     0
 13
2237.616897441213
 23
3961.1370349937192
 33
0.0
 14
2737.616897441213
 24
4044.252429993719
 34
0.0
1001
ACAD
1000
DSTYLE
1002
{
1070
   287
1070
     3
1070
   287
1070
     3
1070
    40
1040
30.0
1070
   143
1040
0.039
1070
   172
1070
     1
1070
   271
1070
     0
1070
   279
1070
     0
1070
   288
1070
     1
1002
}
  0
DIMENSION
  5
7BA4
  8
3
  6
CONTINUOUS
  2
*D10
 10
2687.616897441214
 20
4959.9750329937187
 30
0.0
 11
1944.0394914412129
 21
4959.9750329937187
 31
0.0
 70
   128
 13
1137.616897441213
 23
5352.3524299937199
 33
0.0
 14
2687.616897441214
 24
5352.3524299937199
 34
0.0
1001
ACAD
1000
DSTYLE
1002
{
1070
   287
1070
     3
1070
   287
1070
     3
1070
    40
1040
30.0
1070
   143
1040
0.039
1070
   172
1070
     1
1070
   271
1070
     0
1070
   279
1070
     0
1070
   288
1070
     1
1002
}
  0
DIMENSION
  5
7BB1
  8
3
  6
CONTINUOUS
  2
*D11
 10
3073.8038794412141
 20
5352.3524299937199
 30
0.0
 11
3073.8038794412132
 21
5775.5584749937198
 31
0.0
 70
   128
 13
2687.616897441214
 23
6102.3524299937199
 33
0.0
 14
2687.616897441214
 24
5352.3524299937199
 34
0.0
 50
90.0
1001
ACAD
1000
DSTYLE
1002
{
1070
   287
1070
     3
1070
   287
1070
     3
1070
    40
1040
30.0
1070
   143
1040
0.039
1070
   172
1070
     1
1070
   271
1070
     0
1070
   279
1070
     0
1070
   288
1070
     1
1002
}
  0
LINE
  5
7BB2
  8
2
  6
CENTER
 10
1385.058706441213
 20
5784.3524299937199
 30
0.0
 11
2838.7088126227391
 21
5784.3524299937199
 31
0.0
  0
LINE
  5
7BB3
  8
2
  6
CENTER
 10
2237.616897441213
 20
5199.0769299937192
 30
0.0
 11
2237.616897441213
 21
6183.9482999937209
 31
0.0
  0
LINE
  5
7BB4
  8
2
  6
CENTER
 10
4359.1648541846153
 20
4142.9376075638793
 30
0.0
 11
4359.1648541846153
 21
2466.0305639937201
 31
0.0
  0
DIMENSION
  5
7BC3
  8
3
  6
CONTINUOUS
  2
*D12
 10
4359.1648541846153
 20
2341.5467999937191
 30
0.0
 11
4132.8791398988997
 21
2341.5467999937191
 31
0.0
 70
   128
 13
3927.1648541846148
 23
2575.252429993719
 33
0.0
 14
4359.1648541846153
 24
2466.0305639937201
 34
0.0
1001
ACAD
1000
DSTYLE
1002
{
1070
   287
1070
     3
1070
   287
1070
     3
1070
    40
1040
30.0
1070
   143
1040
0.039
1070
   172
1070
     1
1070
   271
1070
     0
1070
   279
1070
     0
1070
   288
1070
     1
1002
}
  0
DIMENSION
  5
7BD1
  8
3
  6
CONTINUOUS
  2
*D13
 10
4677.1648541846153
 20
2341.5467999937191
 30
0.0
 11
4530.1697810698379
 21
2418.62335528533
 31
0.0
 70
   128
 13
4359.1648541846153
 23
2466.0305639937201
 33
0.0
 14
4677.1648541846153
 24
2575.252429993719
 34
0.0
1001
ACAD
1000
DSTYLE
1002
{
1070
   288
1070
     1
1070
   172
1070
     1
1070
    40
1040
30.0
1070
   271
1070
     0
1070
   143
1040
0.039
1002
}
  0
DIMENSION
  5
7BF4
  8
3
  6
CONTINUOUS
  2
*D14
 10
4997.1569001846156
 20
2890.252429993719
 30
0.0
 11
4997.1569001846146
 21
3238.6886269937199
 31
0.0
 70
   128
 13
4707.1648541846153
 23
3600.252429993719
 33
0.0
 14
4707.1648541846153
 24
2890.252429993719
 34
0.0
 50
90.0
1001
ACAD
1000
DSTYLE
1002
{
1070
   287
1070
     3
1070
   287
1070
     3
1070
     3
1000
φ<>
1070
    40
1040
30.0
1070
   143
1040
0.039
1070
   172
1070
     1
1070
   271
1070
     0
1070
   279
1070
     0
1070
   288
1070
     1
1002
}
  0
DIMENSION
  5
7C01
  8
3
  6
CONTINUOUS
  2
*D15
 10
4624.1648541846153
 20
4127.9696765638782
 30
0.0
 11
4334.1648541846153
 21
4127.9696765638782
 31
0.0
 70
   128
 13
4094.1648541846148
 23
4004.252429993719
 33
0.0
 14
4624.1648541846153
 24
4004.252429993719
 34
0.0
1001
ACAD
1000
DSTYLE
1002
{
1070
   287
1070
     3
1070
   287
1070
     3
1070
    40
1040
30.0
1070
   143
1040
0.039
1070
   172
1070
     1
1070
   271
1070
     0
1070
   279
1070
     0
1070
   288
1070
     1
1002
}
  0
DIMENSION
  5
7C0E
  8
3
  6
CONTINUOUS
  2
*D16
 10
4359.1648541846153
 20
4331.686528418918
 30
0.0
 11
4067.7362827560428
 21
4331.686528418918
 31
0.0
 70
   128
  1
MAX\P590
 13
3849.1648541846148
 23
3434.9524299937189
 33
0.0
 14
4359.1648541846153
 24
4270.8575214925513
 34
0.0
1001
ACAD
1000
DSTYLE
1002
{
1070
   287
1070
     3
1070
   287
1070
     3
1070
    40
1040
30.0
1070
   143
1040
0.039
1070
   172
1070
     1
1070
   271
1070
     0
1070
   279
1070
     0
1070
   288
1070
     1
1002
}
  0
DIMENSION
  5
7C1C
  8
3
  6
CONTINUOUS
  2
*D17
 10
4707.1648541846153
 20
4331.686528418918
 30
0.0
 11
4549.6575076628278
 21
4409.7003774232508
 31
0.0
 70
   128
 13
4359.1648541846153
 23
4273.6099495810231
 33
0.0
 14
4707.1648541846153
 24
3640.2524299937199
 34
0.0
1001
ACAD
1000
DSTYLE
1002
{
1070
   288
1070
     1
1070
   172
1070
     1
1070
    40
1040
30.0
1070
   271
1070
     0
1070
   143
1040
0.039
1002
}
  0
LINE
  5
7C33
  8
2
  6
CENTER
 10
3750.5510261846148
 20
3245.252429993719
 30
0.0
 11
4807.4062561846149
 21
3245.252429993719
 31
0.0
  0
LINE
  5
7C34
  8
4
  6
CONTINUOUS
 10
5550.0
 20
1500.0
 30
0.0
 11
5550.0
 21
900.0
 31
0.0
  0
LINE
  5
7C35
  8
4
  6
CONTINUOUS
 10
3450.0
 20
1500.0
 30
0.0
 11
3450.0
 21
900.0
 31
0.0
  0
LINE
  5
7C36
  8
4
  6
CONTINUOUS
 10
1950.0
 20
1500.0
 30
0.0
 11
1950.0
 21
900.0
 31
0.0
  0
LINE
  5
7C39
  8
4
  6
CONTINUOUS
 10
1950.0
 20
900.0
 30
0.0
 11
5550.0
 21
900.0
 31
0.0
  0
LINE
  5
7C3A
  8
4
  6
CONTINUOUS
 10
1950.0
 20
1200.0
 30
0.0
 11
5550.0
 21
1200.0
 31
0.0
  0
TEXT
  5
7C3B
  8
4
  6
CONTINUOUS
 10
2065.50624225
 20
1294.6290779999999
 30
0.0
 40
150.0
  1
機器名称
  0
TEXT
  5
7C3C
  8
4
  6
CONTINUOUS
 10
2058.7743179999989
 20
964.93547024999998
 30
0.0
 40
150.0
  1
機器型番
  0
TEXT
  5
7C3D
  8
4
  6
CONTINUOUS
 10
3533.0362365000001
 20
1267.715306249999
 30
0.0
 40
120.0
  1
ミツヤリミットロードファン
  0
TEXT
  5
7C3E
  8
4
  6
CONTINUOUS
 10
3559.9634872500001
 20
951.4787527499999
 30
0.0
 40
150.0
  1
LLE#4 1/2-4
  0
TEXT
  5
7C40
  8
4
  6
CONTINUOUS
 10
2258.5096642499998
 20
7150.2865245000012
 30
0.0
 40
162.0
  1
床置防振ベット
  0
TEXT
  5
7C41
  8
4
  6
CONTINUOUS
 10
948.50278049999986
 20
7601.6429287499996
 30
0.0
 40
171.42857175
  1
ベルト駆動式片吸込両持排煙ファン
  0
LINE
  5
7C42
  8
4
  6
CONTINUOUS
 10
750.0
 20
7408.2262627500004
 30
0.0
 11
5550.0
 21
7408.2262627500004
 31
0.0
  0
LINE
  5
7C43
  8
4
  6
CONTINUOUS
 10
750.0
 20
8008.2262627500004
 30
0.0
 11
5550.0
 21
8008.2262627500004
 31
0.0
  0
LINE
  5
7C44
  8
4
  6
CONTINUOUS
 10
1950.0
 20
1500.0
 30
0.0
 11
5550.0
 21
1500.0
 31
0.0
  0
LINE
  5
7C45
  8
4
  6
CONTINUOUS
 10
750.0
 20
8008.2262627500004
 30
0.0
 11
750.0
 21
7408.2262627500004
 31
0.0
  0
TEXT
  5
7C46
  8
4
  6
CONTINUOUS
 10
950.93316749999997
 20
7146.9584324999987
 30
0.0
 40
162.0
  1
右回転右横向
  0
TEXT
  5
7C47
  8
4
  6
CONTINUOUS
 10
4406.9086777499988
 20
8118.1832445
 30
0.0
 40
168.0
  1
No.
  0
TEXT
  5
7C48
  8
4
  6
CONTINUOUS
 10
3933.8881875000002
 20
7150.2865245000012
 30
0.0
 40
162.0
  1
縮尺：1/30
  0
LINE
  5
7C49
  8
4
  6
CONTINUOUS
 10
5550.0
 20
8008.2262627500004
 30
0.0
 11
5550.0
 21
7408.2262627500004
 31
0.0
  0
LINE
  5
7C4B
  8
4
  6
CONTINUOUS
 10
4321.8522667500001
 20
8043.79074975
 30
0.0
 11
4321.8522667500001
 21
8359.9567845000001
 31
0.0
  0
LINE
  5
7C4C
  8
4
  6
CONTINUOUS
 10
4321.8522667500001
 20
8359.9567845000001
 30
0.0
 11
5550.0
 21
8359.9567845000001
 31
0.0
  0
LINE
  5
7C4D
  8
4
  6
CONTINUOUS
 10
5550.0
 20
8359.9567845000001
 30
0.0
 11
5550.0
 21
8043.79074975
 31
0.0
  0
LINE
  5
7C4E
  8
4
  6
CONTINUOUS
 10
5550.0
 20
8043.79074975
 30
0.0
 11
4321.8522667500001
 21
8043.79074975
 31
0.0
  0
DIMENSION
  5
7DB8
  8
3
  2
*D18
 10
1137.616897441213
 20
4296.3195869654337
 30
0.0
 11
1878.3994197233619
 21
4296.3195869654337
 31
0.0
 70
   128
 13
2737.616897441213
 23
4059.252429993719
 33
0.0
 14
1137.616897441213
 24
2800.252429993719
 34
0.0
1001
ACAD
1000
DSTYLE
1002
{
1070
   287
1070
     3
1070
   287
1070
     3
1070
    40
1040
30.0
1070
   143
1040
0.039
1070
   172
1070
     1
1070
   271
1070
     0
1070
   279
1070
     0
1070
   288
1070
     1
1002
}
  0
ENDSEC
  0
EOF
