  0
SECTION
  2
HEADER
  9
$ACADVER
  1
AC1009
  9
$INSBASE
 10
0.0
 20
0.0
 30
0.0
  9
$EXTMIN
 10
750.0
 20
900.0
 30
0.0
  9
$EXTMAX
 10
5550.0
 20
8359.9567845000001
 30
0.0
  9
$LIMMIN
 10
0.0
 20
0.0
  9
$LIMMAX
 10
297.0
 20
210.0
  9
$ORTHOMODE
 70
     0
  9
$REGENMODE
 70
     1
  9
$FILLMODE
 70
     0
  9
$QTEXTMODE
 70
     0
  9
$MIRRTEXT
 70
     1
  9
$DRAGMODE
 70
     2
  9
$LTSCALE
 40
100.0
  9
$OSMODE
 70
    37
  9
$ATTMODE
 70
     1
  9
$TEXTSIZE
 40
180.0
  9
$TRACEWID
 40
0.05
  9
$TEXTSTYLE
  7
STANDARD
  9
$CLAYER
  8
3
  9
$CELTYPE
  6
BYLAYER
  9
$CECOLOR
 62
   256
  9
$DIMSCALE
 40
30.0
  9
$DIMASZ
 40
2.0
  9
$DIMEXO
 40
0.5
  9
$DIMDLI
 40
10.0
  9
$DIMRND
 40
0.0
  9
$DIMDLE
 40
0.0
  9
$DIMEXE
 40
1.0
  9
$DIMTP
 40
1.0
  9
$DIMTM
 40
1.0
  9
$DIMTXT
 40
3.0
  9
$DIMCEN
 40
0.0
  9
$DIMTSZ
 40
0.0
  9
$DIMTOL
 70
     0
  9
$DIMLIM
 70
     0
  9
$DIMTIH
 70
     0
  9
$DIMTOH
 70
     0
  9
$DIMSE1
 70
     0
  9
$DIMSE2
 70
     0
  9
$DIMTAD
 70
     1
  9
$DIMZIN
 70
     8
  9
$DIMBLK
  1

  9
$DIMASO
 70
     1
  9
$DIMSHO
 70
     1
  9
$DIMPOST
  1

  9
$DIMAPOST
  1

  9
$DIMALT
 70
     0
  9
$DIMALTD
 70
     2
  9
$DIMALTF
 40
0.039
  9
$DIMLFAC
 40
1.0
  9
$DIMTOFL
 70
     1
  9
$DIMTVP
 40
0.0
  9
$DIMTIX
 70
     0
  9
$DIMSOXD
 70
     0
  9
$DIMSAH
 70
     1
  9
$DIMBLK1
  1
OPEN
  9
$DIMBLK2
  1
OPEN
  9
$DIMSTYLE
  2
IGA
  9
$DIMCLRD
 70
     0
  9
$DIMCLRE
 70
     0
  9
$DIMCLRT
 70
     0
  9
$DIMTFAC
 40
10.0
  9
$DIMGAP
 40
1.0
  9
$LUNITS
 70
     2
  9
$LUPREC
 70
     3
  9
$SKETCHINC
 40
0.1
  9
$FILLETRAD
 40
50.0
  9
$AUNITS
 70
     0
  9
$AUPREC
 70
     0
  9
$MENU
  1
acad
  9
$ELEVATION
 40
0.0
  9
$PELEVATION
 40
0.0
  9
$THICKNESS
 40
0.0
  9
$LIMCHECK
 70
     0
  9
$BLIPMODE
 70
     0
  9
$CHAMFERA
 40
0.5
  9
$CHAMFERB
 40
0.5
  9
$SKPOLY
 70
     0
  9
$TDCREATE
 40
2450754.4132399312
  9
$TDUPDATE
 40
2454953.6841659369
  9
$TDINDWG
 40
0.0057061921
  9
$TDUSRTIMER
 40
0.0057061921
  9
$USRTIMER
 70
     1
  9
$ANGBASE
 50
0.0
  9
$ANGDIR
 70
     0
  9
$PDMODE
 70
     0
  9
$PDSIZE
 40
0.0
  9
$PLINEWID
 40
0.0
  9
$COORDS
 70
     1
  9
$SPLFRAME
 70
     0
  9
$SPLINETYPE
 70
     6
  9
$SPLINESEGS
 70
     8
  9
$ATTDIA
 70
     0
  9
$ATTREQ
 70
     1
  9
$HANDLING
 70
 10241
  9
$HANDSEED
  5
829C
  9
$SURFTAB1
 70
     6
  9
$SURFTAB2
 70
     6
  9
$SURFTYPE
 70
     6
  9
$SURFU
 70
     6
  9
$SURFV
 70
     6
  9
$UCSNAME
  2

  9
$UCSORG
 10
0.0
 20
0.0
 30
0.0
  9
$UCSXDIR
 10
1.0
 20
0.0
 30
0.0
  9
$UCSYDIR
 10
0.0
 20
1.0
 30
0.0
  9
$PUCSNAME
  2

  9
$PUCSORG
 10
0.0
 20
0.0
 30
0.0
  9
$PUCSXDIR
 10
1.0
 20
0.0
 30
0.0
  9
$PUCSYDIR
 10
0.0
 20
1.0
 30
0.0
  9
$USERI1
 70
     0
  9
$USERI2
 70
     0
  9
$USERI3
 70
     0
  9
$USERI4
 70
     0
  9
$USERI5
 70
     0
  9
$USERR1
 40
0.0
  9
$USERR2
 40
0.0
  9
$USERR3
 40
0.0
  9
$USERR4
 40
0.0
  9
$USERR5
 40
0.0
  9
$WORLDVIEW
 70
     1
  9
$SHADEDGE
 70
     3
  9
$SHADEDIF
 70
    70
  9
$TILEMODE
 70
     1
  9
$MAXACTVP
 70
    16
  9
$PLIMCHECK
 70
     0
  9
$PEXTMIN
 10
1.0000000000000000E+020
 20
1.0000000000000000E+020
 30
1.0000000000000000E+020
  9
$PEXTMAX
 10
-1.0000000000000000E+020
 20
-1.0000000000000000E+020
 30
-1.0000000000000000E+020
  9
$PLIMMIN
 10
0.0
 20
0.0
  9
$PLIMMAX
 10
12.0
 20
9.0
  9
$UNITMODE
 70
     0
  9
$VISRETAIN
 70
     0
  9
$PLINEGEN
 70
     0
  9
$PSLTSCALE
 70
     1
  0
ENDSEC
  0
SECTION
  2
TABLES
  0
TABLE
  2
VPORT
 70
     2
  0
VPORT
  2
*ACTIVE
 70
     0
 10
0.0
 20
0.0
 11
1.0
 21
1.0
 12
15402.93664191945
 22
4719.1881971133353
 13
0.0
 23
0.0
 14
10.0
 24
10.0
 15
10.0
 25
10.0
 16
0.0
 26
0.0
 36
1.0
 17
0.0
 27
0.0
 37
0.0
 40
12661.70490780669
 41
3.1666666666666661
 42
50.0
 43
0.0
 44
0.0
 50
0.0
 51
0.0
 71
     0
 72
   100
 73
     1
 74
     0
 75
     0
 76
     0
 77
     0
 78
     0
  0
ENDTAB
  0
TABLE
  2
LTYPE
 70
     2
  0
LTYPE
  2
CONTINUOUS
 70
     0
  3
Solid line
 72
    65
 73
     0
 40
0.0
  0
LTYPE
  2
CENTER
 70
     0
  3
____ _ ____ _ ____ _ ____ _ ____ _ ____ _ ____ 
 72
    65
 73
     4
 40
2.0
 49
1.25
 49
-0.25
 49
0.25
 49
-0.25
  0
ENDTAB
  0
TABLE
  2
LAYER
 70
     6
  0
LAYER
  2
0
 70
     0
 62
     7
  6
CONTINUOUS
  0
LAYER
  2
3
 70
     0
 62
     2
  6
CONTINUOUS
  0
LAYER
  2
2
 70
     0
 62
     3
  6
CENTER
  0
LAYER
  2
1
 70
     0
 62
     4
  6
CONTINUOUS
  0
LAYER
  2
4
 70
     0
 62
     7
  6
CONTINUOUS
  0
LAYER
  2
DEFPOINTS
 70
     0
 62
     7
  6
CONTINUOUS
  0
ENDTAB
  0
TABLE
  2
STYLE
 70
     1
  0
STYLE
  2
STANDARD
 70
     0
 40
0.0
 41
1.0
 50
0.0
 71
     0
 42
180.0
  3
simplex.shx
  4
extfont.shx
  0
ENDTAB
  0
TABLE
  2
VIEW
 70
     0
  0
ENDTAB
  0
TABLE
  2
UCS
 70
     0
  0
ENDTAB
  0
TABLE
  2
APPID
 70
     1
  0
APPID
  2
ACAD
 70
     0
  0
ENDTAB
  0
TABLE
  2
DIMSTYLE
 70
     1
  0
DIMSTYLE
  2
IGA
 70
     0
  3

  4

  5

  6
OPEN
  7
OPEN
 40
2.0
 41
2.0
 42
0.5
 43
10.0
 44
1.0
 45
0.0
 46
0.0
 47
1.0
 48
1.0
140
3.0
141
0.0
142
0.0
143
0.03937
144
1.0
145
0.0
146
10.0
147
1.0
 71
     0
 72
     0
 73
     0
 74
     0
 75
     0
 76
     0
 77
     1
 78
     8
170
     0
171
     2
172
     0
173
     1
174
     0
175
     0
176
     0
177
     0
178
     0
  0
ENDTAB
  0
ENDSEC
  0
SECTION
  2
BLOCKS
  0
BLOCK
  8
0
  2
$MODEL_SPACE
 70
     0
 10
0.0
 20
0.0
 30
0.0
  3
$MODEL_SPACE
  1

  0
ENDBLK
  5
1B
  8
0
  0
BLOCK
 67
     1
  8
0
  2
$PAPER_SPACE
 70
     0
 10
0.0
 20
0.0
 30
0.0
  3
$PAPER_SPACE
  1

  0
ENDBLK
  5
18
 67
     1
  8
0
  0
BLOCK
  8
0
  2
_OPEN
 70
     0
 10
0.0
 20
0.0
 30
0.0
  3
_OPEN
  1

  0
LINE
  5
7AE6
  8
0
  6
BYBLOCK
 62
     0
 10
-1.0
 20
0.166667
 30
0.0
 11
0.0
 21
0.0
 31
0.0
  0
LINE
  5
7AE7
  8
0
  6
BYBLOCK
 62
     0
 10
0.0
 20
0.0
 30
0.0
 11
-1.0
 21
-0.166667
 31
0.0
  0
LINE
  5
7AE8
  8
0
  6
BYBLOCK
 62
     0
 10
0.0
 20
0.0
 30
0.0
 11
-1.0
 21
0.0
 31
0.0
  0
ENDBLK
  5
7AE9
  8
0
  0
BLOCK
  8
0
  2
*D1
 70
     1
 10
0.0
 20
0.0
 30
0.0
  3
*D1
  1

  0
LINE
  5
81F9
  8
3
  6
CONTINUOUS
 62
     0
 10
2043.9343106128069
 20
4105.945203292441
 30
0.0
 11
2043.9343106128069
 21
4266.2531572924408
 31
0.0
  0
LINE
  5
81FA
  8
3
  6
CONTINUOUS
 62
     0
 10
2773.9343106128081
 20
4105.945203292441
 30
0.0
 11
2773.9343106128081
 21
4266.2531572924408
 31
0.0
  0
LINE
  5
81FB
  8
3
  6
CONTINUOUS
 62
     0
 10
2103.9343106128072
 20
4236.2531572924399
 30
0.0
 11
2713.9343106128081
 21
4236.2531572924399
 31
0.0
  0
INSERT
  5
81FC
  8
3
  6
CONTINUOUS
 62
     0
  2
_OPEN
 10
2043.9343106128069
 20
4236.2531572924399
 30
0.0
 41
60.0
 42
60.0
 43
60.0
 50
180.0
  0
INSERT
  5
81FD
  8
3
  6
CONTINUOUS
 62
     0
  2
_OPEN
 10
2773.9343106128081
 20
4236.2531572924399
 30
0.0
 41
60.0
 42
60.0
 43
60.0
  0
TEXT
  8
3
  40
90
  5
828B
  62
0
  72
0
  71
0
 10
2227.56
 20
4151.95
 30
0.000000
  1
730
  0
POINT
  5
81FF
  8
DEFPOINTS
  6
CONTINUOUS
 62
     0
 10
2043.9343106128069
 20
4090.945203292441
 30
0.0
  0
POINT
  5
8200
  8
DEFPOINTS
  6
CONTINUOUS
 62
     0
 10
2773.9343106128081
 20
4090.945203292441
 30
0.0
  0
POINT
  5
8201
  8
DEFPOINTS
  6
CONTINUOUS
 62
     0
 10
2773.9343106128081
 20
4236.2531572924399
 30
0.0
  0
ENDBLK
  5
8080
  8
0
  0
BLOCK
  8
0
  2
*D2
 70
     1
 10
0.0
 20
0.0
 30
0.0
  3
*D2
  1

  0
LINE
  5
8202
  8
3
  6
CONTINUOUS
 62
     0
 10
2773.9343106128081
 20
4105.945203292441
 30
0.0
 11
2773.9343106128081
 21
4480.7082142924401
 31
0.0
  0
LINE
  5
8203
  8
3
  6
CONTINUOUS
 62
     0
 10
2014.9343106128069
 20
4202.4658032924399
 30
0.0
 11
2014.9343106128069
 21
4480.7082142924401
 31
0.0
  0
LINE
  5
8204
  8
3
  6
CONTINUOUS
 62
     0
 10
2713.9343106128081
 20
4450.708214292441
 30
0.0
 11
2074.9343106128072
 21
4450.708214292441
 31
0.0
  0
INSERT
  5
8205
  8
3
  6
CONTINUOUS
 62
     0
  2
_OPEN
 10
2773.9343106128081
 20
4450.708214292441
 30
0.0
 41
60.0
 42
60.0
 43
60.0
  0
INSERT
  5
8206
  8
3
  6
CONTINUOUS
 62
     0
  2
_OPEN
 10
2014.9343106128069
 20
4450.708214292441
 30
0.0
 41
60.0
 42
60.0
 43
60.0
 50
180.0
  0
TEXT
  8
3
  40
90
  5
828C
  62
0
  72
0
  71
0
 10
2227.56
 20
4366.41
 30
0.000000
  1
759
  0
POINT
  5
8208
  8
DEFPOINTS
  6
CONTINUOUS
 62
     0
 10
2773.9343106128081
 20
4090.945203292441
 30
0.0
  0
POINT
  5
8209
  8
DEFPOINTS
  6
CONTINUOUS
 62
     0
 10
2014.9343106128069
 20
4187.4658032924408
 30
0.0
  0
POINT
  5
820A
  8
DEFPOINTS
  6
CONTINUOUS
 62
     0
 10
2014.9343106128069
 20
4450.708214292441
 30
0.0
  0
ENDBLK
  5
8075
  8
0
  0
BLOCK
  8
0
  2
*D3
 70
     1
 10
0.0
 20
0.0
 30
0.0
  3
*D3
  1

  0
LINE
  5
820B
  8
3
  6
CONTINUOUS
 62
     0
 10
2014.9343106128069
 20
4202.4658032924399
 30
0.0
 11
2014.9343106128069
 21
4480.7082382924409
 31
0.0
  0
LINE
  5
820C
  8
3
  6
CONTINUOUS
 62
     0
 10
1508.9343106128069
 20
3552.945203292441
 30
0.0
 11
1508.9343106128069
 21
4480.7082382924409
 31
0.0
  0
LINE
  5
820D
  8
3
  6
CONTINUOUS
 62
     0
 10
1954.9343106128069
 20
4450.7082382924409
 30
0.0
 11
1568.9343106128069
 21
4450.7082382924409
 31
0.0
  0
INSERT
  5
820E
  8
3
  6
CONTINUOUS
 62
     0
  2
_OPEN
 10
2014.9343106128069
 20
4450.7082382924409
 30
0.0
 41
60.0
 42
60.0
 43
60.0
  0
INSERT
  5
820F
  8
3
  6
CONTINUOUS
 62
     0
  2
_OPEN
 10
1508.9343106128069
 20
4450.7082382924409
 30
0.0
 41
60.0
 42
60.0
 43
60.0
 50
180.0
  0
TEXT
  8
3
  40
90
  5
828D
  62
0
  72
0
  71
0
 10
1583.81
 20
4366.41
 30
0.000000
  1
506
  0
POINT
  5
8211
  8
DEFPOINTS
  6
CONTINUOUS
 62
     0
 10
2014.9343106128069
 20
4187.4658032924408
 30
0.0
  0
POINT
  5
8212
  8
DEFPOINTS
  6
CONTINUOUS
 62
     0
 10
1508.9343106128069
 20
3537.945203292441
 30
0.0
  0
POINT
  5
8213
  8
DEFPOINTS
  6
CONTINUOUS
 62
     0
 10
1508.9343106128069
 20
4450.7082382924409
 30
0.0
  0
ENDBLK
  5
806A
  8
0
  0
BLOCK
  8
0
  2
*D4
 70
     1
 10
0.0
 20
0.0
 30
0.0
  3
*D4
  1

  0
LINE
  5
8214
  8
3
  6
CONTINUOUS
 62
     0
 10
1988.9343106128069
 20
4090.945203292441
 30
0.0
 11
1284.5203116128071
 21
4090.945203292441
 31
0.0
  0
LINE
  5
8215
  8
3
  6
CONTINUOUS
 62
     0
 10
1368.431358612808
 20
3590.945203292441
 30
0.0
 11
1284.5203116128071
 21
3590.945203292441
 31
0.0
  0
LINE
  5
8216
  8
3
  6
CONTINUOUS
 62
     0
 10
1314.5203116128071
 20
4030.945203292441
 30
0.0
 11
1314.5203116128071
 21
3650.9452032924401
 31
0.0
  0
INSERT
  5
8217
  8
3
  6
CONTINUOUS
 62
     0
  2
_OPEN
 10
1314.5203116128071
 20
4090.945203292441
 30
0.0
 41
60.0
 42
60.0
 43
60.0
 50
90.0
  0
INSERT
  5
8218
  8
3
  6
CONTINUOUS
 62
     0
  2
_OPEN
 10
1314.5203116128071
 20
3590.945203292441
 30
0.0
 41
60.0
 42
60.0
 43
60.0
 50
270.0
  0
TEXT
  8
3
  40
90
  5
828E
  62
0
  72
0
  71
0
 10
1059.52
 20
3681.65
 30
0.000000
  1
500
  0
POINT
  5
821A
  8
DEFPOINTS
  6
CONTINUOUS
 62
     0
 10
2003.9343106128069
 20
4090.945203292441
 30
0.0
  0
POINT
  5
821B
  8
DEFPOINTS
  6
CONTINUOUS
 62
     0
 10
1383.431358612808
 20
3590.945203292441
 30
0.0
  0
POINT
  5
821C
  8
DEFPOINTS
  6
CONTINUOUS
 62
     0
 10
1314.5203116128071
 20
3590.945203292441
 30
0.0
  0
ENDBLK
  5
805F
  8
0
  0
BLOCK
  8
0
  2
*D5
 70
     1
 10
0.0
 20
0.0
 30
0.0
  3
*D5
  1

  0
LINE
  5
821D
  8
3
  6
CONTINUOUS
 62
     0
 10
1368.431358612808
 20
3590.945203292441
 30
0.0
 11
1284.5203116128071
 21
3590.945203292441
 31
0.0
  0
LINE
  5
821E
  8
3
  6
CONTINUOUS
 62
     0
 10
1549.9343106128069
 20
2950.945203292441
 30
0.0
 11
1284.5203116128071
 21
2950.945203292441
 31
0.0
  0
LINE
  5
821F
  8
3
  6
CONTINUOUS
 62
     0
 10
1314.5203116128071
 20
3530.945203292441
 30
0.0
 11
1314.5203116128071
 21
3010.945203292441
 31
0.0
  0
INSERT
  5
8220
  8
3
  6
CONTINUOUS
 62
     0
  2
_OPEN
 10
1314.5203116128071
 20
3590.945203292441
 30
0.0
 41
60.0
 42
60.0
 43
60.0
 50
90.0
  0
INSERT
  5
8221
  8
3
  6
CONTINUOUS
 62
     0
  2
_OPEN
 10
1314.5203116128071
 20
2950.945203292441
 30
0.0
 41
60.0
 42
60.0
 43
60.0
 50
270.0
  0
TEXT
  8
3
  40
90
  5
828F
  62
0
  72
0
  71
0
 10
1059.52
 20
3111.65
 30
0.000000
  1
640
  0
POINT
  5
8223
  8
DEFPOINTS
  6
CONTINUOUS
 62
     0
 10
1383.431358612808
 20
3590.945203292441
 30
0.0
  0
POINT
  5
8224
  8
DEFPOINTS
  6
CONTINUOUS
 62
     0
 10
1564.9343106128069
 20
2950.945203292441
 30
0.0
  0
POINT
  5
8225
  8
DEFPOINTS
  6
CONTINUOUS
 62
     0
 10
1314.5203116128071
 20
2950.945203292441
 30
0.0
  0
ENDBLK
  5
8054
  8
0
  0
BLOCK
  8
0
  2
*D6
 70
     1
 10
0.0
 20
0.0
 30
0.0
  3
*D6
  1

  0
LINE
  5
8226
  8
3
  6
CONTINUOUS
 62
     0
 10
1549.9343106128069
 20
2950.945203292441
 30
0.0
 11
1277.8145276128089
 21
2950.945203292441
 31
0.0
  0
LINE
  5
8227
  8
3
  6
CONTINUOUS
 62
     0
 10
1549.9343106128069
 20
2825.945203292441
 30
0.0
 11
1277.8145276128089
 21
2825.945203292441
 31
0.0
  0
LINE
  5
8228
  8
3
  6
CONTINUOUS
 62
     0
 10
1307.8145276128089
 20
3010.945203292441
 30
0.0
 11
1307.8145276128089
 21
3070.945203292441
 31
0.0
  0
LINE
  5
8229
  8
3
  6
CONTINUOUS
 62
     0
 10
1307.8145276128089
 20
2765.9452032924401
 30
0.0
 11
1307.8145276128089
 21
2376.768116149583
 31
0.0
  0
LINE
  5
822A
  8
3
  6
CONTINUOUS
 62
     0
 10
1307.8145276128089
 20
2950.945203292441
 30
0.0
 11
1307.8145276128089
 21
2825.945203292441
 31
0.0
  0
INSERT
  5
822B
  8
3
  6
CONTINUOUS
 62
     0
  2
_OPEN
 10
1307.8145276128089
 20
2950.945203292441
 30
0.0
 41
60.0
 42
60.0
 43
60.0
 50
270.0
  0
INSERT
  5
822C
  8
3
  6
CONTINUOUS
 62
     0
  2
_OPEN
 10
1307.8145276128089
 20
2825.945203292441
 30
0.0
 41
60.0
 42
60.0
 43
60.0
 50
90.0
  0
TEXT
  8
3
  40
90
  5
8290
  62
0
  72
0
  71
0
 10
1052.81
 20
2354.61
 30
0.000000
  1
125
  0
POINT
  5
822E
  8
DEFPOINTS
  6
CONTINUOUS
 62
     0
 10
1564.9343106128069
 20
2950.945203292441
 30
0.0
  0
POINT
  5
822F
  8
DEFPOINTS
  6
CONTINUOUS
 62
     0
 10
1564.9343106128069
 20
2825.945203292441
 30
0.0
  0
POINT
  5
8230
  8
DEFPOINTS
  6
CONTINUOUS
 62
     0
 10
1307.8145276128089
 20
2825.945203292441
 30
0.0
  0
ENDBLK
  5
8049
  8
0
  0
BLOCK
  8
0
  2
*D7
 70
     1
 10
0.0
 20
0.0
 30
0.0
  3
*D7
  1

  0
LINE
  5
8231
  8
3
  6
CONTINUOUS
 62
     0
 10
1564.9343106128069
 20
2810.9452032924401
 30
0.0
 11
1564.9343106128069
 21
2530.8230342924412
 31
0.0
  0
LINE
  5
8232
  8
3
  6
CONTINUOUS
 62
     0
 10
2014.9343106128069
 20
2674.4508352924408
 30
0.0
 11
2014.9343106128069
 21
2530.8230342924412
 31
0.0
  0
LINE
  5
8233
  8
3
  6
CONTINUOUS
 62
     0
 10
1624.9343106128069
 20
2560.8230342924412
 30
0.0
 11
1954.9343106128069
 21
2560.8230342924412
 31
0.0
  0
INSERT
  5
8234
  8
3
  6
CONTINUOUS
 62
     0
  2
_OPEN
 10
1564.9343106128069
 20
2560.8230342924412
 30
0.0
 41
60.0
 42
60.0
 43
60.0
 50
180.0
  0
INSERT
  5
8235
  8
3
  6
CONTINUOUS
 62
     0
  2
_OPEN
 10
2014.9343106128069
 20
2560.8230342924412
 30
0.0
 41
60.0
 42
60.0
 43
60.0
  0
TEXT
  8
3
  40
90
  5
8291
  62
0
  72
0
  71
0
 10
1590.65
 20
2476.52
 30
0.000000
  1
450
  0
POINT
  5
8237
  8
DEFPOINTS
  6
CONTINUOUS
 62
     0
 10
1564.9343106128069
 20
2825.945203292441
 30
0.0
  0
POINT
  5
8238
  8
DEFPOINTS
  6
CONTINUOUS
 62
     0
 10
2014.9343106128069
 20
2689.4508352924399
 30
0.0
  0
POINT
  5
8239
  8
DEFPOINTS
  6
CONTINUOUS
 62
     0
 10
2014.9343106128069
 20
2560.8230342924412
 30
0.0
  0
ENDBLK
  5
803C
  8
0
  0
BLOCK
  8
0
  2
*D8
 70
     1
 10
0.0
 20
0.0
 30
0.0
  3
*D8
  1

  0
LINE
  5
823A
  8
3
  6
CONTINUOUS
 62
     0
 10
2014.9343106128069
 20
2674.4508352924408
 30
0.0
 11
2014.9343106128069
 21
2530.8230342924412
 31
0.0
  0
LINE
  5
823B
  8
3
  6
CONTINUOUS
 62
     0
 10
3114.9343106128081
 20
2810.9452032924401
 30
0.0
 11
3114.9343106128081
 21
2530.8230342924412
 31
0.0
  0
LINE
  5
823C
  8
3
  6
CONTINUOUS
 62
     0
 10
2074.9343106128072
 20
2560.8230342924412
 30
0.0
 11
3054.9343106128081
 21
2560.8230342924412
 31
0.0
  0
INSERT
  5
823D
  8
3
  6
CONTINUOUS
 62
     0
  2
_OPEN
 10
2014.9343106128069
 20
2560.8230342924412
 30
0.0
 41
60.0
 42
60.0
 43
60.0
 50
180.0
  0
INSERT
  5
823E
  8
3
  6
CONTINUOUS
 62
     0
  2
_OPEN
 10
3114.9343106128081
 20
2560.8230342924412
 30
0.0
 41
60.0
 42
60.0
 43
60.0
  0
TEXT
  8
3
  40
90
  5
8292
  62
0
  72
0
  71
0
 10
2384.93
 20
2476.52
 30
0.000000
  1
1100
  0
POINT
  5
8240
  8
DEFPOINTS
  6
CONTINUOUS
 62
     0
 10
2014.9343106128069
 20
2689.4508352924399
 30
0.0
  0
POINT
  5
8241
  8
DEFPOINTS
  6
CONTINUOUS
 62
     0
 10
3114.9343106128081
 20
2825.945203292441
 30
0.0
  0
POINT
  5
8242
  8
DEFPOINTS
  6
CONTINUOUS
 62
     0
 10
3114.9343106128081
 20
2560.8230342924412
 30
0.0
  0
ENDBLK
  5
8031
  8
0
  0
BLOCK
  8
0
  2
*D9
 70
     1
 10
0.0
 20
0.0
 30
0.0
  3
*D9
  1

  0
LINE
  5
8243
  8
3
  6
CONTINUOUS
 62
     0
 10
1988.9343106128069
 20
4090.945203292441
 30
0.0
 11
1055.4755120454031
 21
4090.945203292441
 31
0.0
  0
LINE
  5
8244
  8
3
  6
CONTINUOUS
 62
     0
 10
1549.9343106128069
 20
2825.945203292441
 30
0.0
 11
1055.4755120454031
 21
2825.945203292441
 31
0.0
  0
LINE
  5
8245
  8
3
  6
CONTINUOUS
 62
     0
 10
1085.4755120454031
 20
4030.945203292441
 30
0.0
 11
1085.4755120454031
 21
2885.945203292441
 31
0.0
  0
INSERT
  5
8246
  8
3
  6
CONTINUOUS
 62
     0
  2
_OPEN
 10
1085.4755120454031
 20
4090.945203292441
 30
0.0
 41
60.0
 42
60.0
 43
60.0
 50
90.0
  0
INSERT
  5
8247
  8
3
  6
CONTINUOUS
 62
     0
  2
_OPEN
 10
1085.4755120454031
 20
2825.945203292441
 30
0.0
 41
60.0
 42
60.0
 43
60.0
 50
270.0
  0
TEXT
  8
3
  40
90
  5
8293
  62
0
  72
0
  71
0
 10
830.476
 20
3292.85
 30
0.000000
  1
1265
  0
POINT
  5
8249
  8
DEFPOINTS
  6
CONTINUOUS
 62
     0
 10
2003.9343106128069
 20
4090.945203292441
 30
0.0
  0
POINT
  5
824A
  8
DEFPOINTS
  6
CONTINUOUS
 62
     0
 10
1564.9343106128069
 20
2825.945203292441
 30
0.0
  0
POINT
  5
824B
  8
DEFPOINTS
  6
CONTINUOUS
 62
     0
 10
1085.4755120454031
 20
2825.945203292441
 30
0.0
  0
ENDBLK
  5
8106
  8
0
  0
BLOCK
  8
0
  2
*D10
 70
     1
 10
0.0
 20
0.0
 30
0.0
  3
*D10
  1

  0
LINE
  5
824C
  8
3
  6
CONTINUOUS
 62
     0
 10
4527.3062126128079
 20
4105.945203292441
 30
0.0
 11
4527.3062126128079
 21
4259.55144829244
 31
0.0
  0
LINE
  5
824D
  8
3
  6
CONTINUOUS
 62
     0
 10
5057.306212612807
 20
4105.945203292441
 30
0.0
 11
5057.306212612807
 21
4259.55144829244
 31
0.0
  0
LINE
  5
824E
  8
3
  6
CONTINUOUS
 62
     0
 10
4587.3062126128079
 20
4229.5514482924409
 30
0.0
 11
4997.3062126128079
 21
4229.5514482924409
 31
0.0
  0
INSERT
  5
824F
  8
3
  6
CONTINUOUS
 62
     0
  2
_OPEN
 10
4527.3062126128079
 20
4229.5514482924409
 30
0.0
 41
60.0
 42
60.0
 43
60.0
 50
180.0
  0
INSERT
  5
8250
  8
3
  6
CONTINUOUS
 62
     0
  2
_OPEN
 10
5057.306212612807
 20
4229.5514482924409
 30
0.0
 41
60.0
 42
60.0
 43
60.0
  0
TEXT
  8
3
  40
90
  5
8294
  62
0
  72
0
  71
0
 10
4612.31
 20
4145.25
 30
0.000000
  1
530
  0
POINT
  5
8252
  8
DEFPOINTS
  6
CONTINUOUS
 62
     0
 10
4527.3062126128079
 20
4090.945203292441
 30
0.0
  0
POINT
  5
8253
  8
DEFPOINTS
  6
CONTINUOUS
 62
     0
 10
5057.306212612807
 20
4090.945203292441
 30
0.0
  0
POINT
  5
8254
  8
DEFPOINTS
  6
CONTINUOUS
 62
     0
 10
5057.306212612807
 20
4229.5514482924409
 30
0.0
  0
ENDBLK
  5
801B
  8
0
  0
BLOCK
  8
0
  2
*D11
 70
     1
 10
0.0
 20
0.0
 30
0.0
  3
*D11
  1

  0
LINE
  5
8255
  8
3
  6
CONTINUOUS
 62
     0
 10
5155.3062126128079
 20
3945.945203292441
 30
0.0
 11
5395.3019013675403
 21
3945.945203292441
 31
0.0
  0
LINE
  5
8256
  8
3
  6
CONTINUOUS
 62
     0
 10
5155.3062126128079
 20
3235.945203292441
 30
0.0
 11
5395.3019013675403
 21
3235.945203292441
 31
0.0
  0
LINE
  5
8257
  8
3
  6
CONTINUOUS
 62
     0
 10
5365.3019013675412
 20
3885.945203292441
 30
0.0
 11
5365.3019013675412
 21
3295.945203292441
 31
0.0
  0
INSERT
  5
8258
  8
3
  6
CONTINUOUS
 62
     0
  2
_OPEN
 10
5365.3019013675412
 20
3945.945203292441
 30
0.0
 41
60.0
 42
60.0
 43
60.0
 50
90.0
  0
INSERT
  5
8259
  8
3
  6
CONTINUOUS
 62
     0
  2
_OPEN
 10
5365.3019013675412
 20
3235.945203292441
 30
0.0
 41
60.0
 42
60.0
 43
60.0
 50
270.0
  0
TEXT
  8
3
  40
90
  5
8295
  62
0
  72
0
  71
0
 10
5110.30
 20
3433.59
 30
0.000000
  1
φ710
  0
POINT
  5
825B
  8
DEFPOINTS
  6
CONTINUOUS
 62
     0
 10
5140.3062126128079
 20
3945.945203292441
 30
0.0
  0
POINT
  5
825C
  8
DEFPOINTS
  6
CONTINUOUS
 62
     0
 10
5140.3062126128079
 20
3235.945203292441
 30
0.0
  0
POINT
  5
825D
  8
DEFPOINTS
  6
CONTINUOUS
 62
     0
 10
5365.3019013675412
 20
3235.945203292441
 30
0.0
  0
ENDBLK
  5
80C2
  8
0
  0
BLOCK
  8
0
  2
*D12
 70
     1
 10
0.0
 20
0.0
 30
0.0
  3
*D12
  1

  0
LINE
  5
80DA
  8
0
  6
BYBLOCK
 62
     0
 10
5140.3062126128079
 20
4000.945203292441
 30
0.0
 11
5140.3062126128079
 21
4485.2222274985606
 31
0.0
  0
LINE
  5
80DB
  8
0
  6
BYBLOCK
 62
     0
 10
4792.3062126128079
 20
4400.0571664985609
 30
0.0
 11
4792.3062126128079
 21
4485.2222274985606
 31
0.0
  0
LINE
  5
80DC
  8
0
  6
BYBLOCK
 62
     0
 10
5080.3062126128079
 20
4455.2222274985616
 30
0.0
 11
4852.3062126128079
 21
4455.2222274985616
 31
0.0
  0
TEXT
  5
80DD
  8
3
 62
     0
 10
4860.6261538285871
 20
4493.160870988052
 30
0.0
 40
90.0
  1
348
  0
INSERT
  5
80DE
  8
0
  6
BYBLOCK
 62
     0
  2
_OPEN
 10
5140.3062126128079
 20
4455.2222274985616
 30
0.0
 41
60.0
 42
60.0
 43
60.0
  0
INSERT
  5
80DF
  8
0
  6
BYBLOCK
 62
     0
  2
_OPEN
 10
4792.3062126128079
 20
4455.2222274985616
 30
0.0
 41
60.0
 42
60.0
 43
60.0
 50
180.0
  0
POINT
  5
80E0
  8
DEFPOINTS
  6
BYBLOCK
 62
     0
 10
5140.3062126128079
 20
3985.945203292441
 30
0.0
  0
POINT
  5
80E1
  8
DEFPOINTS
  6
BYBLOCK
 62
     0
 10
4792.3062126128079
 20
4385.0571664985619
 30
0.0
  0
POINT
  5
80E2
  8
DEFPOINTS
  6
BYBLOCK
 62
     0
 10
4792.3062126128079
 20
4455.2222274985616
 30
0.0
  0
ENDBLK
  5
80E3
  8
0
  0
BLOCK
  8
0
  2
*D13
 70
     1
 10
0.0
 20
0.0
 30
0.0
  3
*D13
  1

  0
LINE
  5
825E
  8
3
  6
CONTINUOUS
 62
     0
 10
4792.3062126128079
 20
4400.0571664985609
 30
0.0
 11
4792.3062126128079
 21
4485.2222274985606
 31
0.0
  0
LINE
  5
825F
  8
3
  6
CONTINUOUS
 62
     0
 10
4282.3062126128079
 20
3700.6452032924399
 30
0.0
 11
4282.3062126128079
 21
4485.2222274985606
 31
0.0
  0
LINE
  5
8260
  8
3
  6
CONTINUOUS
 62
     0
 10
4732.306212612807
 20
4455.2222274985616
 30
0.0
 11
4342.3062126128079
 21
4455.2222274985616
 31
0.0
  0
INSERT
  5
8261
  8
3
  6
CONTINUOUS
 62
     0
  2
_OPEN
 10
4792.3062126128079
 20
4455.2222274985616
 30
0.0
 41
60.0
 42
60.0
 43
60.0
  0
INSERT
  5
8262
  8
3
  6
CONTINUOUS
 62
     0
  2
_OPEN
 10
4282.3062126128079
 20
4455.2222274985616
 30
0.0
 41
60.0
 42
60.0
 43
60.0
 50
180.0
  0
TEXT
  8
3
  40
90
  5
8296
  62
0
  72
0
  71
0
 10
4393.73
 20
4445.92
 30
0.000000
  1
MAX
  0
TEXT
  8
3
  40
90
  5
8297
  62
0
  72
0
  71
0
 10
4393.73
 20
4328.92
 30
0.000000
  1
590
  0
POINT
  5
8264
  8
DEFPOINTS
  6
CONTINUOUS
 62
     0
 10
4792.3062126128079
 20
4385.0571664985619
 30
0.0
  0
POINT
  5
8265
  8
DEFPOINTS
  6
CONTINUOUS
 62
     0
 10
4282.3062126128079
 20
3685.6452032924408
 30
0.0
  0
POINT
  5
8266
  8
DEFPOINTS
  6
CONTINUOUS
 62
     0
 10
4282.3062126128079
 20
4455.2222274985616
 30
0.0
  0
ENDBLK
  5
8111
  8
0
  0
BLOCK
  8
0
  2
*D14
 70
     1
 10
0.0
 20
0.0
 30
0.0
  3
*D14
  1

  0
LINE
  5
8267
  8
3
  6
CONTINUOUS
 62
     0
 10
4360.306212612807
 20
2810.9452032924401
 30
0.0
 11
4360.306212612807
 21
2557.6299192924412
 31
0.0
  0
LINE
  5
8268
  8
3
  6
CONTINUOUS
 62
     0
 10
4792.3062126128079
 20
2658.8770682924401
 30
0.0
 11
4792.3062126128079
 21
2557.6299192924412
 31
0.0
  0
LINE
  5
8269
  8
3
  6
CONTINUOUS
 62
     0
 10
4420.3062126128079
 20
2587.6299192924412
 30
0.0
 11
4732.306212612807
 21
2587.6299192924412
 31
0.0
  0
INSERT
  5
826A
  8
3
  6
CONTINUOUS
 62
     0
  2
_OPEN
 10
4360.306212612807
 20
2587.6299192924412
 30
0.0
 41
60.0
 42
60.0
 43
60.0
 50
180.0
  0
INSERT
  5
826B
  8
3
  6
CONTINUOUS
 62
     0
  2
_OPEN
 10
4792.3062126128079
 20
2587.6299192924412
 30
0.0
 41
60.0
 42
60.0
 43
60.0
  0
TEXT
  8
3
  40
90
  5
8298
  62
0
  72
0
  71
0
 10
4386.02
 20
2503.33
 30
0.000000
  1
432
  0
POINT
  5
826D
  8
DEFPOINTS
  6
CONTINUOUS
 62
     0
 10
4360.306212612807
 20
2825.945203292441
 30
0.0
  0
POINT
  5
826E
  8
DEFPOINTS
  6
CONTINUOUS
 62
     0
 10
4792.3062126128079
 20
2673.877068292441
 30
0.0
  0
POINT
  5
826F
  8
DEFPOINTS
  6
CONTINUOUS
 62
     0
 10
4792.3062126128079
 20
2587.6299192924412
 30
0.0
  0
ENDBLK
  5
7FEE
  8
0
  0
BLOCK
  8
0
  2
*D15
 70
     1
 10
0.0
 20
0.0
 30
0.0
  3
*D15
  1

  0
LINE
  5
80C4
  8
0
  6
BYBLOCK
 62
     0
 10
4792.3062126128079
 20
2658.8770682924401
 30
0.0
 11
4792.3062126128079
 21
2557.6299192924412
 31
0.0
  0
LINE
  5
80C5
  8
0
  6
BYBLOCK
 62
     0
 10
5110.3062126128079
 20
2810.9452032924401
 30
0.0
 11
5110.3062126128079
 21
2557.6299192924412
 31
0.0
  0
LINE
  5
80C6
  8
0
  6
BYBLOCK
 62
     0
 10
4852.3062126128079
 20
2587.6299192924412
 30
0.0
 11
5050.3062126128079
 21
2587.6299192924412
 31
0.0
  0
TEXT
  5
80C7
  8
3
 62
     0
 10
4857.590155533615
 20
2614.3107406354138
 30
0.0
 40
90.0
  1
318
  0
INSERT
  5
80C8
  8
0
  6
BYBLOCK
 62
     0
  2
_OPEN
 10
4792.3062126128079
 20
2587.6299192924412
 30
0.0
 41
60.0
 42
60.0
 43
60.0
 50
180.0
  0
INSERT
  5
80C9
  8
0
  6
BYBLOCK
 62
     0
  2
_OPEN
 10
5110.3062126128079
 20
2587.6299192924412
 30
0.0
 41
60.0
 42
60.0
 43
60.0
  0
POINT
  5
80CA
  8
DEFPOINTS
  6
BYBLOCK
 62
     0
 10
4792.3062126128079
 20
2673.877068292441
 30
0.0
  0
POINT
  5
80CB
  8
DEFPOINTS
  6
BYBLOCK
 62
     0
 10
5110.3062126128079
 20
2825.945203292441
 30
0.0
  0
POINT
  5
80CC
  8
DEFPOINTS
  6
BYBLOCK
 62
     0
 10
5110.3062126128079
 20
2587.6299192924412
 30
0.0
  0
ENDBLK
  5
80CD
  8
0
  0
BLOCK
  8
0
  2
*D16
 70
     1
 10
0.0
 20
0.0
 30
0.0
  3
*D16
  1

  0
LINE
  5
8270
  8
3
  6
CONTINUOUS
 62
     0
 10
1564.9343106128069
 20
5588.0452032924413
 30
0.0
 11
1564.9343106128069
 21
5133.0940932924414
 31
0.0
  0
LINE
  5
8271
  8
3
  6
CONTINUOUS
 62
     0
 10
3114.9343106128081
 20
5588.0452032924413
 30
0.0
 11
3114.9343106128081
 21
5133.0940932924414
 31
0.0
  0
LINE
  5
8272
  8
3
  6
CONTINUOUS
 62
     0
 10
1624.9343106128069
 20
5163.0940932924404
 30
0.0
 11
3054.9343106128081
 21
5163.0940932924404
 31
0.0
  0
INSERT
  5
8273
  8
3
  6
CONTINUOUS
 62
     0
  2
_OPEN
 10
1564.9343106128069
 20
5163.0940932924404
 30
0.0
 41
60.0
 42
60.0
 43
60.0
 50
180.0
  0
INSERT
  5
8274
  8
3
  6
CONTINUOUS
 62
     0
  2
_OPEN
 10
3114.9343106128081
 20
5163.0940932924404
 30
0.0
 41
60.0
 42
60.0
 43
60.0
  0
TEXT
  8
3
  40
90
  5
8299
  62
0
  72
0
  71
0
 10
2100.15
 20
5078.79
 30
0.000000
  1
1550
  0
POINT
  5
8276
  8
DEFPOINTS
  6
CONTINUOUS
 62
     0
 10
1564.9343106128069
 20
5603.0452032924422
 30
0.0
  0
POINT
  5
8277
  8
DEFPOINTS
  6
CONTINUOUS
 62
     0
 10
3114.9343106128081
 20
5603.0452032924422
 30
0.0
  0
POINT
  5
8278
  8
DEFPOINTS
  6
CONTINUOUS
 62
     0
 10
3114.9343106128081
 20
5163.0940932924404
 30
0.0
  0
ENDBLK
  5
7FD6
  8
0
  0
BLOCK
  8
0
  2
*D17
 70
     1
 10
0.0
 20
0.0
 30
0.0
  3
*D17
  1

  0
LINE
  5
8279
  8
3
  6
CONTINUOUS
 62
     0
 10
3129.9343106128081
 20
6353.0452032924422
 30
0.0
 11
3483.6535036128089
 21
6353.0452032924422
 31
0.0
  0
LINE
  5
827A
  8
3
  6
CONTINUOUS
 62
     0
 10
3129.9343106128081
 20
5603.0452032924422
 30
0.0
 11
3483.6535036128089
 21
5603.0452032924422
 31
0.0
  0
LINE
  5
827B
  8
3
  6
CONTINUOUS
 62
     0
 10
3453.6535036128089
 20
6293.0452032924413
 30
0.0
 11
3453.6535036128089
 21
5663.0452032924413
 31
0.0
  0
INSERT
  5
827C
  8
3
  6
CONTINUOUS
 62
     0
  2
_OPEN
 10
3453.6535036128089
 20
6353.0452032924422
 30
0.0
 41
60.0
 42
60.0
 43
60.0
 50
90.0
  0
INSERT
  5
827D
  8
3
  6
CONTINUOUS
 62
     0
  2
_OPEN
 10
3453.6535036128089
 20
5603.0452032924422
 30
0.0
 41
60.0
 42
60.0
 43
60.0
 50
270.0
  0
TEXT
  8
3
  40
90
  5
829A
  62
0
  72
0
  71
0
 10
3198.65
 20
5787.90
 30
0.000000
  1
750
  0
POINT
  5
827F
  8
DEFPOINTS
  6
CONTINUOUS
 62
     0
 10
3114.9343106128081
 20
6353.0452032924422
 30
0.0
  0
POINT
  5
8280
  8
DEFPOINTS
  6
CONTINUOUS
 62
     0
 10
3114.9343106128081
 20
5603.0452032924422
 30
0.0
  0
POINT
  5
8281
  8
DEFPOINTS
  6
CONTINUOUS
 62
     0
 10
3453.6535036128089
 20
5603.0452032924422
 30
0.0
  0
ENDBLK
  5
7FCB
  8
0
  0
BLOCK
  8
0
  2
*D18
 70
     1
 10
0.0
 20
0.0
 30
0.0
  3
*D18
  1

  0
LINE
  5
8282
  8
3
 62
     0
 10
1508.9343106128069
 20
3567.945203292441
 30
0.0
 11
1508.9343106128069
 21
4649.3457742332102
 31
0.0
  0
LINE
  5
8283
  8
3
 62
     0
 10
3114.9343106128081
 20
3065.945203292441
 30
0.0
 11
3114.9343106128081
 21
4649.3457742332102
 31
0.0
  0
LINE
  5
8284
  8
3
 62
     0
 10
1568.9343106128069
 20
4619.3457742332102
 30
0.0
 11
3054.9343106128081
 21
4619.3457742332102
 31
0.0
  0
INSERT
  5
8285
  8
3
 62
     0
  2
_OPEN
 10
1508.9343106128069
 20
4619.3457742332102
 30
0.0
 41
60.0
 42
60.0
 43
60.0
 50
180.0
  0
INSERT
  5
8286
  8
3
 62
     0
  2
_OPEN
 10
3114.9343106128081
 20
4619.3457742332102
 30
0.0
 41
60.0
 42
60.0
 43
60.0
  0
TEXT
  8
3
  40
90
  5
829B
  62
0
  72
0
  71
0
 10
2091.81
 20
4535.05
 30
0.000000
  1
1606
  0
POINT
  5
8288
  8
DEFPOINTS
 62
     0
 10
1508.9343106128069
 20
3552.945203292441
 30
0.0
  0
POINT
  5
8289
  8
DEFPOINTS
 62
     0
 10
3114.9343106128081
 20
3050.945203292441
 30
0.0
  0
POINT
  5
828A
  8
DEFPOINTS
 62
     0
 10
3114.9343106128081
 20
4619.3457742332102
 30
0.0
  0
ENDBLK
  5
80FA
  8
0
  0
ENDSEC
  0
SECTION
  2
ENTITIES
  0
LINE
  5
7C2D
  8
4
  6
CONTINUOUS
 10
5550.0
 20
1500.0
 30
0.0
 11
5550.0
 21
900.0
 31
0.0
  0
LINE
  5
7C2E
  8
4
  6
CONTINUOUS
 10
3450.0
 20
1500.0
 30
0.0
 11
3450.0
 21
900.0
 31
0.0
  0
LINE
  5
7C2F
  8
4
  6
CONTINUOUS
 10
1950.0
 20
1500.0
 30
0.0
 11
1950.0
 21
900.0
 31
0.0
  0
LINE
  5
7C32
  8
4
  6
CONTINUOUS
 10
1950.0
 20
900.0
 30
0.0
 11
5550.0
 21
900.0
 31
0.0
  0
LINE
  5
7C33
  8
4
  6
CONTINUOUS
 10
1950.0
 20
1200.0
 30
0.0
 11
5550.0
 21
1200.0
 31
0.0
  0
TEXT
  5
7C34
  8
4
  6
CONTINUOUS
 10
2065.50624225
 20
1294.6290779999999
 30
0.0
 40
150.0
  1
機器名称
  0
TEXT
  5
7C35
  8
4
  6
CONTINUOUS
 10
2058.7743179999989
 20
964.93547024999998
 30
0.0
 40
150.0
  1
機器型番
  0
TEXT
  5
7C36
  8
4
  6
CONTINUOUS
 10
3533.0362365000001
 20
1267.715306249999
 30
0.0
 40
120.0
  1
ミツヤリミットロードファン
  0
TEXT
  5
7C37
  8
4
  6
CONTINUOUS
 10
3559.9634872500001
 20
951.4787527499999
 30
0.0
 40
150.0
  1
LLE#4 1/2-4
  0
TEXT
  5
7C39
  8
4
  6
CONTINUOUS
 10
2421.3123802499999
 20
7150.2865245000012
 30
0.0
 40
162.0
  1
床置防振ベット
  0
TEXT
  5
7C3A
  8
4
  6
CONTINUOUS
 10
948.50278049999986
 20
7601.6429287499996
 30
0.0
 40
171.42857175
  1
ベルト駆動式片吸込両持排煙ファン
  0
LINE
  5
7C3B
  8
4
  6
CONTINUOUS
 10
750.0
 20
7408.2262627500004
 30
0.0
 11
5550.0
 21
7408.2262627500004
 31
0.0
  0
LINE
  5
7C3C
  8
4
  6
CONTINUOUS
 10
750.0
 20
8008.2262627500004
 30
0.0
 11
5550.0
 21
8008.2262627500004
 31
0.0
  0
LINE
  5
7C3D
  8
4
  6
CONTINUOUS
 10
1950.0
 20
1500.0
 30
0.0
 11
5550.0
 21
1500.0
 31
0.0
  0
LINE
  5
7C3E
  8
4
  6
CONTINUOUS
 10
750.0
 20
8008.2262627500004
 30
0.0
 11
750.0
 21
7408.2262627500004
 31
0.0
  0
TEXT
  5
7C3F
  8
4
  6
CONTINUOUS
 10
1113.7358835
 20
7146.9584324999987
 30
0.0
 40
162.0
  1
左回転上向
  0
TEXT
  5
7C40
  8
4
  6
CONTINUOUS
 10
4406.9086777499988
 20
8118.1832445
 30
0.0
 40
168.0
  1
No.
  0
TEXT
  5
7C41
  8
4
  6
CONTINUOUS
 10
3933.8881875000002
 20
7150.2865245000012
 30
0.0
 40
162.0
  1
縮尺：1/30
  0
LINE
  5
7C42
  8
4
  6
CONTINUOUS
 10
5550.0
 20
8008.2262627500004
 30
0.0
 11
5550.0
 21
7408.2262627500004
 31
0.0
  0
LINE
  5
7C44
  8
4
  6
CONTINUOUS
 10
4321.8522667500001
 20
8043.79074975
 30
0.0
 11
4321.8522667500001
 21
8359.9567845000001
 31
0.0
  0
LINE
  5
7C45
  8
4
  6
CONTINUOUS
 10
4321.8522667500001
 20
8359.9567845000001
 30
0.0
 11
5550.0
 21
8359.9567845000001
 31
0.0
  0
LINE
  5
7C46
  8
4
  6
CONTINUOUS
 10
5550.0
 20
8359.9567845000001
 30
0.0
 11
5550.0
 21
8043.79074975
 31
0.0
  0
LINE
  5
7C47
  8
4
  6
CONTINUOUS
 10
5550.0
 20
8043.79074975
 30
0.0
 11
4321.8522667500001
 21
8043.79074975
 31
0.0
  0
ARC
  5
7D21
  8
1
  6
CONTINUOUS
 10
2067.9343106128072
 20
3643.945203292441
 30
0.0
 40
665.0
 50
296.908636
 51
355.428721
  0
ARC
  5
7D22
  8
1
  6
CONTINUOUS
 10
2067.9343106128072
 20
3537.945203292441
 30
0.0
 40
559.0
 50
174.55949099999989
 51
240.598221
  0
CIRCLE
  5
7D23
  8
1
  6
CONTINUOUS
 10
2014.9343106128069
 20
3590.945203292441
 30
0.0
 40
395.0
  0
ARC
  5
7D24
  8
1
  6
CONTINUOUS
 10
2914.9343106128081
 20
3260.945203292441
 30
0.0
 40
162.0
 50
324.972283
 51
215.02771699999991
  0
CIRCLE
  5
7D25
  8
1
  6
CONTINUOUS
 10
2914.9343106128081
 20
3260.945203292441
 30
0.0
 40
139.69999999999999
  0
LINE
  5
7D26
  8
2
  6
CENTER
 10
2914.9343106128081
 20
3116.2452032924411
 30
0.0
 11
2914.9343106128081
 21
3405.6452032924408
 31
0.0
  0
ARC
  5
7D27
  8
1
  6
CONTINUOUS
 10
2914.9343106128081
 20
3260.945203292441
 30
0.0
 40
189.69999999999999
 50
249.863697
 51
69.863697000000002
  0
LINE
  5
7D28
  8
1
  6
CONTINUOUS
 10
1949.629203612807
 20
3412.8403662924411
 30
0.0
 11
2849.6292036128079
 21
3082.8403662924411
 31
0.0
  0
LINE
  5
7D29
  8
1
  6
CONTINUOUS
 10
1966.8419366128071
 20
3459.7841822924411
 30
0.0
 11
2866.8419366128069
 21
3129.7841822924411
 31
0.0
  0
LINE
  5
7D2A
  8
1
  6
CONTINUOUS
 10
3114.9343106128081
 20
2925.945203292441
 30
0.0
 11
1564.9343106128069
 21
2925.945203292441
 31
0.0
  0
LINE
  5
7D2B
  8
1
  6
CONTINUOUS
 10
3114.9343106128081
 20
2825.945203292441
 30
0.0
 11
1564.9343106128069
 21
2825.945203292441
 31
0.0
  0
LINE
  5
7D2C
  8
1
  6
CONTINUOUS
 10
3114.9343106128081
 20
2950.945203292441
 30
0.0
 11
1564.9343106128069
 21
2950.945203292441
 31
0.0
  0
LINE
  5
7D2D
  8
1
  6
CONTINUOUS
 10
3114.9343106128081
 20
3050.945203292441
 30
0.0
 11
1564.9343106128069
 21
3050.945203292441
 31
0.0
  0
LINE
  5
7D2E
  8
1
  6
CONTINUOUS
 10
1564.9343106128069
 20
2925.945203292441
 30
0.0
 11
1564.9343106128069
 21
2825.945203292441
 31
0.0
  0
LINE
  5
7D2F
  8
1
  6
CONTINUOUS
 10
1564.9343106128069
 20
3050.945203292441
 30
0.0
 11
1564.9343106128069
 21
2950.945203292441
 31
0.0
  0
LINE
  5
7D30
  8
1
  6
CONTINUOUS
 10
3114.9343106128081
 20
2925.945203292441
 30
0.0
 11
3114.9343106128081
 21
2825.945203292441
 31
0.0
  0
LINE
  5
7D31
  8
1
  6
CONTINUOUS
 10
3114.9343106128081
 20
3050.945203292441
 30
0.0
 11
3114.9343106128081
 21
2950.945203292441
 31
0.0
  0
LINE
  5
7D32
  8
1
  6
CONTINUOUS
 10
2760.9343106128081
 20
3118.945203292441
 30
0.0
 11
2782.276644612808
 21
3167.9616362924398
 31
0.0
  0
LINE
  5
7D33
  8
1
  6
CONTINUOUS
 10
2760.9343106128081
 20
3100.945203292441
 30
0.0
 11
2760.9343106128081
 21
3118.945203292441
 31
0.0
  0
LINE
  5
7D34
  8
1
  6
CONTINUOUS
 10
3068.9343106128081
 20
3100.945203292441
 30
0.0
 11
3068.9343106128081
 21
3118.945203292441
 31
0.0
  0
LINE
  5
7D35
  8
1
  6
CONTINUOUS
 10
3068.9343106128081
 20
3118.945203292441
 30
0.0
 11
3047.5919766128081
 21
3167.9616362924398
 31
0.0
  0
LINE
  5
7D36
  8
1
  6
CONTINUOUS
 10
3112.4343106128081
 20
3050.945203292441
 30
0.0
 11
3112.4343106128081
 21
3100.945203292441
 31
0.0
  0
LINE
  5
7D37
  8
1
  6
CONTINUOUS
 10
2717.4343106128081
 20
3050.945203292441
 30
0.0
 11
2717.4343106128081
 21
3100.945203292441
 31
0.0
  0
LINE
  5
7D38
  8
1
  6
CONTINUOUS
 10
2717.4343106128081
 20
3100.945203292441
 30
0.0
 11
3112.4343106128081
 21
3100.945203292441
 31
0.0
  0
ARC
  5
7D39
  8
1
  6
CONTINUOUS
 10
1972.9343106128069
 20
3548.945203292441
 30
0.0
 40
464.0
 50
84.806635999999983
 51
174.80663599999991
  0
CIRCLE
  5
7D3A
  8
1
  6
CONTINUOUS
 10
2014.9343106128069
 20
3590.945203292441
 30
0.0
 40
355.0
  0
CIRCLE
  5
7D3B
  8
1
  6
CONTINUOUS
 10
2014.9343106128069
 20
3590.945203292441
 30
0.0
 40
139.69999999999999
  0
LINE
  5
7D3C
  8
2
  6
CENTER
 10
1383.431358612808
 20
3590.945203292441
 30
0.0
 11
3074.9621346128079
 21
3590.945203292441
 31
0.0
  0
ARC
  5
7D3D
  8
1
  6
CONTINUOUS
 10
2014.9343106128069
 20
3590.945203292441
 30
0.0
 40
189.69999999999999
 50
69.863697000000002
 51
249.863697
  0
LINE
  5
7D3E
  8
1
  6
CONTINUOUS
 10
2730.8189156128078
 20
3590.945203292441
 30
0.0
 11
2773.9343106128081
 21
4090.945203292441
 31
0.0
  0
LINE
  5
7D3F
  8
1
  6
CONTINUOUS
 10
2043.9343106128069
 20
4006.2533872924409
 30
0.0
 11
2043.9343106128069
 21
4090.945203292441
 31
0.0
  0
LINE
  5
7D40
  8
1
  6
CONTINUOUS
 10
2770.4850786128081
 20
4050.945203292441
 30
0.0
 11
2043.9343106128069
 21
4050.945203292441
 31
0.0
  0
LINE
  5
7D41
  8
1
  6
CONTINUOUS
 10
2080.2394176128068
 20
3769.0500402924399
 30
0.0
 11
2980.2394176128082
 21
3439.0500402924408
 31
0.0
  0
LINE
  5
7D42
  8
1
  6
CONTINUOUS
 10
2063.026684612807
 20
3722.1062242924409
 30
0.0
 11
2963.0266846128061
 21
3392.1062242924399
 31
0.0
  0
ARC
  5
7D43
  8
1
  6
CONTINUOUS
 10
1972.9343106128069
 20
3632.9452032924401
 30
0.0
 40
380.0
 50
79.231449999999995
 51
83.654343999999995
  0
LINE
  5
7D44
  8
2
  6
CENTER
 10
2014.9343106128069
 20
2689.4508352924399
 30
0.0
 11
2014.9343106128069
 21
4187.4658032924408
 31
0.0
  0
LINE
  5
7D45
  8
2
  6
CENTER
 10
3059.634310612807
 20
3260.945203292441
 30
0.0
 11
2770.2343106128078
 21
3260.945203292441
 31
0.0
  0
LINE
  5
7D46
  8
1
  6
CONTINUOUS
 10
2813.9343106128081
 20
4090.945203292441
 30
0.0
 11
2003.9343106128069
 21
4090.945203292441
 31
0.0
  0
LINE
  5
7D6D
  8
1
  6
CONTINUOUS
 10
4392.306212612807
 20
3071.2452032924411
 30
0.0
 11
4392.306212612807
 21
3685.6452032924408
 31
0.0
  0
LINE
  5
7D6E
  8
1
  6
CONTINUOUS
 10
4282.3062126128079
 20
3071.2452032924411
 30
0.0
 11
4282.3062126128079
 21
3685.6452032924408
 31
0.0
  0
LINE
  5
7D6F
  8
1
  6
CONTINUOUS
 10
4415.306212612807
 20
3422.945203292441
 30
0.0
 11
4415.306212612807
 21
3050.945203292441
 31
0.0
  0
LINE
  5
7D70
  8
1
  6
CONTINUOUS
 10
4290.306212612807
 20
3635.6452032924399
 30
0.0
 11
4290.306212612807
 21
3121.2452032924411
 31
0.0
  0
LINE
  5
7D71
  8
1
  6
CONTINUOUS
 10
4375.3062126128079
 20
3635.6452032924399
 30
0.0
 11
4375.3062126128079
 21
3121.2452032924411
 31
0.0
  0
LINE
  5
7D72
  8
1
  6
CONTINUOUS
 10
5140.3062126128079
 20
3985.945203292441
 30
0.0
 11
5140.3062126128079
 21
3195.945203292441
 31
0.0
  0
LINE
  5
7D73
  8
1
  6
CONTINUOUS
 10
4527.3062126128079
 20
4090.945203292441
 30
0.0
 11
4527.3062126128079
 21
3050.945203292441
 31
0.0
  0
LINE
  5
7D74
  8
1
  6
CONTINUOUS
 10
5057.306212612807
 20
4090.945203292441
 30
0.0
 11
5057.306212612807
 21
3050.945203292441
 31
0.0
  0
LINE
  5
7D75
  8
1
  6
CONTINUOUS
 10
4360.306212612807
 20
2925.945203292441
 30
0.0
 11
5110.3062126128079
 21
2925.945203292441
 31
0.0
  0
LINE
  5
7D76
  8
1
  6
CONTINUOUS
 10
4360.306212612807
 20
2825.945203292441
 30
0.0
 11
5110.3062126128079
 21
2825.945203292441
 31
0.0
  0
LINE
  5
7D77
  8
1
  6
CONTINUOUS
 10
4360.306212612807
 20
2950.945203292441
 30
0.0
 11
5110.3062126128079
 21
2950.945203292441
 31
0.0
  0
LINE
  5
7D78
  8
1
  6
CONTINUOUS
 10
4360.306212612807
 20
3050.945203292441
 30
0.0
 11
5110.3062126128079
 21
3050.945203292441
 31
0.0
  0
LINE
  5
7D79
  8
1
  6
CONTINUOUS
 10
4360.306212612807
 20
2925.945203292441
 30
0.0
 11
4360.306212612807
 21
2825.945203292441
 31
0.0
  0
LINE
  5
7D7A
  8
1
  6
CONTINUOUS
 10
4282.3062126128079
 20
3071.2452032924411
 30
0.0
 11
4392.306212612807
 21
3071.2452032924411
 31
0.0
  0
LINE
  5
7D7B
  8
1
  6
CONTINUOUS
 10
4290.306212612807
 20
3121.2452032924411
 30
0.0
 11
4375.3062126128079
 21
3121.2452032924411
 31
0.0
  0
LINE
  5
7D7C
  8
1
  6
CONTINUOUS
 10
4527.3062126128079
 20
3100.945203292441
 30
0.0
 11
4415.306212612807
 21
3100.945203292441
 31
0.0
  0
LINE
  5
7D7D
  8
1
  6
CONTINUOUS
 10
4360.306212612807
 20
3050.945203292441
 30
0.0
 11
4360.306212612807
 21
2950.945203292441
 31
0.0
  0
LINE
  5
7D7E
  8
1
  6
CONTINUOUS
 10
5110.3062126128079
 20
2925.945203292441
 30
0.0
 11
5110.3062126128079
 21
2825.945203292441
 31
0.0
  0
LINE
  5
7D7F
  8
1
  6
CONTINUOUS
 10
5110.3062126128079
 20
3050.945203292441
 30
0.0
 11
5110.3062126128079
 21
2950.945203292441
 31
0.0
  0
LINE
  5
7D80
  8
1
  6
CONTINUOUS
 10
4487.3062126128079
 20
4090.945203292441
 30
0.0
 11
5097.306212612807
 21
4090.945203292441
 31
0.0
  0
LINE
  5
7D81
  8
1
  6
CONTINUOUS
 10
4527.3062126128079
 20
4050.945203292441
 30
0.0
 11
5057.306212612807
 21
4050.945203292441
 31
0.0
  0
LINE
  5
7D82
  8
1
  6
CONTINUOUS
 10
4282.3062126128079
 20
3685.6452032924408
 30
0.0
 11
4392.306212612807
 21
3685.6452032924408
 31
0.0
  0
LINE
  5
7D83
  8
1
  6
CONTINUOUS
 10
4415.306212612807
 20
3422.945203292441
 30
0.0
 11
4527.3062126128079
 21
3422.945203292441
 31
0.0
  0
LINE
  5
7D84
  8
1
  6
CONTINUOUS
 10
4375.3062126128079
 20
3239.945203292441
 30
0.0
 11
4415.306212612807
 21
3239.945203292441
 31
0.0
  0
LINE
  5
7D85
  8
1
  6
CONTINUOUS
 10
4375.3062126128079
 20
3281.9452032924401
 30
0.0
 11
4415.306212612807
 21
3281.9452032924401
 31
0.0
  0
LINE
  5
7D86
  8
1
  6
CONTINUOUS
 10
4290.306212612807
 20
3356.2452032924411
 30
0.0
 11
4375.3062126128079
 21
3356.2452032924411
 31
0.0
  0
LINE
  5
7D87
  8
1
  6
CONTINUOUS
 10
4290.306212612807
 20
3635.6452032924399
 30
0.0
 11
4375.3062126128079
 21
3635.6452032924399
 31
0.0
  0
LINE
  5
7D88
  8
1
  6
CONTINUOUS
 10
4375.3062126128079
 20
3518.445203292441
 30
0.0
 11
4527.3062126128079
 21
3518.445203292441
 31
0.0
  0
LINE
  5
7D89
  8
1
  6
CONTINUOUS
 10
4375.3062126128079
 20
3473.4452032924401
 30
0.0
 11
4527.3062126128079
 21
3473.4452032924401
 31
0.0
  0
LINE
  5
7D8A
  8
1
  6
CONTINUOUS
 10
5057.306212612807
 20
3235.945203292441
 30
0.0
 11
5140.3062126128079
 21
3235.945203292441
 31
0.0
  0
LINE
  5
7D8B
  8
1
  6
CONTINUOUS
 10
5057.306212612807
 20
3945.945203292441
 30
0.0
 11
5140.3062126128079
 21
3945.945203292441
 31
0.0
  0
LINE
  5
7D8C
  8
1
  6
CONTINUOUS
 10
2773.9343106128081
 20
6300.0452032924413
 30
0.0
 11
1508.9343106128069
 21
6300.0452032924413
 31
0.0
  0
LINE
  5
7D8D
  8
1
  6
CONTINUOUS
 10
2773.9343106128081
 20
5770.0452032924422
 30
0.0
 11
1508.9343106128069
 21
5770.0452032924422
 31
0.0
  0
LINE
  5
7D8E
  8
1
  6
CONTINUOUS
 10
2409.9343106128072
 20
6383.0452032924413
 30
0.0
 11
1619.9343106128069
 21
6383.0452032924413
 31
0.0
  0
LINE
  5
7D8F
  8
1
  6
CONTINUOUS
 10
2154.6343106128079
 20
5533.0452032924413
 30
0.0
 11
1875.234310612808
 21
5533.0452032924413
 31
0.0
  0
LINE
  5
7D90
  8
1
  6
CONTINUOUS
 10
2154.6343106128079
 20
5618.0452032924413
 30
0.0
 11
1875.234310612808
 21
5618.0452032924413
 31
0.0
  0
LINE
  5
7D91
  8
1
  6
CONTINUOUS
 10
3104.6343106128079
 20
5525.0452032924413
 30
0.0
 11
1825.234310612808
 21
5525.0452032924413
 31
0.0
  0
LINE
  5
7D92
  8
1
  6
CONTINUOUS
 10
3104.6343106128079
 20
5635.0452032924422
 30
0.0
 11
1825.234310612808
 21
5635.0452032924422
 31
0.0
  0
LINE
  5
7D93
  8
1
  6
CONTINUOUS
 10
1508.9343106128069
 20
5770.0452032924422
 30
0.0
 11
1508.9343106128069
 21
6300.0452032924413
 31
0.0
  0
LINE
  5
7D94
  8
1
  6
CONTINUOUS
 10
1564.9343106128069
 20
5603.0452032924422
 30
0.0
 11
1564.9343106128069
 21
5770.0452032924422
 31
0.0
  0
LINE
  5
7D95
  8
1
  6
CONTINUOUS
 10
1875.234310612808
 20
5603.0452032924422
 30
0.0
 11
1564.9343106128069
 21
5603.0452032924422
 31
0.0
  0
LINE
  5
7D96
  8
1
  6
CONTINUOUS
 10
1875.234310612808
 20
5533.0452032924413
 30
0.0
 11
1875.234310612808
 21
5618.0452032924413
 31
0.0
  0
LINE
  5
7D97
  8
1
  6
CONTINUOUS
 10
1825.234310612808
 20
5525.0452032924413
 30
0.0
 11
1825.234310612808
 21
5635.0452032924422
 31
0.0
  0
LINE
  5
7D98
  8
1
  6
CONTINUOUS
 10
1564.9343106128069
 20
6300.0452032924413
 30
0.0
 11
1564.9343106128069
 21
6353.0452032924422
 31
0.0
  0
LINE
  5
7D99
  8
1
  6
CONTINUOUS
 10
1659.9343106128069
 20
6300.0452032924413
 30
0.0
 11
1659.9343106128069
 21
6383.0452032924413
 31
0.0
  0
LINE
  5
7D9A
  8
1
  6
CONTINUOUS
 10
1659.9343106128069
 20
6353.0452032924422
 30
0.0
 11
1564.9343106128069
 21
6353.0452032924422
 31
0.0
  0
LINE
  5
7D9B
  8
1
  6
CONTINUOUS
 10
2043.9343106128069
 20
6300.0452032924413
 30
0.0
 11
2773.9343106128081
 21
5770.0452032924422
 31
0.0
  0
LINE
  5
7D9C
  8
1
  6
CONTINUOUS
 10
2773.9343106128081
 20
6300.0452032924413
 30
0.0
 11
2043.9343106128069
 21
5770.0452032924422
 31
0.0
  0
LINE
  5
7D9D
  8
1
  6
CONTINUOUS
 10
2043.9343106128069
 20
5770.0452032924422
 30
0.0
 11
2043.9343106128069
 21
6300.0452032924413
 31
0.0
  0
LINE
  5
7D9E
  8
1
  6
CONTINUOUS
 10
2773.9343106128081
 20
5770.0452032924422
 30
0.0
 11
2773.9343106128081
 21
6300.0452032924413
 31
0.0
  0
LINE
  5
7D9F
  8
1
  6
CONTINUOUS
 10
3114.9343106128081
 20
5603.0452032924422
 30
0.0
 11
3114.9343106128081
 21
6353.0452032924422
 31
0.0
  0
LINE
  5
7DA0
  8
1
  6
CONTINUOUS
 10
3076.9343106128072
 20
5658.0452032924413
 30
0.0
 11
3076.9343106128072
 21
6195.0452032924413
 31
0.0
  0
LINE
  5
7DA1
  8
1
  6
CONTINUOUS
 10
2775.2343106128078
 20
5603.0452032924422
 30
0.0
 11
2154.6343106128079
 21
5603.0452032924422
 31
0.0
  0
LINE
  5
7DA2
  8
1
  6
CONTINUOUS
 10
2037.4343106128069
 20
5618.0452032924413
 30
0.0
 11
2037.4343106128069
 21
5770.0452032924422
 31
0.0
  0
LINE
  5
7DA3
  8
1
  6
CONTINUOUS
 10
1992.4343106128069
 20
5618.0452032924413
 30
0.0
 11
1992.4343106128069
 21
5770.0452032924422
 31
0.0
  0
LINE
  5
7DA4
  8
1
  6
CONTINUOUS
 10
2154.6343106128079
 20
5533.0452032924413
 30
0.0
 11
2154.6343106128079
 21
5618.0452032924413
 31
0.0
  0
LINE
  5
7DA5
  8
1
  6
CONTINUOUS
 10
3114.9343106128081
 20
5603.0452032924422
 30
0.0
 11
3054.6343106128079
 21
5603.0452032924422
 31
0.0
  0
LINE
  5
7DA6
  8
1
  6
CONTINUOUS
 10
2893.9343106128081
 20
5618.0452032924413
 30
0.0
 11
2893.9343106128081
 21
5658.0452032924413
 31
0.0
  0
LINE
  5
7DA7
  8
1
  6
CONTINUOUS
 10
2935.9343106128072
 20
5618.0452032924413
 30
0.0
 11
2935.9343106128072
 21
5658.0452032924413
 31
0.0
  0
LINE
  5
7DA8
  8
1
  6
CONTINUOUS
 10
3076.9343106128072
 20
5658.0452032924413
 30
0.0
 11
2752.9343106128081
 21
5658.0452032924413
 31
0.0
  0
LINE
  5
7DA9
  8
1
  6
CONTINUOUS
 10
2752.9343106128081
 20
5658.0452032924413
 30
0.0
 11
2752.9343106128081
 21
5770.0452032924422
 31
0.0
  0
LINE
  5
7DAA
  8
1
  6
CONTINUOUS
 10
3054.6343106128079
 20
5618.0452032924413
 30
0.0
 11
2775.2343106128078
 21
5618.0452032924413
 31
0.0
  0
LINE
  5
7DAB
  8
1
  6
CONTINUOUS
 10
3054.6343106128079
 20
5533.0452032924413
 30
0.0
 11
2775.2343106128078
 21
5533.0452032924413
 31
0.0
  0
LINE
  5
7DAC
  8
1
  6
CONTINUOUS
 10
2775.2343106128078
 20
5533.0452032924413
 30
0.0
 11
2775.2343106128078
 21
5618.0452032924413
 31
0.0
  0
LINE
  5
7DAD
  8
1
  6
CONTINUOUS
 10
3054.6343106128079
 20
5533.0452032924413
 30
0.0
 11
3054.6343106128079
 21
5618.0452032924413
 31
0.0
  0
LINE
  5
7DAE
  8
1
  6
CONTINUOUS
 10
3104.6343106128079
 20
5525.0452032924413
 30
0.0
 11
3104.6343106128079
 21
5635.0452032924422
 31
0.0
  0
LINE
  5
7DAF
  8
1
  6
CONTINUOUS
 10
3114.9343106128081
 20
6353.0452032924422
 30
0.0
 11
2369.9343106128072
 21
6353.0452032924422
 31
0.0
  0
LINE
  5
7DB0
  8
1
  6
CONTINUOUS
 10
2369.9343106128072
 20
6300.0452032924413
 30
0.0
 11
2369.9343106128072
 21
6383.0452032924413
 31
0.0
  0
LINE
  5
7DB1
  8
1
  6
CONTINUOUS
 10
3076.9343106128072
 20
6195.0452032924413
 30
0.0
 11
2773.9343106128081
 21
6195.0452032924413
 31
0.0
  0
LINE
  5
7DD8
  8
2
  6
CENTER
 10
1418.785613612808
 20
6035.0452032924413
 30
0.0
 11
3198.8351216128071
 21
6035.0452032924413
 31
0.0
  0
LINE
  5
7DD9
  8
2
  6
CENTER
 10
4792.3062126128079
 20
4245.8730052924402
 30
0.0
 11
4792.3062126128079
 21
2673.877068292441
 31
0.0
  0
LINE
  5
7DDA
  8
2
  6
CENTER
 10
2014.9343106128069
 20
5394.7329892924408
 30
0.0
 11
2014.9343106128069
 21
6449.824456292441
 31
0.0
  0
LINE
  5
7DDB
  8
2
  6
CENTER
 10
4174.7762026128066
 20
3590.945203292441
 30
0.0
 11
5203.8534126128079
 21
3590.945203292441
 31
0.0
  0
DIMENSION
  5
7DE8
  8
3
  6
CONTINUOUS
  2
*D1
 10
2773.9343106128081
 20
4236.2531572924399
 30
0.0
 11
2407.5570586128079
 21
4236.2531572924399
 31
0.0
 70
   128
 13
2043.9343106128069
 23
4090.945203292441
 33
0.0
 14
2773.9343106128081
 24
4090.945203292441
 34
0.0
1001
ACAD
1000
DSTYLE
1002
{
1070
   287
1070
     3
1070
   287
1070
     3
1070
    40
1040
30.0
1070
   143
1040
0.039
1070
   172
1070
     1
1070
   271
1070
     0
1070
   279
1070
     0
1070
   288
1070
     1
1002
}
  0
DIMENSION
  5
7DF5
  8
3
  6
CONTINUOUS
  2
*D2
 10
2014.9343106128069
 20
4450.708214292441
 30
0.0
 11
2407.5570586128079
 21
4450.708214292441
 31
0.0
 70
   128
 13
2773.9343106128081
 23
4090.945203292441
 33
0.0
 14
2014.9343106128069
 24
4187.4658032924408
 34
0.0
1001
ACAD
1000
DSTYLE
1002
{
1070
   287
1070
     3
1070
   287
1070
     3
1070
    40
1040
30.0
1070
   143
1040
0.039
1070
   172
1070
     1
1070
   271
1070
     0
1070
   279
1070
     0
1070
   288
1070
     1
1002
}
  0
DIMENSION
  5
7E03
  8
3
  6
CONTINUOUS
  2
*D3
 10
1508.9343106128069
 20
4450.7082382924409
 30
0.0
 11
1763.8053176128089
 21
4450.7082382924409
 31
0.0
 70
   128
 13
2014.9343106128069
 23
4187.4658032924408
 33
0.0
 14
1508.9343106128069
 24
3537.945203292441
 34
0.0
1001
ACAD
1000
DSTYLE
1002
{
1070
   287
1070
     3
1070
   287
1070
     3
1070
    40
1040
30.0
1070
   143
1040
0.039
1070
   172
1070
     1
1070
   271
1070
     0
1070
   279
1070
     0
1070
   288
1070
     1
1002
}
  0
DIMENSION
  5
7E12
  8
3
  6
CONTINUOUS
  2
*D4
 10
1314.5203116128071
 20
3590.945203292441
 30
0.0
 11
1314.5203116128071
 21
3840.945203292441
 31
0.0
 70
   128
 13
2003.9343106128069
 23
4090.945203292441
 33
0.0
 14
1383.431358612808
 24
3590.945203292441
 34
0.0
 50
90.0
1001
ACAD
1000
DSTYLE
1002
{
1070
   287
1070
     3
1070
   287
1070
     3
1070
    40
1040
30.0
1070
   143
1040
0.039
1070
   172
1070
     1
1070
   271
1070
     0
1070
   279
1070
     0
1070
   288
1070
     1
1002
}
  0
DIMENSION
  5
7E1E
  8
3
  6
CONTINUOUS
  2
*D5
 10
1314.5203116128071
 20
2950.945203292441
 30
0.0
 11
1239.5203116128059
 21
3270.945203292441
 31
0.0
 70
     0
 13
1383.431358612808
 23
3590.945203292441
 33
0.0
 14
1564.9343106128069
 24
2950.945203292441
 34
0.0
 50
90.0
1001
ACAD
1000
DSTYLE
1002
{
1070
   287
1070
     3
1070
   287
1070
     3
1070
    40
1040
30.0
1070
   143
1040
0.039
1070
   172
1070
     1
1070
   271
1070
     0
1070
   279
1070
     0
1070
   288
1070
     1
1002
}
  0
DIMENSION
  5
7E2E
  8
3
  6
CONTINUOUS
  2
*D6
 10
1307.8145276128089
 20
2825.945203292441
 30
0.0
 11
1307.8145276128089
 21
2513.9109732924412
 31
0.0
 70
   128
 13
1564.9343106128069
 23
2950.945203292441
 33
0.0
 14
1564.9343106128069
 24
2825.945203292441
 34
0.0
 50
90.0
1001
ACAD
1000
DSTYLE
1002
{
1070
   287
1070
     3
1070
   287
1070
     3
1070
    40
1040
30.0
1070
   143
1040
0.039
1070
   172
1070
     1
1070
   271
1070
     0
1070
   279
1070
     0
1070
   288
1070
     1
1002
}
  0
DIMENSION
  5
7E3D
  8
3
  6
CONTINUOUS
  2
*D7
 10
2014.9343106128069
 20
2560.8230342924412
 30
0.0
 11
1770.6485963270929
 21
2560.8230342924412
 31
0.0
 70
   128
 13
1564.9343106128069
 23
2825.945203292441
 33
0.0
 14
2014.9343106128069
 24
2689.4508352924399
 34
0.0
1001
ACAD
1000
DSTYLE
1002
{
1070
   287
1070
     3
1070
   287
1070
     3
1070
    40
1040
30.0
1070
   143
1040
0.039
1070
   172
1070
     1
1070
   271
1070
     0
1070
   279
1070
     0
1070
   288
1070
     1
1002
}
  0
DIMENSION
  5
7E49
  8
3
  6
CONTINUOUS
  2
*D8
 10
3114.9343106128081
 20
2560.8230342924412
 30
0.0
 11
2564.9343106128072
 21
2635.8230342924412
 31
0.0
 70
     0
 13
2014.9343106128069
 23
2689.4508352924399
 33
0.0
 14
3114.9343106128081
 24
2825.945203292441
 34
0.0
1001
ACAD
1000
DSTYLE
1002
{
1070
   287
1070
     3
1070
   287
1070
     3
1070
    40
1040
30.0
1070
   143
1040
0.039
1070
   172
1070
     1
1070
   271
1070
     0
1070
   279
1070
     0
1070
   288
1070
     1
1002
}
  0
DIMENSION
  5
7E56
  8
3
  6
CONTINUOUS
  2
*D9
 10
1085.4755120454031
 20
2825.945203292441
 30
0.0
 11
1085.475512045402
 21
3452.15185429244
 31
0.0
 70
   128
 13
2003.9343106128069
 23
4090.945203292441
 33
0.0
 14
1564.9343106128069
 24
2825.945203292441
 34
0.0
 50
90.0
1001
ACAD
1000
DSTYLE
1002
{
1070
   287
1070
     3
1070
   287
1070
     3
1070
    40
1040
30.0
1070
   143
1040
0.039
1070
   172
1070
     1
1070
   271
1070
     0
1070
   279
1070
     0
1070
   288
1070
     1
1002
}
  0
DIMENSION
  5
7E65
  8
3
  6
CONTINUOUS
  2
*D10
 10
5057.306212612807
 20
4229.5514482924409
 30
0.0
 11
4792.3062126128079
 21
4229.5514482924409
 31
0.0
 70
   128
 13
4527.3062126128079
 23
4090.945203292441
 33
0.0
 14
5057.306212612807
 24
4090.945203292441
 34
0.0
1001
ACAD
1000
DSTYLE
1002
{
1070
   287
1070
     3
1070
   287
1070
     3
1070
    40
1040
30.0
1070
   143
1040
0.039
1070
   172
1070
     1
1070
   271
1070
     0
1070
   279
1070
     0
1070
   288
1070
     1
1002
}
  0
DIMENSION
  5
7E72
  8
3
  6
CONTINUOUS
  2
*D11
 10
5365.3019013675412
 20
3235.945203292441
 30
0.0
 11
5365.3019013675403
 21
3592.8879882924412
 31
0.0
 70
   128
 13
5140.3062126128079
 23
3945.945203292441
 33
0.0
 14
5140.3062126128079
 24
3235.945203292441
 34
0.0
 50
90.0
1001
ACAD
1000
DSTYLE
1002
{
1070
   287
1070
     3
1070
   287
1070
     3
1070
     3
1000
φ<>
1070
    40
1040
30.0
1070
   143
1040
0.039
1070
   172
1070
     1
1070
   271
1070
     0
1070
   279
1070
     0
1070
   288
1070
     1
1002
}
  0
DIMENSION
  5
7E80
  8
3
  6
CONTINUOUS
  2
*D12
 10
4792.3062126128079
 20
4455.2222274985616
 30
0.0
 11
4976.3404395428734
 21
4538.1608709880529
 31
0.0
 70
   128
 13
5140.3062126128079
 23
3985.945203292441
 33
0.0
 14
4792.3062126128079
 24
4385.0571664985619
 34
0.0
1001
ACAD
1000
DSTYLE
1002
{
1070
   288
1070
     1
1070
   172
1070
     1
1070
    40
1040
30.0
1070
   271
1070
     0
1070
   143
1040
0.039
1002
}
  0
DIMENSION
  5
7E8E
  8
3
  6
CONTINUOUS
  2
*D13
 10
4282.3062126128079
 20
4455.2222274985616
 30
0.0
 11
4573.7347840413804
 21
4455.2222274985616
 31
0.0
 70
   128
  1
MAX\P590
 13
4792.3062126128079
 23
4385.0571664985619
 33
0.0
 14
4282.3062126128079
 24
3685.6452032924408
 34
0.0
1001
ACAD
1000
DSTYLE
1002
{
1070
   287
1070
     3
1070
   287
1070
     3
1070
    40
1040
30.0
1070
   143
1040
0.039
1070
   172
1070
     1
1070
   271
1070
     0
1070
   279
1070
     0
1070
   288
1070
     1
1002
}
  0
DIMENSION
  5
7E9D
  8
3
  6
CONTINUOUS
  2
*D14
 10
4792.3062126128079
 20
2587.6299192924412
 30
0.0
 11
4566.0204983270942
 21
2587.6299192924412
 31
0.0
 70
   128
 13
4360.306212612807
 23
2825.945203292441
 33
0.0
 14
4792.3062126128079
 24
2673.877068292441
 34
0.0
1001
ACAD
1000
DSTYLE
1002
{
1070
   287
1070
     3
1070
   287
1070
     3
1070
    40
1040
30.0
1070
   143
1040
0.039
1070
   172
1070
     1
1070
   271
1070
     0
1070
   279
1070
     0
1070
   288
1070
     1
1002
}
  0
DIMENSION
  5
7EAB
  8
3
  6
CONTINUOUS
  2
*D15
 10
5110.3062126128079
 20
2587.6299192924412
 30
0.0
 11
4964.7330126764718
 21
2659.3107406354129
 31
0.0
 70
   128
 13
4792.3062126128079
 23
2673.877068292441
 33
0.0
 14
5110.3062126128079
 24
2825.945203292441
 34
0.0
1001
ACAD
1000
DSTYLE
1002
{
1070
   288
1070
     1
1070
   172
1070
     1
1070
    40
1040
30.0
1070
   271
1070
     0
1070
   143
1040
0.039
1002
}
  0
DIMENSION
  5
7EB8
  8
3
  6
CONTINUOUS
  2
*D16
 10
3114.9343106128081
 20
5163.0940932924404
 30
0.0
 11
2280.1477936128081
 21
5163.0940932924404
 31
0.0
 70
   128
 13
1564.9343106128069
 23
5603.0452032924422
 33
0.0
 14
3114.9343106128081
 24
5603.0452032924422
 34
0.0
1001
ACAD
1000
DSTYLE
1002
{
1070
   287
1070
     3
1070
   287
1070
     3
1070
    40
1040
30.0
1070
   143
1040
0.039
1070
   172
1070
     1
1070
   271
1070
     0
1070
   279
1070
     0
1070
   288
1070
     1
1002
}
  0
DIMENSION
  5
7EC5
  8
3
  6
CONTINUOUS
  2
*D17
 10
3453.6535036128089
 20
5603.0452032924422
 30
0.0
 11
3453.6535036128071
 21
5947.195421292442
 31
0.0
 70
   128
 13
3114.9343106128081
 23
6353.0452032924422
 33
0.0
 14
3114.9343106128081
 24
5603.0452032924422
 34
0.0
 50
90.0
1001
ACAD
1000
DSTYLE
1002
{
1070
   287
1070
     3
1070
   287
1070
     3
1070
    40
1040
30.0
1070
   143
1040
0.039
1070
   172
1070
     1
1070
   271
1070
     0
1070
   279
1070
     0
1070
   288
1070
     1
1002
}
  0
DIMENSION
  5
80FB
  8
3
  2
*D18
 10
3114.9343106128081
 20
4619.3457742332102
 30
0.0
 11
2271.81175292543
 21
4619.3457742332102
 31
0.0
 70
   128
 13
1508.9343106128069
 23
3552.945203292441
 33
0.0
 14
3114.9343106128081
 24
3050.945203292441
 34
0.0
1001
ACAD
1000
DSTYLE
1002
{
1070
   287
1070
     3
1070
   287
1070
     3
1070
    40
1040
30.0
1070
   143
1040
0.039
1070
   172
1070
     1
1070
   271
1070
     0
1070
   279
1070
     0
1070
   288
1070
     1
1002
}
  0
ENDSEC
  0
EOF
