  0
SECTION
  2
HEADER
  9
$ACADVER
  1
AC1009
  9
$INSBASE
 10
0.0
 20
0.0
 30
0.0
  9
$EXTMIN
 10
750.0
 20
900.0
 30
0.0
  9
$EXTMAX
 10
5550.0
 20
8359.9567845000001
 30
0.0
  9
$LIMMIN
 10
0.0
 20
0.0
  9
$LIMMAX
 10
297.0
 20
210.0
  9
$ORTHOMODE
 70
     0
  9
$REGENMODE
 70
     1
  9
$FILLMODE
 70
     0
  9
$QTEXTMODE
 70
     0
  9
$MIRRTEXT
 70
     1
  9
$DRAGMODE
 70
     2
  9
$LTSCALE
 40
100.0
  9
$OSMODE
 70
    37
  9
$ATTMODE
 70
     1
  9
$TEXTSIZE
 40
180.0
  9
$TRACEWID
 40
0.05
  9
$TEXTSTYLE
  7
STANDARD
  9
$CLAYER
  8
3
  9
$CELTYPE
  6
BYLAYER
  9
$CECOLOR
 62
   256
  9
$DIMSCALE
 40
30.0
  9
$DIMASZ
 40
2.0
  9
$DIMEXO
 40
0.5
  9
$DIMDLI
 40
10.0
  9
$DIMRND
 40
0.0
  9
$DIMDLE
 40
0.0
  9
$DIMEXE
 40
1.0
  9
$DIMTP
 40
1.0
  9
$DIMTM
 40
1.0
  9
$DIMTXT
 40
3.0
  9
$DIMCEN
 40
0.0
  9
$DIMTSZ
 40
0.0
  9
$DIMTOL
 70
     0
  9
$DIMLIM
 70
     0
  9
$DIMTIH
 70
     0
  9
$DIMTOH
 70
     0
  9
$DIMSE1
 70
     0
  9
$DIMSE2
 70
     0
  9
$DIMTAD
 70
     1
  9
$DIMZIN
 70
     8
  9
$DIMBLK
  1

  9
$DIMASO
 70
     1
  9
$DIMSHO
 70
     1
  9
$DIMPOST
  1

  9
$DIMAPOST
  1

  9
$DIMALT
 70
     0
  9
$DIMALTD
 70
     2
  9
$DIMALTF
 40
0.039
  9
$DIMLFAC
 40
1.0
  9
$DIMTOFL
 70
     1
  9
$DIMTVP
 40
0.0
  9
$DIMTIX
 70
     0
  9
$DIMSOXD
 70
     0
  9
$DIMSAH
 70
     1
  9
$DIMBLK1
  1
OPEN
  9
$DIMBLK2
  1
OPEN
  9
$DIMSTYLE
  2
IGA
  9
$DIMCLRD
 70
     0
  9
$DIMCLRE
 70
     0
  9
$DIMCLRT
 70
     0
  9
$DIMTFAC
 40
10.0
  9
$DIMGAP
 40
1.0
  9
$LUNITS
 70
     2
  9
$LUPREC
 70
     3
  9
$SKETCHINC
 40
0.1
  9
$FILLETRAD
 40
50.0
  9
$AUNITS
 70
     0
  9
$AUPREC
 70
     0
  9
$MENU
  1
acad
  9
$ELEVATION
 40
0.0
  9
$PELEVATION
 40
0.0
  9
$THICKNESS
 40
0.0
  9
$LIMCHECK
 70
     0
  9
$BLIPMODE
 70
     0
  9
$CHAMFERA
 40
0.5
  9
$CHAMFERB
 40
0.5
  9
$SKPOLY
 70
     0
  9
$TDCREATE
 40
2450753.6915061339
  9
$TDUPDATE
 40
2454953.6840664698
  9
$TDINDWG
 40
0.0045376273
  9
$TDUSRTIMER
 40
0.0045376273
  9
$USRTIMER
 70
     1
  9
$ANGBASE
 50
0.0
  9
$ANGDIR
 70
     0
  9
$PDMODE
 70
     0
  9
$PDSIZE
 40
0.0
  9
$PLINEWID
 40
0.0
  9
$COORDS
 70
     1
  9
$SPLFRAME
 70
     0
  9
$SPLINETYPE
 70
     6
  9
$SPLINESEGS
 70
     8
  9
$ATTDIA
 70
     0
  9
$ATTREQ
 70
     1
  9
$HANDLING
 70
 10241
  9
$HANDSEED
  5
7F0F
  9
$SURFTAB1
 70
     6
  9
$SURFTAB2
 70
     6
  9
$SURFTYPE
 70
     6
  9
$SURFU
 70
     6
  9
$SURFV
 70
     6
  9
$UCSNAME
  2

  9
$UCSORG
 10
0.0
 20
0.0
 30
0.0
  9
$UCSXDIR
 10
1.0
 20
0.0
 30
0.0
  9
$UCSYDIR
 10
0.0
 20
1.0
 30
0.0
  9
$PUCSNAME
  2

  9
$PUCSORG
 10
0.0
 20
0.0
 30
0.0
  9
$PUCSXDIR
 10
1.0
 20
0.0
 30
0.0
  9
$PUCSYDIR
 10
0.0
 20
1.0
 30
0.0
  9
$USERI1
 70
     0
  9
$USERI2
 70
     0
  9
$USERI3
 70
     0
  9
$USERI4
 70
     0
  9
$USERI5
 70
     0
  9
$USERR1
 40
0.0
  9
$USERR2
 40
0.0
  9
$USERR3
 40
0.0
  9
$USERR4
 40
0.0
  9
$USERR5
 40
0.0
  9
$WORLDVIEW
 70
     1
  9
$SHADEDGE
 70
     3
  9
$SHADEDIF
 70
    70
  9
$TILEMODE
 70
     1
  9
$MAXACTVP
 70
    16
  9
$PLIMCHECK
 70
     0
  9
$PEXTMIN
 10
1.0000000000000000E+020
 20
1.0000000000000000E+020
 30
1.0000000000000000E+020
  9
$PEXTMAX
 10
-1.0000000000000000E+020
 20
-1.0000000000000000E+020
 30
-1.0000000000000000E+020
  9
$PLIMMIN
 10
0.0
 20
0.0
  9
$PLIMMAX
 10
12.0
 20
9.0
  9
$UNITMODE
 70
     0
  9
$VISRETAIN
 70
     0
  9
$PLINEGEN
 70
     0
  9
$PSLTSCALE
 70
     1
  0
ENDSEC
  0
SECTION
  2
TABLES
  0
TABLE
  2
VPORT
 70
     2
  0
VPORT
  2
*ACTIVE
 70
     0
 10
0.0
 20
0.0
 11
1.0
 21
1.0
 12
11769.831503611451
 22
3879.4417531544718
 13
0.0
 23
0.0
 14
10.0
 24
10.0
 15
10.0
 25
10.0
 16
0.0
 26
0.0
 36
1.0
 17
0.0
 27
0.0
 37
0.0
 40
8981.1618987281054
 41
3.1666666666666661
 42
50.0
 43
0.0
 44
0.0
 50
0.0
 51
0.0
 71
     0
 72
   100
 73
     1
 74
     0
 75
     0
 76
     0
 77
     0
 78
     0
  0
ENDTAB
  0
TABLE
  2
LTYPE
 70
     2
  0
LTYPE
  2
CONTINUOUS
 70
     0
  3
Solid line
 72
    65
 73
     0
 40
0.0
  0
LTYPE
  2
CENTER
 70
     0
  3
____ _ ____ _ ____ _ ____ _ ____ _ ____ _ ____ 
 72
    65
 73
     4
 40
2.0
 49
1.25
 49
-0.25
 49
0.25
 49
-0.25
  0
ENDTAB
  0
TABLE
  2
LAYER
 70
     6
  0
LAYER
  2
0
 70
     0
 62
     7
  6
CONTINUOUS
  0
LAYER
  2
3
 70
     0
 62
     2
  6
CONTINUOUS
  0
LAYER
  2
2
 70
     0
 62
     3
  6
CENTER
  0
LAYER
  2
1
 70
     0
 62
     4
  6
CONTINUOUS
  0
LAYER
  2
4
 70
     0
 62
     7
  6
CONTINUOUS
  0
LAYER
  2
DEFPOINTS
 70
     0
 62
     7
  6
CONTINUOUS
  0
ENDTAB
  0
TABLE
  2
STYLE
 70
     1
  0
STYLE
  2
STANDARD
 70
     0
 40
0.0
 41
1.0
 50
0.0
 71
     0
 42
180.0
  3
simplex.shx
  4
extfont.shx
  0
ENDTAB
  0
TABLE
  2
VIEW
 70
     0
  0
ENDTAB
  0
TABLE
  2
UCS
 70
     0
  0
ENDTAB
  0
TABLE
  2
APPID
 70
     1
  0
APPID
  2
ACAD
 70
     0
  0
ENDTAB
  0
TABLE
  2
DIMSTYLE
 70
     1
  0
DIMSTYLE
  2
IGA
 70
     0
  3

  4

  5

  6
OPEN
  7
OPEN
 40
2.0
 41
2.0
 42
0.5
 43
10.0
 44
1.0
 45
0.0
 46
0.0
 47
1.0
 48
1.0
140
3.0
141
0.0
142
0.0
143
0.03937
144
1.0
145
0.0
146
10.0
147
1.0
 71
     0
 72
     0
 73
     0
 74
     0
 75
     0
 76
     0
 77
     1
 78
     8
170
     0
171
     2
172
     0
173
     1
174
     0
175
     0
176
     0
177
     0
178
     0
  0
ENDTAB
  0
ENDSEC
  0
SECTION
  2
BLOCKS
  0
BLOCK
  8
0
  2
$MODEL_SPACE
 70
     0
 10
0.0
 20
0.0
 30
0.0
  3
$MODEL_SPACE
  1

  0
ENDBLK
  5
1B
  8
0
  0
BLOCK
 67
     1
  8
0
  2
$PAPER_SPACE
 70
     0
 10
0.0
 20
0.0
 30
0.0
  3
$PAPER_SPACE
  1

  0
ENDBLK
  5
18
 67
     1
  8
0
  0
BLOCK
  8
0
  2
_OPEN
 70
     0
 10
0.0
 20
0.0
 30
0.0
  3
_OPEN
  1

  0
LINE
  5
7AD8
  8
0
  6
BYBLOCK
 62
     0
 10
-1.0
 20
0.166667
 30
0.0
 11
0.0
 21
0.0
 31
0.0
  0
LINE
  5
7AD9
  8
0
  6
BYBLOCK
 62
     0
 10
0.0
 20
0.0
 30
0.0
 11
-1.0
 21
-0.166667
 31
0.0
  0
LINE
  5
7ADA
  8
0
  6
BYBLOCK
 62
     0
 10
0.0
 20
0.0
 30
0.0
 11
-1.0
 21
0.0
 31
0.0
  0
ENDBLK
  5
7ADB
  8
0
  0
BLOCK
  8
0
  2
*D1
 70
     1
 10
0.0
 20
0.0
 30
0.0
  3
*D1
  1

  0
LINE
  5
7E78
  8
3
  6
CONTINUOUS
 62
     0
 10
1948.5597499306141
 20
2752.5528166330009
 30
0.0
 11
1948.5597499306141
 21
2453.3357036330008
 31
0.0
  0
LINE
  5
7E79
  8
3
  6
CONTINUOUS
 62
     0
 10
2398.5597499306141
 20
2658.0189046330001
 30
0.0
 11
2398.5597499306141
 21
2453.3357036330008
 31
0.0
  0
LINE
  5
7E7A
  8
3
  6
CONTINUOUS
 62
     0
 10
2008.5597499306141
 20
2483.3357036330008
 30
0.0
 11
2338.5597499306141
 21
2483.3357036330008
 31
0.0
  0
INSERT
  5
7E7B
  8
3
  6
CONTINUOUS
 62
     0
  2
_OPEN
 10
1948.5597499306141
 20
2483.3357036330008
 30
0.0
 41
60.0
 42
60.0
 43
60.0
 50
180.0
  0
INSERT
  5
7E7C
  8
3
  6
CONTINUOUS
 62
     0
  2
_OPEN
 10
2398.5597499306141
 20
2483.3357036330008
 30
0.0
 41
60.0
 42
60.0
 43
60.0
  0
TEXT
  8
3
  40
90
  5
7EFF
  62
0
  72
0
  71
0
 10
1974.27
 20
2399.04
 30
0.000000
  1
450
  0
POINT
  5
7E7E
  8
DEFPOINTS
  6
CONTINUOUS
 62
     0
 10
1948.5597499306141
 20
2767.5528166330009
 30
0.0
  0
POINT
  5
7E7F
  8
DEFPOINTS
  6
CONTINUOUS
 62
     0
 10
2398.5597499306141
 20
2673.0189046330001
 30
0.0
  0
POINT
  5
7E80
  8
DEFPOINTS
  6
CONTINUOUS
 62
     0
 10
2398.5597499306141
 20
2483.3357036330008
 30
0.0
  0
ENDBLK
  5
7CD9
  8
0
  0
BLOCK
  8
0
  2
*D2
 70
     1
 10
0.0
 20
0.0
 30
0.0
  3
*D2
  1

  0
LINE
  5
7E81
  8
3
  6
CONTINUOUS
 62
     0
 10
2398.5597499306141
 20
2658.0189046330001
 30
0.0
 11
2398.5597499306141
 21
2453.3357036330008
 31
0.0
  0
LINE
  5
7E82
  8
3
  6
CONTINUOUS
 62
     0
 10
3498.5597499306132
 20
2752.5528166330009
 30
0.0
 11
3498.5597499306132
 21
2453.3357036330008
 31
0.0
  0
LINE
  5
7E83
  8
3
  6
CONTINUOUS
 62
     0
 10
2458.5597499306141
 20
2483.3357036330008
 30
0.0
 11
3438.5597499306132
 21
2483.3357036330008
 31
0.0
  0
INSERT
  5
7E84
  8
3
  6
CONTINUOUS
 62
     0
  2
_OPEN
 10
2398.5597499306141
 20
2483.3357036330008
 30
0.0
 41
60.0
 42
60.0
 43
60.0
 50
180.0
  0
INSERT
  5
7E85
  8
3
  6
CONTINUOUS
 62
     0
  2
_OPEN
 10
3498.5597499306132
 20
2483.3357036330008
 30
0.0
 41
60.0
 42
60.0
 43
60.0
  0
TEXT
  8
3
  40
90
  5
7F00
  62
0
  72
0
  71
0
 10
2768.56
 20
2399.04
 30
0.000000
  1
1100
  0
POINT
  5
7E87
  8
DEFPOINTS
  6
CONTINUOUS
 62
     0
 10
2398.5597499306141
 20
2673.0189046330001
 30
0.0
  0
POINT
  5
7E88
  8
DEFPOINTS
  6
CONTINUOUS
 62
     0
 10
3498.5597499306132
 20
2767.5528166330009
 30
0.0
  0
POINT
  5
7E89
  8
DEFPOINTS
  6
CONTINUOUS
 62
     0
 10
3498.5597499306132
 20
2483.3357036330008
 30
0.0
  0
ENDBLK
  5
7CCE
  8
0
  0
BLOCK
  8
0
  2
*D3
 70
     1
 10
0.0
 20
0.0
 30
0.0
  3
*D3
  1

  0
LINE
  5
7E8A
  8
3
  6
CONTINUOUS
 62
     0
 10
1883.5597499306141
 20
3608.5528166330009
 30
0.0
 11
1695.0565219306141
 21
3608.5528166330009
 31
0.0
  0
LINE
  5
7E8B
  8
3
  6
CONTINUOUS
 62
     0
 10
1883.5597499306141
 20
2878.5528166330009
 30
0.0
 11
1695.0565219306141
 21
2878.5528166330009
 31
0.0
  0
LINE
  5
7E8C
  8
3
  6
CONTINUOUS
 62
     0
 10
1725.0565219306129
 20
3548.5528166330009
 30
0.0
 11
1725.0565219306129
 21
2938.5528166330009
 31
0.0
  0
INSERT
  5
7E8D
  8
3
  6
CONTINUOUS
 62
     0
  2
_OPEN
 10
1725.0565219306141
 20
3608.5528166330009
 30
0.0
 41
60.0
 42
60.0
 43
60.0
 50
90.0
  0
INSERT
  5
7E8E
  8
3
  6
CONTINUOUS
 62
     0
  2
_OPEN
 10
1725.0565219306129
 20
2878.5528166330009
 30
0.0
 41
60.0
 42
60.0
 43
60.0
 50
270.0
  0
TEXT
  8
3
  40
90
  5
7F01
  62
0
  72
0
  71
0
 10
1470.06
 20
3082.89
 30
0.000000
  1
730
  0
POINT
  5
7E90
  8
DEFPOINTS
  6
CONTINUOUS
 62
     0
 10
1898.5597499306141
 20
3608.5528166330009
 30
0.0
  0
POINT
  5
7E91
  8
DEFPOINTS
  6
CONTINUOUS
 62
     0
 10
1898.5597499306141
 20
2878.5528166330009
 30
0.0
  0
POINT
  5
7E92
  8
DEFPOINTS
  6
CONTINUOUS
 62
     0
 10
1725.0565219306129
 20
2878.5528166330009
 30
0.0
  0
ENDBLK
  5
7CC3
  8
0
  0
BLOCK
  8
0
  2
*D4
 70
     1
 10
0.0
 20
0.0
 30
0.0
  3
*D4
  1

  0
LINE
  5
7E93
  8
3
  6
CONTINUOUS
 62
     0
 10
1883.5597499306141
 20
2878.5528166330009
 30
0.0
 11
1470.9634289306141
 21
2878.5528166330009
 31
0.0
  0
LINE
  5
7E94
  8
3
  6
CONTINUOUS
 62
     0
 10
1963.8879339306141
 20
3637.5528166330009
 30
0.0
 11
1470.9634289306141
 21
3637.5528166330009
 31
0.0
  0
LINE
  5
7E95
  8
3
  6
CONTINUOUS
 62
     0
 10
1500.9634289306141
 20
2938.5528166330009
 30
0.0
 11
1500.9634289306141
 21
3577.5528166330009
 31
0.0
  0
INSERT
  5
7E96
  8
3
  6
CONTINUOUS
 62
     0
  2
_OPEN
 10
1500.9634289306141
 20
2878.5528166330009
 30
0.0
 41
60.0
 42
60.0
 43
60.0
 50
270.0
  0
INSERT
  5
7E97
  8
3
  6
CONTINUOUS
 62
     0
  2
_OPEN
 10
1500.963428930615
 20
3637.5528166330009
 30
0.0
 41
60.0
 42
60.0
 43
60.0
 50
90.0
  0
TEXT
  8
3
  40
90
  5
7F02
  62
0
  72
0
  71
0
 10
1245.96
 20
3103.22
 30
0.000000
  1
759
  0
POINT
  5
7E99
  8
DEFPOINTS
  6
CONTINUOUS
 62
     0
 10
1898.5597499306141
 20
2878.5528166330009
 30
0.0
  0
POINT
  5
7E9A
  8
DEFPOINTS
  6
CONTINUOUS
 62
     0
 10
1978.8879339306141
 20
3637.5528166330009
 30
0.0
  0
POINT
  5
7E9B
  8
DEFPOINTS
  6
CONTINUOUS
 62
     0
 10
1500.963428930615
 20
3637.5528166330009
 30
0.0
  0
ENDBLK
  5
7CB8
  8
0
  0
BLOCK
  8
0
  2
*D5
 70
     1
 10
0.0
 20
0.0
 30
0.0
  3
*D5
  1

  0
LINE
  5
7E9C
  8
3
  6
CONTINUOUS
 62
     0
 10
2383.5597499306141
 20
4143.5528166330014
 30
0.0
 11
1270.9404689306141
 21
4143.5528166330023
 31
0.0
  0
LINE
  5
7E9D
  8
3
  6
CONTINUOUS
 62
     0
 10
1963.8879339306141
 20
3637.5528166330009
 30
0.0
 11
1270.9404689306141
 21
3637.5528166330009
 31
0.0
  0
LINE
  5
7E9E
  8
3
  6
CONTINUOUS
 62
     0
 10
1300.9404689306141
 20
4083.5528166330018
 30
0.0
 11
1300.9404689306141
 21
3697.5528166330009
 31
0.0
  0
INSERT
  5
7E9F
  8
3
  6
CONTINUOUS
 62
     0
  2
_OPEN
 10
1300.9404689306141
 20
4143.5528166330023
 30
0.0
 41
60.0
 42
60.0
 43
60.0
 50
90.0
  0
INSERT
  5
7EA0
  8
3
  6
CONTINUOUS
 62
     0
  2
_OPEN
 10
1300.9404689306141
 20
3637.5528166330009
 30
0.0
 41
60.0
 42
60.0
 43
60.0
 50
270.0
  0
TEXT
  8
3
  40
90
  5
7F03
  62
0
  72
0
  71
0
 10
1045.94
 20
3718.25
 30
0.000000
  1
506
  0
POINT
  5
7EA2
  8
DEFPOINTS
  6
CONTINUOUS
 62
     0
 10
2398.5597499306141
 20
4143.5528166330014
 30
0.0
  0
POINT
  5
7EA3
  8
DEFPOINTS
  6
CONTINUOUS
 62
     0
 10
1978.8879339306141
 20
3637.5528166330009
 30
0.0
  0
POINT
  5
7EA4
  8
DEFPOINTS
  6
CONTINUOUS
 62
     0
 10
1300.9404689306141
 20
3637.5528166330009
 30
0.0
  0
ENDBLK
  5
7D91
  8
0
  0
BLOCK
  8
0
  2
*D6
 70
     1
 10
0.0
 20
0.0
 30
0.0
  3
*D6
  1

  0
LINE
  5
7EA5
  8
3
  6
CONTINUOUS
 62
     0
 10
1963.8879339306141
 20
3637.5528166330009
 30
0.0
 11
1270.9404689306141
 21
3637.5528166330009
 31
0.0
  0
LINE
  5
7EA6
  8
3
  6
CONTINUOUS
 62
     0
 10
1933.5597499306141
 20
2767.5528166330009
 30
0.0
 11
1270.940468930613
 21
2767.5528166330009
 31
0.0
  0
LINE
  5
7EA7
  8
3
  6
CONTINUOUS
 62
     0
 10
1300.9404689306141
 20
3577.5528166330009
 30
0.0
 11
1300.9404689306141
 21
2827.5528166330009
 31
0.0
  0
INSERT
  5
7EA8
  8
3
  6
CONTINUOUS
 62
     0
  2
_OPEN
 10
1300.9404689306141
 20
3637.5528166330009
 30
0.0
 41
60.0
 42
60.0
 43
60.0
 50
90.0
  0
INSERT
  5
7EA9
  8
3
  6
CONTINUOUS
 62
     0
  2
_OPEN
 10
1300.9404689306141
 20
2767.5528166330009
 30
0.0
 41
60.0
 42
60.0
 43
60.0
 50
270.0
  0
TEXT
  8
3
  40
90
  5
7F04
  62
0
  72
0
  71
0
 10
1045.94
 20
3043.25
 30
0.000000
  1
870
  0
POINT
  5
7EAB
  8
DEFPOINTS
  6
CONTINUOUS
 62
     0
 10
1978.8879339306141
 20
3637.5528166330009
 30
0.0
  0
POINT
  5
7EAC
  8
DEFPOINTS
  6
CONTINUOUS
 62
     0
 10
1948.5597499306141
 20
2767.5528166330009
 30
0.0
  0
POINT
  5
7EAD
  8
DEFPOINTS
  6
CONTINUOUS
 62
     0
 10
1300.9404689306141
 20
2767.5528166330009
 30
0.0
  0
ENDBLK
  5
7CA2
  8
0
  0
BLOCK
  8
0
  2
*D7
 70
     1
 10
0.0
 20
0.0
 30
0.0
  3
*D7
  1

  0
LINE
  5
7EAE
  8
3
  6
CONTINUOUS
 62
     0
 10
1898.5597499306141
 20
3663.5528166330009
 30
0.0
 11
1898.5597499306141
 21
4293.2486266330006
 31
0.0
  0
LINE
  5
7EAF
  8
3
  6
CONTINUOUS
 62
     0
 10
2398.5597499306141
 20
4156.6480456330009
 30
0.0
 11
2398.5597499306141
 21
4293.2486266330006
 31
0.0
  0
LINE
  5
7EB0
  8
3
  6
CONTINUOUS
 62
     0
 10
1958.5597499306141
 20
4263.2486266330015
 30
0.0
 11
2338.5597499306141
 21
4263.2486266330015
 31
0.0
  0
INSERT
  5
7EB1
  8
3
  6
CONTINUOUS
 62
     0
  2
_OPEN
 10
1898.5597499306141
 20
4263.2486266330015
 30
0.0
 41
60.0
 42
60.0
 43
60.0
 50
180.0
  0
INSERT
  5
7EB2
  8
3
  6
CONTINUOUS
 62
     0
  2
_OPEN
 10
2398.5597499306141
 20
4263.2486266330015
 30
0.0
 41
60.0
 42
60.0
 43
60.0
  0
TEXT
  8
3
  40
90
  5
7F05
  62
0
  72
0
  71
0
 10
1978.56
 20
4178.95
 30
0.000000
  1
500
  0
POINT
  5
7EB4
  8
DEFPOINTS
  6
CONTINUOUS
 62
     0
 10
1898.5597499306141
 20
3648.5528166330009
 30
0.0
  0
POINT
  5
7EB5
  8
DEFPOINTS
  6
CONTINUOUS
 62
     0
 10
2398.5597499306141
 20
4141.6480456330009
 30
0.0
  0
POINT
  5
7EB6
  8
DEFPOINTS
  6
CONTINUOUS
 62
     0
 10
2398.5597499306141
 20
4263.2486266330015
 30
0.0
  0
ENDBLK
  5
7C97
  8
0
  0
BLOCK
  8
0
  2
*D8
 70
     1
 10
0.0
 20
0.0
 30
0.0
  3
*D8
  1

  0
LINE
  5
7EB7
  8
3
  6
CONTINUOUS
 62
     0
 10
2398.5597499306141
 20
4156.6480456330009
 30
0.0
 11
2398.5597499306141
 21
4293.2486266330006
 31
0.0
  0
LINE
  5
7EB8
  8
3
  6
CONTINUOUS
 62
     0
 10
3010.5597499306141
 20
3652.5528166330009
 30
0.0
 11
3010.5597499306141
 21
4293.2486266330006
 31
0.0
  0
LINE
  5
7EB9
  8
3
  6
CONTINUOUS
 62
     0
 10
2458.5597499306141
 20
4263.2486266330015
 30
0.0
 11
2950.5597499306141
 21
4263.2486266330015
 31
0.0
  0
INSERT
  5
7EBA
  8
3
  6
CONTINUOUS
 62
     0
  2
_OPEN
 10
2398.5597499306141
 20
4263.2486266330015
 30
0.0
 41
60.0
 42
60.0
 43
60.0
 50
180.0
  0
INSERT
  5
7EBB
  8
3
  6
CONTINUOUS
 62
     0
  2
_OPEN
 10
3010.5597499306141
 20
4263.2486266330015
 30
0.0
 41
60.0
 42
60.0
 43
60.0
  0
TEXT
  8
3
  40
90
  5
7F06
  62
0
  72
0
  71
0
 10
2524.56
 20
4178.95
 30
0.000000
  1
612
  0
POINT
  5
7EBD
  8
DEFPOINTS
  6
CONTINUOUS
 62
     0
 10
2398.5597499306141
 20
4141.6480456330009
 30
0.0
  0
POINT
  5
7EBE
  8
DEFPOINTS
  6
CONTINUOUS
 62
     0
 10
3010.5597499306141
 20
3637.5528166330009
 30
0.0
  0
POINT
  5
7EBF
  8
DEFPOINTS
  6
CONTINUOUS
 62
     0
 10
3010.5597499306141
 20
4263.2486266330015
 30
0.0
  0
ENDBLK
  5
7D85
  8
0
  0
BLOCK
  8
0
  2
*D9
 70
     1
 10
0.0
 20
0.0
 30
0.0
  3
*D9
  1

  0
LINE
  5
7EC0
  8
3
  6
CONTINUOUS
 62
     0
 10
1948.5597499306141
 20
5399.780350743029
 30
0.0
 11
1948.5597499306141
 21
5033.0321597430302
 31
0.0
  0
LINE
  5
7EC1
  8
3
  6
CONTINUOUS
 62
     0
 10
3498.5597499306132
 20
5399.780350743029
 30
0.0
 11
3498.5597499306132
 21
5033.0321597430302
 31
0.0
  0
LINE
  5
7EC2
  8
3
  6
CONTINUOUS
 62
     0
 10
2008.5597499306141
 20
5063.0321597430311
 30
0.0
 11
3438.5597499306132
 21
5063.0321597430311
 31
0.0
  0
INSERT
  5
7EC3
  8
3
  6
CONTINUOUS
 62
     0
  2
_OPEN
 10
1948.5597499306141
 20
5063.0321597430311
 30
0.0
 41
60.0
 42
60.0
 43
60.0
 50
180.0
  0
INSERT
  5
7EC4
  8
3
  6
CONTINUOUS
 62
     0
  2
_OPEN
 10
3498.5597499306132
 20
5063.0321597430311
 30
0.0
 41
60.0
 42
60.0
 43
60.0
  0
TEXT
  8
3
  40
90
  5
7F07
  62
0
  72
0
  71
0
 10
2538.05
 20
4978.73
 30
0.000000
  1
1550
  0
POINT
  5
7EC6
  8
DEFPOINTS
  6
CONTINUOUS
 62
     0
 10
1948.5597499306141
 20
5414.780350743029
 30
0.0
  0
POINT
  5
7EC7
  8
DEFPOINTS
  6
CONTINUOUS
 62
     0
 10
3498.5597499306132
 20
5414.780350743029
 30
0.0
  0
POINT
  5
7EC8
  8
DEFPOINTS
  6
CONTINUOUS
 62
     0
 10
3498.5597499306132
 20
5063.0321597430311
 30
0.0
  0
ENDBLK
  5
7DA0
  8
0
  0
BLOCK
  8
0
  2
*D10
 70
     1
 10
0.0
 20
0.0
 30
0.0
  3
*D10
  1

  0
LINE
  5
7EC9
  8
3
  6
CONTINUOUS
 62
     0
 10
3513.5597499306132
 20
6164.7803507430299
 30
0.0
 11
3860.044304930615
 21
6164.7803507430299
 31
0.0
  0
LINE
  5
7ECA
  8
3
  6
CONTINUOUS
 62
     0
 10
3513.5597499306132
 20
5414.780350743029
 30
0.0
 11
3860.044304930615
 21
5414.780350743029
 31
0.0
  0
LINE
  5
7ECB
  8
3
  6
CONTINUOUS
 62
     0
 10
3830.044304930615
 20
6104.7803507430299
 30
0.0
 11
3830.044304930615
 21
5474.7803507430299
 31
0.0
  0
INSERT
  5
7ECC
  8
3
  6
CONTINUOUS
 62
     0
  2
_OPEN
 10
3830.044304930615
 20
6164.7803507430299
 30
0.0
 41
60.0
 42
60.0
 43
60.0
 50
90.0
  0
INSERT
  5
7ECD
  8
3
  6
CONTINUOUS
 62
     0
  2
_OPEN
 10
3830.044304930615
 20
5414.780350743029
 30
0.0
 41
60.0
 42
60.0
 43
60.0
 50
270.0
  0
TEXT
  8
3
  40
90
  5
7F08
  62
0
  72
0
  71
0
 10
3575.04
 20
5643.94
 30
0.000000
  1
750
  0
POINT
  5
7ECF
  8
DEFPOINTS
  6
CONTINUOUS
 62
     0
 10
3498.5597499306132
 20
6164.7803507430299
 30
0.0
  0
POINT
  5
7ED0
  8
DEFPOINTS
  6
CONTINUOUS
 62
     0
 10
3498.5597499306132
 20
5414.780350743029
 30
0.0
  0
POINT
  5
7ED1
  8
DEFPOINTS
  6
CONTINUOUS
 62
     0
 10
3830.044304930615
 20
5414.780350743029
 30
0.0
  0
ENDBLK
  5
7C76
  8
0
  0
BLOCK
  8
0
  2
*D11
 70
     1
 10
0.0
 20
0.0
 30
0.0
  3
*D11
  1

  0
LINE
  5
7ED2
  8
3
  6
CONTINUOUS
 62
     0
 10
4166.7354032570984
 20
2752.5528166330009
 30
0.0
 11
4166.7354032570984
 21
2532.9573966330008
 31
0.0
  0
LINE
  5
7ED3
  8
3
  6
CONTINUOUS
 62
     0
 10
4598.7354032570993
 20
2735.9802526330009
 30
0.0
 11
4598.7354032570993
 21
2532.9573966330008
 31
0.0
  0
LINE
  5
7ED4
  8
3
  6
CONTINUOUS
 62
     0
 10
4226.7354032570993
 20
2562.9573966330008
 30
0.0
 11
4538.7354032570993
 21
2562.9573966330008
 31
0.0
  0
INSERT
  5
7ED5
  8
3
  6
CONTINUOUS
 62
     0
  2
_OPEN
 10
4166.7354032570984
 20
2562.9573966330008
 30
0.0
 41
60.0
 42
60.0
 43
60.0
 50
180.0
  0
INSERT
  5
7ED6
  8
3
  6
CONTINUOUS
 62
     0
  2
_OPEN
 10
4598.7354032570993
 20
2562.9573966330008
 30
0.0
 41
60.0
 42
60.0
 43
60.0
  0
TEXT
  8
3
  40
90
  5
7F09
  62
0
  72
0
  71
0
 10
4192.45
 20
2478.66
 30
0.000000
  1
432
  0
POINT
  5
7ED8
  8
DEFPOINTS
  6
CONTINUOUS
 62
     0
 10
4166.7354032570984
 20
2767.5528166330009
 30
0.0
  0
POINT
  5
7ED9
  8
DEFPOINTS
  6
CONTINUOUS
 62
     0
 10
4598.7354032570993
 20
2750.9802526330009
 30
0.0
  0
POINT
  5
7EDA
  8
DEFPOINTS
  6
CONTINUOUS
 62
     0
 10
4598.7354032570993
 20
2562.9573966330008
 30
0.0
  0
ENDBLK
  5
7C6B
  8
0
  0
BLOCK
  8
0
  2
*D12
 70
     1
 10
0.0
 20
0.0
 30
0.0
  3
*D12
  1

  0
LINE
  5
7CFC
  8
0
  6
BYBLOCK
 62
     0
 10
4598.7354032570993
 20
2735.9802526330009
 30
0.0
 11
4598.7354032570993
 21
2532.9573966330008
 31
0.0
  0
LINE
  5
7CFD
  8
0
  6
BYBLOCK
 62
     0
 10
4916.7354032570993
 20
2752.5528166330009
 30
0.0
 11
4916.7354032570993
 21
2532.9573966330008
 31
0.0
  0
LINE
  5
7CFE
  8
0
  6
BYBLOCK
 62
     0
 10
4658.7354032570993
 20
2562.9573966330008
 30
0.0
 11
4856.7354032571002
 21
2562.9573966330008
 31
0.0
  0
TEXT
  5
7CFF
  8
3
 62
     0
 10
4664.5390459526807
 20
2606.8455999140201
 30
0.0
 40
90.0
  1
318
  0
INSERT
  5
7D00
  8
0
  6
BYBLOCK
 62
     0
  2
_OPEN
 10
4598.7354032570993
 20
2562.9573966330008
 30
0.0
 41
60.0
 42
60.0
 43
60.0
 50
180.0
  0
INSERT
  5
7D01
  8
0
  6
BYBLOCK
 62
     0
  2
_OPEN
 10
4916.7354032570993
 20
2562.9573966330008
 30
0.0
 41
60.0
 42
60.0
 43
60.0
  0
POINT
  5
7D02
  8
DEFPOINTS
  6
BYBLOCK
 62
     0
 10
4598.7354032570993
 20
2750.9802526330009
 30
0.0
  0
POINT
  5
7D03
  8
DEFPOINTS
  6
BYBLOCK
 62
     0
 10
4916.7354032570993
 20
2767.5528166330009
 30
0.0
  0
POINT
  5
7D04
  8
DEFPOINTS
  6
BYBLOCK
 62
     0
 10
4916.7354032570993
 20
2562.9573966330008
 30
0.0
  0
ENDBLK
  5
7D05
  8
0
  0
BLOCK
  8
0
  2
*D13
 70
     1
 10
0.0
 20
0.0
 30
0.0
  3
*D13
  1

  0
LINE
  5
7EDB
  8
3
  6
CONTINUOUS
 62
     0
 10
4333.7354032570993
 20
4158.5528166330014
 30
0.0
 11
4333.7354032570993
 21
4398.9554116330009
 31
0.0
  0
LINE
  5
7EDC
  8
3
  6
CONTINUOUS
 62
     0
 10
4863.7354032570993
 20
4158.5528166330014
 30
0.0
 11
4863.7354032570993
 21
4398.9554116330009
 31
0.0
  0
LINE
  5
7EDD
  8
3
  6
CONTINUOUS
 62
     0
 10
4393.7354032570993
 20
4368.9554116330009
 30
0.0
 11
4803.7354032571002
 21
4368.9554116330009
 31
0.0
  0
INSERT
  5
7EDE
  8
3
  6
CONTINUOUS
 62
     0
  2
_OPEN
 10
4333.7354032570993
 20
4368.9554116330009
 30
0.0
 41
60.0
 42
60.0
 43
60.0
 50
180.0
  0
INSERT
  5
7EDF
  8
3
  6
CONTINUOUS
 62
     0
  2
_OPEN
 10
4863.7354032570993
 20
4368.9554116330009
 30
0.0
 41
60.0
 42
60.0
 43
60.0
  0
TEXT
  8
3
  40
90
  5
7F0A
  62
0
  72
0
  71
0
 10
4393.74
 20
4284.66
 30
0.000000
  1
530
  0
POINT
  5
7EE1
  8
DEFPOINTS
  6
CONTINUOUS
 62
     0
 10
4333.7354032570993
 20
4143.5528166330014
 30
0.0
  0
POINT
  5
7EE2
  8
DEFPOINTS
  6
CONTINUOUS
 62
     0
 10
4863.7354032570993
 20
4143.5528166330014
 30
0.0
  0
POINT
  5
7EE3
  8
DEFPOINTS
  6
CONTINUOUS
 62
     0
 10
4863.7354032570993
 20
4368.9554116330009
 30
0.0
  0
ENDBLK
  5
7C53
  8
0
  0
BLOCK
  8
0
  2
*D14
 70
     1
 10
0.0
 20
0.0
 30
0.0
  3
*D14
  1

  0
LINE
  5
7EE4
  8
3
  6
CONTINUOUS
 62
     0
 10
4088.7354032570988
 20
3842.2528166330012
 30
0.0
 11
4088.7354032570988
 21
4608.3327776692313
 31
0.0
  0
LINE
  5
7EE5
  8
3
  6
CONTINUOUS
 62
     0
 10
4598.7354032570993
 20
4517.0512411815944
 30
0.0
 11
4598.7354032570993
 21
4608.3327776692313
 31
0.0
  0
LINE
  5
7EE6
  8
3
  6
CONTINUOUS
 62
     0
 10
4148.7354032570993
 20
4578.3327776692304
 30
0.0
 11
4538.7354032570993
 21
4578.3327776692304
 31
0.0
  0
INSERT
  5
7EE7
  8
3
  6
CONTINUOUS
 62
     0
  2
_OPEN
 10
4088.7354032570988
 20
4578.3327776692304
 30
0.0
 41
60.0
 42
60.0
 43
60.0
 50
180.0
  0
INSERT
  5
7EE8
  8
3
  6
CONTINUOUS
 62
     0
  2
_OPEN
 10
4598.7354032570993
 20
4578.3327776692304
 30
0.0
 41
60.0
 42
60.0
 43
60.0
  0
TEXT
  8
3
  40
90
  5
7F0B
  62
0
  72
0
  71
0
 10
4127.31
 20
4569.03
 30
0.000000
  1
MAX
  0
TEXT
  8
3
  40
90
  5
7F0C
  62
0
  72
0
  71
0
 10
4127.31
 20
4452.03
 30
0.000000
  1
590
  0
POINT
  5
7EEA
  8
DEFPOINTS
  6
CONTINUOUS
 62
     0
 10
4088.7354032570988
 20
3827.2528166330012
 30
0.0
  0
POINT
  5
7EEB
  8
DEFPOINTS
  6
CONTINUOUS
 62
     0
 10
4598.7354032570993
 20
4502.0512411815944
 30
0.0
  0
POINT
  5
7EEC
  8
DEFPOINTS
  6
CONTINUOUS
 62
     0
 10
4598.7354032570993
 20
4578.3327776692304
 30
0.0
  0
ENDBLK
  5
7D52
  8
0
  0
BLOCK
  8
0
  2
*D15
 70
     1
 10
0.0
 20
0.0
 30
0.0
  3
*D15
  1

  0
LINE
  5
7D33
  8
0
  6
BYBLOCK
 62
     0
 10
4598.7354032570993
 20
4523.3725510829308
 30
0.0
 11
4598.7354032570993
 21
4608.3327776692313
 31
0.0
  0
LINE
  5
7D34
  8
0
  6
BYBLOCK
 62
     0
 10
4946.7354032571002
 20
4047.5528166330009
 30
0.0
 11
4946.7354032571002
 21
4608.3327776692313
 31
0.0
  0
LINE
  5
7D35
  8
0
  6
BYBLOCK
 62
     0
 10
4658.7354032570993
 20
4578.3327776692304
 30
0.0
 11
4886.7354032570993
 21
4578.3327776692304
 31
0.0
  0
TEXT
  5
7D36
  8
3
 62
     0
 10
4662.7958706855252
 20
4615.7067713358401
 30
0.0
 40
90.0
  1
348
  0
INSERT
  5
7D37
  8
0
  6
BYBLOCK
 62
     0
  2
_OPEN
 10
4598.7354032570993
 20
4578.3327776692304
 30
0.0
 41
60.0
 42
60.0
 43
60.0
 50
180.0
  0
INSERT
  5
7D38
  8
0
  6
BYBLOCK
 62
     0
  2
_OPEN
 10
4946.7354032571002
 20
4578.3327776692304
 30
0.0
 41
60.0
 42
60.0
 43
60.0
  0
POINT
  5
7D39
  8
DEFPOINTS
  6
BYBLOCK
 62
     0
 10
4598.7354032570993
 20
4508.3725510829308
 30
0.0
  0
POINT
  5
7D3A
  8
DEFPOINTS
  6
BYBLOCK
 62
     0
 10
4946.7354032571002
 20
4032.5528166330018
 30
0.0
  0
POINT
  5
7D3B
  8
DEFPOINTS
  6
BYBLOCK
 62
     0
 10
4946.7354032571002
 20
4578.3327776692304
 30
0.0
  0
ENDBLK
  5
7D3C
  8
0
  0
BLOCK
  8
0
  2
*D16
 70
     1
 10
0.0
 20
0.0
 30
0.0
  3
*D16
  1

  0
LINE
  5
7EED
  8
3
  6
CONTINUOUS
 62
     0
 10
4961.7354032570993
 20
3992.5528166330009
 30
0.0
 11
5277.8636382570994
 21
3992.5528166330009
 31
0.0
  0
LINE
  5
7EEE
  8
3
  6
CONTINUOUS
 62
     0
 10
4961.7354032570993
 20
3282.5528166330018
 30
0.0
 11
5277.8636382570994
 21
3282.5528166330009
 31
0.0
  0
LINE
  5
7EEF
  8
3
  6
CONTINUOUS
 62
     0
 10
5247.8636382571003
 20
3932.552816633
 30
0.0
 11
5247.8636382571003
 21
3342.5528166330009
 31
0.0
  0
INSERT
  5
7EF0
  8
3
  6
CONTINUOUS
 62
     0
  2
_OPEN
 10
5247.8636382571003
 20
3992.5528166330009
 30
0.0
 41
60.0
 42
60.0
 43
60.0
 50
90.0
  0
INSERT
  5
7EF1
  8
3
  6
CONTINUOUS
 62
     0
  2
_OPEN
 10
5247.8636382571003
 20
3282.5528166330009
 30
0.0
 41
60.0
 42
60.0
 43
60.0
 50
270.0
  0
TEXT
  8
3
  40
90
  5
7F0D
  62
0
  72
0
  71
0
 10
4992.86
 20
3497.89
 30
0.000000
  1
φ710
  0
POINT
  5
7EF3
  8
DEFPOINTS
  6
CONTINUOUS
 62
     0
 10
4946.7354032571002
 20
3992.5528166330009
 30
0.0
  0
POINT
  5
7EF4
  8
DEFPOINTS
  6
CONTINUOUS
 62
     0
 10
4946.7354032571002
 20
3282.5528166330018
 30
0.0
  0
POINT
  5
7EF5
  8
DEFPOINTS
  6
CONTINUOUS
 62
     0
 10
5247.8636382571003
 20
3282.5528166330009
 30
0.0
  0
ENDBLK
  5
7D5D
  8
0
  0
BLOCK
  8
0
  2
*D17
 70
     1
 10
0.0
 20
0.0
 30
0.0
  3
*D17
  1

  0
LINE
  5
7EF6
  8
3
 62
     0
 10
1898.5597499306141
 20
3678.5528166330009
 30
0.0
 11
1898.5597499306141
 21
4476.1973248812137
 31
0.0
  0
LINE
  5
7EF7
  8
3
 62
     0
 10
3498.5597499306132
 20
2882.5528166330009
 30
0.0
 11
3498.5597499306132
 21
4476.1973248812137
 31
0.0
  0
LINE
  5
7EF8
  8
3
 62
     0
 10
1958.5597499306141
 20
4446.1973248812137
 30
0.0
 11
3438.5597499306132
 21
4446.1973248812137
 31
0.0
  0
INSERT
  5
7EF9
  8
3
 62
     0
  2
_OPEN
 10
1898.5597499306141
 20
4446.1973248812137
 30
0.0
 41
60.0
 42
60.0
 43
60.0
 50
180.0
  0
INSERT
  5
7EFA
  8
3
 62
     0
  2
_OPEN
 10
3498.5597499306132
 20
4446.1973248812137
 30
0.0
 41
60.0
 42
60.0
 43
60.0
  0
TEXT
  8
3
  40
90
  5
7F0E
  62
0
  72
0
  71
0
 10
2597.83
 20
4361.90
 30
0.000000
  1
1600
  0
POINT
  5
7EFC
  8
DEFPOINTS
 62
     0
 10
1898.5597499306141
 20
3663.5528166330009
 30
0.0
  0
POINT
  5
7EFD
  8
DEFPOINTS
 62
     0
 10
3498.5597499306132
 20
2867.5528166330009
 30
0.0
  0
POINT
  5
7EFE
  8
DEFPOINTS
 62
     0
 10
3498.5597499306132
 20
4446.1973248812137
 30
0.0
  0
ENDBLK
  5
7D75
  8
0
  0
ENDSEC
  0
SECTION
  2
ENTITIES
  0
LINE
  5
7A6F
  8
2
  6
CENTER
 10
3298.5597499306141
 20
2932.8528166330011
 30
0.0
 11
3298.5597499306141
 21
3222.2528166330012
 31
0.0
  0
CIRCLE
  5
7A70
  8
1
  6
CONTINUOUS
 10
3298.5597499306141
 20
3077.5528166330009
 30
0.0
 40
139.69999999999999
  0
ARC
  5
7A71
  8
1
  6
CONTINUOUS
 10
3298.5597499306141
 20
3077.5528166330009
 30
0.0
 40
162.0
 50
324.972283
 51
215.02771699999991
  0
LINE
  5
7A72
  8
1
  6
CONTINUOUS
 10
1938.5597499306141
 20
2882.0020486330009
 30
0.0
 11
1938.5597499306141
 21
3608.5528166330009
 31
0.0
  0
LINE
  5
7A73
  8
1
  6
CONTINUOUS
 10
1898.5597499306141
 20
2838.5528166330009
 30
0.0
 11
1898.5597499306141
 21
3648.5528166330009
 31
0.0
  0
ARC
  5
7A74
  8
1
  6
CONTINUOUS
 10
2345.5597499306141
 20
3584.5528166330009
 30
0.0
 40
665.0
 50
274.571279
 51
4.5712789999999988
  0
ARC
  5
7A75
  8
1
  6
CONTINUOUS
 10
3298.5597499306141
 20
3077.5528166330009
 30
0.0
 40
189.69999999999999
 50
238.109208
 51
58.109207999999988
  0
LINE
  5
7A76
  8
1
  6
CONTINUOUS
 10
3198.3408819306128
 20
2916.486778633001
 30
0.0
 11
2298.3408819306128
 21
3476.486778633001
 31
0.0
  0
LINE
  5
7A77
  8
1
  6
CONTINUOUS
 10
3224.7559759306141
 20
2958.9396086330012
 30
0.0
 11
2324.7559759306141
 21
3518.9396086330012
 31
0.0
  0
LINE
  5
7A78
  8
1
  6
CONTINUOUS
 10
3498.5597499306132
 20
2867.5528166330009
 30
0.0
 11
1948.5597499306141
 21
2867.5528166330009
 31
0.0
  0
LINE
  5
7A79
  8
1
  6
CONTINUOUS
 10
3498.5597499306132
 20
2767.5528166330009
 30
0.0
 11
1948.5597499306141
 21
2767.5528166330009
 31
0.0
  0
LINE
  5
7A7A
  8
1
  6
CONTINUOUS
 10
2398.5597499306141
 20
2921.6682116330012
 30
0.0
 11
1898.5597499306141
 21
2878.5528166330009
 31
0.0
  0
LINE
  5
7A7B
  8
1
  6
CONTINUOUS
 10
1948.5597499306141
 20
2867.5528166330009
 30
0.0
 11
1948.5597499306141
 21
2767.5528166330009
 31
0.0
  0
LINE
  5
7A7C
  8
1
  6
CONTINUOUS
 10
3101.0597499306132
 20
2917.5528166330009
 30
0.0
 11
3496.0597499306141
 21
2917.5528166330009
 31
0.0
  0
LINE
  5
7A7D
  8
1
  6
CONTINUOUS
 10
3101.0597499306132
 20
2867.5528166330009
 30
0.0
 11
3101.0597499306132
 21
2917.5528166330009
 31
0.0
  0
LINE
  5
7A7E
  8
1
  6
CONTINUOUS
 10
3496.0597499306141
 20
2867.5528166330009
 30
0.0
 11
3496.0597499306141
 21
2917.5528166330009
 31
0.0
  0
LINE
  5
7A7F
  8
1
  6
CONTINUOUS
 10
3452.5597499306132
 20
2935.5528166330009
 30
0.0
 11
3431.2174159306142
 21
2984.5692496330012
 31
0.0
  0
LINE
  5
7A80
  8
1
  6
CONTINUOUS
 10
3452.5597499306132
 20
2917.5528166330009
 30
0.0
 11
3452.5597499306132
 21
2935.5528166330009
 31
0.0
  0
LINE
  5
7A81
  8
1
  6
CONTINUOUS
 10
3144.5597499306132
 20
2917.5528166330009
 30
0.0
 11
3144.5597499306132
 21
2935.5528166330009
 31
0.0
  0
LINE
  5
7A82
  8
1
  6
CONTINUOUS
 10
3144.5597499306132
 20
2935.5528166330009
 30
0.0
 11
3165.902083930614
 21
2984.5692496330012
 31
0.0
  0
LINE
  5
7A83
  8
1
  6
CONTINUOUS
 10
3498.5597499306132
 20
2867.5528166330009
 30
0.0
 11
3498.5597499306132
 21
2767.5528166330009
 31
0.0
  0
ARC
  5
7A84
  8
1
  6
CONTINUOUS
 10
2451.5597499306141
 20
3584.5528166330009
 30
0.0
 40
559.0
 50
5.4405089999999987
 51
95.440509000000006
  0
LINE
  5
7A85
  8
1
  6
CONTINUOUS
 10
3398.7786179306131
 20
3238.618854633
 30
0.0
 11
2498.778617930614
 21
3798.618854633
 31
0.0
  0
LINE
  5
7A86
  8
1
  6
CONTINUOUS
 10
3372.3635239306141
 20
3196.1660246330011
 30
0.0
 11
2472.3635239306141
 21
3756.1660246330011
 31
0.0
  0
CIRCLE
  5
7A87
  8
1
  6
CONTINUOUS
 10
2398.5597499306141
 20
3637.5528166330009
 30
0.0
 40
395.0
  0
CIRCLE
  5
7A88
  8
1
  6
CONTINUOUS
 10
2398.5597499306141
 20
3637.5528166330009
 30
0.0
 40
355.0
  0
ARC
  5
7A89
  8
1
  6
CONTINUOUS
 10
2440.5597499306132
 20
3679.5528166330009
 30
0.0
 40
464.0
 50
95.193364000000017
 51
185.193364
  0
LINE
  5
7A8A
  8
2
  6
CENTER
 10
4923.9014892570985
 20
3637.5528166330009
 30
0.0
 11
3995.518189257099
 21
3637.5528166330009
 31
0.0
  0
CIRCLE
  5
7A8B
  8
1
  6
CONTINUOUS
 10
2398.5597499306141
 20
3637.5528166330009
 30
0.0
 40
139.69999999999999
  0
ARC
  5
7A8C
  8
1
  6
CONTINUOUS
 10
2398.5597499306141
 20
3637.5528166330009
 30
0.0
 40
189.69999999999999
 50
58.109207999999988
 51
238.109208
  0
LINE
  5
7A8D
  8
1
  6
CONTINUOUS
 10
1983.251565930613
 20
3608.5528166330009
 30
0.0
 11
1898.5597499306141
 21
3608.5528166330009
 31
0.0
  0
ARC
  5
7A8E
  8
1
  6
CONTINUOUS
 10
2356.5597499306132
 20
3679.5528166330009
 30
0.0
 40
380.0
 50
186.34565599999999
 51
190.76855
  0
LINE
  5
7A8F
  8
2
  6
CENTER
 10
2398.5597499306141
 20
6288.0927237430296
 30
0.0
 11
2398.5597499306141
 21
5235.4703007430298
 31
0.0
  0
LINE
  5
7A90
  8
2
  6
CENTER
 10
3443.2597499306139
 20
3077.5528166330009
 30
0.0
 11
3153.8597499306138
 21
3077.5528166330009
 31
0.0
  0
LINE
  5
7A91
  8
1
  6
CONTINUOUS
 10
3488.259749930613
 20
5446.780350743029
 30
0.0
 11
2208.8597499306138
 21
5446.780350743029
 31
0.0
  0
LINE
  5
7A92
  8
1
  6
CONTINUOUS
 10
3488.259749930613
 20
5336.7803507430299
 30
0.0
 11
2208.8597499306138
 21
5336.7803507430299
 31
0.0
  0
LINE
  5
7A93
  8
1
  6
CONTINUOUS
 10
3158.8597499306138
 20
5414.780350743029
 30
0.0
 11
2538.2597499306139
 21
5414.780350743029
 31
0.0
  0
LINE
  5
7A94
  8
1
  6
CONTINUOUS
 10
3010.5597499306141
 20
5581.7803507430299
 30
0.0
 11
1898.5597499306141
 21
5581.7803507430299
 31
0.0
  0
LINE
  5
7A95
  8
1
  6
CONTINUOUS
 10
3010.5597499306141
 20
6111.7803507430299
 30
0.0
 11
1898.5597499306141
 21
6111.7803507430299
 31
0.0
  0
LINE
  5
7A96
  8
1
  6
CONTINUOUS
 10
3498.5597499306132
 20
6164.7803507430299
 30
0.0
 11
2753.5597499306141
 21
6164.7803507430299
 31
0.0
  0
LINE
  5
7A97
  8
1
  6
CONTINUOUS
 10
1938.5597499306141
 20
5581.7803507430299
 30
0.0
 11
1938.5597499306141
 21
6111.7803507430299
 31
0.0
  0
LINE
  5
7A98
  8
1
  6
CONTINUOUS
 10
1898.5597499306141
 20
5541.7803507430299
 30
0.0
 11
1898.5597499306141
 21
6151.7803507430299
 31
0.0
  0
LINE
  5
7A99
  8
1
  6
CONTINUOUS
 10
2538.2597499306139
 20
5429.7803507430299
 30
0.0
 11
2258.8597499306138
 21
5429.7803507430299
 31
0.0
  0
LINE
  5
7A9A
  8
1
  6
CONTINUOUS
 10
2538.2597499306139
 20
5344.7803507430299
 30
0.0
 11
2258.8597499306138
 21
5344.7803507430299
 31
0.0
  0
LINE
  5
7A9B
  8
1
  6
CONTINUOUS
 10
2208.8597499306138
 20
5336.7803507430299
 30
0.0
 11
2208.8597499306138
 21
5446.780350743029
 31
0.0
  0
LINE
  5
7A9C
  8
1
  6
CONTINUOUS
 10
2258.8597499306138
 20
5344.7803507430299
 30
0.0
 11
2258.8597499306138
 21
5429.7803507430299
 31
0.0
  0
LINE
  5
7A9D
  8
1
  6
CONTINUOUS
 10
2258.8597499306138
 20
5414.780350743029
 30
0.0
 11
1948.5597499306141
 21
5414.780350743029
 31
0.0
  0
LINE
  5
7A9E
  8
1
  6
CONTINUOUS
 10
1948.5597499306141
 20
5414.780350743029
 30
0.0
 11
1948.5597499306141
 21
5581.7803507430299
 31
0.0
  0
LINE
  5
7A9F
  8
1
  6
CONTINUOUS
 10
2538.2597499306139
 20
5344.7803507430299
 30
0.0
 11
2538.2597499306139
 21
5429.7803507430299
 31
0.0
  0
LINE
  5
7AA0
  8
1
  6
CONTINUOUS
 10
2376.0597499306141
 20
5429.7803507430299
 30
0.0
 11
2376.0597499306141
 21
5581.7803507430299
 31
0.0
  0
LINE
  5
7AA1
  8
1
  6
CONTINUOUS
 10
2421.0597499306141
 20
5429.7803507430299
 30
0.0
 11
2421.0597499306141
 21
5581.7803507430299
 31
0.0
  0
LINE
  5
7AA2
  8
1
  6
CONTINUOUS
 10
2793.5597499306141
 20
6194.7803507430299
 30
0.0
 11
2003.5597499306141
 21
6194.7803507430299
 31
0.0
  0
LINE
  5
7AA3
  8
1
  6
CONTINUOUS
 10
2043.5597499306141
 20
6164.7803507430299
 30
0.0
 11
1948.5597499306141
 21
6164.7803507430299
 31
0.0
  0
LINE
  5
7AA4
  8
1
  6
CONTINUOUS
 10
2043.5597499306141
 20
6111.7803507430299
 30
0.0
 11
2043.5597499306141
 21
6194.7803507430299
 31
0.0
  0
LINE
  5
7AA5
  8
1
  6
CONTINUOUS
 10
1948.5597499306141
 20
6111.7803507430299
 30
0.0
 11
1948.5597499306141
 21
6164.7803507430299
 31
0.0
  0
LINE
  5
7AA6
  8
1
  6
CONTINUOUS
 10
2753.5597499306141
 20
6111.7803507430299
 30
0.0
 11
2753.5597499306141
 21
6194.7803507430299
 31
0.0
  0
LINE
  5
7AA7
  8
1
  6
CONTINUOUS
 10
3460.5597499306132
 20
5469.7803507430299
 30
0.0
 11
3460.5597499306132
 21
6006.7803507430299
 31
0.0
  0
LINE
  5
7AA8
  8
1
  6
CONTINUOUS
 10
3136.5597499306132
 20
5469.7803507430299
 30
0.0
 11
3136.5597499306132
 21
6006.7803507430299
 31
0.0
  0
LINE
  5
7AA9
  8
1
  6
CONTINUOUS
 10
3010.5597499306141
 20
5581.7803507430299
 30
0.0
 11
3010.5597499306141
 21
6111.7803507430299
 31
0.0
  0
LINE
  5
7AAA
  8
1
  6
CONTINUOUS
 10
3498.5597499306132
 20
5414.780350743029
 30
0.0
 11
3498.5597499306132
 21
6164.7803507430299
 31
0.0
  0
LINE
  5
7AAB
  8
1
  6
CONTINUOUS
 10
3488.259749930613
 20
5336.7803507430299
 30
0.0
 11
3488.259749930613
 21
5446.780350743029
 31
0.0
  0
LINE
  5
7AAC
  8
1
  6
CONTINUOUS
 10
3438.2597499306139
 20
5344.7803507430299
 30
0.0
 11
3438.2597499306139
 21
5429.7803507430299
 31
0.0
  0
LINE
  5
7AAD
  8
1
  6
CONTINUOUS
 10
3158.8597499306138
 20
5344.7803507430299
 30
0.0
 11
3158.8597499306138
 21
5429.7803507430299
 31
0.0
  0
LINE
  5
7AAE
  8
1
  6
CONTINUOUS
 10
3438.2597499306139
 20
5344.7803507430299
 30
0.0
 11
3158.8597499306138
 21
5344.7803507430299
 31
0.0
  0
LINE
  5
7AAF
  8
1
  6
CONTINUOUS
 10
3438.2597499306139
 20
5429.7803507430299
 30
0.0
 11
3158.8597499306138
 21
5429.7803507430299
 31
0.0
  0
LINE
  5
7AB0
  8
1
  6
CONTINUOUS
 10
3460.5597499306132
 20
5469.7803507430299
 30
0.0
 11
3136.5597499306132
 21
5469.7803507430299
 31
0.0
  0
LINE
  5
7AB1
  8
1
  6
CONTINUOUS
 10
3319.5597499306132
 20
5429.7803507430299
 30
0.0
 11
3319.5597499306132
 21
5469.7803507430299
 31
0.0
  0
LINE
  5
7AB2
  8
1
  6
CONTINUOUS
 10
3277.5597499306132
 20
5429.7803507430299
 30
0.0
 11
3277.5597499306132
 21
5469.7803507430299
 31
0.0
  0
LINE
  5
7AB3
  8
1
  6
CONTINUOUS
 10
3498.5597499306132
 20
5414.780350743029
 30
0.0
 11
3438.2597499306139
 21
5414.780350743029
 31
0.0
  0
LINE
  5
7AB4
  8
1
  6
CONTINUOUS
 10
3460.5597499306132
 20
6006.7803507430299
 30
0.0
 11
3136.5597499306132
 21
6006.7803507430299
 31
0.0
  0
LINE
  5
7AB5
  8
1
  6
CONTINUOUS
 10
4863.7354032570993
 20
3608.5528166330009
 30
0.0
 11
4333.7354032570993
 21
2878.5528166330009
 31
0.0
  0
LINE
  5
7AB6
  8
1
  6
CONTINUOUS
 10
4333.7354032570993
 20
3608.5528166330009
 30
0.0
 11
4863.7354032570993
 21
2878.5528166330009
 31
0.0
  0
LINE
  5
7AB7
  8
1
  6
CONTINUOUS
 10
4096.7354032570993
 20
3217.2528166330012
 30
0.0
 11
4096.7354032570993
 21
2937.8528166330011
 31
0.0
  0
LINE
  5
7AB8
  8
1
  6
CONTINUOUS
 10
4181.7354032570993
 20
3217.2528166330012
 30
0.0
 11
4181.7354032570993
 21
2937.8528166330011
 31
0.0
  0
LINE
  5
7AB9
  8
1
  6
CONTINUOUS
 10
4863.7354032570993
 20
4143.5528166330014
 30
0.0
 11
4863.7354032570993
 21
2867.5528166330009
 31
0.0
  0
LINE
  5
7ABA
  8
1
  6
CONTINUOUS
 10
4333.7354032570993
 20
4143.5528166330014
 30
0.0
 11
4333.7354032570993
 21
2867.5528166330009
 31
0.0
  0
LINE
  5
7ABB
  8
1
  6
CONTINUOUS
 10
4221.7354032570993
 20
3239.5528166330009
 30
0.0
 11
4221.7354032570993
 21
2867.5528166330009
 31
0.0
  0
LINE
  5
7ABC
  8
1
  6
CONTINUOUS
 10
4088.7354032570988
 20
2887.8528166330011
 30
0.0
 11
4088.7354032570988
 21
3827.2528166330012
 31
0.0
  0
LINE
  5
7ABD
  8
1
  6
CONTINUOUS
 10
4198.7354032570984
 20
2887.8528166330011
 30
0.0
 11
4198.7354032570984
 21
3827.2528166330012
 31
0.0
  0
LINE
  5
7ABE
  8
1
  6
CONTINUOUS
 10
4333.7354032570993
 20
2878.5528166330009
 30
0.0
 11
4863.7354032570993
 21
2878.5528166330009
 31
0.0
  0
LINE
  5
7ABF
  8
1
  6
CONTINUOUS
 10
4166.7354032570984
 20
2867.5528166330009
 30
0.0
 11
4916.7354032570993
 21
2867.5528166330009
 31
0.0
  0
LINE
  5
7AC0
  8
1
  6
CONTINUOUS
 10
4166.7354032570984
 20
2767.5528166330009
 30
0.0
 11
4916.7354032570993
 21
2767.5528166330009
 31
0.0
  0
LINE
  5
7AC1
  8
1
  6
CONTINUOUS
 10
4166.7354032570984
 20
2867.5528166330009
 30
0.0
 11
4166.7354032570984
 21
2767.5528166330009
 31
0.0
  0
LINE
  5
7AC2
  8
1
  6
CONTINUOUS
 10
4333.7354032570993
 20
2917.5528166330009
 30
0.0
 11
4221.7354032570993
 21
2917.5528166330009
 31
0.0
  0
LINE
  5
7AC3
  8
1
  6
CONTINUOUS
 10
4096.7354032570993
 20
2937.8528166330011
 30
0.0
 11
4181.7354032570993
 21
2937.8528166330011
 31
0.0
  0
LINE
  5
7AC4
  8
1
  6
CONTINUOUS
 10
4088.7354032570988
 20
2887.8528166330011
 30
0.0
 11
4198.7354032570984
 21
2887.8528166330011
 31
0.0
  0
LINE
  5
7AC5
  8
1
  6
CONTINUOUS
 10
4916.7354032570993
 20
2867.5528166330009
 30
0.0
 11
4916.7354032570993
 21
2767.5528166330009
 31
0.0
  0
LINE
  5
7AC6
  8
1
  6
CONTINUOUS
 10
4946.7354032571002
 20
4032.5528166330018
 30
0.0
 11
4946.7354032571002
 21
3242.5528166330009
 31
0.0
  0
LINE
  5
7AC7
  8
1
  6
CONTINUOUS
 10
4333.7354032570993
 20
3608.5528166330009
 30
0.0
 11
4863.7354032570993
 21
3608.5528166330009
 31
0.0
  0
LINE
  5
7AC8
  8
1
  6
CONTINUOUS
 10
4096.7354032570993
 20
3217.2528166330012
 30
0.0
 11
4181.7354032570993
 21
3217.2528166330012
 31
0.0
  0
LINE
  5
7AC9
  8
1
  6
CONTINUOUS
 10
4181.7354032570993
 20
3615.0528166330009
 30
0.0
 11
4333.7354032570993
 21
3615.0528166330009
 31
0.0
  0
LINE
  5
7ACA
  8
1
  6
CONTINUOUS
 10
4181.7354032570993
 20
3660.0528166330009
 30
0.0
 11
4333.7354032570993
 21
3660.0528166330009
 31
0.0
  0
LINE
  5
7ACB
  8
1
  6
CONTINUOUS
 10
4181.7354032570993
 20
3777.2528166330012
 30
0.0
 11
4181.7354032570993
 21
3497.8528166330011
 31
0.0
  0
LINE
  5
7ACC
  8
1
  6
CONTINUOUS
 10
4096.7354032570993
 20
3777.2528166330012
 30
0.0
 11
4096.7354032570993
 21
3497.8528166330011
 31
0.0
  0
LINE
  5
7ACD
  8
1
  6
CONTINUOUS
 10
4096.7354032570993
 20
3777.2528166330012
 30
0.0
 11
4181.7354032570993
 21
3777.2528166330012
 31
0.0
  0
LINE
  5
7ACE
  8
1
  6
CONTINUOUS
 10
4096.7354032570993
 20
3497.8528166330011
 30
0.0
 11
4181.7354032570993
 21
3497.8528166330011
 31
0.0
  0
LINE
  5
7ACF
  8
1
  6
CONTINUOUS
 10
4181.7354032570993
 20
3098.5528166330009
 30
0.0
 11
4221.7354032570993
 21
3098.5528166330009
 31
0.0
  0
LINE
  5
7AD0
  8
1
  6
CONTINUOUS
 10
4181.7354032570993
 20
3056.5528166330009
 30
0.0
 11
4221.7354032570993
 21
3056.5528166330009
 31
0.0
  0
LINE
  5
7AD1
  8
1
  6
CONTINUOUS
 10
4221.7354032570993
 20
3239.5528166330009
 30
0.0
 11
4333.7354032570993
 21
3239.5528166330009
 31
0.0
  0
LINE
  5
7AD2
  8
1
  6
CONTINUOUS
 10
4088.7354032570988
 20
3827.2528166330012
 30
0.0
 11
4198.7354032570984
 21
3827.2528166330012
 31
0.0
  0
LINE
  5
7AD3
  8
1
  6
CONTINUOUS
 10
4863.7354032570993
 20
3282.5528166330018
 30
0.0
 11
4946.7354032571002
 21
3282.5528166330018
 31
0.0
  0
LINE
  5
7AD4
  8
1
  6
CONTINUOUS
 10
4333.7354032570993
 20
4143.5528166330014
 30
0.0
 11
4863.7354032570993
 21
4143.5528166330014
 31
0.0
  0
LINE
  5
7AD5
  8
1
  6
CONTINUOUS
 10
4863.7354032570993
 20
3992.5528166330009
 30
0.0
 11
4946.7354032571002
 21
3992.5528166330009
 31
0.0
  0
DIMENSION
  5
7AEB
  8
3
  6
CONTINUOUS
  2
*D1
 10
2398.5597499306141
 20
2483.3357036330008
 30
0.0
 11
2154.274035644899
 21
2483.3357036330008
 31
0.0
 70
   128
 13
1948.5597499306141
 23
2767.5528166330009
 33
0.0
 14
2398.5597499306141
 24
2673.0189046330001
 34
0.0
1001
ACAD
1000
DSTYLE
1002
{
1070
   287
1070
     3
1070
   287
1070
     3
1070
    40
1040
30.0
1070
   143
1040
0.039
1070
   172
1070
     1
1070
   271
1070
     0
1070
   279
1070
     0
1070
   288
1070
     1
1002
}
  0
DIMENSION
  5
7AF7
  8
3
  6
CONTINUOUS
  2
*D2
 10
3498.5597499306132
 20
2483.3357036330008
 30
0.0
 11
2948.5597499306141
 21
2558.3357036330008
 31
0.0
 70
     0
 13
2398.5597499306141
 23
2673.0189046330001
 33
0.0
 14
3498.5597499306132
 24
2767.5528166330009
 34
0.0
1001
ACAD
1000
DSTYLE
1002
{
1070
   287
1070
     3
1070
   287
1070
     3
1070
    40
1040
30.0
1070
   143
1040
0.039
1070
   172
1070
     1
1070
   271
1070
     0
1070
   279
1070
     0
1070
   288
1070
     1
1002
}
  0
DIMENSION
  5
7B04
  8
3
  6
CONTINUOUS
  2
*D3
 10
1725.0565219306129
 20
2878.5528166330009
 30
0.0
 11
1725.0565219306129
 21
3242.1902306330012
 31
0.0
 70
   128
 13
1898.5597499306141
 23
3608.5528166330009
 33
0.0
 14
1898.5597499306141
 24
2878.5528166330009
 34
0.0
 50
90.0
1001
ACAD
1000
DSTYLE
1002
{
1070
   287
1070
     3
1070
   287
1070
     3
1070
    40
1040
30.0
1070
   143
1040
0.039
1070
   172
1070
     1
1070
   271
1070
     0
1070
   279
1070
     0
1070
   288
1070
     1
1002
}
  0
DIMENSION
  5
7B11
  8
3
  6
CONTINUOUS
  2
*D4
 10
1500.963428930615
 20
3637.5528166330009
 30
0.0
 11
1500.9634289306141
 21
3262.5166926330012
 31
0.0
 70
   128
 13
1898.5597499306141
 23
2878.5528166330009
 33
0.0
 14
1978.8879339306141
 24
3637.5528166330009
 34
0.0
 50
90.0
1001
ACAD
1000
DSTYLE
1002
{
1070
   287
1070
     3
1070
   287
1070
     3
1070
    40
1040
30.0
1070
   143
1040
0.039
1070
   172
1070
     1
1070
   271
1070
     0
1070
   279
1070
     0
1070
   288
1070
     1
1002
}
  0
DIMENSION
  5
7B1E
  8
3
  6
CONTINUOUS
  2
*D5
 10
1300.9404689306141
 20
3637.5528166330009
 30
0.0
 11
1300.9404689306141
 21
3877.5528166330009
 31
0.0
 70
   128
 13
2398.5597499306141
 23
4143.5528166330014
 33
0.0
 14
1978.8879339306141
 24
3637.5528166330009
 34
0.0
 50
90.0
1001
ACAD
1000
DSTYLE
1002
{
1070
   287
1070
     3
1070
   287
1070
     3
1070
    40
1040
30.0
1070
   143
1040
0.039
1070
   172
1070
     1
1070
   271
1070
     0
1070
   279
1070
     0
1070
   288
1070
     1
1002
}
  0
DIMENSION
  5
7B2A
  8
3
  6
CONTINUOUS
  2
*D6
 10
1300.9404689306141
 20
2767.5528166330009
 30
0.0
 11
1225.940468930613
 21
3202.5528166330009
 31
0.0
 70
     0
 13
1978.8879339306141
 23
3637.5528166330009
 33
0.0
 14
1948.5597499306141
 24
2767.5528166330009
 34
0.0
 50
90.0
1001
ACAD
1000
DSTYLE
1002
{
1070
   287
1070
     3
1070
   287
1070
     3
1070
    40
1040
30.0
1070
   143
1040
0.039
1070
   172
1070
     1
1070
   271
1070
     0
1070
   279
1070
     0
1070
   288
1070
     1
1002
}
  0
DIMENSION
  5
7B37
  8
3
  6
CONTINUOUS
  2
*D7
 10
2398.5597499306141
 20
4263.2486266330015
 30
0.0
 11
2158.5597499306141
 21
4263.2486266330015
 31
0.0
 70
   128
 13
1898.5597499306141
 23
3648.5528166330009
 33
0.0
 14
2398.5597499306141
 24
4141.6480456330009
 34
0.0
1001
ACAD
1000
DSTYLE
1002
{
1070
   287
1070
     3
1070
   287
1070
     3
1070
    40
1040
30.0
1070
   143
1040
0.039
1070
   172
1070
     1
1070
   271
1070
     0
1070
   279
1070
     0
1070
   288
1070
     1
1002
}
  0
DIMENSION
  5
7B43
  8
3
  6
CONTINUOUS
  2
*D8
 10
3010.5597499306141
 20
4263.2486266330015
 30
0.0
 11
2704.5597499306141
 21
4338.2486266330015
 31
0.0
 70
     0
 13
2398.5597499306141
 23
4141.6480456330009
 33
0.0
 14
3010.5597499306141
 24
3637.5528166330009
 34
0.0
1001
ACAD
1000
DSTYLE
1002
{
1070
   287
1070
     3
1070
   287
1070
     3
1070
    40
1040
30.0
1070
   143
1040
0.039
1070
   172
1070
     1
1070
   271
1070
     0
1070
   279
1070
     0
1070
   288
1070
     1
1002
}
  0
DIMENSION
  5
7B50
  8
3
  6
CONTINUOUS
  2
*D9
 10
3498.5597499306132
 20
5063.0321597430311
 30
0.0
 11
2718.0522639306132
 21
5063.0321597430311
 31
0.0
 70
   128
 13
1948.5597499306141
 23
5414.780350743029
 33
0.0
 14
3498.5597499306132
 24
5414.780350743029
 34
0.0
1001
ACAD
1000
DSTYLE
1002
{
1070
   287
1070
     3
1070
   287
1070
     3
1070
    40
1040
30.0
1070
   143
1040
0.039
1070
   172
1070
     1
1070
   271
1070
     0
1070
   279
1070
     0
1070
   288
1070
     1
1002
}
  0
DIMENSION
  5
7B5D
  8
3
  6
CONTINUOUS
  2
*D10
 10
3830.044304930615
 20
5414.780350743029
 30
0.0
 11
3830.0443049306141
 21
5803.2447397430287
 31
0.0
 70
   128
 13
3498.5597499306132
 23
6164.7803507430299
 33
0.0
 14
3498.5597499306132
 24
5414.780350743029
 34
0.0
 50
90.0
1001
ACAD
1000
DSTYLE
1002
{
1070
   287
1070
     3
1070
   287
1070
     3
1070
    40
1040
30.0
1070
   143
1040
0.039
1070
   172
1070
     1
1070
   271
1070
     0
1070
   279
1070
     0
1070
   288
1070
     1
1002
}
  0
LINE
  5
7B5E
  8
2
  6
CENTER
 10
3180.0707549306139
 20
5846.7803507430299
 30
0.0
 11
1792.5223369306141
 21
5846.7803507430299
 31
0.0
  0
LINE
  5
7B5F
  8
2
  6
CENTER
 10
2398.5597499306141
 20
5235.4703007430298
 30
0.0
 11
2398.5597499306141
 21
5169.8362157430311
 31
0.0
  0
DIMENSION
  5
7B6F
  8
3
  6
CONTINUOUS
  2
*D11
 10
4598.7354032570993
 20
2562.9573966330008
 30
0.0
 11
4372.4496889713846
 21
2562.9573966330008
 31
0.0
 70
   128
 13
4166.7354032570984
 23
2767.5528166330009
 33
0.0
 14
4598.7354032570993
 24
2750.9802526330009
 34
0.0
1001
ACAD
1000
DSTYLE
1002
{
1070
   287
1070
     3
1070
   287
1070
     3
1070
    40
1040
30.0
1070
   143
1040
0.039
1070
   172
1070
     1
1070
   271
1070
     0
1070
   279
1070
     0
1070
   288
1070
     1
1002
}
  0
DIMENSION
  5
7B7D
  8
3
  6
CONTINUOUS
  2
*D12
 10
4916.7354032570993
 20
2562.9573966330008
 30
0.0
 11
4771.6819030955367
 21
2651.8455999140201
 31
0.0
 70
   128
 13
4598.7354032570993
 23
2750.9802526330009
 33
0.0
 14
4916.7354032570993
 24
2767.5528166330009
 34
0.0
1001
ACAD
1000
DSTYLE
1002
{
1070
   288
1070
     1
1070
   172
1070
     1
1070
    40
1040
30.0
1070
   271
1070
     0
1070
   143
1040
0.039
1002
}
  0
DIMENSION
  5
7BA0
  8
3
  6
CONTINUOUS
  2
*D13
 10
4863.7354032570993
 20
4368.9554116330009
 30
0.0
 11
4573.7354032570984
 21
4368.9554116330009
 31
0.0
 70
   128
 13
4333.7354032570993
 23
4143.5528166330014
 33
0.0
 14
4863.7354032570993
 24
4143.5528166330014
 34
0.0
1001
ACAD
1000
DSTYLE
1002
{
1070
   287
1070
     3
1070
   287
1070
     3
1070
    40
1040
30.0
1070
   143
1040
0.039
1070
   172
1070
     1
1070
   271
1070
     0
1070
   279
1070
     0
1070
   288
1070
     1
1002
}
  0
DIMENSION
  5
7BB8
  8
3
  6
CONTINUOUS
  2
*D14
 10
4598.7354032570993
 20
4578.3327776692304
 30
0.0
 11
4307.3068318285277
 21
4578.3327776692304
 31
0.0
 70
   128
  1
MAX\P590
 13
4088.7354032570988
 23
3827.2528166330012
 33
0.0
 14
4598.7354032570993
 24
4502.0512411815944
 34
0.0
1001
ACAD
1000
DSTYLE
1002
{
1070
   287
1070
     3
1070
   287
1070
     3
1070
    40
1040
30.0
1070
   143
1040
0.039
1070
   172
1070
     1
1070
   271
1070
     0
1070
   279
1070
     0
1070
   288
1070
     1
1002
}
  0
DIMENSION
  5
7BC6
  8
3
  6
CONTINUOUS
  2
*D15
 10
4946.7354032571002
 20
4578.3327776692304
 30
0.0
 11
4778.5101563998096
 21
4660.706771335841
 31
0.0
 70
   128
 13
4598.7354032570993
 23
4508.3725510829308
 33
0.0
 14
4946.7354032571002
 24
4032.5528166330018
 34
0.0
1001
ACAD
1000
DSTYLE
1002
{
1070
   288
1070
     1
1070
   172
1070
     1
1070
    40
1040
30.0
1070
   271
1070
     0
1070
   143
1040
0.039
1002
}
  0
DIMENSION
  5
7BE9
  8
3
  6
CONTINUOUS
  2
*D16
 10
5247.8636382571003
 20
3282.5528166330009
 30
0.0
 11
5247.8636382570976
 21
3657.1923786330012
 31
0.0
 70
   128
 13
4946.7354032571002
 23
3992.5528166330009
 33
0.0
 14
4946.7354032571002
 24
3282.5528166330018
 34
0.0
 50
90.0
1001
ACAD
1000
DSTYLE
1002
{
1070
   287
1070
     3
1070
   287
1070
     3
1070
     3
1000
φ<>
1070
    40
1040
30.0
1070
   143
1040
0.039
1070
   172
1070
     1
1070
   271
1070
     0
1070
   279
1070
     0
1070
   288
1070
     1
1002
}
  0
LINE
  5
7BEA
  8
2
  6
CENTER
 10
3995.518189257099
 20
3637.5528166330009
 30
0.0
 11
3978.5670812570988
 21
3637.5528166330009
 31
0.0
  0
LINE
  5
7BEB
  8
2
  6
CENTER
 10
3116.4013399306132
 20
3637.5528166330009
 30
0.0
 11
1782.619211930614
 21
3637.5528166330009
 31
0.0
  0
LINE
  5
7BEC
  8
2
  6
CENTER
 10
2398.5597499306141
 20
4263.6792756329996
 30
0.0
 11
2398.5597499306141
 21
2673.0189046330001
 31
0.0
  0
LINE
  5
7BED
  8
4
  6
CONTINUOUS
 10
5550.0
 20
1500.0
 30
0.0
 11
5550.0
 21
900.0
 31
0.0
  0
LINE
  5
7BEE
  8
4
  6
CONTINUOUS
 10
3450.0
 20
1500.0
 30
0.0
 11
3450.0
 21
900.0
 31
0.0
  0
LINE
  5
7BEF
  8
4
  6
CONTINUOUS
 10
1950.0
 20
1500.0
 30
0.0
 11
1950.0
 21
900.0
 31
0.0
  0
LINE
  5
7BF2
  8
4
  6
CONTINUOUS
 10
1950.0
 20
900.0
 30
0.0
 11
5550.0
 21
900.0
 31
0.0
  0
LINE
  5
7BF3
  8
4
  6
CONTINUOUS
 10
1950.0
 20
1200.0
 30
0.0
 11
5550.0
 21
1200.0
 31
0.0
  0
TEXT
  5
7BF4
  8
4
  6
CONTINUOUS
 10
2065.50624225
 20
1294.6290779999999
 30
0.0
 40
150.0
  1
機器名称
  0
TEXT
  5
7BF5
  8
4
  6
CONTINUOUS
 10
2058.7743179999989
 20
964.93547024999998
 30
0.0
 40
150.0
  1
機器型番
  0
TEXT
  5
7BF6
  8
4
  6
CONTINUOUS
 10
3533.0362365000001
 20
1267.715306249999
 30
0.0
 40
120.0
  1
ミツヤリミットロードファン
  0
TEXT
  5
7BF7
  8
4
  6
CONTINUOUS
 10
3559.9634872500001
 20
951.4787527499999
 30
0.0
 40
150.0
  1
LLE#4 1/2-4
  0
TEXT
  5
7BF9
  8
4
  6
CONTINUOUS
 10
2714.3572964999998
 20
7150.2865245000012
 30
0.0
 40
162.0
  1
床置ベット
  0
TEXT
  5
7BFA
  8
4
  6
CONTINUOUS
 10
948.50278049999986
 20
7601.6429287499996
 30
0.0
 40
171.42857175
  1
ベルト駆動式片吸込両持排煙ファン
  0
LINE
  5
7BFB
  8
4
  6
CONTINUOUS
 10
750.0
 20
7408.2262627500004
 30
0.0
 11
5550.0
 21
7408.2262627500004
 31
0.0
  0
LINE
  5
7BFC
  8
4
  6
CONTINUOUS
 10
750.0
 20
8008.2262627500004
 30
0.0
 11
5550.0
 21
8008.2262627500004
 31
0.0
  0
LINE
  5
7BFD
  8
4
  6
CONTINUOUS
 10
1950.0
 20
1500.0
 30
0.0
 11
5550.0
 21
1500.0
 31
0.0
  0
LINE
  5
7BFE
  8
4
  6
CONTINUOUS
 10
750.0
 20
8008.2262627500004
 30
0.0
 11
750.0
 21
7408.2262627500004
 31
0.0
  0
TEXT
  5
7BFF
  8
4
  6
CONTINUOUS
 10
1406.780799749999
 20
7146.9584324999987
 30
0.0
 40
162.0
  1
右回転左横向
  0
TEXT
  5
7C00
  8
4
  6
CONTINUOUS
 10
4406.9086777499988
 20
8118.1832445
 30
0.0
 40
168.0
  1
No.
  0
TEXT
  5
7C01
  8
4
  6
CONTINUOUS
 10
3933.8881875000002
 20
7150.2865245000012
 30
0.0
 40
162.0
  1
縮尺：1/30
  0
LINE
  5
7C02
  8
4
  6
CONTINUOUS
 10
5550.0
 20
8008.2262627500004
 30
0.0
 11
5550.0
 21
7408.2262627500004
 31
0.0
  0
LINE
  5
7C04
  8
4
  6
CONTINUOUS
 10
4321.8522667500001
 20
8043.79074975
 30
0.0
 11
4321.8522667500001
 21
8359.9567845000001
 31
0.0
  0
LINE
  5
7C05
  8
4
  6
CONTINUOUS
 10
4321.8522667500001
 20
8359.9567845000001
 30
0.0
 11
5550.0
 21
8359.9567845000001
 31
0.0
  0
LINE
  5
7C06
  8
4
  6
CONTINUOUS
 10
5550.0
 20
8359.9567845000001
 30
0.0
 11
5550.0
 21
8043.79074975
 31
0.0
  0
LINE
  5
7C07
  8
4
  6
CONTINUOUS
 10
5550.0
 20
8043.79074975
 30
0.0
 11
4321.8522667500001
 21
8043.79074975
 31
0.0
  0
LINE
  5
7C11
  8
2
  6
CENTER
 10
4598.7354032570993
 20
4384.051066633001
 30
0.0
 11
4598.7354032570993
 21
2750.9802526330009
 31
0.0
  0
DIMENSION
  5
7D6A
  8
3
  2
*D17
 10
3498.5597499306132
 20
4446.1973248812137
 30
0.0
 11
2777.8284761809259
 21
4446.1973248812137
 31
0.0
 70
   128
 13
1898.5597499306141
 23
3663.5528166330009
 33
0.0
 14
3498.5597499306132
 24
2867.5528166330009
 34
0.0
1001
ACAD
1000
DSTYLE
1002
{
1070
   287
1070
     3
1070
   287
1070
     3
1070
    40
1040
30.0
1070
   143
1040
0.039
1070
   172
1070
     1
1070
   271
1070
     0
1070
   279
1070
     0
1070
   288
1070
     1
1002
}
  0
ENDSEC
  0
EOF
