  0
SECTION
  2
HEADER
  9
$ACADVER
  1
AC1009
  9
$INSBASE
 10
0.0
 20
0.0
 30
0.0
  9
$EXTMIN
 10
750.0
 20
900.0
 30
0.0
  9
$EXTMAX
 10
5567.9944628858429
 20
8359.9567845000001
 30
0.0
  9
$LIMMIN
 10
0.0
 20
0.0
  9
$LIMMAX
 10
297.0
 20
210.0
  9
$ORTHOMODE
 70
     0
  9
$REGENMODE
 70
     1
  9
$FILLMODE
 70
     0
  9
$QTEXTMODE
 70
     0
  9
$MIRRTEXT
 70
     1
  9
$DRAGMODE
 70
     2
  9
$LTSCALE
 40
100.0
  9
$OSMODE
 70
    37
  9
$ATTMODE
 70
     1
  9
$TEXTSIZE
 40
180.0
  9
$TRACEWID
 40
0.05
  9
$TEXTSTYLE
  7
STANDARD
  9
$CLAYER
  8
3
  9
$CELTYPE
  6
BYLAYER
  9
$CECOLOR
 62
   256
  9
$DIMSCALE
 40
30.0
  9
$DIMASZ
 40
2.0
  9
$DIMEXO
 40
0.5
  9
$DIMDLI
 40
10.0
  9
$DIMRND
 40
0.0
  9
$DIMDLE
 40
0.0
  9
$DIMEXE
 40
1.0
  9
$DIMTP
 40
1.0
  9
$DIMTM
 40
1.0
  9
$DIMTXT
 40
3.0
  9
$DIMCEN
 40
0.0
  9
$DIMTSZ
 40
0.0
  9
$DIMTOL
 70
     0
  9
$DIMLIM
 70
     0
  9
$DIMTIH
 70
     0
  9
$DIMTOH
 70
     0
  9
$DIMSE1
 70
     0
  9
$DIMSE2
 70
     0
  9
$DIMTAD
 70
     1
  9
$DIMZIN
 70
     8
  9
$DIMBLK
  1

  9
$DIMASO
 70
     1
  9
$DIMSHO
 70
     1
  9
$DIMPOST
  1

  9
$DIMAPOST
  1

  9
$DIMALT
 70
     0
  9
$DIMALTD
 70
     2
  9
$DIMALTF
 40
0.039
  9
$DIMLFAC
 40
1.0
  9
$DIMTOFL
 70
     1
  9
$DIMTVP
 40
0.0
  9
$DIMTIX
 70
     0
  9
$DIMSOXD
 70
     0
  9
$DIMSAH
 70
     1
  9
$DIMBLK1
  1
OPEN
  9
$DIMBLK2
  1
OPEN
  9
$DIMSTYLE
  2
IGA
  9
$DIMCLRD
 70
     0
  9
$DIMCLRE
 70
     0
  9
$DIMCLRT
 70
     0
  9
$DIMTFAC
 40
10.0
  9
$DIMGAP
 40
1.0
  9
$LUNITS
 70
     2
  9
$LUPREC
 70
     3
  9
$SKETCHINC
 40
0.1
  9
$FILLETRAD
 40
50.0
  9
$AUNITS
 70
     0
  9
$AUPREC
 70
     0
  9
$MENU
  1
acad
  9
$ELEVATION
 40
0.0
  9
$PELEVATION
 40
0.0
  9
$THICKNESS
 40
0.0
  9
$LIMCHECK
 70
     0
  9
$BLIPMODE
 70
     0
  9
$CHAMFERA
 40
0.5
  9
$CHAMFERB
 40
0.5
  9
$SKPOLY
 70
     0
  9
$TDCREATE
 40
2450753.6550099538
  9
$TDUPDATE
 40
2454953.6840120368
  9
$TDINDWG
 40
0.0043458449
  9
$TDUSRTIMER
 40
0.0043458449
  9
$USRTIMER
 70
     1
  9
$ANGBASE
 50
0.0
  9
$ANGDIR
 70
     0
  9
$PDMODE
 70
     0
  9
$PDSIZE
 40
0.0
  9
$PLINEWID
 40
0.0
  9
$COORDS
 70
     1
  9
$SPLFRAME
 70
     0
  9
$SPLINETYPE
 70
     6
  9
$SPLINESEGS
 70
     8
  9
$ATTDIA
 70
     0
  9
$ATTREQ
 70
     1
  9
$HANDLING
 70
 10241
  9
$HANDSEED
  5
80BC
  9
$SURFTAB1
 70
     6
  9
$SURFTAB2
 70
     6
  9
$SURFTYPE
 70
     6
  9
$SURFU
 70
     6
  9
$SURFV
 70
     6
  9
$UCSNAME
  2

  9
$UCSORG
 10
0.0
 20
0.0
 30
0.0
  9
$UCSXDIR
 10
1.0
 20
0.0
 30
0.0
  9
$UCSYDIR
 10
0.0
 20
1.0
 30
0.0
  9
$PUCSNAME
  2

  9
$PUCSORG
 10
0.0
 20
0.0
 30
0.0
  9
$PUCSXDIR
 10
1.0
 20
0.0
 30
0.0
  9
$PUCSYDIR
 10
0.0
 20
1.0
 30
0.0
  9
$USERI1
 70
     0
  9
$USERI2
 70
     0
  9
$USERI3
 70
     0
  9
$USERI4
 70
     0
  9
$USERI5
 70
     0
  9
$USERR1
 40
0.0
  9
$USERR2
 40
0.0
  9
$USERR3
 40
0.0
  9
$USERR4
 40
0.0
  9
$USERR5
 40
0.0
  9
$WORLDVIEW
 70
     1
  9
$SHADEDGE
 70
     3
  9
$SHADEDIF
 70
    70
  9
$TILEMODE
 70
     1
  9
$MAXACTVP
 70
    16
  9
$PLIMCHECK
 70
     0
  9
$PEXTMIN
 10
1.0000000000000000E+020
 20
1.0000000000000000E+020
 30
1.0000000000000000E+020
  9
$PEXTMAX
 10
-1.0000000000000000E+020
 20
-1.0000000000000000E+020
 30
-1.0000000000000000E+020
  9
$PLIMMIN
 10
0.0
 20
0.0
  9
$PLIMMAX
 10
12.0
 20
9.0
  9
$UNITMODE
 70
     0
  9
$VISRETAIN
 70
     0
  9
$PLINEGEN
 70
     0
  9
$PSLTSCALE
 70
     1
  0
ENDSEC
  0
SECTION
  2
TABLES
  0
TABLE
  2
VPORT
 70
     2
  0
VPORT
  2
*ACTIVE
 70
     0
 10
0.0
 20
0.0
 11
1.0
 21
1.0
 12
11529.87528155377
 22
3670.0593137386859
 13
0.0
 23
0.0
 14
10.0
 24
10.0
 15
10.0
 25
10.0
 16
0.0
 26
0.0
 36
1.0
 17
0.0
 27
0.0
 37
0.0
 40
8538.3516085710144
 41
3.1666666666666661
 42
50.0
 43
0.0
 44
0.0
 50
0.0
 51
0.0
 71
     0
 72
   100
 73
     1
 74
     0
 75
     0
 76
     0
 77
     0
 78
     0
  0
ENDTAB
  0
TABLE
  2
LTYPE
 70
     2
  0
LTYPE
  2
CONTINUOUS
 70
     0
  3
Solid line
 72
    65
 73
     0
 40
0.0
  0
LTYPE
  2
CENTER
 70
     0
  3
____ _ ____ _ ____ _ ____ _ ____ _ ____ _ ____ 
 72
    65
 73
     4
 40
2.0
 49
1.25
 49
-0.25
 49
0.25
 49
-0.25
  0
ENDTAB
  0
TABLE
  2
LAYER
 70
     6
  0
LAYER
  2
0
 70
     0
 62
     7
  6
CONTINUOUS
  0
LAYER
  2
3
 70
     0
 62
     2
  6
CONTINUOUS
  0
LAYER
  2
2
 70
     0
 62
     3
  6
CENTER
  0
LAYER
  2
1
 70
     0
 62
     4
  6
CONTINUOUS
  0
LAYER
  2
4
 70
     0
 62
     7
  6
CONTINUOUS
  0
LAYER
  2
DEFPOINTS
 70
     0
 62
     7
  6
CONTINUOUS
  0
ENDTAB
  0
TABLE
  2
STYLE
 70
     1
  0
STYLE
  2
STANDARD
 70
     0
 40
0.0
 41
1.0
 50
0.0
 71
     0
 42
180.0
  3
simplex.shx
  4
extfont.shx
  0
ENDTAB
  0
TABLE
  2
VIEW
 70
     0
  0
ENDTAB
  0
TABLE
  2
UCS
 70
     0
  0
ENDTAB
  0
TABLE
  2
APPID
 70
     1
  0
APPID
  2
ACAD
 70
     0
  0
ENDTAB
  0
TABLE
  2
DIMSTYLE
 70
     1
  0
DIMSTYLE
  2
IGA
 70
     0
  3

  4

  5

  6
OPEN
  7
OPEN
 40
2.0
 41
2.0
 42
0.5
 43
10.0
 44
1.0
 45
0.0
 46
0.0
 47
1.0
 48
1.0
140
3.0
141
0.0
142
0.0
143
0.03937
144
1.0
145
0.0
146
10.0
147
1.0
 71
     0
 72
     0
 73
     0
 74
     0
 75
     0
 76
     0
 77
     1
 78
     8
170
     0
171
     2
172
     0
173
     1
174
     0
175
     0
176
     0
177
     0
178
     0
  0
ENDTAB
  0
ENDSEC
  0
SECTION
  2
BLOCKS
  0
BLOCK
  8
0
  2
$MODEL_SPACE
 70
     0
 10
0.0
 20
0.0
 30
0.0
  3
$MODEL_SPACE
  1

  0
ENDBLK
  5
1B
  8
0
  0
BLOCK
 67
     1
  8
0
  2
$PAPER_SPACE
 70
     0
 10
0.0
 20
0.0
 30
0.0
  3
$PAPER_SPACE
  1

  0
ENDBLK
  5
18
 67
     1
  8
0
  0
BLOCK
  8
0
  2
_OPEN
 70
     0
 10
0.0
 20
0.0
 30
0.0
  3
_OPEN
  1

  0
LINE
  5
7AD6
  8
0
  6
BYBLOCK
 62
     0
 10
-1.0
 20
0.166667
 30
0.0
 11
0.0
 21
0.0
 31
0.0
  0
LINE
  5
7AD7
  8
0
  6
BYBLOCK
 62
     0
 10
0.0
 20
0.0
 30
0.0
 11
-1.0
 21
-0.166667
 31
0.0
  0
LINE
  5
7AD8
  8
0
  6
BYBLOCK
 62
     0
 10
0.0
 20
0.0
 30
0.0
 11
-1.0
 21
0.0
 31
0.0
  0
ENDBLK
  5
7AD9
  8
0
  0
BLOCK
  8
0
  2
*D1
 70
     1
 10
0.0
 20
0.0
 30
0.0
  3
*D1
  1

  0
LINE
  5
8025
  8
3
  6
CONTINUOUS
 62
     0
 10
1675.242734001627
 20
3835.9216014735621
 30
0.0
 11
1675.242734001627
 21
3964.14384047356
 31
0.0
  0
LINE
  5
8026
  8
3
  6
CONTINUOUS
 62
     0
 10
2405.242734001627
 20
3835.9216014735621
 30
0.0
 11
2405.242734001627
 21
3964.14384047356
 31
0.0
  0
LINE
  5
8027
  8
3
  6
CONTINUOUS
 62
     0
 10
1735.242734001627
 20
3934.1438404735609
 30
0.0
 11
2345.242734001627
 21
3934.1438404735609
 31
0.0
  0
INSERT
  5
8028
  8
3
  6
CONTINUOUS
 62
     0
  2
_OPEN
 10
1675.242734001627
 20
3934.1438404735609
 30
0.0
 41
60.0
 42
60.0
 43
60.0
 50
180.0
  0
INSERT
  5
8029
  8
3
  6
CONTINUOUS
 62
     0
  2
_OPEN
 10
2405.242734001627
 20
3934.1438404735609
 30
0.0
 41
60.0
 42
60.0
 43
60.0
  0
TEXT
  8
3
  40
90
  5
80AC
  62
0
  72
0
  71
0
 10
1872.25
 20
3849.84
 30
0.000000
  1
730
  0
POINT
  5
802B
  8
DEFPOINTS
  6
CONTINUOUS
 62
     0
 10
1675.242734001627
 20
3820.9216014735621
 30
0.0
  0
POINT
  5
802C
  8
DEFPOINTS
  6
CONTINUOUS
 62
     0
 10
2405.242734001627
 20
3820.9216014735621
 30
0.0
  0
POINT
  5
802D
  8
DEFPOINTS
  6
CONTINUOUS
 62
     0
 10
2405.242734001627
 20
3934.1438404735609
 30
0.0
  0
ENDBLK
  5
7ED2
  8
0
  0
BLOCK
  8
0
  2
*D2
 70
     1
 10
0.0
 20
0.0
 30
0.0
  3
*D2
  1

  0
LINE
  5
802E
  8
3
  6
CONTINUOUS
 62
     0
 10
1675.242734001627
 20
3835.9216014735621
 30
0.0
 11
1675.242734001627
 21
4178.5929054735607
 31
0.0
  0
LINE
  5
802F
  8
3
  6
CONTINUOUS
 62
     0
 10
2434.242734001627
 20
3958.4515124735622
 30
0.0
 11
2434.242734001627
 21
4178.5929054735607
 31
0.0
  0
LINE
  5
8030
  8
3
  6
CONTINUOUS
 62
     0
 10
1735.242734001627
 20
4148.5929054735607
 30
0.0
 11
2374.242734001627
 21
4148.5929054735607
 31
0.0
  0
INSERT
  5
8031
  8
3
  6
CONTINUOUS
 62
     0
  2
_OPEN
 10
1675.242734001627
 20
4148.5929054735607
 30
0.0
 41
60.0
 42
60.0
 43
60.0
 50
180.0
  0
INSERT
  5
8032
  8
3
  6
CONTINUOUS
 62
     0
  2
_OPEN
 10
2434.242734001627
 20
4148.5929054735607
 30
0.0
 41
60.0
 42
60.0
 43
60.0
  0
TEXT
  8
3
  40
90
  5
80AD
  62
0
  72
0
  71
0
 10
1878.21
 20
4064.29
 30
0.000000
  1
759
  0
POINT
  5
8034
  8
DEFPOINTS
  6
CONTINUOUS
 62
     0
 10
1675.242734001627
 20
3820.9216014735621
 30
0.0
  0
POINT
  5
8035
  8
DEFPOINTS
  6
CONTINUOUS
 62
     0
 10
2434.242734001627
 20
3943.4515124735608
 30
0.0
  0
POINT
  5
8036
  8
DEFPOINTS
  6
CONTINUOUS
 62
     0
 10
2434.242734001627
 20
4148.5929054735607
 30
0.0
  0
ENDBLK
  5
7EC7
  8
0
  0
BLOCK
  8
0
  2
*D3
 70
     1
 10
0.0
 20
0.0
 30
0.0
  3
*D3
  1

  0
LINE
  5
8037
  8
3
  6
CONTINUOUS
 62
     0
 10
2434.242734001627
 20
3958.4515124735622
 30
0.0
 11
2434.242734001627
 21
4179.523668473561
 31
0.0
  0
LINE
  5
8038
  8
3
  6
CONTINUOUS
 62
     0
 10
2940.242734001627
 20
3282.9216014735621
 30
0.0
 11
2940.242734001627
 21
4179.523668473561
 31
0.0
  0
LINE
  5
8039
  8
3
  6
CONTINUOUS
 62
     0
 10
2494.242734001627
 20
4149.523668473561
 30
0.0
 11
2880.242734001627
 21
4149.523668473561
 31
0.0
  0
INSERT
  5
803A
  8
3
  6
CONTINUOUS
 62
     0
  2
_OPEN
 10
2434.242734001627
 20
4149.523668473561
 30
0.0
 41
60.0
 42
60.0
 43
60.0
 50
180.0
  0
INSERT
  5
803B
  8
3
  6
CONTINUOUS
 62
     0
  2
_OPEN
 10
2940.242734001627
 20
4149.523668473561
 30
0.0
 41
60.0
 42
60.0
 43
60.0
  0
TEXT
  8
3
  40
90
  5
80AE
  62
0
  72
0
  71
0
 10
2556.67
 20
4065.22
 30
0.000000
  1
506
  0
POINT
  5
803D
  8
DEFPOINTS
  6
CONTINUOUS
 62
     0
 10
2434.242734001627
 20
3943.4515124735608
 30
0.0
  0
POINT
  5
803E
  8
DEFPOINTS
  6
CONTINUOUS
 62
     0
 10
2940.242734001627
 20
3267.9216014735621
 30
0.0
  0
POINT
  5
803F
  8
DEFPOINTS
  6
CONTINUOUS
 62
     0
 10
2940.242734001627
 20
4149.523668473561
 30
0.0
  0
ENDBLK
  5
7EBC
  8
0
  0
BLOCK
  8
0
  2
*D4
 70
     1
 10
0.0
 20
0.0
 30
0.0
  3
*D4
  1

  0
LINE
  5
8040
  8
3
  6
CONTINUOUS
 62
     0
 10
2460.242734001627
 20
3820.9216014735621
 30
0.0
 11
3316.0760060016269
 21
3820.9216014735612
 31
0.0
  0
LINE
  5
8041
  8
3
  6
CONTINUOUS
 62
     0
 10
3097.1152400016272
 20
3320.9216014735621
 30
0.0
 11
3316.0760060016269
 21
3320.9216014735621
 31
0.0
  0
LINE
  5
8042
  8
3
  6
CONTINUOUS
 62
     0
 10
3286.0760060016269
 20
3760.9216014735612
 30
0.0
 11
3286.0760060016269
 21
3380.9216014735612
 31
0.0
  0
INSERT
  5
8043
  8
3
  6
CONTINUOUS
 62
     0
  2
_OPEN
 10
3286.0760060016269
 20
3820.9216014735612
 30
0.0
 41
60.0
 42
60.0
 43
60.0
 50
90.0
  0
INSERT
  5
8044
  8
3
  6
CONTINUOUS
 62
     0
  2
_OPEN
 10
3286.0760060016269
 20
3320.9216014735621
 30
0.0
 41
60.0
 42
60.0
 43
60.0
 50
270.0
  0
TEXT
  8
3
  40
90
  5
80AF
  62
0
  72
0
  71
0
 10
3031.08
 20
3411.62
 30
0.000000
  1
500
  0
POINT
  5
8046
  8
DEFPOINTS
  6
CONTINUOUS
 62
     0
 10
2445.242734001627
 20
3820.9216014735621
 30
0.0
  0
POINT
  5
8047
  8
DEFPOINTS
  6
CONTINUOUS
 62
     0
 10
3082.1152400016272
 20
3320.9216014735621
 30
0.0
  0
POINT
  5
8048
  8
DEFPOINTS
  6
CONTINUOUS
 62
     0
 10
3286.0760060016269
 20
3320.9216014735621
 30
0.0
  0
ENDBLK
  5
7EB1
  8
0
  0
BLOCK
  8
0
  2
*D5
 70
     1
 10
0.0
 20
0.0
 30
0.0
  3
*D5
  1

  0
LINE
  5
8049
  8
3
  6
CONTINUOUS
 62
     0
 10
3097.1152400016272
 20
3320.9216014735621
 30
0.0
 11
3316.0760060016269
 21
3320.9216014735621
 31
0.0
  0
LINE
  5
804A
  8
3
  6
CONTINUOUS
 62
     0
 10
2899.242734001627
 20
2680.9216014735621
 30
0.0
 11
3316.076006001626
 21
2680.9216014735621
 31
0.0
  0
LINE
  5
804B
  8
3
  6
CONTINUOUS
 62
     0
 10
3286.0760060016269
 20
3260.9216014735621
 30
0.0
 11
3286.076006001626
 21
2740.9216014735612
 31
0.0
  0
INSERT
  5
804C
  8
3
  6
CONTINUOUS
 62
     0
  2
_OPEN
 10
3286.0760060016269
 20
3320.9216014735621
 30
0.0
 41
60.0
 42
60.0
 43
60.0
 50
90.0
  0
INSERT
  5
804D
  8
3
  6
CONTINUOUS
 62
     0
  2
_OPEN
 10
3286.076006001626
 20
2680.9216014735621
 30
0.0
 41
60.0
 42
60.0
 43
60.0
 50
270.0
  0
TEXT
  8
3
  40
90
  5
80B0
  62
0
  72
0
  71
0
 10
3031.08
 20
2841.62
 30
0.000000
  1
640
  0
POINT
  5
804F
  8
DEFPOINTS
  6
CONTINUOUS
 62
     0
 10
3082.1152400016272
 20
3320.9216014735621
 30
0.0
  0
POINT
  5
8050
  8
DEFPOINTS
  6
CONTINUOUS
 62
     0
 10
2884.242734001627
 20
2680.9216014735621
 30
0.0
  0
POINT
  5
8051
  8
DEFPOINTS
  6
CONTINUOUS
 62
     0
 10
3286.076006001626
 20
2680.9216014735621
 30
0.0
  0
ENDBLK
  5
7EA6
  8
0
  0
BLOCK
  8
0
  2
*D6
 70
     1
 10
0.0
 20
0.0
 30
0.0
  3
*D6
  1

  0
LINE
  5
8052
  8
3
  6
CONTINUOUS
 62
     0
 10
2884.242734001627
 20
2665.9216014735621
 30
0.0
 11
2884.242734001627
 21
2385.1295974735608
 31
0.0
  0
LINE
  5
8053
  8
3
  6
CONTINUOUS
 62
     0
 10
2434.242734001627
 20
2529.2297534735608
 30
0.0
 11
2434.242734001627
 21
2385.1295974735608
 31
0.0
  0
LINE
  5
8054
  8
3
  6
CONTINUOUS
 62
     0
 10
2824.242734001627
 20
2415.1295974735608
 30
0.0
 11
2494.242734001627
 21
2415.1295974735608
 31
0.0
  0
INSERT
  5
8055
  8
3
  6
CONTINUOUS
 62
     0
  2
_OPEN
 10
2884.242734001627
 20
2415.1295974735608
 30
0.0
 41
60.0
 42
60.0
 43
60.0
  0
INSERT
  5
8056
  8
3
  6
CONTINUOUS
 62
     0
  2
_OPEN
 10
2434.242734001627
 20
2415.1295974735608
 30
0.0
 41
60.0
 42
60.0
 43
60.0
 50
180.0
  0
TEXT
  8
3
  40
90
  5
80B1
  62
0
  72
0
  71
0
 10
2498.53
 20
2330.83
 30
0.000000
  1
450
  0
POINT
  5
8058
  8
DEFPOINTS
  6
CONTINUOUS
 62
     0
 10
2884.242734001627
 20
2680.9216014735621
 30
0.0
  0
POINT
  5
8059
  8
DEFPOINTS
  6
CONTINUOUS
 62
     0
 10
2434.242734001627
 20
2544.2297534735608
 30
0.0
  0
POINT
  5
805A
  8
DEFPOINTS
  6
CONTINUOUS
 62
     0
 10
2434.242734001627
 20
2415.1295974735608
 30
0.0
  0
ENDBLK
  5
7E9B
  8
0
  0
BLOCK
  8
0
  2
*D7
 70
     1
 10
0.0
 20
0.0
 30
0.0
  3
*D7
  1

  0
LINE
  5
805B
  8
3
  6
CONTINUOUS
 62
     0
 10
2434.242734001627
 20
2529.2297534735608
 30
0.0
 11
2434.242734001627
 21
2385.1295974735608
 31
0.0
  0
LINE
  5
805C
  8
3
  6
CONTINUOUS
 62
     0
 10
1334.242734001627
 20
2665.9216014735621
 30
0.0
 11
1334.242734001627
 21
2385.1295974735608
 31
0.0
  0
LINE
  5
805D
  8
3
  6
CONTINUOUS
 62
     0
 10
2374.242734001627
 20
2415.1295974735608
 30
0.0
 11
1394.242734001627
 21
2415.1295974735608
 31
0.0
  0
INSERT
  5
805E
  8
3
  6
CONTINUOUS
 62
     0
  2
_OPEN
 10
2434.242734001627
 20
2415.1295974735608
 30
0.0
 41
60.0
 42
60.0
 43
60.0
  0
INSERT
  5
805F
  8
3
  6
CONTINUOUS
 62
     0
  2
_OPEN
 10
1334.242734001627
 20
2415.1295974735608
 30
0.0
 41
60.0
 42
60.0
 43
60.0
 50
180.0
  0
TEXT
  8
3
  40
90
  5
80B2
  62
0
  72
0
  71
0
 10
1704.24
 20
2330.83
 30
0.000000
  1
1100
  0
POINT
  5
8061
  8
DEFPOINTS
  6
CONTINUOUS
 62
     0
 10
2434.242734001627
 20
2544.2297534735608
 30
0.0
  0
POINT
  5
8062
  8
DEFPOINTS
  6
CONTINUOUS
 62
     0
 10
1334.242734001627
 20
2680.9216014735621
 30
0.0
  0
POINT
  5
8063
  8
DEFPOINTS
  6
CONTINUOUS
 62
     0
 10
1334.242734001627
 20
2415.1295974735608
 30
0.0
  0
ENDBLK
  5
7E90
  8
0
  0
BLOCK
  8
0
  2
*D8
 70
     1
 10
0.0
 20
0.0
 30
0.0
  3
*D8
  1

  0
LINE
  5
8064
  8
3
  6
CONTINUOUS
 62
     0
 10
2480.242734001627
 20
3820.9216014735621
 30
0.0
 11
3504.4959495208641
 21
3820.9216014735612
 31
0.0
  0
LINE
  5
8065
  8
3
  6
CONTINUOUS
 62
     0
 10
2899.242734001627
 20
2680.9216014735621
 30
0.0
 11
3504.4959495208641
 21
2680.9216014735621
 31
0.0
  0
LINE
  5
8066
  8
3
  6
CONTINUOUS
 62
     0
 10
3474.4959495208641
 20
3760.9216014735612
 30
0.0
 11
3474.4959495208641
 21
2740.9216014735612
 31
0.0
  0
INSERT
  5
8067
  8
3
  6
CONTINUOUS
 62
     0
  2
_OPEN
 10
3474.4959495208641
 20
3820.9216014735612
 30
0.0
 41
60.0
 42
60.0
 43
60.0
 50
90.0
  0
INSERT
  5
8068
  8
3
  6
CONTINUOUS
 62
     0
  2
_OPEN
 10
3474.4959495208641
 20
2680.9216014735621
 30
0.0
 41
60.0
 42
60.0
 43
60.0
 50
270.0
  0
TEXT
  8
3
  40
90
  5
80B3
  62
0
  72
0
  71
0
 10
3219.50
 20
3042.42
 30
0.000000
  1
1140
  0
POINT
  5
806A
  8
DEFPOINTS
  6
CONTINUOUS
 62
     0
 10
2465.242734001627
 20
3820.9216014735621
 30
0.0
  0
POINT
  5
806B
  8
DEFPOINTS
  6
CONTINUOUS
 62
     0
 10
2884.242734001627
 20
2680.9216014735621
 30
0.0
  0
POINT
  5
806C
  8
DEFPOINTS
  6
CONTINUOUS
 62
     0
 10
3474.4959495208641
 20
2680.9216014735621
 30
0.0
  0
ENDBLK
  5
7F21
  8
0
  0
BLOCK
  8
0
  2
*D9
 70
     1
 10
0.0
 20
0.0
 30
0.0
  3
*D9
  1

  0
LINE
  5
806D
  8
3
  6
CONTINUOUS
 62
     0
 10
4687.4984338858421
 20
3835.9216014735621
 30
0.0
 11
4687.4984338858421
 21
3999.885355473562
 31
0.0
  0
LINE
  5
806E
  8
3
  6
CONTINUOUS
 62
     0
 10
5217.4984338858421
 20
3835.9216014735621
 30
0.0
 11
5217.4984338858421
 21
3999.885355473562
 31
0.0
  0
LINE
  5
806F
  8
3
  6
CONTINUOUS
 62
     0
 10
4747.4984338858421
 20
3969.885355473561
 30
0.0
 11
5157.4984338858421
 21
3969.885355473561
 31
0.0
  0
INSERT
  5
8070
  8
3
  6
CONTINUOUS
 62
     0
  2
_OPEN
 10
4687.4984338858421
 20
3969.885355473561
 30
0.0
 41
60.0
 42
60.0
 43
60.0
 50
180.0
  0
INSERT
  5
8071
  8
3
  6
CONTINUOUS
 62
     0
  2
_OPEN
 10
5217.4984338858421
 20
3969.885355473561
 30
0.0
 41
60.0
 42
60.0
 43
60.0
  0
TEXT
  8
3
  40
90
  5
80B4
  62
0
  72
0
  71
0
 10
4772.50
 20
3885.59
 30
0.000000
  1
530
  0
POINT
  5
8073
  8
DEFPOINTS
  6
CONTINUOUS
 62
     0
 10
4687.4984338858421
 20
3820.9216014735621
 30
0.0
  0
POINT
  5
8074
  8
DEFPOINTS
  6
CONTINUOUS
 62
     0
 10
5217.4984338858421
 20
3820.9216014735621
 30
0.0
  0
POINT
  5
8075
  8
DEFPOINTS
  6
CONTINUOUS
 62
     0
 10
5217.4984338858421
 20
3969.885355473561
 30
0.0
  0
ENDBLK
  5
7E7A
  8
0
  0
BLOCK
  8
0
  2
*D10
 70
     1
 10
0.0
 20
0.0
 30
0.0
  3
*D10
  1

  0
LINE
  5
8076
  8
3
  6
CONTINUOUS
 62
     0
 10
5315.4984338858421
 20
3675.9216014735621
 30
0.0
 11
5567.9944628858429
 21
3675.9216014735621
 31
0.0
  0
LINE
  5
8077
  8
3
  6
CONTINUOUS
 62
     0
 10
5315.4984338858421
 20
2965.9216014735621
 30
0.0
 11
5567.9944628858429
 21
2965.9216014735621
 31
0.0
  0
LINE
  5
8078
  8
3
  6
CONTINUOUS
 62
     0
 10
5537.9944628858429
 20
3615.9216014735621
 30
0.0
 11
5537.9944628858429
 21
3025.9216014735621
 31
0.0
  0
INSERT
  5
8079
  8
3
  6
CONTINUOUS
 62
     0
  2
_OPEN
 10
5537.9944628858429
 20
3675.9216014735621
 30
0.0
 41
60.0
 42
60.0
 43
60.0
 50
90.0
  0
INSERT
  5
807A
  8
3
  6
CONTINUOUS
 62
     0
  2
_OPEN
 10
5537.9944628858429
 20
2965.9216014735621
 30
0.0
 41
60.0
 42
60.0
 43
60.0
 50
270.0
  0
TEXT
  8
3
  40
90
  5
80B5
  62
0
  72
0
  71
0
 10
5282.99
 20
3155.32
 30
0.000000
  1
φ710
  0
POINT
  5
807C
  8
DEFPOINTS
  6
CONTINUOUS
 62
     0
 10
5300.4984338858421
 20
3675.9216014735621
 30
0.0
  0
POINT
  5
807D
  8
DEFPOINTS
  6
CONTINUOUS
 62
     0
 10
5300.4984338858421
 20
2965.9216014735621
 30
0.0
  0
POINT
  5
807E
  8
DEFPOINTS
  6
CONTINUOUS
 62
     0
 10
5537.9944628858429
 20
2965.9216014735621
 30
0.0
  0
ENDBLK
  5
7F09
  8
0
  0
BLOCK
  8
0
  2
*D11
 70
     1
 10
0.0
 20
0.0
 30
0.0
  3
*D11
  1

  0
LINE
  5
7F39
  8
0
  6
BYBLOCK
 62
     0
 10
5300.4984338858421
 20
3690.9216014735612
 30
0.0
 11
5300.4984338858421
 21
4216.9723219901571
 31
0.0
  0
LINE
  5
7F3A
  8
0
  6
BYBLOCK
 62
     0
 10
4952.498433885843
 20
4124.16337162542
 30
0.0
 11
4952.498433885843
 21
4216.9723219901571
 31
0.0
  0
LINE
  5
7F3B
  8
0
  6
BYBLOCK
 62
     0
 10
5240.4984338858421
 20
4186.9723219901571
 30
0.0
 11
5012.4984338858421
 21
4186.9723219901571
 31
0.0
  0
TEXT
  5
7F3C
  8
3
 62
     0
 10
5027.594382007218
 20
4216.1171443343483
 30
0.0
 40
90.0
  1
348
  0
INSERT
  5
7F3D
  8
0
  6
BYBLOCK
 62
     0
  2
_OPEN
 10
5300.4984338858421
 20
4186.9723219901571
 30
0.0
 41
60.0
 42
60.0
 43
60.0
  0
INSERT
  5
7F3E
  8
0
  6
BYBLOCK
 62
     0
  2
_OPEN
 10
4952.498433885843
 20
4186.9723219901571
 30
0.0
 41
60.0
 42
60.0
 43
60.0
 50
180.0
  0
POINT
  5
7F3F
  8
DEFPOINTS
  6
BYBLOCK
 62
     0
 10
5300.4984338858421
 20
3675.9216014735621
 30
0.0
  0
POINT
  5
7F40
  8
DEFPOINTS
  6
BYBLOCK
 62
     0
 10
4952.498433885843
 20
4109.1633716254191
 30
0.0
  0
POINT
  5
7F41
  8
DEFPOINTS
  6
BYBLOCK
 62
     0
 10
4952.498433885843
 20
4186.9723219901571
 30
0.0
  0
ENDBLK
  5
7F42
  8
0
  0
BLOCK
  8
0
  2
*D12
 70
     1
 10
0.0
 20
0.0
 30
0.0
  3
*D12
  1

  0
LINE
  5
807F
  8
3
  6
CONTINUOUS
 62
     0
 10
4952.498433885843
 20
4124.16337162542
 30
0.0
 11
4952.498433885843
 21
4216.7784206254209
 31
0.0
  0
LINE
  5
8080
  8
3
  6
CONTINUOUS
 62
     0
 10
4442.4984338858421
 20
3430.621601473561
 30
0.0
 11
4442.4984338858421
 21
4216.7784206254209
 31
0.0
  0
LINE
  5
8081
  8
3
  6
CONTINUOUS
 62
     0
 10
4892.4984338858421
 20
4186.7784206254209
 30
0.0
 11
4502.4984338858421
 21
4186.7784206254209
 31
0.0
  0
INSERT
  5
8082
  8
3
  6
CONTINUOUS
 62
     0
  2
_OPEN
 10
4952.498433885843
 20
4186.7784206254209
 30
0.0
 41
60.0
 42
60.0
 43
60.0
  0
INSERT
  5
8083
  8
3
  6
CONTINUOUS
 62
     0
  2
_OPEN
 10
4442.4984338858421
 20
4186.7784206254209
 30
0.0
 41
60.0
 42
60.0
 43
60.0
 50
180.0
  0
TEXT
  8
3
  40
90
  5
80B6
  62
0
  72
0
  71
0
 10
4519.05
 20
4177.48
 30
0.000000
  1
MAX
  0
TEXT
  8
3
  40
90
  5
80B7
  62
0
  72
0
  71
0
 10
4519.05
 20
4060.48
 30
0.000000
  1
590
  0
POINT
  5
8085
  8
DEFPOINTS
  6
CONTINUOUS
 62
     0
 10
4952.498433885843
 20
4109.1633716254191
 30
0.0
  0
POINT
  5
8086
  8
DEFPOINTS
  6
CONTINUOUS
 62
     0
 10
4442.4984338858421
 20
3415.6216014735619
 30
0.0
  0
POINT
  5
8087
  8
DEFPOINTS
  6
CONTINUOUS
 62
     0
 10
4442.4984338858421
 20
4186.7784206254209
 30
0.0
  0
ENDBLK
  5
7F4D
  8
0
  0
BLOCK
  8
0
  2
*D13
 70
     1
 10
0.0
 20
0.0
 30
0.0
  3
*D13
  1

  0
LINE
  5
8088
  8
3
  6
CONTINUOUS
 62
     0
 10
4520.4984338858421
 20
2665.9216014735621
 30
0.0
 11
4520.4984338858421
 21
2408.957266473561
 31
0.0
  0
LINE
  5
8089
  8
3
  6
CONTINUOUS
 62
     0
 10
4952.498433885843
 20
2538.0694984735619
 30
0.0
 11
4952.498433885843
 21
2408.957266473561
 31
0.0
  0
LINE
  5
808A
  8
3
  6
CONTINUOUS
 62
     0
 10
4580.4984338858421
 20
2438.957266473561
 30
0.0
 11
4892.4984338858421
 21
2438.957266473561
 31
0.0
  0
INSERT
  5
808B
  8
3
  6
CONTINUOUS
 62
     0
  2
_OPEN
 10
4520.4984338858421
 20
2438.957266473561
 30
0.0
 41
60.0
 42
60.0
 43
60.0
 50
180.0
  0
INSERT
  5
808C
  8
3
  6
CONTINUOUS
 62
     0
  2
_OPEN
 10
4952.498433885843
 20
2438.957266473561
 30
0.0
 41
60.0
 42
60.0
 43
60.0
  0
TEXT
  8
3
  40
90
  5
80B8
  62
0
  72
0
  71
0
 10
4546.21
 20
2354.66
 30
0.000000
  1
432
  0
POINT
  5
808E
  8
DEFPOINTS
  6
CONTINUOUS
 62
     0
 10
4520.4984338858421
 20
2680.9216014735621
 30
0.0
  0
POINT
  5
808F
  8
DEFPOINTS
  6
CONTINUOUS
 62
     0
 10
4952.498433885843
 20
2553.069498473561
 30
0.0
  0
POINT
  5
8090
  8
DEFPOINTS
  6
CONTINUOUS
 62
     0
 10
4952.498433885843
 20
2438.957266473561
 30
0.0
  0
ENDBLK
  5
7E4D
  8
0
  0
BLOCK
  8
0
  2
*D14
 70
     1
 10
0.0
 20
0.0
 30
0.0
  3
*D14
  1

  0
LINE
  5
7EF5
  8
0
  6
BYBLOCK
 62
     0
 10
4952.498433885843
 20
2538.0694984735619
 30
0.0
 11
4952.498433885843
 21
2414.7280264735618
 31
0.0
  0
LINE
  5
7EF6
  8
0
  6
BYBLOCK
 62
     0
 10
5270.4984338858421
 20
2665.9216014735621
 30
0.0
 11
5270.4984338858421
 21
2414.7280264735618
 31
0.0
  0
LINE
  5
7EF7
  8
0
  6
BYBLOCK
 62
     0
 10
5012.4984338858421
 20
2444.7280264735618
 30
0.0
 11
5210.4984338858421
 21
2444.7280264735618
 31
0.0
  0
TEXT
  5
7EF8
  8
3
 62
     0
 10
5013.4452303616254
 20
2481.653352264831
 30
0.0
 40
90.0
  1
318
  0
INSERT
  5
7EF9
  8
0
  6
BYBLOCK
 62
     0
  2
_OPEN
 10
4952.498433885843
 20
2444.7280264735618
 30
0.0
 41
60.0
 42
60.0
 43
60.0
 50
180.0
  0
INSERT
  5
7EFA
  8
0
  6
BYBLOCK
 62
     0
  2
_OPEN
 10
5270.4984338858421
 20
2444.7280264735618
 30
0.0
 41
60.0
 42
60.0
 43
60.0
  0
POINT
  5
7EFB
  8
DEFPOINTS
  6
BYBLOCK
 62
     0
 10
4952.498433885843
 20
2553.069498473561
 30
0.0
  0
POINT
  5
7EFC
  8
DEFPOINTS
  6
BYBLOCK
 62
     0
 10
5270.4984338858421
 20
2680.9216014735621
 30
0.0
  0
POINT
  5
7EFD
  8
DEFPOINTS
  6
BYBLOCK
 62
     0
 10
5270.4984338858421
 20
2444.7280264735618
 30
0.0
  0
ENDBLK
  5
7EFE
  8
0
  0
BLOCK
  8
0
  2
*D15
 70
     1
 10
0.0
 20
0.0
 30
0.0
  3
*D15
  1

  0
LINE
  5
8091
  8
3
  6
CONTINUOUS
 62
     0
 10
1334.242734001627
 20
5547.0210010651481
 30
0.0
 11
1334.242734001627
 21
5136.8736560651478
 31
0.0
  0
LINE
  5
8092
  8
3
  6
CONTINUOUS
 62
     0
 10
2884.242734001627
 20
5547.0210010651481
 30
0.0
 11
2884.242734001627
 21
5136.8736560651478
 31
0.0
  0
LINE
  5
8093
  8
3
  6
CONTINUOUS
 62
     0
 10
1394.242734001627
 20
5166.8736560651478
 30
0.0
 11
2824.242734001627
 21
5166.8736560651478
 31
0.0
  0
INSERT
  5
8094
  8
3
  6
CONTINUOUS
 62
     0
  2
_OPEN
 10
1334.242734001627
 20
5166.8736560651478
 30
0.0
 41
60.0
 42
60.0
 43
60.0
 50
180.0
  0
INSERT
  5
8095
  8
3
  6
CONTINUOUS
 62
     0
  2
_OPEN
 10
2884.242734001627
 20
5166.8736560651478
 30
0.0
 41
60.0
 42
60.0
 43
60.0
  0
TEXT
  8
3
  40
90
  5
80B9
  62
0
  72
0
  71
0
 10
1866.29
 20
5082.57
 30
0.000000
  1
1550
  0
POINT
  5
8097
  8
DEFPOINTS
  6
CONTINUOUS
 62
     0
 10
1334.242734001627
 20
5562.0210010651481
 30
0.0
  0
POINT
  5
8098
  8
DEFPOINTS
  6
CONTINUOUS
 62
     0
 10
2884.242734001627
 20
5562.0210010651481
 30
0.0
  0
POINT
  5
8099
  8
DEFPOINTS
  6
CONTINUOUS
 62
     0
 10
2884.242734001627
 20
5166.8736560651478
 30
0.0
  0
ENDBLK
  5
7E35
  8
0
  0
BLOCK
  8
0
  2
*D16
 70
     1
 10
0.0
 20
0.0
 30
0.0
  3
*D16
  1

  0
LINE
  5
809A
  8
3
  6
CONTINUOUS
 62
     0
 10
2899.242734001627
 20
6312.0210010651481
 30
0.0
 11
3274.3525450016282
 21
6312.0210010651481
 31
0.0
  0
LINE
  5
809B
  8
3
  6
CONTINUOUS
 62
     0
 10
2899.242734001627
 20
5562.0210010651481
 30
0.0
 11
3274.3525450016282
 21
5562.0210010651481
 31
0.0
  0
LINE
  5
809C
  8
3
  6
CONTINUOUS
 62
     0
 10
3244.3525450016282
 20
6252.0210010651481
 30
0.0
 11
3244.3525450016282
 21
5622.021001065149
 31
0.0
  0
INSERT
  5
809D
  8
3
  6
CONTINUOUS
 62
     0
  2
_OPEN
 10
3244.3525450016282
 20
6312.0210010651481
 30
0.0
 41
60.0
 42
60.0
 43
60.0
 50
90.0
  0
INSERT
  5
809E
  8
3
  6
CONTINUOUS
 62
     0
  2
_OPEN
 10
3244.3525450016282
 20
5562.0210010651481
 30
0.0
 41
60.0
 42
60.0
 43
60.0
 50
270.0
  0
TEXT
  8
3
  40
90
  5
80BA
  62
0
  72
0
  71
0
 10
2989.35
 20
5764.10
 30
0.000000
  1
750
  0
POINT
  5
80A0
  8
DEFPOINTS
  6
CONTINUOUS
 62
     0
 10
2884.242734001627
 20
6312.0210010651481
 30
0.0
  0
POINT
  5
80A1
  8
DEFPOINTS
  6
CONTINUOUS
 62
     0
 10
2884.242734001627
 20
5562.0210010651481
 30
0.0
  0
POINT
  5
80A2
  8
DEFPOINTS
  6
CONTINUOUS
 62
     0
 10
3244.3525450016282
 20
5562.0210010651481
 30
0.0
  0
ENDBLK
  5
7E2A
  8
0
  0
BLOCK
  8
0
  2
*D17
 70
     1
 10
0.0
 20
0.0
 30
0.0
  3
*D17
  1

  0
LINE
  5
80A3
  8
3
 62
     0
 10
2940.242734001627
 20
3297.9216014735621
 30
0.0
 11
2940.242734001627
 21
4389.8276495006576
 31
0.0
  0
LINE
  5
80A4
  8
3
 62
     0
 10
1334.242734001627
 20
2795.9216014735621
 30
0.0
 11
1334.242734001627
 21
4389.8276495006576
 31
0.0
  0
LINE
  5
80A5
  8
3
 62
     0
 10
2880.242734001627
 20
4359.8276495006567
 30
0.0
 11
1394.242734001627
 21
4359.8276495006567
 31
0.0
  0
INSERT
  5
80A6
  8
3
 62
     0
  2
_OPEN
 10
2940.242734001627
 20
4359.8276495006567
 30
0.0
 41
60.0
 42
60.0
 43
60.0
  0
INSERT
  5
80A7
  8
3
 62
     0
  2
_OPEN
 10
1334.242734001627
 20
4359.8276495006567
 30
0.0
 41
60.0
 42
60.0
 43
60.0
 50
180.0
  0
TEXT
  8
3
  40
90
  5
80BB
  62
0
  72
0
  71
0
 10
1924.43
 20
4275.53
 30
0.000000
  1
1606
  0
POINT
  5
80A9
  8
DEFPOINTS
 62
     0
 10
2940.242734001627
 20
3282.9216014735621
 30
0.0
  0
POINT
  5
80AA
  8
DEFPOINTS
 62
     0
 10
1334.242734001627
 20
2780.9216014735621
 30
0.0
  0
POINT
  5
80AB
  8
DEFPOINTS
 62
     0
 10
1334.242734001627
 20
4359.8276495006567
 30
0.0
  0
ENDBLK
  5
7F15
  8
0
  0
ENDSEC
  0
SECTION
  2
ENTITIES
  0
LINE
  5
7BD2
  8
4
  6
CONTINUOUS
 10
5550.0
 20
1500.0
 30
0.0
 11
5550.0
 21
900.0
 31
0.0
  0
LINE
  5
7BD3
  8
4
  6
CONTINUOUS
 10
3450.0
 20
1500.0
 30
0.0
 11
3450.0
 21
900.0
 31
0.0
  0
LINE
  5
7BD4
  8
4
  6
CONTINUOUS
 10
1950.0
 20
1500.0
 30
0.0
 11
1950.0
 21
900.0
 31
0.0
  0
LINE
  5
7BD7
  8
4
  6
CONTINUOUS
 10
1950.0
 20
900.0
 30
0.0
 11
5550.0
 21
900.0
 31
0.0
  0
LINE
  5
7BD8
  8
4
  6
CONTINUOUS
 10
1950.0
 20
1200.0
 30
0.0
 11
5550.0
 21
1200.0
 31
0.0
  0
TEXT
  5
7BD9
  8
4
  6
CONTINUOUS
 10
2065.50624225
 20
1294.6290779999999
 30
0.0
 40
150.0
  1
機器名称
  0
TEXT
  5
7BDA
  8
4
  6
CONTINUOUS
 10
2058.7743179999989
 20
964.93547024999998
 30
0.0
 40
150.0
  1
機器型番
  0
TEXT
  5
7BDB
  8
4
  6
CONTINUOUS
 10
3533.0362365000001
 20
1267.715306249999
 30
0.0
 40
120.0
  1
ミツヤリミットロードファン
  0
TEXT
  5
7BDC
  8
4
  6
CONTINUOUS
 10
3559.9634872500001
 20
951.4787527499999
 30
0.0
 40
150.0
  1
LLE#4 1/2-4
  0
TEXT
  5
7BDE
  8
4
  6
CONTINUOUS
 10
2714.3572964999998
 20
7150.2865245000012
 30
0.0
 40
162.0
  1
床置ベット
  0
TEXT
  5
7BDF
  8
4
  6
CONTINUOUS
 10
948.50278049999986
 20
7601.6429287499996
 30
0.0
 40
171.42857175
  1
ベルト駆動式片吸込両持排煙ファン
  0
LINE
  5
7BE0
  8
4
  6
CONTINUOUS
 10
750.0
 20
7408.2262627500004
 30
0.0
 11
5550.0
 21
7408.2262627500004
 31
0.0
  0
LINE
  5
7BE1
  8
4
  6
CONTINUOUS
 10
750.0
 20
8008.2262627500004
 30
0.0
 11
5550.0
 21
8008.2262627500004
 31
0.0
  0
LINE
  5
7BE2
  8
4
  6
CONTINUOUS
 10
1950.0
 20
1500.0
 30
0.0
 11
5550.0
 21
1500.0
 31
0.0
  0
LINE
  5
7BE3
  8
4
  6
CONTINUOUS
 10
750.0
 20
8008.2262627500004
 30
0.0
 11
750.0
 21
7408.2262627500004
 31
0.0
  0
TEXT
  5
7BE4
  8
4
  6
CONTINUOUS
 10
1406.780799749999
 20
7146.9584324999987
 30
0.0
 40
162.0
  1
右回転上向
  0
TEXT
  5
7BE5
  8
4
  6
CONTINUOUS
 10
4406.9086777499988
 20
8118.1832445
 30
0.0
 40
168.0
  1
No.
  0
TEXT
  5
7BE6
  8
4
  6
CONTINUOUS
 10
3933.8881875000002
 20
7150.2865245000012
 30
0.0
 40
162.0
  1
縮尺：1/30
  0
LINE
  5
7BE7
  8
4
  6
CONTINUOUS
 10
5550.0
 20
8008.2262627500004
 30
0.0
 11
5550.0
 21
7408.2262627500004
 31
0.0
  0
LINE
  5
7BE9
  8
4
  6
CONTINUOUS
 10
4321.8522667500001
 20
8043.79074975
 30
0.0
 11
4321.8522667500001
 21
8359.9567845000001
 31
0.0
  0
LINE
  5
7BEA
  8
4
  6
CONTINUOUS
 10
4321.8522667500001
 20
8359.9567845000001
 30
0.0
 11
5550.0
 21
8359.9567845000001
 31
0.0
  0
LINE
  5
7BEB
  8
4
  6
CONTINUOUS
 10
5550.0
 20
8359.9567845000001
 30
0.0
 11
5550.0
 21
8043.79074975
 31
0.0
  0
LINE
  5
7BEC
  8
4
  6
CONTINUOUS
 10
5550.0
 20
8043.79074975
 30
0.0
 11
4321.8522667500001
 21
8043.79074975
 31
0.0
  0
ARC
  5
7C65
  8
1
  6
CONTINUOUS
 10
2381.242734001627
 20
3373.9216014735612
 30
0.0
 40
665.0
 50
184.571279
 51
243.091364
  0
ARC
  5
7C66
  8
1
  6
CONTINUOUS
 10
2381.242734001627
 20
3267.9216014735621
 30
0.0
 40
559.0
 50
299.40177899999998
 51
5.4405089999999987
  0
ARC
  5
7C67
  8
1
  6
CONTINUOUS
 10
1534.242734001627
 20
2990.9216014735621
 30
0.0
 40
162.0
 50
324.972283
 51
215.02771699999991
  0
CIRCLE
  5
7C68
  8
1
  6
CONTINUOUS
 10
1534.242734001627
 20
2990.9216014735621
 30
0.0
 40
139.69999999999999
  0
LINE
  5
7C69
  8
2
  6
CENTER
 10
1534.242734001627
 20
2846.2216014735618
 30
0.0
 11
1534.242734001627
 21
3135.6216014735619
 31
0.0
  0
ARC
  5
7C6A
  8
1
  6
CONTINUOUS
 10
1534.242734001627
 20
2990.9216014735621
 30
0.0
 40
189.69999999999999
 50
110.136303
 51
290.136303
  0
LINE
  5
7C6B
  8
1
  6
CONTINUOUS
 10
2499.5478410016271
 20
3142.8167644735609
 30
0.0
 11
1599.5478410016269
 21
2812.8167644735609
 31
0.0
  0
LINE
  5
7C6C
  8
1
  6
CONTINUOUS
 10
2482.3351080016268
 20
3189.7605804735622
 30
0.0
 11
1582.3351080016271
 21
2859.7605804735622
 31
0.0
  0
LINE
  5
7C6D
  8
1
  6
CONTINUOUS
 10
5217.4984338858421
 20
3820.9216014735621
 30
0.0
 11
5217.4984338858421
 21
2780.9216014735621
 31
0.0
  0
LINE
  5
7C6E
  8
1
  6
CONTINUOUS
 10
4687.4984338858421
 20
3820.9216014735621
 30
0.0
 11
4687.4984338858421
 21
2780.9216014735621
 31
0.0
  0
LINE
  5
7C6F
  8
1
  6
CONTINUOUS
 10
4535.4984338858421
 20
3365.6216014735619
 30
0.0
 11
4535.4984338858421
 21
2851.2216014735618
 31
0.0
  0
LINE
  5
7C70
  8
1
  6
CONTINUOUS
 10
4450.4984338858421
 20
3365.6216014735619
 30
0.0
 11
4450.4984338858421
 21
2851.2216014735618
 31
0.0
  0
LINE
  5
7C71
  8
1
  6
CONTINUOUS
 10
4575.4984338858421
 20
3152.9216014735621
 30
0.0
 11
4575.4984338858421
 21
2780.9216014735621
 31
0.0
  0
LINE
  5
7C72
  8
1
  6
CONTINUOUS
 10
4442.4984338858421
 20
2801.2216014735618
 30
0.0
 11
4442.4984338858421
 21
3415.6216014735619
 31
0.0
  0
LINE
  5
7C73
  8
1
  6
CONTINUOUS
 10
4552.4984338858421
 20
2801.2216014735618
 30
0.0
 11
4552.4984338858421
 21
3415.6216014735619
 31
0.0
  0
LINE
  5
7C74
  8
1
  6
CONTINUOUS
 10
1334.242734001627
 20
2680.9216014735621
 30
0.0
 11
2884.242734001627
 21
2680.9216014735621
 31
0.0
  0
LINE
  5
7C75
  8
1
  6
CONTINUOUS
 10
1334.242734001627
 20
2780.9216014735621
 30
0.0
 11
2884.242734001627
 21
2780.9216014735621
 31
0.0
  0
LINE
  5
7C76
  8
1
  6
CONTINUOUS
 10
1334.242734001627
 20
2780.9216014735621
 30
0.0
 11
1334.242734001627
 21
2680.9216014735621
 31
0.0
  0
LINE
  5
7C77
  8
1
  6
CONTINUOUS
 10
1688.242734001627
 20
2848.9216014735621
 30
0.0
 11
1666.9004000016259
 21
2897.9380344735619
 31
0.0
  0
LINE
  5
7C78
  8
1
  6
CONTINUOUS
 10
1688.242734001627
 20
2830.9216014735621
 30
0.0
 11
1688.242734001627
 21
2848.9216014735621
 31
0.0
  0
LINE
  5
7C79
  8
1
  6
CONTINUOUS
 10
1380.242734001627
 20
2830.9216014735621
 30
0.0
 11
1380.242734001627
 21
2848.9216014735621
 31
0.0
  0
LINE
  5
7C7A
  8
1
  6
CONTINUOUS
 10
1380.242734001627
 20
2848.9216014735621
 30
0.0
 11
1401.585068001626
 21
2897.9380344735619
 31
0.0
  0
LINE
  5
7C7B
  8
1
  6
CONTINUOUS
 10
1336.742734001627
 20
2780.9216014735621
 30
0.0
 11
1336.742734001627
 21
2830.9216014735621
 31
0.0
  0
LINE
  5
7C7C
  8
1
  6
CONTINUOUS
 10
1731.742734001627
 20
2780.9216014735621
 30
0.0
 11
1731.742734001627
 21
2830.9216014735621
 31
0.0
  0
LINE
  5
7C7D
  8
1
  6
CONTINUOUS
 10
1731.742734001627
 20
2830.9216014735621
 30
0.0
 11
1336.742734001627
 21
2830.9216014735621
 31
0.0
  0
LINE
  5
7C7E
  8
1
  6
CONTINUOUS
 10
2884.242734001627
 20
2780.9216014735621
 30
0.0
 11
2884.242734001627
 21
2680.9216014735621
 31
0.0
  0
LINE
  5
7C7F
  8
1
  6
CONTINUOUS
 10
4520.4984338858421
 20
2780.9216014735621
 30
0.0
 11
5270.4984338858421
 21
2780.9216014735621
 31
0.0
  0
LINE
  5
7C80
  8
1
  6
CONTINUOUS
 10
4520.4984338858421
 20
2680.9216014735621
 30
0.0
 11
5270.4984338858421
 21
2680.9216014735621
 31
0.0
  0
LINE
  5
7C81
  8
1
  6
CONTINUOUS
 10
4520.4984338858421
 20
2780.9216014735621
 30
0.0
 11
4520.4984338858421
 21
2680.9216014735621
 31
0.0
  0
LINE
  5
7C82
  8
1
  6
CONTINUOUS
 10
4687.4984338858421
 20
2830.9216014735621
 30
0.0
 11
4575.4984338858421
 21
2830.9216014735621
 31
0.0
  0
LINE
  5
7C83
  8
1
  6
CONTINUOUS
 10
4450.4984338858421
 20
2851.2216014735618
 30
0.0
 11
4535.4984338858421
 21
2851.2216014735618
 31
0.0
  0
LINE
  5
7C84
  8
1
  6
CONTINUOUS
 10
4442.4984338858421
 20
2801.2216014735618
 30
0.0
 11
4552.4984338858421
 21
2801.2216014735618
 31
0.0
  0
LINE
  5
7C85
  8
1
  6
CONTINUOUS
 10
5270.4984338858421
 20
2780.9216014735621
 30
0.0
 11
5270.4984338858421
 21
2680.9216014735621
 31
0.0
  0
LINE
  5
7C86
  8
1
  6
CONTINUOUS
 10
1635.242734001627
 20
3820.9216014735621
 30
0.0
 11
2445.242734001627
 21
3820.9216014735621
 31
0.0
  0
LINE
  5
7C87
  8
1
  6
CONTINUOUS
 10
1678.6919660016281
 20
3780.9216014735612
 30
0.0
 11
2405.242734001627
 21
3780.9216014735612
 31
0.0
  0
LINE
  5
7C88
  8
1
  6
CONTINUOUS
 10
2368.9376270016269
 20
3499.0264384735619
 30
0.0
 11
1468.9376270016271
 21
3169.0264384735619
 31
0.0
  0
LINE
  5
7C89
  8
1
  6
CONTINUOUS
 10
2386.1503600016272
 20
3452.0826224735611
 30
0.0
 11
1486.150360001627
 21
3122.0826224735611
 31
0.0
  0
LINE
  5
7C8A
  8
1
  6
CONTINUOUS
 10
1718.3581290016259
 20
3320.9216014735621
 30
0.0
 11
1675.242734001627
 21
3820.9216014735621
 31
0.0
  0
LINE
  5
7C8B
  8
2
  6
CENTER
 10
1389.5427340016261
 20
2990.9216014735621
 30
0.0
 11
1678.9427340016259
 21
2990.9216014735621
 31
0.0
  0
ARC
  5
7C8C
  8
1
  6
CONTINUOUS
 10
2476.242734001627
 20
3278.9216014735621
 30
0.0
 40
464.0
 50
5.193363999999999
 51
95.193364000000017
  0
LINE
  5
7C8D
  8
1
  6
CONTINUOUS
 10
2405.242734001627
 20
3736.2297854735612
 30
0.0
 11
2405.242734001627
 21
3820.9216014735621
 31
0.0
  0
CIRCLE
  5
7C8E
  8
1
  6
CONTINUOUS
 10
2434.242734001627
 20
3320.9216014735621
 30
0.0
 40
355.0
  0
CIRCLE
  5
7C8F
  8
1
  6
CONTINUOUS
 10
2434.242734001627
 20
3320.9216014735621
 30
0.0
 40
395.0
  0
CIRCLE
  5
7C90
  8
1
  6
CONTINUOUS
 10
2434.242734001627
 20
3320.9216014735621
 30
0.0
 40
139.69999999999999
  0
LINE
  5
7C91
  8
2
  6
CENTER
 10
5347.2585348858429
 20
3320.9216014735621
 30
0.0
 11
4291.8779818858429
 21
3320.9216014735621
 31
0.0
  0
ARC
  5
7C92
  8
1
  6
CONTINUOUS
 10
2434.242734001627
 20
3320.9216014735621
 30
0.0
 40
189.69999999999999
 50
290.136303
 51
110.136303
  0
ARC
  5
7C93
  8
1
  6
CONTINUOUS
 10
2476.242734001627
 20
3362.9216014735621
 30
0.0
 40
380.0
 50
96.345656000000005
 51
100.76855
  0
LINE
  5
7C94
  8
2
  6
CENTER
 10
2434.242734001627
 20
2544.2297534735608
 30
0.0
 11
2434.242734001627
 21
3943.4515124735608
 31
0.0
  0
LINE
  5
7C95
  8
1
  6
CONTINUOUS
 10
2405.242734001627
 20
6259.0210010651481
 30
0.0
 11
1675.242734001627
 21
5729.021001065149
 31
0.0
  0
LINE
  5
7C96
  8
1
  6
CONTINUOUS
 10
1675.242734001627
 20
6259.0210010651481
 30
0.0
 11
2405.242734001627
 21
5729.021001065149
 31
0.0
  0
LINE
  5
7C97
  8
1
  6
CONTINUOUS
 10
1334.242734001627
 20
6312.0210010651481
 30
0.0
 11
2079.242734001627
 21
6312.0210010651481
 31
0.0
  0
LINE
  5
7C98
  8
1
  6
CONTINUOUS
 10
1675.242734001627
 20
6259.0210010651481
 30
0.0
 11
2940.242734001627
 21
6259.0210010651481
 31
0.0
  0
LINE
  5
7C99
  8
1
  6
CONTINUOUS
 10
1675.242734001627
 20
5729.021001065149
 30
0.0
 11
2940.242734001627
 21
5729.021001065149
 31
0.0
  0
LINE
  5
7C9A
  8
1
  6
CONTINUOUS
 10
1673.9427340016259
 20
5562.0210010651481
 30
0.0
 11
2294.5427340016258
 21
5562.0210010651481
 31
0.0
  0
LINE
  5
7C9B
  8
1
  6
CONTINUOUS
 10
1344.5427340016261
 20
5484.0210010651481
 30
0.0
 11
2623.9427340016259
 21
5484.0210010651481
 31
0.0
  0
LINE
  5
7C9C
  8
1
  6
CONTINUOUS
 10
1344.5427340016261
 20
5594.0210010651481
 30
0.0
 11
2623.9427340016259
 21
5594.0210010651481
 31
0.0
  0
LINE
  5
7C9D
  8
1
  6
CONTINUOUS
 10
1675.242734001627
 20
5729.021001065149
 30
0.0
 11
1675.242734001627
 21
6259.0210010651481
 31
0.0
  0
LINE
  5
7C9E
  8
1
  6
CONTINUOUS
 10
1334.242734001627
 20
5562.0210010651481
 30
0.0
 11
1334.242734001627
 21
6312.0210010651481
 31
0.0
  0
LINE
  5
7C9F
  8
1
  6
CONTINUOUS
 10
1372.242734001627
 20
5617.0210010651481
 30
0.0
 11
1372.242734001627
 21
6154.021001065149
 31
0.0
  0
LINE
  5
7CA0
  8
1
  6
CONTINUOUS
 10
1334.242734001627
 20
5562.0210010651481
 30
0.0
 11
1394.5427340016261
 21
5562.0210010651481
 31
0.0
  0
LINE
  5
7CA1
  8
1
  6
CONTINUOUS
 10
1555.242734001627
 20
5577.0210010651481
 30
0.0
 11
1555.242734001627
 21
5617.0210010651481
 31
0.0
  0
LINE
  5
7CA2
  8
1
  6
CONTINUOUS
 10
1513.242734001627
 20
5577.0210010651481
 30
0.0
 11
1513.242734001627
 21
5617.0210010651481
 31
0.0
  0
LINE
  5
7CA3
  8
1
  6
CONTINUOUS
 10
1372.242734001627
 20
5617.0210010651481
 30
0.0
 11
1696.242734001627
 21
5617.0210010651481
 31
0.0
  0
LINE
  5
7CA4
  8
1
  6
CONTINUOUS
 10
1696.242734001627
 20
5617.0210010651481
 30
0.0
 11
1696.242734001627
 21
5729.021001065149
 31
0.0
  0
LINE
  5
7CA5
  8
1
  6
CONTINUOUS
 10
1394.5427340016261
 20
5577.0210010651481
 30
0.0
 11
1673.9427340016259
 21
5577.0210010651481
 31
0.0
  0
LINE
  5
7CA6
  8
1
  6
CONTINUOUS
 10
1394.5427340016261
 20
5492.0210010651481
 30
0.0
 11
1673.9427340016259
 21
5492.0210010651481
 31
0.0
  0
LINE
  5
7CA7
  8
1
  6
CONTINUOUS
 10
1673.9427340016259
 20
5492.0210010651481
 30
0.0
 11
1673.9427340016259
 21
5577.0210010651481
 31
0.0
  0
LINE
  5
7CA8
  8
1
  6
CONTINUOUS
 10
1394.5427340016261
 20
5492.0210010651481
 30
0.0
 11
1394.5427340016261
 21
5577.0210010651481
 31
0.0
  0
LINE
  5
7CA9
  8
1
  6
CONTINUOUS
 10
1344.5427340016261
 20
5484.0210010651481
 30
0.0
 11
1344.5427340016261
 21
5594.0210010651481
 31
0.0
  0
LINE
  5
7CAA
  8
1
  6
CONTINUOUS
 10
1372.242734001627
 20
6154.021001065149
 30
0.0
 11
1675.242734001627
 21
6154.021001065149
 31
0.0
  0
LINE
  5
7CAB
  8
1
  6
CONTINUOUS
 10
2405.242734001627
 20
5729.021001065149
 30
0.0
 11
2405.242734001627
 21
6259.0210010651481
 31
0.0
  0
LINE
  5
7CAC
  8
1
  6
CONTINUOUS
 10
2940.242734001627
 20
5729.021001065149
 30
0.0
 11
2940.242734001627
 21
6259.0210010651481
 31
0.0
  0
LINE
  5
7CAD
  8
1
  6
CONTINUOUS
 10
2294.5427340016258
 20
5492.0210010651481
 30
0.0
 11
2573.9427340016259
 21
5492.0210010651481
 31
0.0
  0
LINE
  5
7CAE
  8
1
  6
CONTINUOUS
 10
2294.5427340016258
 20
5577.0210010651481
 30
0.0
 11
2573.9427340016259
 21
5577.0210010651481
 31
0.0
  0
LINE
  5
7CAF
  8
1
  6
CONTINUOUS
 10
2411.742734001627
 20
5577.0210010651481
 30
0.0
 11
2411.742734001627
 21
5729.021001065149
 31
0.0
  0
LINE
  5
7CB0
  8
1
  6
CONTINUOUS
 10
2294.5427340016258
 20
5492.0210010651481
 30
0.0
 11
2294.5427340016258
 21
5577.0210010651481
 31
0.0
  0
LINE
  5
7CB1
  8
1
  6
CONTINUOUS
 10
2884.242734001627
 20
5562.0210010651481
 30
0.0
 11
2884.242734001627
 21
5729.021001065149
 31
0.0
  0
LINE
  5
7CB2
  8
1
  6
CONTINUOUS
 10
2456.742734001627
 20
5577.0210010651481
 30
0.0
 11
2456.742734001627
 21
5729.021001065149
 31
0.0
  0
LINE
  5
7CB3
  8
1
  6
CONTINUOUS
 10
2573.9427340016259
 20
5562.0210010651481
 30
0.0
 11
2884.242734001627
 21
5562.0210010651481
 31
0.0
  0
LINE
  5
7CB4
  8
1
  6
CONTINUOUS
 10
2573.9427340016259
 20
5492.0210010651481
 30
0.0
 11
2573.9427340016259
 21
5577.0210010651481
 31
0.0
  0
LINE
  5
7CB5
  8
1
  6
CONTINUOUS
 10
2623.9427340016259
 20
5484.0210010651481
 30
0.0
 11
2623.9427340016259
 21
5594.0210010651481
 31
0.0
  0
LINE
  5
7CB6
  8
1
  6
CONTINUOUS
 10
2039.242734001627
 20
6342.0210010651481
 30
0.0
 11
2829.242734001627
 21
6342.0210010651481
 31
0.0
  0
LINE
  5
7CB7
  8
1
  6
CONTINUOUS
 10
2079.242734001627
 20
6259.0210010651481
 30
0.0
 11
2079.242734001627
 21
6342.0210010651481
 31
0.0
  0
LINE
  5
7CB8
  8
1
  6
CONTINUOUS
 10
2884.242734001627
 20
6259.0210010651481
 30
0.0
 11
2884.242734001627
 21
6312.0210010651481
 31
0.0
  0
LINE
  5
7CB9
  8
1
  6
CONTINUOUS
 10
2789.242734001627
 20
6259.0210010651481
 30
0.0
 11
2789.242734001627
 21
6342.0210010651481
 31
0.0
  0
LINE
  5
7CBA
  8
1
  6
CONTINUOUS
 10
2789.242734001627
 20
6312.0210010651481
 30
0.0
 11
2884.242734001627
 21
6312.0210010651481
 31
0.0
  0
LINE
  5
7CBB
  8
1
  6
CONTINUOUS
 10
4687.4984338858421
 20
3780.9216014735612
 30
0.0
 11
5217.4984338858421
 21
3780.9216014735612
 31
0.0
  0
LINE
  5
7CBC
  8
1
  6
CONTINUOUS
 10
4647.4984338858421
 20
3820.9216014735621
 30
0.0
 11
5257.4984338858421
 21
3820.9216014735621
 31
0.0
  0
LINE
  5
7CBD
  8
1
  6
CONTINUOUS
 10
4535.4984338858421
 20
3203.4216014735621
 30
0.0
 11
4687.4984338858421
 21
3203.4216014735621
 31
0.0
  0
LINE
  5
7CBE
  8
1
  6
CONTINUOUS
 10
4535.4984338858421
 20
3248.4216014735621
 30
0.0
 11
4687.4984338858421
 21
3248.4216014735621
 31
0.0
  0
LINE
  5
7CBF
  8
1
  6
CONTINUOUS
 10
4450.4984338858421
 20
3365.6216014735619
 30
0.0
 11
4535.4984338858421
 21
3365.6216014735619
 31
0.0
  0
LINE
  5
7CC0
  8
1
  6
CONTINUOUS
 10
4450.4984338858421
 20
3086.2216014735618
 30
0.0
 11
4535.4984338858421
 21
3086.2216014735618
 31
0.0
  0
LINE
  5
7CC1
  8
1
  6
CONTINUOUS
 10
4535.4984338858421
 20
3011.9216014735621
 30
0.0
 11
4575.4984338858421
 21
3011.9216014735621
 31
0.0
  0
LINE
  5
7CC2
  8
1
  6
CONTINUOUS
 10
4535.4984338858421
 20
2969.9216014735621
 30
0.0
 11
4575.4984338858421
 21
2969.9216014735621
 31
0.0
  0
LINE
  5
7CC3
  8
1
  6
CONTINUOUS
 10
4575.4984338858421
 20
3152.9216014735621
 30
0.0
 11
4687.4984338858421
 21
3152.9216014735621
 31
0.0
  0
LINE
  5
7CC4
  8
1
  6
CONTINUOUS
 10
4442.4984338858421
 20
3415.6216014735619
 30
0.0
 11
4552.4984338858421
 21
3415.6216014735619
 31
0.0
  0
LINE
  5
7CC5
  8
1
  6
CONTINUOUS
 10
5217.4984338858421
 20
3675.9216014735621
 30
0.0
 11
5300.4984338858421
 21
3675.9216014735621
 31
0.0
  0
LINE
  5
7CC6
  8
1
  6
CONTINUOUS
 10
5217.4984338858421
 20
2965.9216014735621
 30
0.0
 11
5300.4984338858421
 21
2965.9216014735621
 31
0.0
  0
LINE
  5
7CC7
  8
1
  6
CONTINUOUS
 10
5300.4984338858421
 20
3715.9216014735621
 30
0.0
 11
5300.4984338858421
 21
2925.9216014735621
 31
0.0
  0
LINE
  5
7CC8
  8
2
  6
CENTER
 10
1241.6165330016261
 20
5994.0210010651481
 30
0.0
 11
2994.0116300016271
 21
5994.0210010651481
 31
0.0
  0
LINE
  5
7CC9
  8
2
  6
CENTER
 10
4952.498433885843
 20
3983.5476674735619
 30
0.0
 11
4952.498433885843
 21
2553.069498473561
 31
0.0
  0
LINE
  5
7CCA
  8
2
  6
CENTER
 10
2434.242734001627
 20
5382.2638470651473
 30
0.0
 11
2434.242734001627
 21
6429.5645910651474
 31
0.0
  0
LINE
  5
7CCB
  8
2
  6
CENTER
 10
3082.1152400016272
 20
3320.9216014735621
 30
0.0
 11
1512.6291800016261
 21
3320.9216014735621
 31
0.0
  0
DIMENSION
  5
7CD8
  8
3
  6
CONTINUOUS
  2
*D1
 10
2405.242734001627
 20
3934.1438404735609
 30
0.0
 11
2052.253068001628
 21
3934.1438404735609
 31
0.0
 70
   128
 13
1675.242734001627
 23
3820.9216014735621
 33
0.0
 14
2405.242734001627
 24
3820.9216014735621
 34
0.0
1001
ACAD
1000
DSTYLE
1002
{
1070
   287
1070
     3
1070
   287
1070
     3
1070
    40
1040
30.0
1070
   143
1040
0.039
1070
   172
1070
     1
1070
   271
1070
     0
1070
   279
1070
     0
1070
   288
1070
     1
1002
}
  0
DIMENSION
  5
7CE5
  8
3
  6
CONTINUOUS
  2
*D2
 10
2434.242734001627
 20
4148.5929054735607
 30
0.0
 11
2058.2135520016268
 21
4148.5929054735607
 31
0.0
 70
   128
 13
1675.242734001627
 23
3820.9216014735621
 33
0.0
 14
2434.242734001627
 24
3943.4515124735608
 34
0.0
1001
ACAD
1000
DSTYLE
1002
{
1070
   287
1070
     3
1070
   287
1070
     3
1070
    40
1040
30.0
1070
   143
1040
0.039
1070
   172
1070
     1
1070
   271
1070
     0
1070
   279
1070
     0
1070
   288
1070
     1
1002
}
  0
DIMENSION
  5
7CF3
  8
3
  6
CONTINUOUS
  2
*D3
 10
2940.242734001627
 20
4149.523668473561
 30
0.0
 11
2736.671305430199
 21
4149.523668473561
 31
0.0
 70
   128
 13
2434.242734001627
 23
3943.4515124735608
 33
0.0
 14
2940.242734001627
 24
3267.9216014735621
 34
0.0
1001
ACAD
1000
DSTYLE
1002
{
1070
   287
1070
     3
1070
   287
1070
     3
1070
    40
1040
30.0
1070
   143
1040
0.039
1070
   172
1070
     1
1070
   271
1070
     0
1070
   279
1070
     0
1070
   288
1070
     1
1002
}
  0
DIMENSION
  5
7D02
  8
3
  6
CONTINUOUS
  2
*D4
 10
3286.0760060016269
 20
3320.9216014735621
 30
0.0
 11
3286.076006001626
 21
3570.9216014735621
 31
0.0
 70
   128
 13
2445.242734001627
 23
3820.9216014735621
 33
0.0
 14
3082.1152400016272
 24
3320.9216014735621
 34
0.0
 50
90.0
1001
ACAD
1000
DSTYLE
1002
{
1070
   287
1070
     3
1070
   287
1070
     3
1070
    40
1040
30.0
1070
   143
1040
0.039
1070
   172
1070
     1
1070
   271
1070
     0
1070
   279
1070
     0
1070
   288
1070
     1
1002
}
  0
DIMENSION
  5
7D0E
  8
3
  6
CONTINUOUS
  2
*D5
 10
3286.076006001626
 20
2680.9216014735621
 30
0.0
 11
3211.076006001626
 21
3000.921601473563
 31
0.0
 70
     0
 13
3082.1152400016272
 23
3320.9216014735621
 33
0.0
 14
2884.242734001627
 24
2680.9216014735621
 34
0.0
 50
90.0
1001
ACAD
1000
DSTYLE
1002
{
1070
   287
1070
     3
1070
   287
1070
     3
1070
    40
1040
30.0
1070
   143
1040
0.039
1070
   172
1070
     1
1070
   271
1070
     0
1070
   279
1070
     0
1070
   288
1070
     1
1002
}
  0
DIMENSION
  5
7D1D
  8
3
  6
CONTINUOUS
  2
*D6
 10
2434.242734001627
 20
2415.1295974735608
 30
0.0
 11
2678.5284482873408
 21
2415.1295974735608
 31
0.0
 70
   128
 13
2884.242734001627
 23
2680.9216014735621
 33
0.0
 14
2434.242734001627
 24
2544.2297534735608
 34
0.0
1001
ACAD
1000
DSTYLE
1002
{
1070
   287
1070
     3
1070
   287
1070
     3
1070
    40
1040
30.0
1070
   143
1040
0.039
1070
   172
1070
     1
1070
   271
1070
     0
1070
   279
1070
     0
1070
   288
1070
     1
1002
}
  0
DIMENSION
  5
7D29
  8
3
  6
CONTINUOUS
  2
*D7
 10
1334.242734001627
 20
2415.1295974735608
 30
0.0
 11
1884.242734001627
 21
2490.1295974735608
 31
0.0
 70
     0
 13
2434.242734001627
 23
2544.2297534735608
 33
0.0
 14
1334.242734001627
 24
2680.9216014735621
 34
0.0
1001
ACAD
1000
DSTYLE
1002
{
1070
   287
1070
     3
1070
   287
1070
     3
1070
    40
1040
30.0
1070
   143
1040
0.039
1070
   172
1070
     1
1070
   271
1070
     0
1070
   279
1070
     0
1070
   288
1070
     1
1002
}
  0
DIMENSION
  5
7D36
  8
3
  6
CONTINUOUS
  2
*D8
 10
3474.4959495208641
 20
2680.9216014735621
 30
0.0
 11
3474.4959495208632
 21
3201.7243030307409
 31
0.0
 70
   128
 13
2465.242734001627
 23
3820.9216014735621
 33
0.0
 14
2884.242734001627
 24
2680.9216014735621
 34
0.0
 50
90.0
1001
ACAD
1000
DSTYLE
1002
{
1070
   287
1070
     3
1070
   287
1070
     3
1070
    40
1040
30.0
1070
   143
1040
0.039
1070
   172
1070
     1
1070
   271
1070
     0
1070
   279
1070
     0
1070
   288
1070
     1
1002
}
  0
DIMENSION
  5
7D45
  8
3
  6
CONTINUOUS
  2
*D9
 10
5217.4984338858421
 20
3969.885355473561
 30
0.0
 11
4952.498433885843
 21
3969.885355473561
 31
0.0
 70
   128
 13
4687.4984338858421
 23
3820.9216014735621
 33
0.0
 14
5217.4984338858421
 24
3820.9216014735621
 34
0.0
1001
ACAD
1000
DSTYLE
1002
{
1070
   287
1070
     3
1070
   287
1070
     3
1070
    40
1040
30.0
1070
   143
1040
0.039
1070
   172
1070
     1
1070
   271
1070
     0
1070
   279
1070
     0
1070
   288
1070
     1
1002
}
  0
DIMENSION
  5
7D5F
  8
3
  6
CONTINUOUS
  2
*D10
 10
5537.9944628858429
 20
2965.9216014735621
 30
0.0
 11
5537.994462885842
 21
3314.624292473562
 31
0.0
 70
   128
 13
5300.4984338858421
 23
3675.9216014735621
 33
0.0
 14
5300.4984338858421
 24
2965.9216014735621
 34
0.0
 50
90.0
1001
ACAD
1000
DSTYLE
1002
{
1070
   287
1070
     3
1070
   287
1070
     3
1070
     3
1000
φ<>
1070
    40
1040
30.0
1070
   143
1040
0.039
1070
   172
1070
     1
1070
   271
1070
     0
1070
   279
1070
     0
1070
   288
1070
     1
1002
}
  0
DIMENSION
  5
7D6D
  8
3
  6
CONTINUOUS
  2
*D11
 10
4952.498433885843
 20
4186.9723219901571
 30
0.0
 11
5143.3086677215042
 21
4261.1171443343483
 31
0.0
 70
   128
 13
5300.4984338858421
 23
3675.9216014735621
 33
0.0
 14
4952.498433885843
 24
4109.1633716254191
 34
0.0
1001
ACAD
1000
DSTYLE
1002
{
1070
   288
1070
     1
1070
   172
1070
     1
1070
    40
1040
30.0
1070
   271
1070
     0
1070
   143
1040
0.039
1002
}
  0
DIMENSION
  5
7D7B
  8
3
  6
CONTINUOUS
  2
*D12
 10
4442.4984338858421
 20
4186.7784206254209
 30
0.0
 11
4699.0544248858432
 21
4186.7784206254209
 31
0.0
 70
   128
  1
MAX\P590
 13
4952.498433885843
 23
4109.1633716254191
 33
0.0
 14
4442.4984338858421
 24
3415.6216014735619
 34
0.0
1001
ACAD
1000
DSTYLE
1002
{
1070
   287
1070
     3
1070
   287
1070
     3
1070
    40
1040
30.0
1070
   143
1040
0.039
1070
   172
1070
     1
1070
   271
1070
     0
1070
   279
1070
     0
1070
   288
1070
     1
1002
}
  0
DIMENSION
  5
7D8A
  8
3
  6
CONTINUOUS
  2
*D13
 10
4952.498433885843
 20
2438.957266473561
 30
0.0
 11
4726.2127196001265
 21
2438.957266473561
 31
0.0
 70
   128
 13
4520.4984338858421
 23
2680.9216014735621
 33
0.0
 14
4952.498433885843
 24
2553.069498473561
 34
0.0
1001
ACAD
1000
DSTYLE
1002
{
1070
   287
1070
     3
1070
   287
1070
     3
1070
    40
1040
30.0
1070
   143
1040
0.039
1070
   172
1070
     1
1070
   271
1070
     0
1070
   279
1070
     0
1070
   288
1070
     1
1002
}
  0
DIMENSION
  5
7D98
  8
3
  6
CONTINUOUS
  2
*D14
 10
5270.4984338858421
 20
2444.7280264735618
 30
0.0
 11
5120.5880875044832
 21
2526.6533522648319
 31
0.0
 70
   128
 13
4952.498433885843
 23
2553.069498473561
 33
0.0
 14
5270.4984338858421
 24
2680.9216014735621
 34
0.0
1001
ACAD
1000
DSTYLE
1002
{
1070
   288
1070
     1
1070
   172
1070
     1
1070
    40
1040
30.0
1070
   271
1070
     0
1070
   143
1040
0.039
1002
}
  0
DIMENSION
  5
7DA5
  8
3
  6
CONTINUOUS
  2
*D15
 10
2884.242734001627
 20
5166.8736560651478
 30
0.0
 11
2046.292547001626
 21
5166.8736560651478
 31
0.0
 70
   128
 13
1334.242734001627
 23
5562.0210010651481
 33
0.0
 14
2884.242734001627
 24
5562.0210010651481
 34
0.0
1001
ACAD
1000
DSTYLE
1002
{
1070
   287
1070
     3
1070
   287
1070
     3
1070
    40
1040
30.0
1070
   143
1040
0.039
1070
   172
1070
     1
1070
   271
1070
     0
1070
   279
1070
     0
1070
   288
1070
     1
1002
}
  0
DIMENSION
  5
7DB2
  8
3
  6
CONTINUOUS
  2
*D16
 10
3244.3525450016282
 20
5562.0210010651481
 30
0.0
 11
3244.3525450016268
 21
5923.4023160651486
 31
0.0
 70
   128
 13
2884.242734001627
 23
6312.0210010651481
 33
0.0
 14
2884.242734001627
 24
5562.0210010651481
 34
0.0
 50
90.0
1001
ACAD
1000
DSTYLE
1002
{
1070
   287
1070
     3
1070
   287
1070
     3
1070
    40
1040
30.0
1070
   143
1040
0.039
1070
   172
1070
     1
1070
   271
1070
     0
1070
   279
1070
     0
1070
   288
1070
     1
1002
}
  0
DIMENSION
  5
7F16
  8
3
  2
*D17
 10
1334.242734001627
 20
4359.8276495006567
 30
0.0
 11
2104.4286254694739
 21
4359.8276495006567
 31
0.0
 70
   128
 13
2940.242734001627
 23
3282.9216014735621
 33
0.0
 14
1334.242734001627
 24
2780.9216014735621
 34
0.0
1001
ACAD
1000
DSTYLE
1002
{
1070
   287
1070
     3
1070
   287
1070
     3
1070
    40
1040
30.0
1070
   143
1040
0.039
1070
   172
1070
     1
1070
   271
1070
     0
1070
   279
1070
     0
1070
   288
1070
     1
1002
}
  0
ENDSEC
  0
EOF
