  0
SECTION
  2
HEADER
  9
$ACADVER
  1
AC1009
  9
$INSBASE
 10
0.0
 20
0.0
 30
0.0
  9
$EXTMIN
 10
-5163.8456985000012
 20
-7595.9778614999987
 30
0.0
  9
$EXTMAX
 10
-363.84569850000003
 20
-136.02107624999991
 30
0.0
  9
$LIMMIN
 10
0.0
 20
0.0
  9
$LIMMAX
 10
297.0
 20
210.0
  9
$ORTHOMODE
 70
     0
  9
$REGENMODE
 70
     1
  9
$FILLMODE
 70
     0
  9
$QTEXTMODE
 70
     0
  9
$MIRRTEXT
 70
     1
  9
$DRAGMODE
 70
     2
  9
$LTSCALE
 40
100.0
  9
$OSMODE
 70
    37
  9
$ATTMODE
 70
     1
  9
$TEXTSIZE
 40
180.0
  9
$TRACEWID
 40
0.05
  9
$TEXTSTYLE
  7
STANDARD
  9
$CLAYER
  8
3
  9
$CELTYPE
  6
BYLAYER
  9
$CECOLOR
 62
   256
  9
$DIMSCALE
 40
30.0
  9
$DIMASZ
 40
2.0
  9
$DIMEXO
 40
0.5
  9
$DIMDLI
 40
10.0
  9
$DIMRND
 40
0.0
  9
$DIMDLE
 40
0.0
  9
$DIMEXE
 40
1.0
  9
$DIMTP
 40
1.0
  9
$DIMTM
 40
1.0
  9
$DIMTXT
 40
3.0
  9
$DIMCEN
 40
0.0
  9
$DIMTSZ
 40
0.0
  9
$DIMTOL
 70
     0
  9
$DIMLIM
 70
     0
  9
$DIMTIH
 70
     0
  9
$DIMTOH
 70
     0
  9
$DIMSE1
 70
     0
  9
$DIMSE2
 70
     0
  9
$DIMTAD
 70
     1
  9
$DIMZIN
 70
     8
  9
$DIMBLK
  1

  9
$DIMASO
 70
     1
  9
$DIMSHO
 70
     1
  9
$DIMPOST
  1

  9
$DIMAPOST
  1

  9
$DIMALT
 70
     0
  9
$DIMALTD
 70
     2
  9
$DIMALTF
 40
0.039
  9
$DIMLFAC
 40
1.0
  9
$DIMTOFL
 70
     1
  9
$DIMTVP
 40
0.0
  9
$DIMTIX
 70
     0
  9
$DIMSOXD
 70
     0
  9
$DIMSAH
 70
     1
  9
$DIMBLK1
  1
OPEN
  9
$DIMBLK2
  1
OPEN
  9
$DIMSTYLE
  2
IGA
  9
$DIMCLRD
 70
     0
  9
$DIMCLRE
 70
     0
  9
$DIMCLRT
 70
     0
  9
$DIMTFAC
 40
10.0
  9
$DIMGAP
 40
1.0
  9
$LUNITS
 70
     2
  9
$LUPREC
 70
     3
  9
$SKETCHINC
 40
0.1
  9
$FILLETRAD
 40
50.0
  9
$AUNITS
 70
     0
  9
$AUPREC
 70
     0
  9
$MENU
  1
acad
  9
$ELEVATION
 40
0.0
  9
$PELEVATION
 40
0.0
  9
$THICKNESS
 40
0.0
  9
$LIMCHECK
 70
     0
  9
$BLIPMODE
 70
     0
  9
$CHAMFERA
 40
0.5
  9
$CHAMFERB
 40
0.5
  9
$SKPOLY
 70
     0
  9
$TDCREATE
 40
2450753.563794212
  9
$TDUPDATE
 40
2454953.6839621291
  9
$TDINDWG
 40
0.0060579745
  9
$TDUSRTIMER
 40
0.0060579745
  9
$USRTIMER
 70
     1
  9
$ANGBASE
 50
0.0
  9
$ANGDIR
 70
     0
  9
$PDMODE
 70
     0
  9
$PDSIZE
 40
0.0
  9
$PLINEWID
 40
0.0
  9
$COORDS
 70
     1
  9
$SPLFRAME
 70
     0
  9
$SPLINETYPE
 70
     6
  9
$SPLINESEGS
 70
     8
  9
$ATTDIA
 70
     0
  9
$ATTREQ
 70
     1
  9
$HANDLING
 70
 10241
  9
$HANDSEED
  5
7F09
  9
$SURFTAB1
 70
     6
  9
$SURFTAB2
 70
     6
  9
$SURFTYPE
 70
     6
  9
$SURFU
 70
     6
  9
$SURFV
 70
     6
  9
$UCSNAME
  2

  9
$UCSORG
 10
0.0
 20
0.0
 30
0.0
  9
$UCSXDIR
 10
1.0
 20
0.0
 30
0.0
  9
$UCSYDIR
 10
0.0
 20
1.0
 30
0.0
  9
$PUCSNAME
  2

  9
$PUCSORG
 10
0.0
 20
0.0
 30
0.0
  9
$PUCSXDIR
 10
1.0
 20
0.0
 30
0.0
  9
$PUCSYDIR
 10
0.0
 20
1.0
 30
0.0
  9
$USERI1
 70
     0
  9
$USERI2
 70
     0
  9
$USERI3
 70
     0
  9
$USERI4
 70
     0
  9
$USERI5
 70
     0
  9
$USERR1
 40
0.0
  9
$USERR2
 40
0.0
  9
$USERR3
 40
0.0
  9
$USERR4
 40
0.0
  9
$USERR5
 40
0.0
  9
$WORLDVIEW
 70
     1
  9
$SHADEDGE
 70
     3
  9
$SHADEDIF
 70
    70
  9
$TILEMODE
 70
     1
  9
$MAXACTVP
 70
    16
  9
$PLIMCHECK
 70
     0
  9
$PEXTMIN
 10
1.0000000000000000E+020
 20
1.0000000000000000E+020
 30
1.0000000000000000E+020
  9
$PEXTMAX
 10
-1.0000000000000000E+020
 20
-1.0000000000000000E+020
 30
-1.0000000000000000E+020
  9
$PLIMMIN
 10
0.0
 20
0.0
  9
$PLIMMAX
 10
12.0
 20
9.0
  9
$UNITMODE
 70
     0
  9
$VISRETAIN
 70
     0
  9
$PLINEGEN
 70
     0
  9
$PSLTSCALE
 70
     1
  0
ENDSEC
  0
SECTION
  2
TABLES
  0
TABLE
  2
VPORT
 70
     2
  0
VPORT
  2
*ACTIVE
 70
     0
 10
0.0
 20
0.0
 11
1.0
 21
1.0
 12
11742.50091585655
 22
-3603.6529534977949
 13
0.0
 23
0.0
 14
10.0
 24
10.0
 15
10.0
 25
10.0
 16
0.0
 26
0.0
 36
1.0
 17
0.0
 27
0.0
 37
0.0
 40
14048.94712420975
 41
3.1666666666666661
 42
50.0
 43
0.0
 44
0.0
 50
0.0
 51
0.0
 71
     0
 72
   100
 73
     1
 74
     0
 75
     0
 76
     0
 77
     0
 78
     0
  0
ENDTAB
  0
TABLE
  2
LTYPE
 70
     2
  0
LTYPE
  2
CONTINUOUS
 70
     0
  3
Solid line
 72
    65
 73
     0
 40
0.0
  0
LTYPE
  2
CENTER
 70
     0
  3
____ _ ____ _ ____ _ ____ _ ____ _ ____ _ ____ 
 72
    65
 73
     4
 40
2.0
 49
1.25
 49
-0.25
 49
0.25
 49
-0.25
  0
ENDTAB
  0
TABLE
  2
LAYER
 70
     6
  0
LAYER
  2
0
 70
     0
 62
     7
  6
CONTINUOUS
  0
LAYER
  2
3
 70
     0
 62
     2
  6
CONTINUOUS
  0
LAYER
  2
2
 70
     0
 62
     3
  6
CENTER
  0
LAYER
  2
1
 70
     0
 62
     4
  6
CONTINUOUS
  0
LAYER
  2
4
 70
     0
 62
     7
  6
CONTINUOUS
  0
LAYER
  2
DEFPOINTS
 70
     0
 62
     7
  6
CONTINUOUS
  0
ENDTAB
  0
TABLE
  2
STYLE
 70
     1
  0
STYLE
  2
STANDARD
 70
     0
 40
0.0
 41
1.0
 50
0.0
 71
     0
 42
180.0
  3
simplex.shx
  4
extfont.shx
  0
ENDTAB
  0
TABLE
  2
VIEW
 70
     0
  0
ENDTAB
  0
TABLE
  2
UCS
 70
     0
  0
ENDTAB
  0
TABLE
  2
APPID
 70
     1
  0
APPID
  2
ACAD
 70
     0
  0
ENDTAB
  0
TABLE
  2
DIMSTYLE
 70
     1
  0
DIMSTYLE
  2
IGA
 70
     0
  3

  4

  5

  6
OPEN
  7
OPEN
 40
2.0
 41
2.0
 42
0.5
 43
10.0
 44
1.0
 45
0.0
 46
0.0
 47
1.0
 48
1.0
140
3.0
141
0.0
142
0.0
143
0.03937
144
1.0
145
0.0
146
10.0
147
1.0
 71
     0
 72
     0
 73
     0
 74
     0
 75
     0
 76
     0
 77
     1
 78
     8
170
     0
171
     2
172
     0
173
     1
174
     0
175
     0
176
     0
177
     0
178
     0
  0
ENDTAB
  0
ENDSEC
  0
SECTION
  2
BLOCKS
  0
BLOCK
  8
0
  2
$MODEL_SPACE
 70
     0
 10
0.0
 20
0.0
 30
0.0
  3
$MODEL_SPACE
  1

  0
ENDBLK
  5
1B
  8
0
  0
BLOCK
 67
     1
  8
0
  2
$PAPER_SPACE
 70
     0
 10
0.0
 20
0.0
 30
0.0
  3
$PAPER_SPACE
  1

  0
ENDBLK
  5
18
 67
     1
  8
0
  0
BLOCK
  8
0
  2
_OPEN
 70
     0
 10
0.0
 20
0.0
 30
0.0
  3
_OPEN
  1

  0
LINE
  5
7AEF
  8
0
  6
BYBLOCK
 62
     0
 10
-1.0
 20
0.166667
 30
0.0
 11
0.0
 21
0.0
 31
0.0
  0
LINE
  5
7AF0
  8
0
  6
BYBLOCK
 62
     0
 10
0.0
 20
0.0
 30
0.0
 11
-1.0
 21
-0.166667
 31
0.0
  0
LINE
  5
7AF1
  8
0
  6
BYBLOCK
 62
     0
 10
0.0
 20
0.0
 30
0.0
 11
-1.0
 21
0.0
 31
0.0
  0
ENDBLK
  5
7AF2
  8
0
  0
BLOCK
  8
0
  2
*D1
 70
     1
 10
0.0
 20
0.0
 30
0.0
  3
*D1
  1

  0
LINE
  5
7E72
  8
3
  6
CONTINUOUS
 62
     0
 10
-4614.0922241542903
 20
-5701.4336443998409
 30
0.0
 11
-4614.0922241542903
 21
-5991.6898593998403
 31
0.0
  0
LINE
  5
7E73
  8
3
  6
CONTINUOUS
 62
     0
 10
-3514.0922241542899
 20
-5781.4831503998394
 30
0.0
 11
-3514.0922241542899
 21
-5991.6898593998403
 31
0.0
  0
LINE
  5
7E74
  8
3
  6
CONTINUOUS
 62
     0
 10
-4554.0922241542903
 20
-5961.6898593998394
 30
0.0
 11
-3574.0922241542899
 21
-5961.6898593998394
 31
0.0
  0
INSERT
  5
7E75
  8
3
  6
CONTINUOUS
 62
     0
  2
_OPEN
 10
-4614.0922241542903
 20
-5961.6898593998394
 30
0.0
 41
60.0
 42
60.0
 43
60.0
 50
180.0
  0
INSERT
  5
7E76
  8
3
  6
CONTINUOUS
 62
     0
  2
_OPEN
 10
-3514.0922241542899
 20
-5961.6898593998394
 30
0.0
 41
60.0
 42
60.0
 43
60.0
  0
TEXT
  8
3
  40
90
  5
7EF9
  62
0
  72
0
  71
0
 10
-4213.31
 20
-6045.99
 30
0.000000
  1
1100
  0
POINT
  5
7E78
  8
DEFPOINTS
  6
CONTINUOUS
 62
     0
 10
-4614.0922241542903
 20
-5686.4336443998409
 30
0.0
  0
POINT
  5
7E79
  8
DEFPOINTS
  6
CONTINUOUS
 62
     0
 10
-3514.0922241542899
 20
-5766.4831503998394
 30
0.0
  0
POINT
  5
7E7A
  8
DEFPOINTS
  6
CONTINUOUS
 62
     0
 10
-3514.0922241542899
 20
-5961.6898593998394
 30
0.0
  0
ENDBLK
  5
7CEE
  8
0
  0
BLOCK
  8
0
  2
*D2
 70
     1
 10
0.0
 20
0.0
 30
0.0
  3
*D2
  1

  0
LINE
  5
7E7B
  8
3
  6
CONTINUOUS
 62
     0
 10
-3514.0922241542899
 20
-5781.4831503998394
 30
0.0
 11
-3514.0922241542899
 21
-5992.1982353998401
 31
0.0
  0
LINE
  5
7E7C
  8
3
  6
CONTINUOUS
 62
     0
 10
-3064.0922241542899
 20
-5701.4336443998409
 30
0.0
 11
-3064.0922241542899
 21
-5992.1982353998401
 31
0.0
  0
LINE
  5
7E7D
  8
3
  6
CONTINUOUS
 62
     0
 10
-3454.0922241542899
 20
-5962.1982353998401
 30
0.0
 11
-3124.0922241542899
 21
-5962.1982353998401
 31
0.0
  0
INSERT
  5
7E7E
  8
3
  6
CONTINUOUS
 62
     0
  2
_OPEN
 10
-3514.0922241542899
 20
-5962.1982353998401
 30
0.0
 41
60.0
 42
60.0
 43
60.0
 50
180.0
  0
INSERT
  5
7E7F
  8
3
  6
CONTINUOUS
 62
     0
  2
_OPEN
 10
-3064.0922241542899
 20
-5962.1982353998401
 30
0.0
 41
60.0
 42
60.0
 43
60.0
  0
TEXT
  8
3
  40
90
  5
7EFA
  62
0
  72
0
  71
0
 10
-3449.81
 20
-6046.50
 30
0.000000
  1
450
  0
POINT
  5
7E81
  8
DEFPOINTS
  6
CONTINUOUS
 62
     0
 10
-3514.0922241542899
 20
-5766.4831503998394
 30
0.0
  0
POINT
  5
7E82
  8
DEFPOINTS
  6
CONTINUOUS
 62
     0
 10
-3064.0922241542899
 20
-5686.4336443998409
 30
0.0
  0
POINT
  5
7E83
  8
DEFPOINTS
  6
CONTINUOUS
 62
     0
 10
-3064.0922241542899
 20
-5962.1982353998401
 30
0.0
  0
ENDBLK
  5
7CE3
  8
0
  0
BLOCK
  8
0
  2
*D3
 70
     1
 10
0.0
 20
0.0
 30
0.0
  3
*D3
  1

  0
LINE
  5
7E84
  8
3
  6
CONTINUOUS
 62
     0
 10
-2999.0922241542899
 20
-4382.4336443998391
 30
0.0
 11
-2707.5265171542919
 21
-4382.4336443998391
 31
0.0
  0
LINE
  5
7E85
  8
3
  6
CONTINUOUS
 62
     0
 10
-2999.0922241542899
 20
-5112.4336443998409
 30
0.0
 11
-2707.5265171542919
 21
-5112.4336443998409
 31
0.0
  0
LINE
  5
7E86
  8
3
  6
CONTINUOUS
 62
     0
 10
-2737.5265171542928
 20
-4442.43364439984
 30
0.0
 11
-2737.5265171542928
 21
-5052.43364439984
 31
0.0
  0
INSERT
  5
7E87
  8
3
  6
CONTINUOUS
 62
     0
  2
_OPEN
 10
-2737.5265171542928
 20
-4382.4336443998391
 30
0.0
 41
60.0
 42
60.0
 43
60.0
 50
90.0
  0
INSERT
  5
7E88
  8
3
  6
CONTINUOUS
 62
     0
  2
_OPEN
 10
-2737.5265171542928
 20
-5112.4336443998409
 30
0.0
 41
60.0
 42
60.0
 43
60.0
 50
270.0
  0
TEXT
  8
3
  40
90
  5
7EFB
  62
0
  72
0
  71
0
 10
-2992.53
 20
-4879.74
 30
0.000000
  1
730
  0
POINT
  5
7E8A
  8
DEFPOINTS
  6
CONTINUOUS
 62
     0
 10
-3014.0922241542899
 20
-4382.4336443998391
 30
0.0
  0
POINT
  5
7E8B
  8
DEFPOINTS
  6
CONTINUOUS
 62
     0
 10
-3014.0922241542899
 20
-5112.4336443998409
 30
0.0
  0
POINT
  5
7E8C
  8
DEFPOINTS
  6
CONTINUOUS
 62
     0
 10
-2737.5265171542928
 20
-5112.4336443998409
 30
0.0
  0
ENDBLK
  5
7CD8
  8
0
  0
BLOCK
  8
0
  2
*D4
 70
     1
 10
0.0
 20
0.0
 30
0.0
  3
*D4
  1

  0
LINE
  5
7E8D
  8
3
  6
CONTINUOUS
 62
     0
 10
-2999.0922241542899
 20
-4382.4336443998391
 30
0.0
 11
-2533.719516901509
 21
-4382.4336443998391
 31
0.0
  0
LINE
  5
7E8E
  8
3
  6
CONTINUOUS
 62
     0
 10
-3078.9969951542912
 20
-5141.4336443998409
 30
0.0
 11
-2533.719516901509
 21
-5141.4336443998409
 31
0.0
  0
LINE
  5
7E8F
  8
3
  6
CONTINUOUS
 62
     0
 10
-2563.719516901509
 20
-4442.43364439984
 30
0.0
 11
-2563.719516901509
 21
-5081.43364439984
 31
0.0
  0
INSERT
  5
7E90
  8
3
  6
CONTINUOUS
 62
     0
  2
_OPEN
 10
-2563.719516901509
 20
-4382.4336443998391
 30
0.0
 41
60.0
 42
60.0
 43
60.0
 50
90.0
  0
INSERT
  5
7E91
  8
3
  6
CONTINUOUS
 62
     0
  2
_OPEN
 10
-2563.719516901509
 20
-5141.4336443998409
 30
0.0
 41
60.0
 42
60.0
 43
60.0
 50
270.0
  0
TEXT
  8
3
  40
90
  5
7EFC
  62
0
  72
0
  71
0
 10
-2818.72
 20
-4884.85
 30
0.000000
  1
759
  0
POINT
  5
7E93
  8
DEFPOINTS
  6
CONTINUOUS
 62
     0
 10
-3014.0922241542899
 20
-4382.4336443998391
 30
0.0
  0
POINT
  5
7E94
  8
DEFPOINTS
  6
CONTINUOUS
 62
     0
 10
-3093.9969951542921
 20
-5141.4336443998409
 30
0.0
  0
POINT
  5
7E95
  8
DEFPOINTS
  6
CONTINUOUS
 62
     0
 10
-2563.719516901509
 20
-5141.4336443998409
 30
0.0
  0
ENDBLK
  5
7D72
  8
0
  0
BLOCK
  8
0
  2
*D5
 70
     1
 10
0.0
 20
0.0
 30
0.0
  3
*D5
  1

  0
LINE
  5
7E96
  8
3
  6
CONTINUOUS
 62
     0
 10
-3078.9969951542912
 20
-5141.4336443998409
 30
0.0
 11
-2533.7195169015081
 21
-5141.4336443998409
 31
0.0
  0
LINE
  5
7E97
  8
3
  6
CONTINUOUS
 62
     0
 10
-3049.0922241542899
 20
-5686.4336443998409
 30
0.0
 11
-2533.7195169015081
 21
-5686.4336443998409
 31
0.0
  0
LINE
  5
7E98
  8
3
  6
CONTINUOUS
 62
     0
 10
-2563.719516901509
 20
-5201.4336443998409
 30
0.0
 11
-2563.719516901509
 21
-5626.4336443998409
 31
0.0
  0
INSERT
  5
7E99
  8
3
  6
CONTINUOUS
 62
     0
  2
_OPEN
 10
-2563.719516901509
 20
-5141.4336443998409
 30
0.0
 41
60.0
 42
60.0
 43
60.0
 50
90.0
  0
INSERT
  5
7E9A
  8
3
  6
CONTINUOUS
 62
     0
  2
_OPEN
 10
-2563.719516901509
 20
-5686.4336443998409
 30
0.0
 41
60.0
 42
60.0
 43
60.0
 50
270.0
  0
TEXT
  8
3
  40
90
  5
7EFD
  62
0
  72
0
  71
0
 10
-2818.72
 20
-5573.23
 30
0.000000
  1
545
  0
POINT
  5
7E9C
  8
DEFPOINTS
  6
CONTINUOUS
 62
     0
 10
-3093.9969951542921
 20
-5141.4336443998409
 30
0.0
  0
POINT
  5
7E9D
  8
DEFPOINTS
  6
CONTINUOUS
 62
     0
 10
-3064.0922241542899
 20
-5686.4336443998409
 30
0.0
  0
POINT
  5
7E9E
  8
DEFPOINTS
  6
CONTINUOUS
 62
     0
 10
-2563.719516901509
 20
-5686.4336443998409
 30
0.0
  0
ENDBLK
  5
7D5C
  8
0
  0
BLOCK
  8
0
  2
*D6
 70
     1
 10
0.0
 20
0.0
 30
0.0
  3
*D6
  1

  0
LINE
  5
7E9F
  8
3
  6
CONTINUOUS
 62
     0
 10
-4126.0922241542903
 20
-5126.4336443998409
 30
0.0
 11
-4126.0922241542903
 21
-4245.356438399841
 31
0.0
  0
LINE
  5
7EA0
  8
3
  6
CONTINUOUS
 62
     0
 10
-3514.0921691542899
 20
-4410.549034399839
 30
0.0
 11
-3514.0921691542899
 21
-4245.356438399841
 31
0.0
  0
LINE
  5
7EA1
  8
3
  6
CONTINUOUS
 62
     0
 10
-4066.0922241542899
 20
-4275.35643839984
 30
0.0
 11
-3574.0921691542899
 21
-4275.35643839984
 31
0.0
  0
INSERT
  5
7EA2
  8
3
  6
CONTINUOUS
 62
     0
  2
_OPEN
 10
-4126.0922241542903
 20
-4275.35643839984
 30
0.0
 41
60.0
 42
60.0
 43
60.0
 50
180.0
  0
INSERT
  5
7EA3
  8
3
  6
CONTINUOUS
 62
     0
  2
_OPEN
 10
-3514.0921691542899
 20
-4275.35643839984
 30
0.0
 41
60.0
 42
60.0
 43
60.0
  0
TEXT
  8
3
  40
90
  5
7EFE
  62
0
  72
0
  71
0
 10
-4012.27
 20
-4359.66
 30
0.000000
  1
612
  0
POINT
  5
7EA5
  8
DEFPOINTS
  6
CONTINUOUS
 62
     0
 10
-4126.0922241542903
 20
-5141.4336443998409
 30
0.0
  0
POINT
  5
7EA6
  8
DEFPOINTS
  6
CONTINUOUS
 62
     0
 10
-3514.0921691542899
 20
-4425.5490343998399
 30
0.0
  0
POINT
  5
7EA7
  8
DEFPOINTS
  6
CONTINUOUS
 62
     0
 10
-3514.0921691542899
 20
-4275.35643839984
 30
0.0
  0
ENDBLK
  5
7D9A
  8
0
  0
BLOCK
  8
0
  2
*D7
 70
     1
 10
0.0
 20
0.0
 30
0.0
  3
*D7
  1

  0
LINE
  5
7EA8
  8
3
  6
CONTINUOUS
 62
     0
 10
-3514.0921691542899
 20
-4410.549034399839
 30
0.0
 11
-3514.0921691542899
 21
-4245.356438399841
 31
0.0
  0
LINE
  5
7EA9
  8
3
  6
CONTINUOUS
 62
     0
 10
-3014.0922241542899
 20
-4327.43364439984
 30
0.0
 11
-3014.0922241542899
 21
-4245.356438399841
 31
0.0
  0
LINE
  5
7EAA
  8
3
  6
CONTINUOUS
 62
     0
 10
-3454.092169154289
 20
-4275.35643839984
 30
0.0
 11
-3074.0922241542899
 21
-4275.35643839984
 31
0.0
  0
INSERT
  5
7EAB
  8
3
  6
CONTINUOUS
 62
     0
  2
_OPEN
 10
-3514.0921691542899
 20
-4275.35643839984
 30
0.0
 41
60.0
 42
60.0
 43
60.0
 50
180.0
  0
INSERT
  5
7EAC
  8
3
  6
CONTINUOUS
 62
     0
  2
_OPEN
 10
-3014.0922241542899
 20
-4275.35643839984
 30
0.0
 41
60.0
 42
60.0
 43
60.0
  0
TEXT
  8
3
  40
90
  5
7EFF
  62
0
  72
0
  71
0
 10
-3444.09
 20
-4359.66
 30
0.000000
  1
500
  0
POINT
  5
7EAE
  8
DEFPOINTS
  6
CONTINUOUS
 62
     0
 10
-3514.0921691542899
 20
-4425.5490343998399
 30
0.0
  0
POINT
  5
7EAF
  8
DEFPOINTS
  6
CONTINUOUS
 62
     0
 10
-3014.0922241542899
 20
-4342.4336443998391
 30
0.0
  0
POINT
  5
7EB0
  8
DEFPOINTS
  6
CONTINUOUS
 62
     0
 10
-3014.0922241542899
 20
-4275.35643839984
 30
0.0
  0
ENDBLK
  5
7CAC
  8
0
  0
BLOCK
  8
0
  2
*D8
 70
     1
 10
0.0
 20
0.0
 30
0.0
  3
*D8
  1

  0
LINE
  5
7EB1
  8
3
  6
CONTINUOUS
 62
     0
 10
-4614.0922241542903
 20
-2950.7023828400111
 30
0.0
 11
-4614.0922241542903
 21
-3349.857920840011
 31
0.0
  0
LINE
  5
7EB2
  8
3
  6
CONTINUOUS
 62
     0
 10
-3064.0922241542899
 20
-2950.7023828400111
 30
0.0
 11
-3064.0922241542899
 21
-3349.857920840011
 31
0.0
  0
LINE
  5
7EB3
  8
3
  6
CONTINUOUS
 62
     0
 10
-4554.0922241542903
 20
-3319.857920840012
 30
0.0
 11
-3124.0922241542899
 21
-3319.857920840012
 31
0.0
  0
INSERT
  5
7EB4
  8
3
  6
CONTINUOUS
 62
     0
  2
_OPEN
 10
-4614.0922241542903
 20
-3319.857920840012
 30
0.0
 41
60.0
 42
60.0
 43
60.0
 50
180.0
  0
INSERT
  5
7EB5
  8
3
  6
CONTINUOUS
 62
     0
  2
_OPEN
 10
-3064.0922241542899
 20
-3319.857920840012
 30
0.0
 41
60.0
 42
60.0
 43
60.0
  0
TEXT
  8
3
  40
90
  5
7F00
  62
0
  72
0
  71
0
 10
-3920.19
 20
-3404.16
 30
0.000000
  1
1550
  0
POINT
  5
7EB7
  8
DEFPOINTS
  6
CONTINUOUS
 62
     0
 10
-4614.0922241542903
 20
-2935.7023828400111
 30
0.0
  0
POINT
  5
7EB8
  8
DEFPOINTS
  6
CONTINUOUS
 62
     0
 10
-3064.0922241542899
 20
-2935.7023828400111
 30
0.0
  0
POINT
  5
7EB9
  8
DEFPOINTS
  6
CONTINUOUS
 62
     0
 10
-3064.0922241542899
 20
-3319.857920840012
 30
0.0
  0
ENDBLK
  5
7CA1
  8
0
  0
BLOCK
  8
0
  2
*D9
 70
     1
 10
0.0
 20
0.0
 30
0.0
  3
*D9
  1

  0
LINE
  5
7EBA
  8
3
  6
CONTINUOUS
 62
     0
 10
-3049.0922241542899
 20
-2185.7023828400111
 30
0.0
 11
-2651.2546331542908
 21
-2185.7023828400111
 31
0.0
  0
LINE
  5
7EBB
  8
3
  6
CONTINUOUS
 62
     0
 10
-3049.0922241542899
 20
-2935.7023828400111
 30
0.0
 11
-2651.2546331542908
 21
-2935.7023828400111
 31
0.0
  0
LINE
  5
7EBC
  8
3
  6
CONTINUOUS
 62
     0
 10
-2681.2546331542908
 20
-2245.7023828400111
 30
0.0
 11
-2681.2546331542908
 21
-2875.7023828400111
 31
0.0
  0
INSERT
  5
7EBD
  8
3
  6
CONTINUOUS
 62
     0
  2
_OPEN
 10
-2681.2546331542908
 20
-2185.7023828400111
 30
0.0
 41
60.0
 42
60.0
 43
60.0
 50
90.0
  0
INSERT
  5
7EBE
  8
3
  6
CONTINUOUS
 62
     0
  2
_OPEN
 10
-2681.2546331542908
 20
-2935.7023828400111
 30
0.0
 41
60.0
 42
60.0
 43
60.0
 50
270.0
  0
TEXT
  8
3
  40
90
  5
7F01
  62
0
  72
0
  71
0
 10
-2936.25
 20
-2680.46
 30
0.000000
  1
750
  0
POINT
  5
7EC0
  8
DEFPOINTS
  6
CONTINUOUS
 62
     0
 10
-3064.0922241542899
 20
-2185.7023828400111
 30
0.0
  0
POINT
  5
7EC1
  8
DEFPOINTS
  6
CONTINUOUS
 62
     0
 10
-3064.0922241542899
 20
-2935.7023828400111
 30
0.0
  0
POINT
  5
7EC2
  8
DEFPOINTS
  6
CONTINUOUS
 62
     0
 10
-2681.2546331542908
 20
-2935.7023828400111
 30
0.0
  0
ENDBLK
  5
7C96
  8
0
  0
BLOCK
  8
0
  2
*D10
 70
     1
 10
0.0
 20
0.0
 30
0.0
  3
*D10
  1

  0
LINE
  5
7EC3
  8
3
  6
CONTINUOUS
 62
     0
 10
-1698.0547788400499
 20
-4367.43364439984
 30
0.0
 11
-1698.0547788400499
 21
-4193.2382053998399
 31
0.0
  0
LINE
  5
7EC4
  8
3
  6
CONTINUOUS
 62
     0
 10
-1168.0547788400499
 20
-4367.43364439984
 30
0.0
 11
-1168.0547788400499
 21
-4193.2382053998399
 31
0.0
  0
LINE
  5
7EC5
  8
3
  6
CONTINUOUS
 62
     0
 10
-1638.054778840049
 20
-4223.2382053998399
 30
0.0
 11
-1228.0547788400511
 21
-4223.2382053998399
 31
0.0
  0
INSERT
  5
7EC6
  8
3
  6
CONTINUOUS
 62
     0
  2
_OPEN
 10
-1698.0547788400499
 20
-4223.2382053998399
 30
0.0
 41
60.0
 42
60.0
 43
60.0
 50
180.0
  0
INSERT
  5
7EC7
  8
3
  6
CONTINUOUS
 62
     0
  2
_OPEN
 10
-1168.0547788400499
 20
-4223.2382053998399
 30
0.0
 41
60.0
 42
60.0
 43
60.0
  0
TEXT
  8
3
  40
90
  5
7F02
  62
0
  72
0
  71
0
 10
-1638.05
 20
-4307.54
 30
0.000000
  1
530
  0
POINT
  5
7EC9
  8
DEFPOINTS
  6
CONTINUOUS
 62
     0
 10
-1698.0547788400499
 20
-4382.4336443998391
 30
0.0
  0
POINT
  5
7ECA
  8
DEFPOINTS
  6
CONTINUOUS
 62
     0
 10
-1168.0547788400499
 20
-4382.4336443998391
 30
0.0
  0
POINT
  5
7ECB
  8
DEFPOINTS
  6
CONTINUOUS
 62
     0
 10
-1168.0547788400499
 20
-4223.2382053998399
 30
0.0
  0
ENDBLK
  5
7C8B
  8
0
  0
BLOCK
  8
0
  2
*D11
 70
     1
 10
0.0
 20
0.0
 30
0.0
  3
*D11
  1

  0
LINE
  5
7ECC
  8
3
  6
CONTINUOUS
 62
     0
 10
-1070.0547788400499
 20
-4786.43364439984
 30
0.0
 11
-759.06564684005093
 21
-4786.43364439984
 31
0.0
  0
LINE
  5
7ECD
  8
3
  6
CONTINUOUS
 62
     0
 10
-1070.0547788400499
 20
-5496.4336443998409
 30
0.0
 11
-759.06564684005104
 21
-5496.4336443998409
 31
0.0
  0
LINE
  5
7ECE
  8
3
  6
CONTINUOUS
 62
     0
 10
-789.06564684005093
 20
-4846.43364439984
 30
0.0
 11
-789.06564684005116
 21
-5436.4336443998409
 31
0.0
  0
INSERT
  5
7ECF
  8
3
  6
CONTINUOUS
 62
     0
  2
_OPEN
 10
-789.06564684005093
 20
-4786.43364439984
 30
0.0
 41
60.0
 42
60.0
 43
60.0
 50
90.0
  0
INSERT
  5
7ED0
  8
3
  6
CONTINUOUS
 62
     0
  2
_OPEN
 10
-789.06564684005116
 20
-5496.4336443998409
 30
0.0
 41
60.0
 42
60.0
 43
60.0
 50
270.0
  0
TEXT
  8
3
  40
90
  5
7F03
  62
0
  72
0
  71
0
 10
-1044.07
 20
-5261.48
 30
0.000000
  1
φ710
  0
POINT
  5
7ED2
  8
DEFPOINTS
  6
CONTINUOUS
 62
     0
 10
-1085.0547788400499
 20
-4786.43364439984
 30
0.0
  0
POINT
  5
7ED3
  8
DEFPOINTS
  6
CONTINUOUS
 62
     0
 10
-1085.0547788400499
 20
-5496.4336443998409
 30
0.0
  0
POINT
  5
7ED4
  8
DEFPOINTS
  6
CONTINUOUS
 62
     0
 10
-789.06564684005116
 20
-5496.4336443998409
 30
0.0
  0
ENDBLK
  5
7D51
  8
0
  0
BLOCK
  8
0
  2
*D12
 70
     1
 10
0.0
 20
0.0
 30
0.0
  3
*D12
  1

  0
LINE
  5
7ED5
  8
3
  6
CONTINUOUS
 62
     0
 10
-1943.0547788400499
 20
-4936.7336443998402
 30
0.0
 11
-1943.0547788400499
 21
-3974.6730897670882
 31
0.0
  0
LINE
  5
7ED6
  8
3
  6
CONTINUOUS
 62
     0
 10
-1433.0547788400499
 20
-4076.2144159345148
 30
0.0
 11
-1433.0547788400499
 21
-3974.6730897670882
 31
0.0
  0
LINE
  5
7ED7
  8
3
  6
CONTINUOUS
 62
     0
 10
-1883.0547788400499
 20
-4004.6730897670868
 30
0.0
 11
-1493.0547788400511
 21
-4004.6730897670868
 31
0.0
  0
INSERT
  5
7ED8
  8
3
  6
CONTINUOUS
 62
     0
  2
_OPEN
 10
-1943.0547788400499
 20
-4004.6730897670868
 30
0.0
 41
60.0
 42
60.0
 43
60.0
 50
180.0
  0
INSERT
  5
7ED9
  8
3
  6
CONTINUOUS
 62
     0
  2
_OPEN
 10
-1433.0547788400499
 20
-4004.6730897670868
 30
0.0
 41
60.0
 42
60.0
 43
60.0
  0
TEXT
  8
3
  40
90
  5
7F04
  62
0
  72
0
  71
0
 10
-1868.05
 20
-4013.97
 30
0.000000
  1
MAX
  0
TEXT
  8
3
  40
90
  5
7F05
  62
0
  72
0
  71
0
 10
-1868.05
 20
-4130.97
 30
0.000000
  1
590
  0
POINT
  5
7EDB
  8
DEFPOINTS
  6
CONTINUOUS
 62
     0
 10
-1943.0547788400499
 20
-4951.7336443998402
 30
0.0
  0
POINT
  5
7EDC
  8
DEFPOINTS
  6
CONTINUOUS
 62
     0
 10
-1433.0547788400499
 20
-4091.2144159345148
 30
0.0
  0
POINT
  5
7EDD
  8
DEFPOINTS
  6
CONTINUOUS
 62
     0
 10
-1433.0547788400499
 20
-4004.6730897670868
 30
0.0
  0
ENDBLK
  5
7D46
  8
0
  0
BLOCK
  8
0
  2
*D13
 70
     1
 10
0.0
 20
0.0
 30
0.0
  3
*D13
  1

  0
LINE
  5
7D32
  8
0
  6
BYBLOCK
 62
     0
 10
-1080.7344744511929
 20
-4063.7163260610641
 30
0.0
 11
-1080.7344744511929
 21
-3974.1646837670869
 31
0.0
  0
LINE
  5
7D33
  8
0
  6
BYBLOCK
 62
     0
 10
-732.73447445119382
 20
-4731.43364439984
 30
0.0
 11
-732.73447445119382
 21
-3974.1646837670869
 31
0.0
  0
LINE
  5
7D34
  8
0
  6
BYBLOCK
 62
     0
 10
-1020.734474451193
 20
-4004.164683767086
 30
0.0
 11
-792.73447445119382
 21
-4004.164683767086
 31
0.0
  0
TEXT
  5
7D35
  8
3
 62
     0
 10
-1022.448760165479
 20
-3967.4901663494752
 30
0.0
 40
90.0
  1
348
  0
INSERT
  5
7D36
  8
0
  6
BYBLOCK
 62
     0
  2
_OPEN
 10
-1080.7344744511929
 20
-4004.164683767086
 30
0.0
 41
60.0
 42
60.0
 43
60.0
 50
180.0
  0
INSERT
  5
7D37
  8
0
  6
BYBLOCK
 62
     0
  2
_OPEN
 10
-732.73447445119382
 20
-4004.164683767086
 30
0.0
 41
60.0
 42
60.0
 43
60.0
  0
POINT
  5
7D38
  8
DEFPOINTS
  6
BYBLOCK
 62
     0
 10
-1080.7344744511929
 20
-4078.716326061065
 30
0.0
  0
POINT
  5
7D39
  8
DEFPOINTS
  6
BYBLOCK
 62
     0
 10
-732.73447445119382
 20
-4746.4336443998391
 30
0.0
  0
POINT
  5
7D3A
  8
DEFPOINTS
  6
BYBLOCK
 62
     0
 10
-732.73447445119382
 20
-4004.164683767086
 30
0.0
  0
ENDBLK
  5
7D3B
  8
0
  0
BLOCK
  8
0
  2
*D14
 70
     1
 10
0.0
 20
0.0
 30
0.0
  3
*D14
  1

  0
LINE
  5
7EDE
  8
3
  6
CONTINUOUS
 62
     0
 10
-1865.054778840049
 20
-5701.4336443998409
 30
0.0
 11
-1865.054778840049
 21
-5966.6471833998403
 31
0.0
  0
LINE
  5
7EDF
  8
3
  6
CONTINUOUS
 62
     0
 10
-1433.0547788400499
 20
-5747.2432803998408
 30
0.0
 11
-1433.0547788400499
 21
-5966.6471833998403
 31
0.0
  0
LINE
  5
7EE0
  8
3
  6
CONTINUOUS
 62
     0
 10
-1805.0547788400499
 20
-5936.6471833998403
 30
0.0
 11
-1493.0547788400511
 21
-5936.6471833998403
 31
0.0
  0
INSERT
  5
7EE1
  8
3
  6
CONTINUOUS
 62
     0
  2
_OPEN
 10
-1865.054778840049
 20
-5936.6471833998403
 30
0.0
 41
60.0
 42
60.0
 43
60.0
 50
180.0
  0
INSERT
  5
7EE2
  8
3
  6
CONTINUOUS
 62
     0
  2
_OPEN
 10
-1433.0547788400499
 20
-5936.6471833998403
 30
0.0
 41
60.0
 42
60.0
 43
60.0
  0
TEXT
  8
3
  40
90
  5
7F06
  62
0
  72
0
  71
0
 10
-1818.77
 20
-6020.95
 30
0.000000
  1
432
  0
POINT
  5
7EE4
  8
DEFPOINTS
  6
CONTINUOUS
 62
     0
 10
-1865.054778840049
 20
-5686.4336443998409
 30
0.0
  0
POINT
  5
7EE5
  8
DEFPOINTS
  6
CONTINUOUS
 62
     0
 10
-1433.0547788400499
 20
-5732.2432803998408
 30
0.0
  0
POINT
  5
7EE6
  8
DEFPOINTS
  6
CONTINUOUS
 62
     0
 10
-1433.0547788400499
 20
-5936.6471833998403
 30
0.0
  0
ENDBLK
  5
7C5D
  8
0
  0
BLOCK
  8
0
  2
*D15
 70
     1
 10
0.0
 20
0.0
 30
0.0
  3
*D15
  1

  0
LINE
  5
7D06
  8
0
  6
BYBLOCK
 62
     0
 10
-1080.7344744511929
 20
-5747.2432803998408
 30
0.0
 11
-1080.7344744511929
 21
-5966.6471833998403
 31
0.0
  0
LINE
  5
7D07
  8
0
  6
BYBLOCK
 62
     0
 10
-762.73447445119382
 20
-5701.4336443998409
 30
0.0
 11
-762.73447445119382
 21
-5966.6471833998403
 31
0.0
  0
LINE
  5
7D08
  8
0
  6
BYBLOCK
 62
     0
 10
-1020.734474451193
 20
-5936.6471833998403
 30
0.0
 11
-822.73447445119382
 21
-5936.6471833998403
 31
0.0
  0
TEXT
  5
7D09
  8
3
 62
     0
 10
-1028.8773315940509
 20
-5904.6945080601254
 30
0.0
 40
90.0
  1
318
  0
INSERT
  5
7D0A
  8
0
  6
BYBLOCK
 62
     0
  2
_OPEN
 10
-1080.7344744511929
 20
-5936.6471833998403
 30
0.0
 41
60.0
 42
60.0
 43
60.0
 50
180.0
  0
INSERT
  5
7D0B
  8
0
  6
BYBLOCK
 62
     0
  2
_OPEN
 10
-762.73447445119382
 20
-5936.6471833998403
 30
0.0
 41
60.0
 42
60.0
 43
60.0
  0
POINT
  5
7D0C
  8
DEFPOINTS
  6
BYBLOCK
 62
     0
 10
-1080.7344744511929
 20
-5732.2432803998408
 30
0.0
  0
POINT
  5
7D0D
  8
DEFPOINTS
  6
BYBLOCK
 62
     0
 10
-762.73447445119382
 20
-5686.4336443998409
 30
0.0
  0
POINT
  5
7D0E
  8
DEFPOINTS
  6
BYBLOCK
 62
     0
 10
-762.73447445119382
 20
-5936.6471833998403
 30
0.0
  0
ENDBLK
  5
7D0F
  8
0
  0
BLOCK
  8
0
  2
*D16
 70
     1
 10
0.0
 20
0.0
 30
0.0
  3
*D16
  1

  0
LINE
  5
7EE7
  8
3
  6
CONTINUOUS
 62
     0
 10
-2999.0922241542899
 20
-4342.4336443998391
 30
0.0
 11
-2352.3323840623161
 21
-4342.4336443998391
 31
0.0
  0
LINE
  5
7EE8
  8
3
  6
CONTINUOUS
 62
     0
 10
-3049.0922241542899
 20
-5686.4336443998409
 30
0.0
 11
-2352.332384062317
 21
-5686.4336443998409
 31
0.0
  0
LINE
  5
7EE9
  8
3
  6
CONTINUOUS
 62
     0
 10
-2382.3323840623161
 20
-4402.43364439984
 30
0.0
 11
-2382.332384062317
 21
-5626.4336443998409
 31
0.0
  0
INSERT
  5
7EEA
  8
3
  6
CONTINUOUS
 62
     0
  2
_OPEN
 10
-2382.3323840623161
 20
-4342.4336443998391
 30
0.0
 41
60.0
 42
60.0
 43
60.0
 50
90.0
  0
INSERT
  5
7EEB
  8
3
  6
CONTINUOUS
 62
     0
  2
_OPEN
 10
-2382.332384062317
 20
-5686.4336443998409
 30
0.0
 41
60.0
 42
60.0
 43
60.0
 50
270.0
  0
TEXT
  8
3
  40
90
  5
7F07
  62
0
  72
0
  71
0
 10
-2637.33
 20
-5178.72
 30
0.000000
  1
1344
  0
POINT
  5
7EED
  8
DEFPOINTS
  6
CONTINUOUS
 62
     0
 10
-3014.0922241542899
 20
-4342.4336443998391
 30
0.0
  0
POINT
  5
7EEE
  8
DEFPOINTS
  6
CONTINUOUS
 62
     0
 10
-3064.0922241542899
 20
-5686.4336443998409
 30
0.0
  0
POINT
  5
7EEF
  8
DEFPOINTS
  6
CONTINUOUS
 62
     0
 10
-2382.332384062317
 20
-5686.4336443998409
 30
0.0
  0
ENDBLK
  5
7D7D
  8
0
  0
BLOCK
  8
0
  2
*D17
 70
     1
 10
0.0
 20
0.0
 30
0.0
  3
*D17
  1

  0
LINE
  5
7EF0
  8
3
 62
     0
 10
-3014.0922241542899
 20
-4312.43364439984
 30
0.0
 11
-3014.0922241542899
 21
-4058.2257459510688
 31
0.0
  0
LINE
  5
7EF1
  8
3
 62
     0
 10
-4611.5922241542903
 20
-5521.4336443998409
 30
0.0
 11
-4611.5922241542903
 21
-4058.2257459510688
 31
0.0
  0
LINE
  5
7EF2
  8
3
 62
     0
 10
-3074.0922241542899
 20
-4088.2257459510688
 30
0.0
 11
-4551.5922241542903
 21
-4088.2257459510688
 31
0.0
  0
INSERT
  5
7EF3
  8
3
 62
     0
  2
_OPEN
 10
-3014.0922241542899
 20
-4088.2257459510688
 30
0.0
 41
60.0
 42
60.0
 43
60.0
  0
INSERT
  5
7EF4
  8
3
 62
     0
  2
_OPEN
 10
-4611.5922241542903
 20
-4088.2257459510688
 30
0.0
 41
60.0
 42
60.0
 43
60.0
 50
180.0
  0
TEXT
  8
3
  40
90
  5
7F08
  62
0
  72
0
  71
0
 10
-3965.65
 20
-4172.53
 30
0.000000
  1
1598
  0
POINT
  5
7EF6
  8
DEFPOINTS
 62
     0
 10
-3014.0922241542899
 20
-4327.43364439984
 30
0.0
  0
POINT
  5
7EF7
  8
DEFPOINTS
 62
     0
 10
-4611.5922241542903
 20
-5536.4336443998409
 30
0.0
  0
POINT
  5
7EF8
  8
DEFPOINTS
 62
     0
 10
-4611.5922241542903
 20
-4088.2257459510688
 30
0.0
  0
ENDBLK
  5
7D89
  8
0
  0
ENDSEC
  0
SECTION
  2
ENTITIES
  0
LINE
  5
7A6B
  8
2
  6
CENTER
 10
-4400.5578391542904
 20
-5141.4336443998409
 30
0.0
 11
-2944.2024751542922
 21
-5141.4336443998409
 31
0.0
  0
LINE
  5
7A6C
  8
1
  6
CONTINUOUS
 10
-4603.792224154291
 20
-2903.7023828400111
 30
0.0
 11
-3324.3922241542909
 21
-2903.7023828400111
 31
0.0
  0
LINE
  5
7A6D
  8
1
  6
CONTINUOUS
 10
-4378.798317154291
 20
-5511.6017993998412
 30
0.0
 11
-3478.798317154291
 21
-5276.6017993998403
 31
0.0
  0
LINE
  5
7A6E
  8
1
  6
CONTINUOUS
 10
-4366.166281154291
 20
-5559.97980739984
 30
0.0
 11
-3466.1662811542919
 21
-5324.97980739984
 31
0.0
  0
ARC
  5
7A6F
  8
1
  6
CONTINUOUS
 10
-3514.0922241542899
 20
-5141.4336443998409
 30
0.0
 40
189.69999999999999
 50
284.63383099999987
 51
104.6338309999999
  0
LINE
  5
7A70
  8
1
  6
CONTINUOUS
 10
-4603.792224154291
 20
-3013.702382840012
 30
0.0
 11
-3324.3922241542909
 21
-3013.702382840012
 31
0.0
  0
LINE
  5
7A71
  8
1
  6
CONTINUOUS
 10
-3653.7922241542901
 20
-2920.7023828400111
 30
0.0
 11
-3374.3922241542909
 21
-2920.7023828400111
 31
0.0
  0
LINE
  5
7A72
  8
1
  6
CONTINUOUS
 10
-3653.7922241542901
 20
-3005.7023828400111
 30
0.0
 11
-3374.3922241542909
 21
-3005.7023828400111
 31
0.0
  0
CIRCLE
  5
7A73
  8
1
  6
CONTINUOUS
 10
-3514.0922241542899
 20
-5141.4336443998409
 30
0.0
 40
139.69999999999999
  0
LINE
  5
7A74
  8
1
  6
CONTINUOUS
 10
-3909.0922241542899
 20
-2155.7023828400111
 30
0.0
 11
-3119.0922241542899
 21
-2155.7023828400111
 31
0.0
  0
CIRCLE
  5
7A75
  8
1
  6
CONTINUOUS
 10
-3514.0922241542899
 20
-5141.4336443998409
 30
0.0
 40
395.0
  0
CIRCLE
  5
7A76
  8
1
  6
CONTINUOUS
 10
-3514.0922241542899
 20
-5141.4336443998409
 30
0.0
 40
355.0
  0
LINE
  5
7A77
  8
1
  6
CONTINUOUS
 10
-4126.0922241542903
 20
-2768.7023828400111
 30
0.0
 11
-3014.0922241542899
 21
-2768.7023828400111
 31
0.0
  0
LINE
  5
7A78
  8
1
  6
CONTINUOUS
 10
-4126.0922241542903
 20
-2238.7023828400111
 30
0.0
 11
-3014.0922241542899
 21
-2238.7023828400111
 31
0.0
  0
LINE
  5
7A79
  8
1
  6
CONTINUOUS
 10
-4614.0922241542903
 20
-5586.4336443998409
 30
0.0
 11
-3064.0922241542899
 21
-5586.4336443998409
 31
0.0
  0
LINE
  5
7A7A
  8
1
  6
CONTINUOUS
 10
-4614.0922241542903
 20
-5686.4336443998409
 30
0.0
 11
-3064.0922241542899
 21
-5686.4336443998409
 31
0.0
  0
LINE
  5
7A7B
  8
1
  6
CONTINUOUS
 10
-3514.0922241542899
 20
-4425.5490393998398
 30
0.0
 11
-3014.0922241542899
 21
-4382.4336443998391
 31
0.0
  0
LINE
  5
7A7C
  8
2
  6
CENTER
 10
-4414.0922241542903
 20
-5521.1336443998398
 30
0.0
 11
-4414.0922241542903
 21
-5231.7336443998402
 31
0.0
  0
ARC
  5
7A7D
  8
1
  6
CONTINUOUS
 10
-4414.0922241542903
 20
-5376.4336443998409
 30
0.0
 40
189.69999999999999
 50
104.6338309999999
 51
284.63383099999987
  0
CIRCLE
  5
7A7E
  8
1
  6
CONTINUOUS
 10
-4414.0922241542903
 20
-5376.4336443998409
 30
0.0
 40
139.69999999999999
  0
ARC
  5
7A7F
  8
1
  6
CONTINUOUS
 10
-4414.0922241542903
 20
-5376.4336443998409
 30
0.0
 40
162.0
 50
324.972283
 51
215.02771699999991
  0
ARC
  5
7A80
  8
1
  6
CONTINUOUS
 10
-3567.0922241542899
 20
-5088.4336443998409
 30
0.0
 40
559.0
 50
185.44050899999999
 51
242.9836029999999
  0
LINE
  5
7A81
  8
1
  6
CONTINUOUS
 10
-4216.5922241542903
 20
-5536.4336443998409
 30
0.0
 11
-4611.5922241542903
 21
-5536.4336443998409
 31
0.0
  0
LINE
  5
7A82
  8
1
  6
CONTINUOUS
 10
-4216.5922241542903
 20
-5586.4336443998409
 30
0.0
 11
-4216.5922241542903
 21
-5536.4336443998409
 31
0.0
  0
LINE
  5
7A83
  8
1
  6
CONTINUOUS
 10
-4611.5922241542903
 20
-5586.4336443998409
 30
0.0
 11
-4611.5922241542903
 21
-5536.4336443998409
 31
0.0
  0
LINE
  5
7A84
  8
1
  6
CONTINUOUS
 10
-4568.0922241542903
 20
-5518.4336443998409
 30
0.0
 11
-4546.7498901542904
 21
-5469.4172113998393
 31
0.0
  0
LINE
  5
7A85
  8
1
  6
CONTINUOUS
 10
-4568.0922241542903
 20
-5536.4336443998409
 30
0.0
 11
-4568.0922241542903
 21
-5518.4336443998409
 31
0.0
  0
LINE
  5
7A86
  8
1
  6
CONTINUOUS
 10
-4260.0922241542903
 20
-5536.4336443998409
 30
0.0
 11
-4260.0922241542903
 21
-5518.4336443998409
 31
0.0
  0
LINE
  5
7A87
  8
1
  6
CONTINUOUS
 10
-4260.0922241542903
 20
-5518.4336443998409
 30
0.0
 11
-4281.4345581542902
 21
-5469.4172113998393
 31
0.0
  0
LINE
  5
7A88
  8
1
  6
CONTINUOUS
 10
-4614.0922241542903
 20
-5586.4336443998409
 30
0.0
 11
-4614.0922241542903
 21
-5686.4336443998409
 31
0.0
  0
ARC
  5
7A89
  8
1
  6
CONTINUOUS
 10
-3461.0922241542899
 20
-5088.4336443998409
 30
0.0
 40
665.0
 50
94.57127899999999
 51
184.571279
  0
LINE
  5
7A8A
  8
1
  6
CONTINUOUS
 10
-4449.3861311542914
 20
-5241.2654893998397
 30
0.0
 11
-3549.386131154291
 21
-5006.2654893998397
 31
0.0
  0
LINE
  5
7A8B
  8
1
  6
CONTINUOUS
 10
-4462.0181671542923
 20
-5192.8874813998391
 30
0.0
 11
-3562.0181671542919
 21
-4957.8874813998391
 31
0.0
  0
LINE
  5
7A8C
  8
2
  6
CENTER
 10
-4558.792224154291
 20
-5376.4336443998409
 30
0.0
 11
-4269.3922241542914
 21
-5376.4336443998409
 31
0.0
  0
LINE
  5
7A8D
  8
2
  6
CENTER
 10
-3514.0922241542899
 20
-5766.4831503998394
 30
0.0
 11
-3514.0922241542899
 21
-4342.8305113998404
 31
0.0
  0
LINE
  5
7A8E
  8
1
  6
CONTINUOUS
 10
-4576.0922241542903
 20
-2880.7023828400111
 30
0.0
 11
-4576.0922241542903
 21
-2343.7023828400111
 31
0.0
  0
LINE
  5
7A8F
  8
1
  6
CONTINUOUS
 10
-4252.0922241542903
 20
-2880.7023828400111
 30
0.0
 11
-4252.0922241542903
 21
-2343.7023828400111
 31
0.0
  0
LINE
  5
7A90
  8
1
  6
CONTINUOUS
 10
-4126.0922241542903
 20
-2768.7023828400111
 30
0.0
 11
-4126.0922241542903
 21
-2238.7023828400111
 31
0.0
  0
LINE
  5
7A91
  8
1
  6
CONTINUOUS
 10
-4614.0922241542903
 20
-2935.7023828400111
 30
0.0
 11
-4614.0922241542903
 21
-2185.7023828400111
 31
0.0
  0
LINE
  5
7A92
  8
1
  6
CONTINUOUS
 10
-4274.3922241542914
 20
-2935.7023828400111
 30
0.0
 11
-3653.7922241542901
 21
-2935.7023828400111
 31
0.0
  0
LINE
  5
7A93
  8
1
  6
CONTINUOUS
 10
-4603.792224154291
 20
-3013.702382840012
 30
0.0
 11
-4603.792224154291
 21
-2903.7023828400111
 31
0.0
  0
LINE
  5
7A94
  8
1
  6
CONTINUOUS
 10
-4553.792224154291
 20
-3005.7023828400111
 30
0.0
 11
-4553.792224154291
 21
-2920.7023828400111
 31
0.0
  0
LINE
  5
7A95
  8
1
  6
CONTINUOUS
 10
-4274.3922241542914
 20
-3005.7023828400111
 30
0.0
 11
-4274.3922241542914
 21
-2920.7023828400111
 31
0.0
  0
LINE
  5
7A96
  8
1
  6
CONTINUOUS
 10
-4553.792224154291
 20
-3005.7023828400111
 30
0.0
 11
-4274.3922241542914
 21
-3005.7023828400111
 31
0.0
  0
LINE
  5
7A97
  8
1
  6
CONTINUOUS
 10
-4553.792224154291
 20
-2920.7023828400111
 30
0.0
 11
-4274.3922241542914
 21
-2920.7023828400111
 31
0.0
  0
LINE
  5
7A98
  8
1
  6
CONTINUOUS
 10
-4576.0922241542903
 20
-2880.7023828400111
 30
0.0
 11
-4252.0922241542903
 21
-2880.7023828400111
 31
0.0
  0
LINE
  5
7A99
  8
1
  6
CONTINUOUS
 10
-4435.0922241542903
 20
-2920.7023828400111
 30
0.0
 11
-4435.0922241542903
 21
-2880.7023828400111
 31
0.0
  0
LINE
  5
7A9A
  8
1
  6
CONTINUOUS
 10
-4393.0922241542903
 20
-2920.7023828400111
 30
0.0
 11
-4393.0922241542903
 21
-2880.7023828400111
 31
0.0
  0
LINE
  5
7A9B
  8
1
  6
CONTINUOUS
 10
-4614.0922241542903
 20
-2935.7023828400111
 30
0.0
 11
-4553.792224154291
 21
-2935.7023828400111
 31
0.0
  0
LINE
  5
7A9C
  8
1
  6
CONTINUOUS
 10
-3653.7922241542901
 20
-3005.7023828400111
 30
0.0
 11
-3653.7922241542901
 21
-2920.7023828400111
 31
0.0
  0
LINE
  5
7A9D
  8
1
  6
CONTINUOUS
 10
-3536.5922241542899
 20
-2920.7023828400111
 30
0.0
 11
-3536.5922241542899
 21
-2768.7023828400111
 31
0.0
  0
LINE
  5
7A9E
  8
1
  6
CONTINUOUS
 10
-4614.0922241542903
 20
-2185.7023828400111
 30
0.0
 11
-3869.0922241542899
 21
-2185.7023828400111
 31
0.0
  0
LINE
  5
7A9F
  8
1
  6
CONTINUOUS
 10
-4576.0922241542903
 20
-2343.7023828400111
 30
0.0
 11
-4252.0922241542903
 21
-2343.7023828400111
 31
0.0
  0
LINE
  5
7AA0
  8
1
  6
CONTINUOUS
 10
-3869.0922241542899
 20
-2238.7023828400111
 30
0.0
 11
-3869.0922241542899
 21
-2155.7023828400111
 31
0.0
  0
ARC
  5
7AA1
  8
1
  6
CONTINUOUS
 10
-3556.0922241542899
 20
-5183.4336443998409
 30
0.0
 40
464.0
 50
299.71121899999991
 51
5.193363999999999
  0
LINE
  5
7AA2
  8
1
  6
CONTINUOUS
 10
-1833.0547788400499
 20
-5566.1336443998398
 30
0.0
 11
-1833.0547788400499
 21
-4951.7336443998402
 31
0.0
  0
LINE
  5
7AA3
  8
1
  6
CONTINUOUS
 10
-1943.0547788400499
 20
-5566.1336443998398
 30
0.0
 11
-1943.0547788400499
 21
-4951.7336443998402
 31
0.0
  0
LINE
  5
7AA4
  8
1
  6
CONTINUOUS
 10
-1810.0547788400499
 20
-5214.4336443998409
 30
0.0
 11
-1810.0547788400499
 21
-5586.4336443998409
 31
0.0
  0
LINE
  5
7AA5
  8
1
  6
CONTINUOUS
 10
-1935.0547788400499
 20
-5001.7336443998402
 30
0.0
 11
-1935.0547788400499
 21
-5516.1336443998398
 31
0.0
  0
LINE
  5
7AA6
  8
1
  6
CONTINUOUS
 10
-1850.0547788400499
 20
-5001.7336443998402
 30
0.0
 11
-1850.0547788400499
 21
-5516.1336443998398
 31
0.0
  0
LINE
  5
7AA7
  8
1
  6
CONTINUOUS
 10
-1085.0547788400499
 20
-4746.4336443998391
 30
0.0
 11
-1085.0547788400499
 21
-5536.4336443998409
 31
0.0
  0
LINE
  5
7AA8
  8
1
  6
CONTINUOUS
 10
-1698.0547788400499
 20
-4382.4336443998391
 30
0.0
 11
-1698.0547788400499
 21
-5586.4336443998409
 31
0.0
  0
LINE
  5
7AA9
  8
1
  6
CONTINUOUS
 10
-1168.0547788400499
 20
-4382.4336443998391
 30
0.0
 11
-1168.0547788400499
 21
-5586.4336443998409
 31
0.0
  0
LINE
  5
7AAA
  8
1
  6
CONTINUOUS
 10
-3064.0922241542899
 20
-5586.4336443998409
 30
0.0
 11
-3064.0922241542899
 21
-5686.4336443998409
 31
0.0
  0
LINE
  5
7AAB
  8
1
  6
CONTINUOUS
 10
-1865.054778840049
 20
-5686.4336443998409
 30
0.0
 11
-1115.0547788400499
 21
-5686.4336443998409
 31
0.0
  0
LINE
  5
7AAC
  8
1
  6
CONTINUOUS
 10
-1865.054778840049
 20
-5586.4336443998409
 30
0.0
 11
-1115.0547788400499
 21
-5586.4336443998409
 31
0.0
  0
LINE
  5
7AAD
  8
1
  6
CONTINUOUS
 10
-1943.0547788400499
 20
-5566.1336443998398
 30
0.0
 11
-1833.0547788400499
 21
-5566.1336443998398
 31
0.0
  0
LINE
  5
7AAE
  8
1
  6
CONTINUOUS
 10
-1935.0547788400499
 20
-5516.1336443998398
 30
0.0
 11
-1850.0547788400499
 21
-5516.1336443998398
 31
0.0
  0
LINE
  5
7AAF
  8
1
  6
CONTINUOUS
 10
-1698.0547788400499
 20
-5536.4336443998409
 30
0.0
 11
-1810.0547788400499
 21
-5536.4336443998409
 31
0.0
  0
LINE
  5
7AB0
  8
1
  6
CONTINUOUS
 10
-1865.054778840049
 20
-5586.4336443998409
 30
0.0
 11
-1865.054778840049
 21
-5686.4336443998409
 31
0.0
  0
LINE
  5
7AB1
  8
1
  6
CONTINUOUS
 10
-1168.0547788400499
 20
-5496.4336443998409
 30
0.0
 11
-1085.0547788400499
 21
-5496.4336443998409
 31
0.0
  0
LINE
  5
7AB2
  8
1
  6
CONTINUOUS
 10
-1115.0547788400499
 20
-5586.4336443998409
 30
0.0
 11
-1115.0547788400499
 21
-5686.4336443998409
 31
0.0
  0
LINE
  5
7AB3
  8
1
  6
CONTINUOUS
 10
-3054.0922241542899
 20
-4385.8828763998399
 30
0.0
 11
-3054.0922241542899
 21
-5112.4336443998409
 31
0.0
  0
LINE
  5
7AB4
  8
1
  6
CONTINUOUS
 10
-3014.0922241542899
 20
-4342.4336443998391
 30
0.0
 11
-3014.0922241542899
 21
-5152.4336443998409
 31
0.0
  0
LINE
  5
7AB5
  8
1
  6
CONTINUOUS
 10
-3098.7840401542899
 20
-5112.4336443998409
 30
0.0
 11
-3014.0922241542899
 21
-5112.4336443998409
 31
0.0
  0
ARC
  5
7AB6
  8
1
  6
CONTINUOUS
 10
-3472.0922241542899
 20
-5183.4336443998409
 30
0.0
 40
380.0
 50
6.3456559999999991
 51
10.768549999999991
  0
LINE
  5
7AB7
  8
1
  6
CONTINUOUS
 10
-1168.0547788400499
 20
-4382.4336443998391
 30
0.0
 11
-1698.0547788400499
 21
-5112.4336443998409
 31
0.0
  0
LINE
  5
7AB8
  8
1
  6
CONTINUOUS
 10
-1698.0547788400499
 20
-4382.4336443998391
 30
0.0
 11
-1168.0547788400499
 21
-5112.4336443998409
 31
0.0
  0
LINE
  5
7AB9
  8
1
  6
CONTINUOUS
 10
-1698.0547788400499
 20
-5112.4336443998409
 30
0.0
 11
-1168.0547788400499
 21
-5112.4336443998409
 31
0.0
  0
LINE
  5
7ABA
  8
1
  6
CONTINUOUS
 10
-1943.0547788400499
 20
-4951.7336443998402
 30
0.0
 11
-1833.0547788400499
 21
-4951.7336443998402
 31
0.0
  0
LINE
  5
7ABB
  8
1
  6
CONTINUOUS
 10
-1810.0547788400499
 20
-5214.4336443998409
 30
0.0
 11
-1698.0547788400499
 21
-5214.4336443998409
 31
0.0
  0
LINE
  5
7ABC
  8
1
  6
CONTINUOUS
 10
-1850.0547788400499
 20
-5397.4336443998409
 30
0.0
 11
-1810.0547788400499
 21
-5397.4336443998409
 31
0.0
  0
LINE
  5
7ABD
  8
1
  6
CONTINUOUS
 10
-1850.0547788400499
 20
-5355.4336443998409
 30
0.0
 11
-1810.0547788400499
 21
-5355.4336443998409
 31
0.0
  0
LINE
  5
7ABE
  8
1
  6
CONTINUOUS
 10
-1935.0547788400499
 20
-5281.1336443998398
 30
0.0
 11
-1850.0547788400499
 21
-5281.1336443998398
 31
0.0
  0
LINE
  5
7ABF
  8
1
  6
CONTINUOUS
 10
-1935.0547788400499
 20
-5001.7336443998402
 30
0.0
 11
-1850.0547788400499
 21
-5001.7336443998402
 31
0.0
  0
LINE
  5
7AC0
  8
1
  6
CONTINUOUS
 10
-1850.0547788400499
 20
-5118.9336443998409
 30
0.0
 11
-1698.0547788400499
 21
-5118.9336443998409
 31
0.0
  0
LINE
  5
7AC1
  8
1
  6
CONTINUOUS
 10
-1850.0547788400499
 20
-5163.9336443998409
 30
0.0
 11
-1698.0547788400499
 21
-5163.9336443998409
 31
0.0
  0
LINE
  5
7AC2
  8
1
  6
CONTINUOUS
 10
-1168.0547788400499
 20
-4786.43364439984
 30
0.0
 11
-1085.0547788400499
 21
-4786.43364439984
 31
0.0
  0
LINE
  5
7AC3
  8
1
  6
CONTINUOUS
 10
-1698.0547788400499
 20
-4382.4336443998391
 30
0.0
 11
-1168.0547788400499
 21
-4382.4336443998391
 31
0.0
  0
LINE
  5
7AC4
  8
1
  6
CONTINUOUS
 10
-3054.0922241542899
 20
-2768.7023828400111
 30
0.0
 11
-3054.0922241542899
 21
-2238.7023828400111
 31
0.0
  0
LINE
  5
7AC5
  8
1
  6
CONTINUOUS
 10
-3014.0922241542899
 20
-2808.702382840012
 30
0.0
 11
-3014.0922241542899
 21
-2198.7023828400111
 31
0.0
  0
LINE
  5
7AC6
  8
1
  6
CONTINUOUS
 10
-3324.3922241542909
 20
-3013.702382840012
 30
0.0
 11
-3324.3922241542909
 21
-2903.7023828400111
 31
0.0
  0
LINE
  5
7AC7
  8
1
  6
CONTINUOUS
 10
-3374.3922241542909
 20
-3005.7023828400111
 30
0.0
 11
-3374.3922241542909
 21
-2920.7023828400111
 31
0.0
  0
LINE
  5
7AC8
  8
1
  6
CONTINUOUS
 10
-3374.3922241542909
 20
-2935.7023828400111
 30
0.0
 11
-3064.0922241542899
 21
-2935.7023828400111
 31
0.0
  0
LINE
  5
7AC9
  8
1
  6
CONTINUOUS
 10
-3491.5922241542899
 20
-2920.7023828400111
 30
0.0
 11
-3491.5922241542899
 21
-2768.7023828400111
 31
0.0
  0
LINE
  5
7ACA
  8
1
  6
CONTINUOUS
 10
-3064.0922241542899
 20
-2935.7023828400111
 30
0.0
 11
-3064.0922241542899
 21
-2768.7023828400111
 31
0.0
  0
LINE
  5
7ACB
  8
1
  6
CONTINUOUS
 10
-3159.0922241542899
 20
-2185.7023828400111
 30
0.0
 11
-3064.0922241542899
 21
-2185.7023828400111
 31
0.0
  0
LINE
  5
7ACC
  8
1
  6
CONTINUOUS
 10
-3159.0922241542899
 20
-2238.7023828400111
 30
0.0
 11
-3159.0922241542899
 21
-2155.7023828400111
 31
0.0
  0
LINE
  5
7ACD
  8
1
  6
CONTINUOUS
 10
-3064.0922241542899
 20
-2238.7023828400111
 30
0.0
 11
-3064.0922241542899
 21
-2185.7023828400111
 31
0.0
  0
LINE
  5
7ACE
  8
4
  6
CONTINUOUS
 10
-363.84569850000003
 20
-6995.9778614999987
 30
0.0
 11
-363.84569850000003
 21
-7595.9778614999987
 31
0.0
  0
LINE
  5
7ACF
  8
4
  6
CONTINUOUS
 10
-2463.8456984999998
 20
-6995.9778614999987
 30
0.0
 11
-2463.8456984999998
 21
-7595.9778614999987
 31
0.0
  0
LINE
  5
7AD0
  8
4
  6
CONTINUOUS
 10
-3963.8456984999998
 20
-6995.9778614999987
 30
0.0
 11
-3963.8456984999998
 21
-7595.9778614999987
 31
0.0
  0
LINE
  5
7AD3
  8
4
  6
CONTINUOUS
 10
-3963.8456984999998
 20
-7595.9778614999987
 30
0.0
 11
-363.84569850000003
 21
-7595.9778614999987
 31
0.0
  0
LINE
  5
7AD4
  8
4
  6
CONTINUOUS
 10
-3963.8456984999998
 20
-7295.9778614999987
 30
0.0
 11
-363.84569850000003
 21
-7295.9778614999987
 31
0.0
  0
TEXT
  5
7AD5
  8
4
  6
CONTINUOUS
 10
-3848.3394555
 20
-7201.3487834999987
 30
0.0
 40
150.0
  1
機器名称
  0
TEXT
  5
7AD6
  8
4
  6
CONTINUOUS
 10
-3855.0713805
 20
-7531.04239125
 30
0.0
 40
150.0
  1
機器型番
  0
TEXT
  5
7AD7
  8
4
  6
CONTINUOUS
 10
-2380.8094620000002
 20
-7228.2625545000001
 30
0.0
 40
120.0
  1
ミツヤリミットロードファン
  0
TEXT
  5
7AD8
  8
4
  6
CONTINUOUS
 10
-2353.8822119999991
 20
-7544.4991087500002
 30
0.0
 40
150.0
  1
LLE#4 1/2-4
  0
TEXT
  5
7ADA
  8
4
  6
CONTINUOUS
 10
-3199.488402
 20
-1345.69133775
 30
0.0
 40
162.0
  1
床置ベット
  0
TEXT
  5
7ADB
  8
4
  6
CONTINUOUS
 10
-4965.3429187500014
 20
-894.33493275000001
 30
0.0
 40
171.42857175
  1
ベルト駆動式片吸込両持排煙ファン
  0
LINE
  5
7ADC
  8
4
  6
CONTINUOUS
 10
-5163.8456985000012
 20
-1087.7515987500001
 30
0.0
 11
-363.84569850000003
 21
-1087.7515987500001
 31
0.0
  0
LINE
  5
7ADD
  8
4
  6
CONTINUOUS
 10
-5163.8456985000012
 20
-487.75159874999991
 30
0.0
 11
-363.84569850000003
 21
-487.75159874999991
 31
0.0
  0
LINE
  5
7ADE
  8
4
  6
CONTINUOUS
 10
-3963.8456984999998
 20
-6995.9778614999987
 30
0.0
 11
-363.84569850000003
 21
-6995.9778614999987
 31
0.0
  0
LINE
  5
7ADF
  8
4
  6
CONTINUOUS
 10
-5163.8456985000012
 20
-487.75159874999991
 30
0.0
 11
-5163.8456985000012
 21
-1087.7515987500001
 31
0.0
  0
TEXT
  5
7AE0
  8
4
  6
CONTINUOUS
 10
-4507.0648987499999
 20
-1349.0194282499999
 30
0.0
 40
162.0
  1
右回転右横向
  0
TEXT
  5
7AE1
  8
4
  6
CONTINUOUS
 10
-1506.937020749999
 20
-377.79461624999999
 30
0.0
 40
168.0
  1
No.
  0
TEXT
  5
7AE2
  8
4
  6
CONTINUOUS
 10
-1979.9575102499989
 20
-1345.69133775
 30
0.0
 40
162.0
  1
縮尺：1/30
  0
LINE
  5
7AE3
  8
4
  6
CONTINUOUS
 10
-363.84569850000003
 20
-487.75159874999991
 30
0.0
 11
-363.84569850000003
 21
-1087.7515987500001
 31
0.0
  0
LINE
  5
7AE5
  8
4
  6
CONTINUOUS
 10
-1591.9934317499999
 20
-452.18711250000001
 30
0.0
 11
-1591.9934317499999
 21
-136.02107624999991
 31
0.0
  0
LINE
  5
7AE6
  8
4
  6
CONTINUOUS
 10
-1591.9934317499999
 20
-136.02107624999991
 30
0.0
 11
-363.84569850000003
 21
-136.02107624999991
 31
0.0
  0
LINE
  5
7AE7
  8
4
  6
CONTINUOUS
 10
-363.84569850000003
 20
-136.02107624999991
 30
0.0
 11
-363.84569850000003
 21
-452.18711250000001
 31
0.0
  0
LINE
  5
7AE8
  8
4
  6
CONTINUOUS
 10
-363.84569850000003
 20
-452.18711250000001
 30
0.0
 11
-1591.9934317499999
 21
-452.18711250000001
 31
0.0
  0
DIMENSION
  5
7B00
  8
3
  6
CONTINUOUS
  2
*D1
 10
-3514.0922241542899
 20
-5961.6898593998394
 30
0.0
 11
-4033.312025154291
 21
-5961.6898593998394
 31
0.0
 70
   128
 13
-4614.0922241542903
 23
-5686.4336443998409
 33
0.0
 14
-3514.0922241542899
 24
-5766.4831503998394
 34
0.0
1001
ACAD
1000
DSTYLE
1002
{
1070
   287
1070
     3
1070
   287
1070
     3
1070
    40
1040
30.0
1070
   143
1040
0.039
1070
   172
1070
     1
1070
   271
1070
     0
1070
   279
1070
     0
1070
   288
1070
     1
1002
}
  0
DIMENSION
  5
7B0E
  8
3
  6
CONTINUOUS
  2
*D2
 10
-3064.0922241542899
 20
-5962.1982353998401
 30
0.0
 11
-3269.8065098685761
 21
-5962.1982353998401
 31
0.0
 70
   128
 13
-3514.0922241542899
 23
-5766.4831503998394
 33
0.0
 14
-3064.0922241542899
 24
-5686.4336443998409
 34
0.0
1001
ACAD
1000
DSTYLE
1002
{
1070
   287
1070
     3
1070
   287
1070
     3
1070
    40
1040
30.0
1070
   143
1040
0.039
1070
   172
1070
     1
1070
   271
1070
     0
1070
   279
1070
     0
1070
   288
1070
     1
1002
}
  0
DIMENSION
  5
7B31
  8
3
  6
CONTINUOUS
  2
*D3
 10
-2737.5265171542928
 20
-5112.4336443998409
 30
0.0
 11
-2737.5265171542919
 21
-4720.4436573998391
 31
0.0
 70
   128
 13
-3014.0922241542899
 23
-4382.4336443998391
 33
0.0
 14
-3014.0922241542899
 24
-5112.4336443998409
 34
0.0
 50
90.0
1001
ACAD
1000
DSTYLE
1002
{
1070
   287
1070
     3
1070
   287
1070
     3
1070
    40
1040
30.0
1070
   143
1040
0.039
1070
   172
1070
     1
1070
   271
1070
     0
1070
   279
1070
     0
1070
   288
1070
     1
1002
}
  0
DIMENSION
  5
7B3E
  8
3
  6
CONTINUOUS
  2
*D4
 10
-2563.719516901509
 20
-5141.4336443998409
 30
0.0
 11
-2563.719516901509
 21
-4725.5537433998397
 31
0.0
 70
   128
 13
-3014.0922241542899
 23
-4382.4336443998391
 33
0.0
 14
-3093.9969951542921
 24
-5141.4336443998409
 34
0.0
 50
90.0
1001
ACAD
1000
DSTYLE
1002
{
1070
   287
1070
     3
1070
   287
1070
     3
1070
    40
1040
30.0
1070
   143
1040
0.039
1070
   172
1070
     1
1070
   271
1070
     0
1070
   279
1070
     0
1070
   288
1070
     1
1002
}
  0
DIMENSION
  5
7B4A
  8
3
  6
CONTINUOUS
  2
*D5
 10
-2563.719516901509
 20
-5686.4336443998409
 30
0.0
 11
-2638.7195169015072
 21
-5413.9336443998418
 31
0.0
 70
     0
 13
-3093.9969951542921
 23
-5141.4336443998409
 33
0.0
 14
-3064.0922241542899
 24
-5686.4336443998409
 34
0.0
 50
90.0
1001
ACAD
1000
DSTYLE
1002
{
1070
   287
1070
     3
1070
   287
1070
     3
1070
    40
1040
30.0
1070
   143
1040
0.039
1070
   172
1070
     1
1070
   271
1070
     0
1070
   279
1070
     0
1070
   288
1070
     1
1002
}
  0
DIMENSION
  5
7B57
  8
3
  6
CONTINUOUS
  2
*D6
 10
-3514.0921691542899
 20
-4275.35643839984
 30
0.0
 11
-3832.2703161542918
 21
-4275.35643839984
 31
0.0
 70
   128
 13
-4126.0922241542903
 23
-5141.4336443998409
 33
0.0
 14
-3514.0921691542899
 24
-4425.5490343998399
 34
0.0
1001
ACAD
1000
DSTYLE
1002
{
1070
   287
1070
     3
1070
   287
1070
     3
1070
    40
1040
30.0
1070
   143
1040
0.039
1070
   172
1070
     1
1070
   271
1070
     0
1070
   279
1070
     0
1070
   288
1070
     1
1002
}
  0
DIMENSION
  5
7B63
  8
3
  6
CONTINUOUS
  2
*D7
 10
-3014.0922241542899
 20
-4275.35643839984
 30
0.0
 11
-3264.0921966542901
 21
-4200.35643839984
 31
0.0
 70
     0
 13
-3514.0921691542899
 23
-4425.5490343998399
 33
0.0
 14
-3014.0922241542899
 24
-4342.4336443998391
 34
0.0
1001
ACAD
1000
DSTYLE
1002
{
1070
   287
1070
     3
1070
   287
1070
     3
1070
    40
1040
30.0
1070
   143
1040
0.039
1070
   172
1070
     1
1070
   271
1070
     0
1070
   279
1070
     0
1070
   288
1070
     1
1002
}
  0
DIMENSION
  5
7B70
  8
3
  6
CONTINUOUS
  2
*D8
 10
-3064.0922241542899
 20
-3319.857920840012
 30
0.0
 11
-3740.1890771542912
 21
-3319.857920840012
 31
0.0
 70
   128
 13
-4614.0922241542903
 23
-2935.7023828400111
 33
0.0
 14
-3064.0922241542899
 24
-2935.7023828400111
 34
0.0
1001
ACAD
1000
DSTYLE
1002
{
1070
   287
1070
     3
1070
   287
1070
     3
1070
    40
1040
30.0
1070
   143
1040
0.039
1070
   172
1070
     1
1070
   271
1070
     0
1070
   279
1070
     0
1070
   288
1070
     1
1002
}
  0
DIMENSION
  5
7B7D
  8
3
  6
CONTINUOUS
  2
*D9
 10
-2681.2546331542908
 20
-2935.7023828400111
 30
0.0
 11
-2681.2546331542899
 21
-2521.1569338400109
 31
0.0
 70
   128
 13
-3064.0922241542899
 23
-2185.7023828400111
 33
0.0
 14
-3064.0922241542899
 24
-2935.7023828400111
 34
0.0
 50
90.0
1001
ACAD
1000
DSTYLE
1002
{
1070
   287
1070
     3
1070
   287
1070
     3
1070
    40
1040
30.0
1070
   143
1040
0.039
1070
   172
1070
     1
1070
   271
1070
     0
1070
   279
1070
     0
1070
   288
1070
     1
1002
}
  0
LINE
  5
7B7E
  8
2
  6
CENTER
 10
-4315.3703481542898
 20
-2503.7023828400111
 30
0.0
 11
-2860.3015211542911
 21
-2503.7023828400111
 31
0.0
  0
LINE
  5
7B7F
  8
2
  6
CENTER
 10
-3514.0922241542899
 20
-3110.8520588400111
 30
0.0
 11
-3514.0922241542899
 21
-2082.528144840011
 31
0.0
  0
DIMENSION
  5
7B8D
  8
3
  6
CONTINUOUS
  2
*D10
 10
-1168.0547788400499
 20
-4223.2382053998399
 30
0.0
 11
-1458.0547788400499
 21
-4223.2382053998399
 31
0.0
 70
   128
 13
-1698.0547788400499
 23
-4382.4336443998391
 33
0.0
 14
-1168.0547788400499
 24
-4382.4336443998391
 34
0.0
1001
ACAD
1000
DSTYLE
1002
{
1070
   287
1070
     3
1070
   287
1070
     3
1070
    40
1040
30.0
1070
   143
1040
0.039
1070
   172
1070
     1
1070
   271
1070
     0
1070
   279
1070
     0
1070
   288
1070
     1
1002
}
  0
DIMENSION
  5
7B9A
  8
3
  6
CONTINUOUS
  2
*D11
 10
-789.06564684005116
 20
-5496.4336443998409
 30
0.0
 11
-789.06564684005025
 21
-5102.1756263998404
 31
0.0
 70
   128
 13
-1085.0547788400499
 23
-4786.43364439984
 33
0.0
 14
-1085.0547788400499
 24
-5496.4336443998409
 34
0.0
 50
90.0
1001
ACAD
1000
DSTYLE
1002
{
1070
   287
1070
     3
1070
   287
1070
     3
1070
     3
1000
φ<>
1070
    40
1040
30.0
1070
   143
1040
0.039
1070
   172
1070
     1
1070
   271
1070
     0
1070
   279
1070
     0
1070
   288
1070
     1
1002
}
  0
DIMENSION
  5
7BA8
  8
3
  6
CONTINUOUS
  2
*D12
 10
-1433.0547788400499
 20
-4004.6730897670868
 30
0.0
 11
-1688.0547788400499
 21
-4004.6730897670868
 31
0.0
 70
   128
  1
MAX\P590
 13
-1943.0547788400499
 23
-4951.7336443998402
 33
0.0
 14
-1433.0547788400499
 24
-4091.2144159345148
 34
0.0
1001
ACAD
1000
DSTYLE
1002
{
1070
   287
1070
     3
1070
   287
1070
     3
1070
    40
1040
30.0
1070
   143
1040
0.039
1070
   172
1070
     1
1070
   271
1070
     0
1070
   279
1070
     0
1070
   288
1070
     1
1002
}
  0
DIMENSION
  5
7BB6
  8
3
  6
CONTINUOUS
  2
*D13
 10
-1085.0547788400499
 20
-4004.164683767086
 30
0.0
 11
-1259.0547788400511
 21
-3922.4901663494738
 31
0.0
 12
-352.32030438885698
 22
0.0
 32
0.0
 70
   128
 13
-1433.0547788400499
 23
-4078.716326061065
 33
0.0
 14
-1085.0547788400499
 24
-4746.4336443998391
 34
0.0
1001
ACAD
1000
DSTYLE
1002
{
1070
   288
1070
     1
1070
   172
1070
     1
1070
    40
1040
30.0
1070
   271
1070
     0
1070
   143
1040
0.039
1002
}
  0
DIMENSION
  5
7BDB
  8
3
  6
CONTINUOUS
  2
*D14
 10
-1433.0547788400499
 20
-5936.6471833998403
 30
0.0
 11
-1638.769064554336
 21
-5936.6471833998403
 31
0.0
 70
   128
 13
-1865.054778840049
 23
-5686.4336443998409
 33
0.0
 14
-1433.0547788400499
 24
-5732.2432803998408
 34
0.0
1001
ACAD
1000
DSTYLE
1002
{
1070
   287
1070
     3
1070
   287
1070
     3
1070
    40
1040
30.0
1070
   143
1040
0.039
1070
   172
1070
     1
1070
   271
1070
     0
1070
   279
1070
     0
1070
   288
1070
     1
1002
}
  0
DIMENSION
  5
7BE9
  8
3
  6
CONTINUOUS
  2
*D15
 10
-1115.0547788400499
 20
-5936.6471833998403
 30
0.0
 11
-1274.0547788400499
 21
-5859.6945080601254
 31
0.0
 12
-352.32030438885698
 22
0.0
 32
0.0
 70
   128
 13
-1433.0547788400499
 23
-5732.2432803998408
 33
0.0
 14
-1115.0547788400499
 24
-5686.4336443998409
 34
0.0
1001
ACAD
1000
DSTYLE
1002
{
1070
   288
1070
     1
1070
   172
1070
     1
1070
    40
1040
30.0
1070
   271
1070
     0
1070
   143
1040
0.039
1002
}
  0
LINE
  5
7C00
  8
2
  6
CENTER
 10
-2001.4688058400491
 20
-5141.4336443998409
 30
0.0
 11
-997.35604084005001
 21
-5141.4336443998409
 31
0.0
  0
DIMENSION
  5
7C13
  8
3
  6
CONTINUOUS
  2
*D16
 10
-2382.332384062317
 20
-5686.4336443998409
 30
0.0
 11
-2382.3323840623161
 21
-5019.4244163998401
 31
0.0
 70
   128
 13
-3014.0922241542899
 23
-4342.4336443998391
 33
0.0
 14
-3064.0922241542899
 24
-5686.4336443998409
 34
0.0
 50
90.0
1001
ACAD
1000
DSTYLE
1002
{
1070
   287
1070
     3
1070
   287
1070
     3
1070
    40
1040
30.0
1070
   143
1040
0.039
1070
   172
1070
     1
1070
   271
1070
     0
1070
   279
1070
     0
1070
   288
1070
     1
1002
}
  0
LINE
  5
7C14
  8
2
  6
CENTER
 10
-1433.0547788400499
 20
-4210.2407373998394
 30
0.0
 11
-1433.0547788400499
 21
-5732.2432803998408
 31
0.0
  0
DIMENSION
  5
7D8A
  8
3
  2
*D17
 10
-4611.5922241542903
 20
-4088.2257459510688
 30
0.0
 11
-3785.6541112104092
 21
-4088.2257459510688
 31
0.0
 70
   128
 13
-3014.0922241542899
 23
-4327.43364439984
 33
0.0
 14
-4611.5922241542903
 24
-5536.4336443998409
 34
0.0
1001
ACAD
1000
DSTYLE
1002
{
1070
   287
1070
     3
1070
   287
1070
     3
1070
    40
1040
30.0
1070
   143
1040
0.039
1070
   172
1070
     1
1070
   271
1070
     0
1070
   279
1070
     0
1070
   288
1070
     1
1002
}
  0
ENDSEC
  0
EOF
