  0
SECTION
  2
HEADER
  9
$ACADVER
  1
AC1009
  9
$INSBASE
 10
0.0
 20
0.0
 30
0.0
  9
$EXTMIN
 10
750.0
 20
900.0
 30
0.0
  9
$EXTMAX
 10
5550.0
 20
8359.9567845000001
 30
0.0
  9
$LIMMIN
 10
0.0
 20
0.0
  9
$LIMMAX
 10
297.0
 20
210.0
  9
$ORTHOMODE
 70
     0
  9
$REGENMODE
 70
     1
  9
$FILLMODE
 70
     0
  9
$QTEXTMODE
 70
     0
  9
$MIRRTEXT
 70
     1
  9
$DRAGMODE
 70
     2
  9
$LTSCALE
 40
100.0
  9
$OSMODE
 70
    37
  9
$ATTMODE
 70
     1
  9
$TEXTSIZE
 40
180.0
  9
$TRACEWID
 40
0.05
  9
$TEXTSTYLE
  7
STANDARD
  9
$CLAYER
  8
3
  9
$CELTYPE
  6
BYLAYER
  9
$CECOLOR
 62
   256
  9
$DIMSCALE
 40
30.0
  9
$DIMASZ
 40
2.0
  9
$DIMEXO
 40
0.5
  9
$DIMDLI
 40
10.0
  9
$DIMRND
 40
0.0
  9
$DIMDLE
 40
0.0
  9
$DIMEXE
 40
1.0
  9
$DIMTP
 40
1.0
  9
$DIMTM
 40
1.0
  9
$DIMTXT
 40
3.0
  9
$DIMCEN
 40
0.0
  9
$DIMTSZ
 40
0.0
  9
$DIMTOL
 70
     0
  9
$DIMLIM
 70
     0
  9
$DIMTIH
 70
     0
  9
$DIMTOH
 70
     0
  9
$DIMSE1
 70
     0
  9
$DIMSE2
 70
     0
  9
$DIMTAD
 70
     1
  9
$DIMZIN
 70
     8
  9
$DIMBLK
  1

  9
$DIMASO
 70
     1
  9
$DIMSHO
 70
     1
  9
$DIMPOST
  1

  9
$DIMAPOST
  1

  9
$DIMALT
 70
     0
  9
$DIMALTD
 70
     2
  9
$DIMALTF
 40
0.039
  9
$DIMLFAC
 40
1.0
  9
$DIMTOFL
 70
     1
  9
$DIMTVP
 40
0.0
  9
$DIMTIX
 70
     0
  9
$DIMSOXD
 70
     0
  9
$DIMSAH
 70
     1
  9
$DIMBLK1
  1
OPEN
  9
$DIMBLK2
  1
OPEN
  9
$DIMSTYLE
  2
IGA
  9
$DIMCLRD
 70
     0
  9
$DIMCLRE
 70
     0
  9
$DIMCLRT
 70
     0
  9
$DIMTFAC
 40
10.0
  9
$DIMGAP
 40
1.0
  9
$LUNITS
 70
     2
  9
$LUPREC
 70
     3
  9
$SKETCHINC
 40
0.1
  9
$FILLETRAD
 40
50.0
  9
$AUNITS
 70
     0
  9
$AUPREC
 70
     0
  9
$MENU
  1
acad
  9
$ELEVATION
 40
0.0
  9
$PELEVATION
 40
0.0
  9
$THICKNESS
 40
0.0
  9
$LIMCHECK
 70
     0
  9
$BLIPMODE
 70
     0
  9
$CHAMFERA
 40
0.5
  9
$CHAMFERB
 40
0.5
  9
$SKPOLY
 70
     0
  9
$TDCREATE
 40
2450754.3499891199
  9
$TDUPDATE
 40
2454953.6839125692
  9
$TDINDWG
 40
0.0048883681
  9
$TDUSRTIMER
 40
0.0048883681
  9
$USRTIMER
 70
     1
  9
$ANGBASE
 50
0.0
  9
$ANGDIR
 70
     0
  9
$PDMODE
 70
     0
  9
$PDSIZE
 40
0.0
  9
$PLINEWID
 40
0.0
  9
$COORDS
 70
     1
  9
$SPLFRAME
 70
     0
  9
$SPLINETYPE
 70
     6
  9
$SPLINESEGS
 70
     8
  9
$ATTDIA
 70
     0
  9
$ATTREQ
 70
     1
  9
$HANDLING
 70
 10241
  9
$HANDSEED
  5
7FA9
  9
$SURFTAB1
 70
     6
  9
$SURFTAB2
 70
     6
  9
$SURFTYPE
 70
     6
  9
$SURFU
 70
     6
  9
$SURFV
 70
     6
  9
$UCSNAME
  2

  9
$UCSORG
 10
0.0
 20
0.0
 30
0.0
  9
$UCSXDIR
 10
1.0
 20
0.0
 30
0.0
  9
$UCSYDIR
 10
0.0
 20
1.0
 30
0.0
  9
$PUCSNAME
  2

  9
$PUCSORG
 10
0.0
 20
0.0
 30
0.0
  9
$PUCSXDIR
 10
1.0
 20
0.0
 30
0.0
  9
$PUCSYDIR
 10
0.0
 20
1.0
 30
0.0
  9
$USERI1
 70
     0
  9
$USERI2
 70
     0
  9
$USERI3
 70
     0
  9
$USERI4
 70
     0
  9
$USERI5
 70
     0
  9
$USERR1
 40
0.0
  9
$USERR2
 40
0.0
  9
$USERR3
 40
0.0
  9
$USERR4
 40
0.0
  9
$USERR5
 40
0.0
  9
$WORLDVIEW
 70
     1
  9
$SHADEDGE
 70
     3
  9
$SHADEDIF
 70
    70
  9
$TILEMODE
 70
     1
  9
$MAXACTVP
 70
    16
  9
$PLIMCHECK
 70
     0
  9
$PEXTMIN
 10
1.0000000000000000E+020
 20
1.0000000000000000E+020
 30
1.0000000000000000E+020
  9
$PEXTMAX
 10
-1.0000000000000000E+020
 20
-1.0000000000000000E+020
 30
-1.0000000000000000E+020
  9
$PLIMMIN
 10
0.0
 20
0.0
  9
$PLIMMAX
 10
12.0
 20
9.0
  9
$UNITMODE
 70
     0
  9
$VISRETAIN
 70
     0
  9
$PLINEGEN
 70
     0
  9
$PSLTSCALE
 70
     1
  0
ENDSEC
  0
SECTION
  2
TABLES
  0
TABLE
  2
VPORT
 70
     2
  0
VPORT
  2
*ACTIVE
 70
     0
 10
0.0
 20
0.0
 11
1.0
 21
1.0
 12
14155.71819798618
 22
4134.2794504057129
 13
0.0
 23
0.0
 14
10.0
 24
10.0
 15
10.0
 25
10.0
 16
0.0
 26
0.0
 36
1.0
 17
0.0
 27
0.0
 37
0.0
 40
10568.656754802891
 41
3.1666666666666661
 42
50.0
 43
0.0
 44
0.0
 50
0.0
 51
0.0
 71
     0
 72
   100
 73
     1
 74
     0
 75
     0
 76
     0
 77
     0
 78
     0
  0
ENDTAB
  0
TABLE
  2
LTYPE
 70
     2
  0
LTYPE
  2
CONTINUOUS
 70
     0
  3
Solid line
 72
    65
 73
     0
 40
0.0
  0
LTYPE
  2
CENTER
 70
     0
  3
____ _ ____ _ ____ _ ____ _ ____ _ ____ _ ____ 
 72
    65
 73
     4
 40
2.0
 49
1.25
 49
-0.25
 49
0.25
 49
-0.25
  0
ENDTAB
  0
TABLE
  2
LAYER
 70
     6
  0
LAYER
  2
0
 70
     0
 62
     7
  6
CONTINUOUS
  0
LAYER
  2
3
 70
     0
 62
     2
  6
CONTINUOUS
  0
LAYER
  2
2
 70
     0
 62
     3
  6
CENTER
  0
LAYER
  2
1
 70
     0
 62
     4
  6
CONTINUOUS
  0
LAYER
  2
4
 70
     0
 62
     7
  6
CONTINUOUS
  0
LAYER
  2
DEFPOINTS
 70
     0
 62
     7
  6
CONTINUOUS
  0
ENDTAB
  0
TABLE
  2
STYLE
 70
     1
  0
STYLE
  2
STANDARD
 70
     0
 40
0.0
 41
1.0
 50
0.0
 71
     0
 42
180.0
  3
simplex.shx
  4
extfont.shx
  0
ENDTAB
  0
TABLE
  2
VIEW
 70
     0
  0
ENDTAB
  0
TABLE
  2
UCS
 70
     0
  0
ENDTAB
  0
TABLE
  2
APPID
 70
     1
  0
APPID
  2
ACAD
 70
     0
  0
ENDTAB
  0
TABLE
  2
DIMSTYLE
 70
     1
  0
DIMSTYLE
  2
IGA
 70
     0
  3

  4

  5

  6
OPEN
  7
OPEN
 40
2.0
 41
2.0
 42
0.5
 43
10.0
 44
1.0
 45
0.0
 46
0.0
 47
1.0
 48
1.0
140
3.0
141
0.0
142
0.0
143
0.03937
144
1.0
145
0.0
146
10.0
147
1.0
 71
     0
 72
     0
 73
     0
 74
     0
 75
     0
 76
     0
 77
     1
 78
     8
170
     0
171
     2
172
     0
173
     1
174
     0
175
     0
176
     0
177
     0
178
     0
  0
ENDTAB
  0
ENDSEC
  0
SECTION
  2
BLOCKS
  0
BLOCK
  8
0
  2
$MODEL_SPACE
 70
     0
 10
0.0
 20
0.0
 30
0.0
  3
$MODEL_SPACE
  1

  0
ENDBLK
  5
1B
  8
0
  0
BLOCK
 67
     1
  8
0
  2
$PAPER_SPACE
 70
     0
 10
0.0
 20
0.0
 30
0.0
  3
$PAPER_SPACE
  1

  0
ENDBLK
  5
18
 67
     1
  8
0
  0
BLOCK
  8
0
  2
_OPEN
 70
     0
 10
0.0
 20
0.0
 30
0.0
  3
_OPEN
  1

  0
LINE
  5
7AD8
  8
0
  6
BYBLOCK
 62
     0
 10
-1.0
 20
0.166667
 30
0.0
 11
0.0
 21
0.0
 31
0.0
  0
LINE
  5
7AD9
  8
0
  6
BYBLOCK
 62
     0
 10
0.0
 20
0.0
 30
0.0
 11
-1.0
 21
-0.166667
 31
0.0
  0
LINE
  5
7ADA
  8
0
  6
BYBLOCK
 62
     0
 10
0.0
 20
0.0
 30
0.0
 11
-1.0
 21
0.0
 31
0.0
  0
ENDBLK
  5
7ADB
  8
0
  0
BLOCK
  8
0
  2
*D1
 70
     1
 10
0.0
 20
0.0
 30
0.0
  3
*D1
  1

  0
LINE
  5
7F08
  8
3
  6
CONTINUOUS
 62
     0
 10
1092.4420721641179
 20
2936.0505099581392
 30
0.0
 11
1092.4420721641179
 21
2643.6251989581378
 31
0.0
  0
LINE
  5
7F09
  8
3
  6
CONTINUOUS
 62
     0
 10
2192.4420721641168
 20
2837.963015958137
 30
0.0
 11
2192.4420721641168
 21
2643.6251989581378
 31
0.0
  0
LINE
  5
7F0A
  8
3
  6
CONTINUOUS
 62
     0
 10
1152.4420721641179
 20
2673.6251989581378
 30
0.0
 11
2132.4420721641168
 21
2673.6251989581378
 31
0.0
  0
INSERT
  5
7F0B
  8
3
  6
CONTINUOUS
 62
     0
  2
_OPEN
 10
1092.4420721641179
 20
2673.6251989581378
 30
0.0
 41
60.0
 42
60.0
 43
60.0
 50
180.0
  0
INSERT
  5
7F0C
  8
3
  6
CONTINUOUS
 62
     0
  2
_OPEN
 10
2192.4420721641168
 20
2673.6251989581378
 30
0.0
 41
60.0
 42
60.0
 43
60.0
  0
TEXT
  8
3
  40
90
  5
7F98
  62
0
  72
0
  71
0
 10
1477.67
 20
2589.33
 30
0.000000
  1
1100
  0
POINT
  5
7F0E
  8
DEFPOINTS
  6
CONTINUOUS
 62
     0
 10
1092.4420721641179
 20
2951.0505099581378
 30
0.0
  0
POINT
  5
7F0F
  8
DEFPOINTS
  6
CONTINUOUS
 62
     0
 10
2192.4420721641168
 20
2852.963015958137
 30
0.0
  0
POINT
  5
7F10
  8
DEFPOINTS
  6
CONTINUOUS
 62
     0
 10
2192.4420721641168
 20
2673.6251989581378
 30
0.0
  0
ENDBLK
  5
7D13
  8
0
  0
BLOCK
  8
0
  2
*D2
 70
     1
 10
0.0
 20
0.0
 30
0.0
  3
*D2
  1

  0
LINE
  5
7F11
  8
3
  6
CONTINUOUS
 62
     0
 10
2192.4420721641168
 20
2837.963015958137
 30
0.0
 11
2192.4420721641168
 21
2647.1141379581368
 31
0.0
  0
LINE
  5
7F12
  8
3
  6
CONTINUOUS
 62
     0
 10
2642.4420721641181
 20
2936.0505099581392
 30
0.0
 11
2642.4420721641181
 21
2647.1141379581368
 31
0.0
  0
LINE
  5
7F13
  8
3
  6
CONTINUOUS
 62
     0
 10
2252.4420721641168
 20
2677.1141379581368
 30
0.0
 11
2582.4420721641181
 21
2677.1141379581368
 31
0.0
  0
INSERT
  5
7F14
  8
3
  6
CONTINUOUS
 62
     0
  2
_OPEN
 10
2192.4420721641168
 20
2677.1141379581368
 30
0.0
 41
60.0
 42
60.0
 43
60.0
 50
180.0
  0
INSERT
  5
7F15
  8
3
  6
CONTINUOUS
 62
     0
  2
_OPEN
 10
2642.4420721641181
 20
2677.1141379581368
 30
0.0
 41
60.0
 42
60.0
 43
60.0
  0
TEXT
  8
3
  40
90
  5
7F99
  62
0
  72
0
  71
0
 10
2256.73
 20
2592.81
 30
0.000000
  1
450
  0
POINT
  5
7F17
  8
DEFPOINTS
  6
CONTINUOUS
 62
     0
 10
2192.4420721641168
 20
2852.963015958137
 30
0.0
  0
POINT
  5
7F18
  8
DEFPOINTS
  6
CONTINUOUS
 62
     0
 10
2642.4420721641181
 20
2951.0505099581378
 30
0.0
  0
POINT
  5
7F19
  8
DEFPOINTS
  6
CONTINUOUS
 62
     0
 10
2642.4420721641181
 20
2677.1141379581368
 30
0.0
  0
ENDBLK
  5
7D08
  8
0
  0
BLOCK
  8
0
  2
*D3
 70
     1
 10
0.0
 20
0.0
 30
0.0
  3
*D3
  1

  0
LINE
  5
7F1A
  8
3
  6
CONTINUOUS
 62
     0
 10
2707.4420721641181
 20
3792.0505099581392
 30
0.0
 11
3039.5691511641189
 21
3792.0505099581392
 31
0.0
  0
LINE
  5
7F1B
  8
3
  6
CONTINUOUS
 62
     0
 10
2707.4420721641181
 20
3062.0505099581378
 30
0.0
 11
3039.569151164118
 21
3062.0505099581378
 31
0.0
  0
LINE
  5
7F1C
  8
3
  6
CONTINUOUS
 62
     0
 10
3009.569151164118
 20
3732.0505099581378
 30
0.0
 11
3009.569151164118
 21
3122.0505099581392
 31
0.0
  0
INSERT
  5
7F1D
  8
3
  6
CONTINUOUS
 62
     0
  2
_OPEN
 10
3009.569151164118
 20
3792.0505099581392
 30
0.0
 41
60.0
 42
60.0
 43
60.0
 50
90.0
  0
INSERT
  5
7F1E
  8
3
  6
CONTINUOUS
 62
     0
  2
_OPEN
 10
3009.569151164118
 20
3062.0505099581378
 30
0.0
 41
60.0
 42
60.0
 43
60.0
 50
270.0
  0
TEXT
  8
3
  40
90
  5
7F9A
  62
0
  72
0
  71
0
 10
2754.57
 20
3295.85
 30
0.000000
  1
730
  0
POINT
  5
7F20
  8
DEFPOINTS
  6
CONTINUOUS
 62
     0
 10
2692.4420721641181
 20
3792.0505099581392
 30
0.0
  0
POINT
  5
7F21
  8
DEFPOINTS
  6
CONTINUOUS
 62
     0
 10
2692.4420721641181
 20
3062.0505099581378
 30
0.0
  0
POINT
  5
7F22
  8
DEFPOINTS
  6
CONTINUOUS
 62
     0
 10
3009.569151164118
 20
3062.0505099581378
 30
0.0
  0
ENDBLK
  5
7CFD
  8
0
  0
BLOCK
  8
0
  2
*D4
 70
     1
 10
0.0
 20
0.0
 30
0.0
  3
*D4
  1

  0
LINE
  5
7F23
  8
3
  6
CONTINUOUS
 62
     0
 10
2627.5373011641168
 20
3821.0505099581392
 30
0.0
 11
3222.8181090167218
 21
3821.0505099581378
 31
0.0
  0
LINE
  5
7F24
  8
3
  6
CONTINUOUS
 62
     0
 10
2707.4420721641181
 20
3062.0505099581378
 30
0.0
 11
3222.8181090167218
 21
3062.0505099581378
 31
0.0
  0
LINE
  5
7F25
  8
3
  6
CONTINUOUS
 62
     0
 10
3192.8181090167232
 20
3761.0505099581378
 30
0.0
 11
3192.8181090167232
 21
3122.0505099581378
 31
0.0
  0
INSERT
  5
7F26
  8
3
  6
CONTINUOUS
 62
     0
  2
_OPEN
 10
3192.8181090167232
 20
3821.0505099581378
 30
0.0
 41
60.0
 42
60.0
 43
60.0
 50
90.0
  0
INSERT
  5
7F27
  8
3
  6
CONTINUOUS
 62
     0
  2
_OPEN
 10
3192.8181090167218
 20
3062.0505099581378
 30
0.0
 41
60.0
 42
60.0
 43
60.0
 50
270.0
  0
TEXT
  8
3
  40
90
  5
7F9B
  62
0
  72
0
  71
0
 10
2937.82
 20
3296.89
 30
0.000000
  1
759
  0
POINT
  5
7F29
  8
DEFPOINTS
  6
CONTINUOUS
 62
     0
 10
2612.5373011641168
 20
3821.0505099581392
 30
0.0
  0
POINT
  5
7F2A
  8
DEFPOINTS
  6
CONTINUOUS
 62
     0
 10
2692.4420721641181
 20
3062.0505099581378
 30
0.0
  0
POINT
  5
7F2B
  8
DEFPOINTS
  6
CONTINUOUS
 62
     0
 10
3192.8181090167218
 20
3062.0505099581378
 30
0.0
  0
ENDBLK
  5
7D6B
  8
0
  0
BLOCK
  8
0
  2
*D5
 70
     1
 10
0.0
 20
0.0
 30
0.0
  3
*D5
  1

  0
LINE
  5
7F2C
  8
3
  6
CONTINUOUS
 62
     0
 10
2207.4420721641168
 20
4327.0505099581378
 30
0.0
 11
3388.6096838693252
 21
4327.0505099581378
 31
0.0
  0
LINE
  5
7F2D
  8
3
  6
CONTINUOUS
 62
     0
 10
2627.1138881641168
 20
3821.0505099581392
 30
0.0
 11
3388.6096838693252
 21
3821.0505099581378
 31
0.0
  0
LINE
  5
7F2E
  8
3
  6
CONTINUOUS
 62
     0
 10
3358.6096838693252
 20
4267.0505099581387
 30
0.0
 11
3358.6096838693252
 21
3881.0505099581378
 31
0.0
  0
INSERT
  5
7F2F
  8
3
  6
CONTINUOUS
 62
     0
  2
_OPEN
 10
3358.6096838693252
 20
4327.0505099581378
 30
0.0
 41
60.0
 42
60.0
 43
60.0
 50
90.0
  0
INSERT
  5
7F30
  8
3
  6
CONTINUOUS
 62
     0
  2
_OPEN
 10
3358.6096838693252
 20
3821.0505099581378
 30
0.0
 41
60.0
 42
60.0
 43
60.0
 50
270.0
  0
TEXT
  8
3
  40
90
  5
7F9C
  62
0
  72
0
  71
0
 10
3103.61
 20
3925.23
 30
0.000000
  1
506
  0
POINT
  5
7F32
  8
DEFPOINTS
  6
CONTINUOUS
 62
     0
 10
2192.4420721641168
 20
4327.0505099581378
 30
0.0
  0
POINT
  5
7F33
  8
DEFPOINTS
  6
CONTINUOUS
 62
     0
 10
2612.1138881641168
 20
3821.0505099581392
 30
0.0
  0
POINT
  5
7F34
  8
DEFPOINTS
  6
CONTINUOUS
 62
     0
 10
3358.6096838693252
 20
3821.0505099581378
 30
0.0
  0
ENDBLK
  5
7E27
  8
0
  0
BLOCK
  8
0
  2
*D6
 70
     1
 10
0.0
 20
0.0
 30
0.0
  3
*D6
  1

  0
LINE
  5
7F35
  8
3
  6
CONTINUOUS
 62
     0
 10
2627.1138881641168
 20
3821.0505099581392
 30
0.0
 11
3388.6096838693252
 21
3821.0505099581378
 31
0.0
  0
LINE
  5
7F36
  8
3
  6
CONTINUOUS
 62
     0
 10
2657.4420721641181
 20
2951.0505099581378
 30
0.0
 11
3388.6096838693238
 21
2951.0505099581378
 31
0.0
  0
LINE
  5
7F37
  8
3
  6
CONTINUOUS
 62
     0
 10
3358.6096838693252
 20
3761.0505099581378
 30
0.0
 11
3358.6096838693252
 21
3011.0505099581378
 31
0.0
  0
INSERT
  5
7F38
  8
3
  6
CONTINUOUS
 62
     0
  2
_OPEN
 10
3358.6096838693252
 20
3821.0505099581378
 30
0.0
 41
60.0
 42
60.0
 43
60.0
 50
90.0
  0
INSERT
  5
7F39
  8
3
  6
CONTINUOUS
 62
     0
  2
_OPEN
 10
3358.6096838693252
 20
2951.0505099581378
 30
0.0
 41
60.0
 42
60.0
 43
60.0
 50
270.0
  0
TEXT
  8
3
  40
90
  5
7F9D
  62
0
  72
0
  71
0
 10
3103.61
 20
3226.75
 30
0.000000
  1
870
  0
POINT
  5
7F3B
  8
DEFPOINTS
  6
CONTINUOUS
 62
     0
 10
2612.1138881641168
 20
3821.0505099581392
 30
0.0
  0
POINT
  5
7F3C
  8
DEFPOINTS
  6
CONTINUOUS
 62
     0
 10
2642.4420721641181
 20
2951.0505099581378
 30
0.0
  0
POINT
  5
7F3D
  8
DEFPOINTS
  6
CONTINUOUS
 62
     0
 10
3358.6096838693252
 20
2951.0505099581378
 30
0.0
  0
ENDBLK
  5
7D60
  8
0
  0
BLOCK
  8
0
  2
*D7
 70
     1
 10
0.0
 20
0.0
 30
0.0
  3
*D7
  1

  0
LINE
  5
7F3E
  8
3
  6
CONTINUOUS
 62
     0
 10
1580.442072164117
 20
3836.0505099581392
 30
0.0
 11
1580.442072164117
 21
4539.7879096988154
 31
0.0
  0
LINE
  5
7F3F
  8
3
  6
CONTINUOUS
 62
     0
 10
2192.4420721641168
 20
4340.1457389581374
 30
0.0
 11
2192.4420721641168
 21
4539.7879096988154
 31
0.0
  0
LINE
  5
7F40
  8
3
  6
CONTINUOUS
 62
     0
 10
1640.442072164117
 20
4509.7879096988154
 30
0.0
 11
2132.4420721641168
 21
4509.7879096988154
 31
0.0
  0
INSERT
  5
7F41
  8
3
  6
CONTINUOUS
 62
     0
  2
_OPEN
 10
1580.442072164117
 20
4509.7879096988154
 30
0.0
 41
60.0
 42
60.0
 43
60.0
 50
180.0
  0
INSERT
  5
7F42
  8
3
  6
CONTINUOUS
 62
     0
  2
_OPEN
 10
2192.4420721641168
 20
4509.7879096988154
 30
0.0
 41
60.0
 42
60.0
 43
60.0
  0
TEXT
  8
3
  40
90
  5
7F9E
  62
0
  72
0
  71
0
 10
1708.80
 20
4425.49
 30
0.000000
  1
612
  0
POINT
  5
7F44
  8
DEFPOINTS
  6
CONTINUOUS
 62
     0
 10
1580.442072164117
 20
3821.0505099581392
 30
0.0
  0
POINT
  5
7F45
  8
DEFPOINTS
  6
CONTINUOUS
 62
     0
 10
2192.4420721641168
 20
4325.1457389581383
 30
0.0
  0
POINT
  5
7F46
  8
DEFPOINTS
  6
CONTINUOUS
 62
     0
 10
2192.4420721641168
 20
4509.7879096988154
 30
0.0
  0
ENDBLK
  5
7E10
  8
0
  0
BLOCK
  8
0
  2
*D8
 70
     1
 10
0.0
 20
0.0
 30
0.0
  3
*D8
  1

  0
LINE
  5
7F47
  8
3
  6
CONTINUOUS
 62
     0
 10
2192.4420721641168
 20
4340.1457389581374
 30
0.0
 11
2192.4420721641168
 21
4539.7879096988154
 31
0.0
  0
LINE
  5
7F48
  8
3
  6
CONTINUOUS
 62
     0
 10
2692.4420721641181
 20
3847.0505099581392
 30
0.0
 11
2692.4420721641181
 21
4539.7879096988154
 31
0.0
  0
LINE
  5
7F49
  8
3
  6
CONTINUOUS
 62
     0
 10
2252.4420721641168
 20
4509.7879096988154
 30
0.0
 11
2632.4420721641181
 21
4509.7879096988154
 31
0.0
  0
INSERT
  5
7F4A
  8
3
  6
CONTINUOUS
 62
     0
  2
_OPEN
 10
2192.4420721641168
 20
4509.7879096988154
 30
0.0
 41
60.0
 42
60.0
 43
60.0
 50
180.0
  0
INSERT
  5
7F4B
  8
3
  6
CONTINUOUS
 62
     0
  2
_OPEN
 10
2692.4420721641181
 20
4509.7879096988154
 30
0.0
 41
60.0
 42
60.0
 43
60.0
  0
TEXT
  8
3
  40
90
  5
7F9F
  62
0
  72
0
  71
0
 10
2262.44
 20
4425.49
 30
0.000000
  1
500
  0
POINT
  5
7F4D
  8
DEFPOINTS
  6
CONTINUOUS
 62
     0
 10
2192.4420721641168
 20
4325.1457389581383
 30
0.0
  0
POINT
  5
7F4E
  8
DEFPOINTS
  6
CONTINUOUS
 62
     0
 10
2692.4420721641181
 20
3832.0505099581378
 30
0.0
  0
POINT
  5
7F4F
  8
DEFPOINTS
  6
CONTINUOUS
 62
     0
 10
2692.4420721641181
 20
4509.7879096988154
 30
0.0
  0
ENDBLK
  5
7DC3
  8
0
  0
BLOCK
  8
0
  2
*D9
 70
     1
 10
0.0
 20
0.0
 30
0.0
  3
*D9
  1

  0
LINE
  5
7F50
  8
3
  6
CONTINUOUS
 62
     0
 10
1092.4420721641179
 20
5588.1505099581382
 30
0.0
 11
1092.4420721641179
 21
5173.4272119581383
 31
0.0
  0
LINE
  5
7F51
  8
3
  6
CONTINUOUS
 62
     0
 10
2642.4420721641181
 20
5588.1505099581382
 30
0.0
 11
2642.4420721641181
 21
5173.4272119581383
 31
0.0
  0
LINE
  5
7F52
  8
3
  6
CONTINUOUS
 62
     0
 10
1152.4420721641179
 20
5203.4272119581383
 30
0.0
 11
2582.4420721641181
 21
5203.4272119581383
 31
0.0
  0
INSERT
  5
7F53
  8
3
  6
CONTINUOUS
 62
     0
  2
_OPEN
 10
1092.4420721641179
 20
5203.4272119581383
 30
0.0
 41
60.0
 42
60.0
 43
60.0
 50
180.0
  0
INSERT
  5
7F54
  8
3
  6
CONTINUOUS
 62
     0
  2
_OPEN
 10
2642.4420721641181
 20
5203.4272119581383
 30
0.0
 41
60.0
 42
60.0
 43
60.0
  0
TEXT
  8
3
  40
90
  5
7FA0
  62
0
  72
0
  71
0
 10
1656.43
 20
5119.13
 30
0.000000
  1
1550
  0
POINT
  5
7F56
  8
DEFPOINTS
  6
CONTINUOUS
 62
     0
 10
1092.4420721641179
 20
5603.1505099581382
 30
0.0
  0
POINT
  5
7F57
  8
DEFPOINTS
  6
CONTINUOUS
 62
     0
 10
2642.4420721641181
 20
5603.1505099581382
 30
0.0
  0
POINT
  5
7F58
  8
DEFPOINTS
  6
CONTINUOUS
 62
     0
 10
2642.4420721641181
 20
5203.4272119581383
 30
0.0
  0
ENDBLK
  5
7CB0
  8
0
  0
BLOCK
  8
0
  2
*D10
 70
     1
 10
0.0
 20
0.0
 30
0.0
  3
*D10
  1

  0
LINE
  5
7F59
  8
3
  6
CONTINUOUS
 62
     0
 10
2657.4420721641181
 20
6353.1505099581382
 30
0.0
 11
3004.6543871641179
 21
6353.1505099581382
 31
0.0
  0
LINE
  5
7F5A
  8
3
  6
CONTINUOUS
 62
     0
 10
2657.4420721641181
 20
5603.1505099581382
 30
0.0
 11
3004.6543871641179
 21
5603.1505099581382
 31
0.0
  0
LINE
  5
7F5B
  8
3
  6
CONTINUOUS
 62
     0
 10
2974.6543871641179
 20
6293.1505099581382
 30
0.0
 11
2974.6543871641179
 21
5663.1505099581382
 31
0.0
  0
INSERT
  5
7F5C
  8
3
  6
CONTINUOUS
 62
     0
  2
_OPEN
 10
2974.6543871641179
 20
6353.1505099581382
 30
0.0
 41
60.0
 42
60.0
 43
60.0
 50
90.0
  0
INSERT
  5
7F5D
  8
3
  6
CONTINUOUS
 62
     0
  2
_OPEN
 10
2974.6543871641179
 20
5603.1505099581382
 30
0.0
 41
60.0
 42
60.0
 43
60.0
 50
270.0
  0
TEXT
  8
3
  40
90
  5
7FA1
  62
0
  72
0
  71
0
 10
2719.65
 20
5827.04
 30
0.000000
  1
750
  0
POINT
  5
7F5F
  8
DEFPOINTS
  6
CONTINUOUS
 62
     0
 10
2642.4420721641181
 20
6353.1505099581382
 30
0.0
  0
POINT
  5
7F60
  8
DEFPOINTS
  6
CONTINUOUS
 62
     0
 10
2642.4420721641181
 20
5603.1505099581382
 30
0.0
  0
POINT
  5
7F61
  8
DEFPOINTS
  6
CONTINUOUS
 62
     0
 10
2974.6543871641179
 20
5603.1505099581382
 30
0.0
  0
ENDBLK
  5
7CA5
  8
0
  0
BLOCK
  8
0
  2
*D11
 70
     1
 10
0.0
 20
0.0
 30
0.0
  3
*D11
  1

  0
LINE
  5
7F62
  8
3
  6
CONTINUOUS
 62
     0
 10
4226.9596492093488
 20
2936.0505099581392
 30
0.0
 11
4226.9596492093488
 21
2731.5422939581372
 31
0.0
  0
LINE
  5
7F63
  8
3
  6
CONTINUOUS
 62
     0
 10
4658.9596492093488
 20
2893.0773729581379
 30
0.0
 11
4658.9596492093488
 21
2731.5422939581372
 31
0.0
  0
LINE
  5
7F64
  8
3
  6
CONTINUOUS
 62
     0
 10
4286.9596492093478
 20
2761.5422939581381
 30
0.0
 11
4598.9596492093488
 21
2761.5422939581381
 31
0.0
  0
INSERT
  5
7F65
  8
3
  6
CONTINUOUS
 62
     0
  2
_OPEN
 10
4226.9596492093488
 20
2761.5422939581381
 30
0.0
 41
60.0
 42
60.0
 43
60.0
 50
180.0
  0
INSERT
  5
7F66
  8
3
  6
CONTINUOUS
 62
     0
  2
_OPEN
 10
4658.9596492093488
 20
2761.5422939581381
 30
0.0
 41
60.0
 42
60.0
 43
60.0
  0
TEXT
  8
3
  40
90
  5
7FA2
  62
0
  72
0
  71
0
 10
4252.67
 20
2677.24
 30
0.000000
  1
432
  0
POINT
  5
7F68
  8
DEFPOINTS
  6
CONTINUOUS
 62
     0
 10
4226.9596492093488
 20
2951.0505099581378
 30
0.0
  0
POINT
  5
7F69
  8
DEFPOINTS
  6
CONTINUOUS
 62
     0
 10
4658.9596492093488
 20
2908.0773729581379
 30
0.0
  0
POINT
  5
7F6A
  8
DEFPOINTS
  6
CONTINUOUS
 62
     0
 10
4658.9596492093488
 20
2761.5422939581381
 30
0.0
  0
ENDBLK
  5
7C9A
  8
0
  0
BLOCK
  8
0
  2
*D12
 70
     1
 10
0.0
 20
0.0
 30
0.0
  3
*D12
  1

  0
LINE
  5
7D8E
  8
0
  6
BYBLOCK
 62
     0
 10
4658.9596492093488
 20
2893.0773729581379
 30
0.0
 11
4658.9596492093488
 21
2731.195327958138
 31
0.0
  0
LINE
  5
7D8F
  8
0
  6
BYBLOCK
 62
     0
 10
4976.9596492093488
 20
2936.0505099581392
 30
0.0
 11
4976.9596492093488
 21
2731.195327958138
 31
0.0
  0
LINE
  5
7D90
  8
0
  6
BYBLOCK
 62
     0
 10
4718.9596492093478
 20
2761.195327958138
 30
0.0
 11
4916.9596492093488
 21
2761.195327958138
 31
0.0
  0
TEXT
  5
7D91
  8
3
 62
     0
 10
4710.816792066491
 20
2792.9438367921898
 30
0.0
 40
90.0
  1
318
  0
INSERT
  5
7D92
  8
0
  6
BYBLOCK
 62
     0
  2
_OPEN
 10
4658.9596492093488
 20
2761.195327958138
 30
0.0
 41
60.0
 42
60.0
 43
60.0
 50
180.0
  0
INSERT
  5
7D93
  8
0
  6
BYBLOCK
 62
     0
  2
_OPEN
 10
4976.9596492093488
 20
2761.195327958138
 30
0.0
 41
60.0
 42
60.0
 43
60.0
  0
POINT
  5
7D94
  8
DEFPOINTS
  6
BYBLOCK
 62
     0
 10
4658.9596492093488
 20
2908.0773729581379
 30
0.0
  0
POINT
  5
7D95
  8
DEFPOINTS
  6
BYBLOCK
 62
     0
 10
4976.9596492093488
 20
2951.0505099581378
 30
0.0
  0
POINT
  5
7D96
  8
DEFPOINTS
  6
BYBLOCK
 62
     0
 10
4976.9596492093488
 20
2761.195327958138
 30
0.0
  0
ENDBLK
  5
7D97
  8
0
  0
BLOCK
  8
0
  2
*D13
 70
     1
 10
0.0
 20
0.0
 30
0.0
  3
*D13
  1

  0
LINE
  5
7F6B
  8
3
  6
CONTINUOUS
 62
     0
 10
5021.9596492093488
 20
4176.0505099581378
 30
0.0
 11
5313.0212612093501
 21
4176.0505099581378
 31
0.0
  0
LINE
  5
7F6C
  8
3
  6
CONTINUOUS
 62
     0
 10
5021.9596492093488
 20
3466.0505099581378
 30
0.0
 11
5313.0212612093501
 21
3466.0505099581378
 31
0.0
  0
LINE
  5
7F6D
  8
3
  6
CONTINUOUS
 62
     0
 10
5283.0212612093492
 20
4116.0505099581378
 30
0.0
 11
5283.0212612093492
 21
3526.0505099581378
 31
0.0
  0
INSERT
  5
7F6E
  8
3
  6
CONTINUOUS
 62
     0
  2
_OPEN
 10
5283.0212612093492
 20
4176.0505099581378
 30
0.0
 41
60.0
 42
60.0
 43
60.0
 50
90.0
  0
INSERT
  5
7F6F
  8
3
  6
CONTINUOUS
 62
     0
  2
_OPEN
 10
5283.0212612093492
 20
3466.0505099581378
 30
0.0
 41
60.0
 42
60.0
 43
60.0
 50
270.0
  0
TEXT
  8
3
  40
90
  5
7FA3
  62
0
  72
0
  71
0
 10
5028.02
 20
3659.04
 30
0.000000
  1
φ710
  0
POINT
  5
7F71
  8
DEFPOINTS
  6
CONTINUOUS
 62
     0
 10
5006.9596492093488
 20
4176.0505099581378
 30
0.0
  0
POINT
  5
7F72
  8
DEFPOINTS
  6
CONTINUOUS
 62
     0
 10
5006.9596492093488
 20
3466.0505099581378
 30
0.0
  0
POINT
  5
7F73
  8
DEFPOINTS
  6
CONTINUOUS
 62
     0
 10
5283.0212612093492
 20
3466.0505099581378
 30
0.0
  0
ENDBLK
  5
7DA2
  8
0
  0
BLOCK
  8
0
  2
*D14
 70
     1
 10
0.0
 20
0.0
 30
0.0
  3
*D14
  1

  0
LINE
  5
7F74
  8
3
  6
CONTINUOUS
 62
     0
 10
4393.9596492093488
 20
4342.0505099581387
 30
0.0
 11
4393.9596492093488
 21
4478.0835959581382
 31
0.0
  0
LINE
  5
7F75
  8
3
  6
CONTINUOUS
 62
     0
 10
4923.9596492093488
 20
4342.0505099581387
 30
0.0
 11
4923.9596492093488
 21
4478.0835959581382
 31
0.0
  0
LINE
  5
7F76
  8
3
  6
CONTINUOUS
 62
     0
 10
4453.9596492093478
 20
4448.0835959581382
 30
0.0
 11
4863.9596492093478
 21
4448.0835959581382
 31
0.0
  0
INSERT
  5
7F77
  8
3
  6
CONTINUOUS
 62
     0
  2
_OPEN
 10
4393.9596492093488
 20
4448.0835959581382
 30
0.0
 41
60.0
 42
60.0
 43
60.0
 50
180.0
  0
INSERT
  5
7F78
  8
3
  6
CONTINUOUS
 62
     0
  2
_OPEN
 10
4923.9596492093488
 20
4448.0835959581382
 30
0.0
 41
60.0
 42
60.0
 43
60.0
  0
TEXT
  8
3
  40
90
  5
7FA4
  62
0
  72
0
  71
0
 10
4453.96
 20
4363.78
 30
0.000000
  1
530
  0
POINT
  5
7F7A
  8
DEFPOINTS
  6
CONTINUOUS
 62
     0
 10
4393.9596492093488
 20
4327.0505099581378
 30
0.0
  0
POINT
  5
7F7B
  8
DEFPOINTS
  6
CONTINUOUS
 62
     0
 10
4923.9596492093488
 20
4327.0505099581378
 30
0.0
  0
POINT
  5
7F7C
  8
DEFPOINTS
  6
CONTINUOUS
 62
     0
 10
4923.9596492093488
 20
4448.0835959581382
 30
0.0
  0
ENDBLK
  5
7C77
  8
0
  0
BLOCK
  8
0
  2
*D15
 70
     1
 10
0.0
 20
0.0
 30
0.0
  3
*D15
  1

  0
LINE
  5
7F7D
  8
3
  6
CONTINUOUS
 62
     0
 10
4148.9596492093488
 20
4025.750509958139
 30
0.0
 11
4148.9596492093488
 21
4715.5320688099282
 31
0.0
  0
LINE
  5
7F7E
  8
3
  6
CONTINUOUS
 62
     0
 10
4658.9596492093488
 20
4635.1206669581379
 30
0.0
 11
4658.9596492093488
 21
4715.5320688099282
 31
0.0
  0
LINE
  5
7F7F
  8
3
  6
CONTINUOUS
 62
     0
 10
4208.9596492093488
 20
4685.5320688099282
 30
0.0
 11
4598.9596492093488
 21
4685.5320688099282
 31
0.0
  0
INSERT
  5
7F80
  8
3
  6
CONTINUOUS
 62
     0
  2
_OPEN
 10
4148.9596492093488
 20
4685.5320688099282
 30
0.0
 41
60.0
 42
60.0
 43
60.0
 50
180.0
  0
INSERT
  5
7F81
  8
3
  6
CONTINUOUS
 62
     0
  2
_OPEN
 10
4658.9596492093488
 20
4685.5320688099282
 30
0.0
 41
60.0
 42
60.0
 43
60.0
  0
TEXT
  8
3
  40
90
  5
7FA5
  62
0
  72
0
  71
0
 10
4260.39
 20
4676.23
 30
0.000000
  1
MAX
  0
TEXT
  8
3
  40
90
  5
7FA6
  62
0
  72
0
  71
0
 10
4260.39
 20
4559.23
 30
0.000000
  1
590
  0
POINT
  5
7F83
  8
DEFPOINTS
  6
CONTINUOUS
 62
     0
 10
4148.9596492093488
 20
4010.7505099581381
 30
0.0
  0
POINT
  5
7F84
  8
DEFPOINTS
  6
CONTINUOUS
 62
     0
 10
4658.9596492093488
 20
4620.1206669581379
 30
0.0
  0
POINT
  5
7F85
  8
DEFPOINTS
  6
CONTINUOUS
 62
     0
 10
4658.9596492093488
 20
4685.5320688099282
 30
0.0
  0
ENDBLK
  5
7E00
  8
0
  0
BLOCK
  8
0
  2
*D16
 70
     1
 10
0.0
 20
0.0
 30
0.0
  3
*D16
  1

  0
LINE
  5
7DA4
  8
0
  6
BYBLOCK
 62
     0
 10
4658.9596492093488
 20
4635.1206669581379
 30
0.0
 11
4658.9596492093488
 21
4715.5320688099282
 31
0.0
  0
LINE
  5
7DA5
  8
0
  6
BYBLOCK
 62
     0
 10
5006.9596492093488
 20
4231.0505099581387
 30
0.0
 11
5006.9596492093488
 21
4715.5320688099282
 31
0.0
  0
LINE
  5
7DA6
  8
0
  6
BYBLOCK
 62
     0
 10
4718.9596492093478
 20
4685.5320688099282
 30
0.0
 11
4946.9596492093488
 21
4685.5320688099282
 31
0.0
  0
TEXT
  5
7DA7
  8
3
 62
     0
 10
4717.2453634950634
 20
4723.91396251893
 30
0.0
 40
90.0
  1
348
  0
INSERT
  5
7DA8
  8
0
  6
BYBLOCK
 62
     0
  2
_OPEN
 10
4658.9596492093488
 20
4685.5320688099282
 30
0.0
 41
60.0
 42
60.0
 43
60.0
 50
180.0
  0
INSERT
  5
7DA9
  8
0
  6
BYBLOCK
 62
     0
  2
_OPEN
 10
5006.9596492093488
 20
4685.5320688099282
 30
0.0
 41
60.0
 42
60.0
 43
60.0
  0
POINT
  5
7DAA
  8
DEFPOINTS
  6
BYBLOCK
 62
     0
 10
4658.9596492093488
 20
4620.1206669581379
 30
0.0
  0
POINT
  5
7DAB
  8
DEFPOINTS
  6
BYBLOCK
 62
     0
 10
5006.9596492093488
 20
4216.0505099581378
 30
0.0
  0
POINT
  5
7DAC
  8
DEFPOINTS
  6
BYBLOCK
 62
     0
 10
5006.9596492093488
 20
4685.5320688099282
 30
0.0
  0
ENDBLK
  5
7DAD
  8
0
  0
BLOCK
  8
0
  2
*D17
 70
     1
 10
0.0
 20
0.0
 30
0.0
  3
*D17
  1

  0
LINE
  5
7F86
  8
3
 62
     0
 10
2207.4420721641168
 20
4327.0505099581378
 30
0.0
 11
3593.4449231265248
 21
4327.0505099581378
 31
0.0
  0
LINE
  5
7F87
  8
3
 62
     0
 10
2657.4420721641181
 20
2951.0505099581378
 30
0.0
 11
3593.4449231265239
 21
2951.0505099581378
 31
0.0
  0
LINE
  5
7F88
  8
3
 62
     0
 10
3563.4449231265248
 20
4267.0505099581387
 30
0.0
 11
3563.4449231265248
 21
3011.0505099581378
 31
0.0
  0
INSERT
  5
7F89
  8
3
 62
     0
  2
_OPEN
 10
3563.4449231265248
 20
4327.0505099581378
 30
0.0
 41
60.0
 42
60.0
 43
60.0
 50
90.0
  0
INSERT
  5
7F8A
  8
3
 62
     0
  2
_OPEN
 10
3563.4449231265248
 20
2951.0505099581378
 30
0.0
 41
60.0
 42
60.0
 43
60.0
 50
270.0
  0
TEXT
  8
3
  40
90
  5
7FA7
  62
0
  72
0
  71
0
 10
3308.44
 20
3499.60
 30
0.000000
  1
1376
  0
POINT
  5
7F8C
  8
DEFPOINTS
 62
     0
 10
2192.4420721641168
 20
4327.0505099581378
 30
0.0
  0
POINT
  5
7F8D
  8
DEFPOINTS
 62
     0
 10
2642.4420721641181
 20
2951.0505099581378
 30
0.0
  0
POINT
  5
7F8E
  8
DEFPOINTS
 62
     0
 10
3563.4449231265248
 20
2951.0505099581378
 30
0.0
  0
ENDBLK
  5
7E1C
  8
0
  0
BLOCK
  8
0
  2
*D18
 70
     1
 10
0.0
 20
0.0
 30
0.0
  3
*D18
  1

  0
LINE
  5
7F8F
  8
3
 62
     0
 10
2692.4420721641181
 20
3862.0505099581378
 30
0.0
 11
2692.4420721641181
 21
4729.5378153339952
 31
0.0
  0
LINE
  5
7F90
  8
3
 62
     0
 10
1092.4420721641179
 20
3066.0505099581378
 30
0.0
 11
1092.4420721641179
 21
4729.5378153339952
 31
0.0
  0
LINE
  5
7F91
  8
3
 62
     0
 10
2632.4420721641181
 20
4699.5378153339962
 30
0.0
 11
1152.4420721641179
 21
4699.5378153339962
 31
0.0
  0
INSERT
  5
7F92
  8
3
 62
     0
  2
_OPEN
 10
2692.4420721641181
 20
4699.5378153339962
 30
0.0
 41
60.0
 42
60.0
 43
60.0
  0
INSERT
  5
7F93
  8
3
 62
     0
  2
_OPEN
 10
1092.4420721641179
 20
4699.5378153339962
 30
0.0
 41
60.0
 42
60.0
 43
60.0
 50
180.0
  0
TEXT
  8
3
  40
90
  5
7FA8
  62
0
  72
0
  71
0
 10
1682.32
 20
4615.24
 30
0.000000
  1
1600
  0
POINT
  5
7F95
  8
DEFPOINTS
 62
     0
 10
2692.4420721641181
 20
3847.0505099581392
 30
0.0
  0
POINT
  5
7F96
  8
DEFPOINTS
 62
     0
 10
1092.4420721641179
 20
3051.0505099581378
 30
0.0
  0
POINT
  5
7F97
  8
DEFPOINTS
 62
     0
 10
1092.4420721641179
 20
4699.5378153339962
 30
0.0
  0
ENDBLK
  5
7DF4
  8
0
  0
ENDSEC
  0
SECTION
  2
ENTITIES
  0
LINE
  5
7A6F
  8
1
  6
CONTINUOUS
 10
1366.2458461641179
 20
3142.4373019581381
 30
0.0
 11
2266.2458461641181
 21
3702.4373019581381
 31
0.0
  0
LINE
  5
7A70
  8
1
  6
CONTINUOUS
 10
1392.6609401641181
 20
3099.984471958137
 30
0.0
 11
2292.6609401641181
 21
3659.9844719581379
 31
0.0
  0
ARC
  5
7A71
  8
1
  6
CONTINUOUS
 10
1292.4420721641179
 20
3261.0505099581378
 30
0.0
 40
189.69999999999999
 50
121.890792
 51
301.89079199999992
  0
ARC
  5
7A72
  8
1
  6
CONTINUOUS
 10
2245.4420721641168
 20
3768.0505099581378
 30
0.0
 40
665.0
 50
175.428721
 51
265.428721
  0
LINE
  5
7A73
  8
1
  6
CONTINUOUS
 10
2692.4420721641181
 20
3022.0505099581378
 30
0.0
 11
2692.4420721641181
 21
3832.0505099581378
 31
0.0
  0
LINE
  5
7A74
  8
1
  6
CONTINUOUS
 10
2652.4420721641181
 20
3065.4997419581382
 30
0.0
 11
2652.4420721641181
 21
3792.0505099581392
 31
0.0
  0
ARC
  5
7A75
  8
1
  6
CONTINUOUS
 10
1292.4420721641179
 20
3261.0505099581378
 30
0.0
 40
162.0
 50
324.972283
 51
215.02771699999991
  0
CIRCLE
  5
7A76
  8
1
  6
CONTINUOUS
 10
1292.4420721641179
 20
3261.0505099581378
 30
0.0
 40
139.69999999999999
  0
LINE
  5
7A77
  8
2
  6
CENTER
 10
1292.4420721641179
 20
3116.350509958138
 30
0.0
 11
1292.4420721641179
 21
3405.7505099581381
 31
0.0
  0
LINE
  5
7A78
  8
1
  6
CONTINUOUS
 10
2192.4420721641168
 20
3105.1659049581381
 30
0.0
 11
2692.4420721641181
 21
3062.0505099581378
 31
0.0
  0
LINE
  5
7A79
  8
1
  6
CONTINUOUS
 10
1092.4420721641179
 20
2951.0505099581378
 30
0.0
 11
2642.4420721641181
 21
2951.0505099581378
 31
0.0
  0
LINE
  5
7A7A
  8
1
  6
CONTINUOUS
 10
1092.4420721641179
 20
3051.0505099581378
 30
0.0
 11
2642.4420721641181
 21
3051.0505099581378
 31
0.0
  0
LINE
  5
7A7B
  8
1
  6
CONTINUOUS
 10
1092.4420721641179
 20
3051.0505099581378
 30
0.0
 11
1092.4420721641179
 21
2951.0505099581378
 31
0.0
  0
LINE
  5
7A7C
  8
1
  6
CONTINUOUS
 10
1446.442072164117
 20
3119.0505099581378
 30
0.0
 11
1425.0997381641171
 21
3168.066942958138
 31
0.0
  0
LINE
  5
7A7D
  8
1
  6
CONTINUOUS
 10
1446.442072164117
 20
3101.0505099581378
 30
0.0
 11
1446.442072164117
 21
3119.0505099581378
 31
0.0
  0
LINE
  5
7A7E
  8
1
  6
CONTINUOUS
 10
1138.4420721641179
 20
3101.0505099581378
 30
0.0
 11
1138.4420721641179
 21
3119.0505099581378
 31
0.0
  0
LINE
  5
7A7F
  8
1
  6
CONTINUOUS
 10
1138.4420721641179
 20
3119.0505099581378
 30
0.0
 11
1159.7844061641169
 21
3168.066942958138
 31
0.0
  0
LINE
  5
7A80
  8
1
  6
CONTINUOUS
 10
1094.9420721641179
 20
3051.0505099581378
 30
0.0
 11
1094.9420721641179
 21
3101.0505099581378
 31
0.0
  0
LINE
  5
7A81
  8
1
  6
CONTINUOUS
 10
1489.942072164117
 20
3051.0505099581378
 30
0.0
 11
1489.942072164117
 21
3101.0505099581378
 31
0.0
  0
LINE
  5
7A82
  8
1
  6
CONTINUOUS
 10
1489.942072164117
 20
3101.0505099581378
 30
0.0
 11
1094.9420721641179
 21
3101.0505099581378
 31
0.0
  0
LINE
  5
7A83
  8
1
  6
CONTINUOUS
 10
2642.4420721641181
 20
3051.0505099581378
 30
0.0
 11
2642.4420721641181
 21
2951.0505099581378
 31
0.0
  0
ARC
  5
7A84
  8
1
  6
CONTINUOUS
 10
2192.4420721641168
 20
3821.0505099581392
 30
0.0
 40
189.69999999999999
 50
301.89079199999992
 51
121.890792
  0
ARC
  5
7A85
  8
1
  6
CONTINUOUS
 10
2150.4420721641168
 20
3863.0505099581392
 30
0.0
 40
464.0
 50
354.80663599999991
 51
84.806635999999983
  0
CIRCLE
  5
7A86
  8
1
  6
CONTINUOUS
 10
2192.4420721641168
 20
3821.0505099581392
 30
0.0
 40
355.0
  0
CIRCLE
  5
7A87
  8
1
  6
CONTINUOUS
 10
2192.4420721641168
 20
3821.0505099581392
 30
0.0
 40
395.0
  0
CIRCLE
  5
7A88
  8
1
  6
CONTINUOUS
 10
2192.4420721641168
 20
3821.0505099581392
 30
0.0
 40
139.69999999999999
  0
LINE
  5
7A89
  8
2
  6
CENTER
 10
1537.9859741641169
 20
3821.0505099581392
 30
0.0
 11
2749.4520161641171
 21
3821.0505099581392
 31
0.0
  0
ARC
  5
7A8A
  8
1
  6
CONTINUOUS
 10
2139.4420721641168
 20
3768.0505099581378
 30
0.0
 40
559.0
 50
84.559491000000008
 51
174.55949099999989
  0
LINE
  5
7A8B
  8
1
  6
CONTINUOUS
 10
1218.6382981641179
 20
3379.6637179581389
 30
0.0
 11
2118.6382981641182
 21
3939.663717958138
 31
0.0
  0
LINE
  5
7A8C
  8
1
  6
CONTINUOUS
 10
1192.223204164118
 20
3422.1165479581382
 30
0.0
 11
2092.2232041641169
 21
3982.1165479581382
 31
0.0
  0
LINE
  5
7A8D
  8
2
  6
CENTER
 10
1147.742072164117
 20
3261.0505099581378
 30
0.0
 11
1437.1420721641171
 21
3261.0505099581378
 31
0.0
  0
LINE
  5
7A8E
  8
2
  6
CENTER
 10
2192.4420721641168
 20
6486.1266519581386
 30
0.0
 11
2192.4420721641168
 21
5440.3275229581377
 31
0.0
  0
ARC
  5
7A8F
  8
1
  6
CONTINUOUS
 10
2234.4420721641168
 20
3863.0505099581392
 30
0.0
 40
380.0
 50
349.23144999999988
 51
353.65434399999992
  0
LINE
  5
7A90
  8
1
  6
CONTINUOUS
 10
2607.7502561641181
 20
3792.0505099581392
 30
0.0
 11
2692.4420721641181
 21
3792.0505099581392
 31
0.0
  0
LINE
  5
7A91
  8
1
  6
CONTINUOUS
 10
1580.442072164117
 20
6300.1505099581391
 30
0.0
 11
2692.4420721641181
 21
6300.1505099581391
 31
0.0
  0
LINE
  5
7A92
  8
1
  6
CONTINUOUS
 10
1580.442072164117
 20
5770.1505099581382
 30
0.0
 11
2692.4420721641181
 21
5770.1505099581382
 31
0.0
  0
LINE
  5
7A93
  8
1
  6
CONTINUOUS
 10
1797.442072164117
 20
6383.1505099581382
 30
0.0
 11
2587.4420721641181
 21
6383.1505099581382
 31
0.0
  0
LINE
  5
7A94
  8
1
  6
CONTINUOUS
 10
2052.742072164117
 20
5533.1505099581382
 30
0.0
 11
2332.1420721641171
 21
5533.1505099581382
 31
0.0
  0
LINE
  5
7A95
  8
1
  6
CONTINUOUS
 10
2052.742072164117
 20
5618.1505099581382
 30
0.0
 11
2332.1420721641171
 21
5618.1505099581382
 31
0.0
  0
LINE
  5
7A96
  8
1
  6
CONTINUOUS
 10
1102.742072164117
 20
5525.1505099581373
 30
0.0
 11
2382.1420721641171
 21
5525.1505099581373
 31
0.0
  0
LINE
  5
7A97
  8
1
  6
CONTINUOUS
 10
1102.742072164117
 20
5635.1505099581382
 30
0.0
 11
2382.1420721641171
 21
5635.1505099581382
 31
0.0
  0
LINE
  5
7A98
  8
1
  6
CONTINUOUS
 10
1092.4420721641179
 20
5603.1505099581382
 30
0.0
 11
1092.4420721641179
 21
6353.1505099581382
 31
0.0
  0
LINE
  5
7A99
  8
1
  6
CONTINUOUS
 10
1580.442072164117
 20
5770.1505099581382
 30
0.0
 11
1580.442072164117
 21
6300.1505099581391
 31
0.0
  0
LINE
  5
7A9A
  8
1
  6
CONTINUOUS
 10
1454.442072164117
 20
5658.1505099581382
 30
0.0
 11
1454.442072164117
 21
6195.1505099581382
 31
0.0
  0
LINE
  5
7A9B
  8
1
  6
CONTINUOUS
 10
1130.4420721641179
 20
5658.1505099581382
 30
0.0
 11
1130.4420721641179
 21
6195.1505099581382
 31
0.0
  0
LINE
  5
7A9C
  8
1
  6
CONTINUOUS
 10
1432.1420721641171
 20
5603.1505099581382
 30
0.0
 11
2052.742072164117
 21
5603.1505099581382
 31
0.0
  0
LINE
  5
7A9D
  8
1
  6
CONTINUOUS
 10
1092.4420721641179
 20
5603.1505099581382
 30
0.0
 11
1152.742072164117
 21
5603.1505099581382
 31
0.0
  0
LINE
  5
7A9E
  8
1
  6
CONTINUOUS
 10
1313.442072164117
 20
5618.1505099581382
 30
0.0
 11
1313.442072164117
 21
5658.1505099581382
 31
0.0
  0
LINE
  5
7A9F
  8
1
  6
CONTINUOUS
 10
1271.4420721641179
 20
5618.1505099581382
 30
0.0
 11
1271.4420721641179
 21
5658.1505099581382
 31
0.0
  0
LINE
  5
7AA0
  8
1
  6
CONTINUOUS
 10
1130.4420721641179
 20
5658.1505099581382
 30
0.0
 11
1454.442072164117
 21
5658.1505099581382
 31
0.0
  0
LINE
  5
7AA1
  8
1
  6
CONTINUOUS
 10
1152.742072164117
 20
5618.1505099581382
 30
0.0
 11
1432.1420721641171
 21
5618.1505099581382
 31
0.0
  0
LINE
  5
7AA2
  8
1
  6
CONTINUOUS
 10
1152.742072164117
 20
5533.1505099581382
 30
0.0
 11
1432.1420721641171
 21
5533.1505099581382
 31
0.0
  0
LINE
  5
7AA3
  8
1
  6
CONTINUOUS
 10
1432.1420721641171
 20
5533.1505099581382
 30
0.0
 11
1432.1420721641171
 21
5618.1505099581382
 31
0.0
  0
LINE
  5
7AA4
  8
1
  6
CONTINUOUS
 10
1152.742072164117
 20
5533.1505099581382
 30
0.0
 11
1152.742072164117
 21
5618.1505099581382
 31
0.0
  0
LINE
  5
7AA5
  8
1
  6
CONTINUOUS
 10
1102.742072164117
 20
5525.1505099581373
 30
0.0
 11
1102.742072164117
 21
5635.1505099581382
 31
0.0
  0
LINE
  5
7AA6
  8
1
  6
CONTINUOUS
 10
2169.9420721641168
 20
5618.1505099581382
 30
0.0
 11
2169.9420721641168
 21
5770.1505099581382
 31
0.0
  0
LINE
  5
7AA7
  8
1
  6
CONTINUOUS
 10
2214.9420721641168
 20
5618.1505099581382
 30
0.0
 11
2214.9420721641168
 21
5770.1505099581382
 31
0.0
  0
LINE
  5
7AA8
  8
1
  6
CONTINUOUS
 10
2052.742072164117
 20
5533.1505099581382
 30
0.0
 11
2052.742072164117
 21
5618.1505099581382
 31
0.0
  0
LINE
  5
7AA9
  8
1
  6
CONTINUOUS
 10
1092.4420721641179
 20
6353.1505099581382
 30
0.0
 11
1837.442072164117
 21
6353.1505099581382
 31
0.0
  0
LINE
  5
7AAA
  8
1
  6
CONTINUOUS
 10
1130.4420721641179
 20
6195.1505099581382
 30
0.0
 11
1454.442072164117
 21
6195.1505099581382
 31
0.0
  0
LINE
  5
7AAB
  8
1
  6
CONTINUOUS
 10
1837.442072164117
 20
6300.1505099581391
 30
0.0
 11
1837.442072164117
 21
6383.1505099581382
 31
0.0
  0
LINE
  5
7AAC
  8
1
  6
CONTINUOUS
 10
2692.4420721641181
 20
5730.1505099581382
 30
0.0
 11
2692.4420721641181
 21
6340.1505099581391
 31
0.0
  0
LINE
  5
7AAD
  8
1
  6
CONTINUOUS
 10
2652.4420721641181
 20
5770.1505099581382
 30
0.0
 11
2652.4420721641181
 21
6300.1505099581391
 31
0.0
  0
LINE
  5
7AAE
  8
1
  6
CONTINUOUS
 10
2642.4420721641181
 20
5603.1505099581382
 30
0.0
 11
2642.4420721641181
 21
5770.1505099581382
 31
0.0
  0
LINE
  5
7AAF
  8
1
  6
CONTINUOUS
 10
2332.1420721641171
 20
5603.1505099581382
 30
0.0
 11
2642.4420721641181
 21
5603.1505099581382
 31
0.0
  0
LINE
  5
7AB0
  8
1
  6
CONTINUOUS
 10
2332.1420721641171
 20
5533.1505099581382
 30
0.0
 11
2332.1420721641171
 21
5618.1505099581382
 31
0.0
  0
LINE
  5
7AB1
  8
1
  6
CONTINUOUS
 10
2382.1420721641171
 20
5525.1505099581373
 30
0.0
 11
2382.1420721641171
 21
5635.1505099581382
 31
0.0
  0
LINE
  5
7AB2
  8
1
  6
CONTINUOUS
 10
2642.4420721641181
 20
6300.1505099581391
 30
0.0
 11
2642.4420721641181
 21
6353.1505099581382
 31
0.0
  0
LINE
  5
7AB3
  8
1
  6
CONTINUOUS
 10
2547.4420721641181
 20
6300.1505099581391
 30
0.0
 11
2547.4420721641181
 21
6383.1505099581382
 31
0.0
  0
LINE
  5
7AB4
  8
1
  6
CONTINUOUS
 10
2547.4420721641181
 20
6353.1505099581382
 30
0.0
 11
2642.4420721641181
 21
6353.1505099581382
 31
0.0
  0
LINE
  5
7AB5
  8
1
  6
CONTINUOUS
 10
4923.9596492093488
 20
3792.0505099581392
 30
0.0
 11
4393.9596492093488
 21
3062.0505099581378
 31
0.0
  0
LINE
  5
7AB6
  8
1
  6
CONTINUOUS
 10
4393.9596492093488
 20
3792.0505099581392
 30
0.0
 11
4923.9596492093488
 21
3062.0505099581378
 31
0.0
  0
LINE
  5
7AB7
  8
1
  6
CONTINUOUS
 10
4156.9596492093488
 20
3400.7505099581381
 30
0.0
 11
4156.9596492093488
 21
3121.350509958138
 31
0.0
  0
LINE
  5
7AB8
  8
1
  6
CONTINUOUS
 10
4241.9596492093478
 20
3400.7505099581381
 30
0.0
 11
4241.9596492093478
 21
3121.350509958138
 31
0.0
  0
LINE
  5
7AB9
  8
1
  6
CONTINUOUS
 10
4923.9596492093488
 20
4327.0505099581378
 30
0.0
 11
4923.9596492093488
 21
3051.0505099581378
 31
0.0
  0
LINE
  5
7ABA
  8
1
  6
CONTINUOUS
 10
4393.9596492093488
 20
4327.0505099581378
 30
0.0
 11
4393.9596492093488
 21
3051.0505099581378
 31
0.0
  0
LINE
  5
7ABB
  8
1
  6
CONTINUOUS
 10
4281.9596492093488
 20
3423.0505099581378
 30
0.0
 11
4281.9596492093488
 21
3051.0505099581378
 31
0.0
  0
LINE
  5
7ABC
  8
1
  6
CONTINUOUS
 10
4148.9596492093488
 20
3071.350509958138
 30
0.0
 11
4148.9596492093488
 21
4010.7505099581381
 31
0.0
  0
LINE
  5
7ABD
  8
1
  6
CONTINUOUS
 10
4258.9596492093488
 20
3071.350509958138
 30
0.0
 11
4258.9596492093488
 21
4010.7505099581381
 31
0.0
  0
LINE
  5
7ABE
  8
1
  6
CONTINUOUS
 10
4393.9596492093488
 20
3062.0505099581378
 30
0.0
 11
4923.9596492093488
 21
3062.0505099581378
 31
0.0
  0
LINE
  5
7ABF
  8
1
  6
CONTINUOUS
 10
4226.9596492093488
 20
3051.0505099581378
 30
0.0
 11
4976.9596492093488
 21
3051.0505099581378
 31
0.0
  0
LINE
  5
7AC0
  8
1
  6
CONTINUOUS
 10
4226.9596492093488
 20
2951.0505099581378
 30
0.0
 11
4976.9596492093488
 21
2951.0505099581378
 31
0.0
  0
LINE
  5
7AC1
  8
1
  6
CONTINUOUS
 10
4226.9596492093488
 20
3051.0505099581378
 30
0.0
 11
4226.9596492093488
 21
2951.0505099581378
 31
0.0
  0
LINE
  5
7AC2
  8
1
  6
CONTINUOUS
 10
4393.9596492093488
 20
3101.0505099581378
 30
0.0
 11
4281.9596492093488
 21
3101.0505099581378
 31
0.0
  0
LINE
  5
7AC3
  8
1
  6
CONTINUOUS
 10
4156.9596492093488
 20
3121.350509958138
 30
0.0
 11
4241.9596492093478
 21
3121.350509958138
 31
0.0
  0
LINE
  5
7AC4
  8
1
  6
CONTINUOUS
 10
4148.9596492093488
 20
3071.350509958138
 30
0.0
 11
4258.9596492093488
 21
3071.350509958138
 31
0.0
  0
LINE
  5
7AC5
  8
1
  6
CONTINUOUS
 10
4976.9596492093488
 20
3051.0505099581378
 30
0.0
 11
4976.9596492093488
 21
2951.0505099581378
 31
0.0
  0
LINE
  5
7AC6
  8
1
  6
CONTINUOUS
 10
5006.9596492093488
 20
4216.0505099581378
 30
0.0
 11
5006.9596492093488
 21
3426.0505099581378
 31
0.0
  0
LINE
  5
7AC7
  8
1
  6
CONTINUOUS
 10
4393.9596492093488
 20
3792.0505099581392
 30
0.0
 11
4923.9596492093488
 21
3792.0505099581392
 31
0.0
  0
LINE
  5
7AC8
  8
1
  6
CONTINUOUS
 10
4156.9596492093488
 20
3400.7505099581381
 30
0.0
 11
4241.9596492093478
 21
3400.7505099581381
 31
0.0
  0
LINE
  5
7AC9
  8
1
  6
CONTINUOUS
 10
4241.9596492093478
 20
3798.5505099581378
 30
0.0
 11
4393.9596492093488
 21
3798.5505099581378
 31
0.0
  0
LINE
  5
7ACA
  8
1
  6
CONTINUOUS
 10
4241.9596492093478
 20
3843.5505099581392
 30
0.0
 11
4393.9596492093488
 21
3843.5505099581392
 31
0.0
  0
LINE
  5
7ACB
  8
1
  6
CONTINUOUS
 10
4241.9596492093478
 20
3960.7505099581381
 30
0.0
 11
4241.9596492093478
 21
3681.350509958138
 31
0.0
  0
LINE
  5
7ACC
  8
1
  6
CONTINUOUS
 10
4156.9596492093488
 20
3960.7505099581381
 30
0.0
 11
4156.9596492093488
 21
3681.350509958138
 31
0.0
  0
LINE
  5
7ACD
  8
1
  6
CONTINUOUS
 10
4156.9596492093488
 20
3960.7505099581381
 30
0.0
 11
4241.9596492093478
 21
3960.7505099581381
 31
0.0
  0
LINE
  5
7ACE
  8
1
  6
CONTINUOUS
 10
4156.9596492093488
 20
3681.350509958138
 30
0.0
 11
4241.9596492093478
 21
3681.350509958138
 31
0.0
  0
LINE
  5
7ACF
  8
1
  6
CONTINUOUS
 10
4241.9596492093478
 20
3282.0505099581392
 30
0.0
 11
4281.9596492093488
 21
3282.0505099581392
 31
0.0
  0
LINE
  5
7AD0
  8
1
  6
CONTINUOUS
 10
4241.9596492093478
 20
3240.0505099581378
 30
0.0
 11
4281.9596492093488
 21
3240.0505099581378
 31
0.0
  0
LINE
  5
7AD1
  8
1
  6
CONTINUOUS
 10
4281.9596492093488
 20
3423.0505099581378
 30
0.0
 11
4393.9596492093488
 21
3423.0505099581378
 31
0.0
  0
LINE
  5
7AD2
  8
1
  6
CONTINUOUS
 10
4148.9596492093488
 20
4010.7505099581381
 30
0.0
 11
4258.9596492093488
 21
4010.7505099581381
 31
0.0
  0
LINE
  5
7AD3
  8
1
  6
CONTINUOUS
 10
4923.9596492093488
 20
3466.0505099581378
 30
0.0
 11
5006.9596492093488
 21
3466.0505099581378
 31
0.0
  0
LINE
  5
7AD4
  8
1
  6
CONTINUOUS
 10
4393.9596492093488
 20
4327.0505099581378
 30
0.0
 11
4923.9596492093488
 21
4327.0505099581378
 31
0.0
  0
LINE
  5
7AD5
  8
1
  6
CONTINUOUS
 10
4923.9596492093488
 20
4176.0505099581378
 30
0.0
 11
5006.9596492093488
 21
4176.0505099581378
 31
0.0
  0
DIMENSION
  5
7AE9
  8
3
  6
CONTINUOUS
  2
*D1
 10
2192.4420721641168
 20
2673.6251989581378
 30
0.0
 11
1657.6687141641171
 21
2673.6251989581378
 31
0.0
 70
   128
 13
1092.4420721641179
 23
2951.0505099581378
 33
0.0
 14
2192.4420721641168
 24
2852.963015958137
 34
0.0
1001
ACAD
1000
DSTYLE
1002
{
1070
   287
1070
     3
1070
   287
1070
     3
1070
    40
1040
30.0
1070
   143
1040
0.039
1070
   172
1070
     1
1070
   271
1070
     0
1070
   279
1070
     0
1070
   288
1070
     1
1002
}
  0
DIMENSION
  5
7AF7
  8
3
  6
CONTINUOUS
  2
*D2
 10
2642.4420721641181
 20
2677.1141379581368
 30
0.0
 11
2436.7277864498319
 21
2677.1141379581368
 31
0.0
 70
   128
 13
2192.4420721641168
 23
2852.963015958137
 33
0.0
 14
2642.4420721641181
 24
2951.0505099581378
 34
0.0
1001
ACAD
1000
DSTYLE
1002
{
1070
   287
1070
     3
1070
   287
1070
     3
1070
    40
1040
30.0
1070
   143
1040
0.039
1070
   172
1070
     1
1070
   271
1070
     0
1070
   279
1070
     0
1070
   288
1070
     1
1002
}
  0
DIMENSION
  5
7B1A
  8
3
  6
CONTINUOUS
  2
*D3
 10
3009.569151164118
 20
3062.0505099581378
 30
0.0
 11
3009.569151164118
 21
3455.145569958137
 31
0.0
 70
   128
 13
2692.4420721641181
 23
3792.0505099581392
 33
0.0
 14
2692.4420721641181
 24
3062.0505099581378
 34
0.0
 50
90.0
1001
ACAD
1000
DSTYLE
1002
{
1070
   287
1070
     3
1070
   287
1070
     3
1070
    40
1040
30.0
1070
   143
1040
0.039
1070
   172
1070
     1
1070
   271
1070
     0
1070
   279
1070
     0
1070
   288
1070
     1
1002
}
  0
DIMENSION
  5
7B34
  8
3
  6
CONTINUOUS
  2
*D4
 10
3192.8181090167218
 20
3062.0505099581378
 30
0.0
 11
3192.8181090167209
 21
3456.1864429581378
 31
0.0
 70
   128
 13
2612.5373011641168
 23
3821.0505099581392
 33
0.0
 14
2692.4420721641181
 24
3062.0505099581378
 34
0.0
 50
90.0
1001
ACAD
1000
DSTYLE
1002
{
1070
   287
1070
     3
1070
   287
1070
     3
1070
    40
1040
30.0
1070
   143
1040
0.039
1070
   172
1070
     1
1070
   271
1070
     0
1070
   279
1070
     0
1070
   288
1070
     1
1002
}
  0
DIMENSION
  5
7B41
  8
3
  6
CONTINUOUS
  2
*D5
 10
3358.6096838693252
 20
3821.0505099581378
 30
0.0
 11
3358.6096838693252
 21
4084.532315958138
 31
0.0
 70
   128
 13
2192.4420721641168
 23
4327.0505099581378
 33
0.0
 14
2612.1138881641168
 24
3821.0505099581392
 34
0.0
 50
90.0
1001
ACAD
1000
DSTYLE
1002
{
1070
   287
1070
     3
1070
   287
1070
     3
1070
    40
1040
30.0
1070
   143
1040
0.039
1070
   172
1070
     1
1070
   271
1070
     0
1070
   279
1070
     0
1070
   288
1070
     1
1002
}
  0
DIMENSION
  5
7B4D
  8
3
  6
CONTINUOUS
  2
*D6
 10
3358.6096838693252
 20
2951.0505099581378
 30
0.0
 11
3283.6096838693238
 21
3386.0505099581392
 31
0.0
 70
     0
 13
2612.1138881641168
 23
3821.0505099581392
 33
0.0
 14
2642.4420721641181
 24
2951.0505099581378
 34
0.0
 50
90.0
1001
ACAD
1000
DSTYLE
1002
{
1070
   287
1070
     3
1070
   287
1070
     3
1070
    40
1040
30.0
1070
   143
1040
0.039
1070
   172
1070
     1
1070
   271
1070
     0
1070
   279
1070
     0
1070
   288
1070
     1
1002
}
  0
DIMENSION
  5
7B67
  8
3
  6
CONTINUOUS
  2
*D7
 10
2192.4420721641168
 20
4509.7879096988154
 30
0.0
 11
1888.803922164117
 21
4509.7879096988154
 31
0.0
 70
   128
 13
1580.442072164117
 23
3821.0505099581392
 33
0.0
 14
2192.4420721641168
 24
4325.1457389581383
 34
0.0
1001
ACAD
1000
DSTYLE
1002
{
1070
   287
1070
     3
1070
   287
1070
     3
1070
    40
1040
30.0
1070
   143
1040
0.039
1070
   172
1070
     1
1070
   271
1070
     0
1070
   279
1070
     0
1070
   288
1070
     1
1002
}
  0
DIMENSION
  5
7B73
  8
3
  6
CONTINUOUS
  2
*D8
 10
2692.4420721641181
 20
4509.7879096988154
 30
0.0
 11
2442.4420721641181
 21
4584.7879096988154
 31
0.0
 70
     0
 13
2192.4420721641168
 23
4325.1457389581383
 33
0.0
 14
2692.4420721641181
 24
3832.0505099581378
 34
0.0
1001
ACAD
1000
DSTYLE
1002
{
1070
   287
1070
     3
1070
   287
1070
     3
1070
    40
1040
30.0
1070
   143
1040
0.039
1070
   172
1070
     1
1070
   271
1070
     0
1070
   279
1070
     0
1070
   288
1070
     1
1002
}
  0
DIMENSION
  5
7B80
  8
3
  6
CONTINUOUS
  2
*D9
 10
2642.4420721641181
 20
5203.4272119581383
 30
0.0
 11
1836.431736164117
 21
5203.4272119581383
 31
0.0
 70
   128
 13
1092.4420721641179
 23
5603.1505099581382
 33
0.0
 14
2642.4420721641181
 24
5603.1505099581382
 34
0.0
1001
ACAD
1000
DSTYLE
1002
{
1070
   287
1070
     3
1070
   287
1070
     3
1070
    40
1040
30.0
1070
   143
1040
0.039
1070
   172
1070
     1
1070
   271
1070
     0
1070
   279
1070
     0
1070
   288
1070
     1
1002
}
  0
DIMENSION
  5
7B8D
  8
3
  6
CONTINUOUS
  2
*D10
 10
2974.6543871641179
 20
5603.1505099581382
 30
0.0
 11
2974.6543871641161
 21
5986.335421958137
 31
0.0
 70
   128
 13
2642.4420721641181
 23
6353.1505099581382
 33
0.0
 14
2642.4420721641181
 24
5603.1505099581382
 34
0.0
 50
90.0
1001
ACAD
1000
DSTYLE
1002
{
1070
   287
1070
     3
1070
   287
1070
     3
1070
    40
1040
30.0
1070
   143
1040
0.039
1070
   172
1070
     1
1070
   271
1070
     0
1070
   279
1070
     0
1070
   288
1070
     1
1002
}
  0
LINE
  5
7B8F
  8
2
  6
CENTER
 10
1489.6635821641171
 20
6035.1505099581382
 30
0.0
 11
2779.6715206657818
 21
6035.1505099581382
 31
0.0
  0
LINE
  5
7B90
  8
2
  6
CENTER
 10
2192.4420721641168
 20
4383.1816189581377
 30
0.0
 11
2192.4420721641168
 21
2852.963015958137
 31
0.0
  0
LINE
  5
7B91
  8
2
  6
CENTER
 10
4658.9596492093488
 20
4463.1527609581381
 30
0.0
 11
4658.9596492093488
 21
2908.0773729581379
 31
0.0
  0
DIMENSION
  5
7BA0
  8
3
  6
CONTINUOUS
  2
*D11
 10
4658.9596492093488
 20
2761.5422939581381
 30
0.0
 11
4432.6739349236332
 21
2761.5422939581381
 31
0.0
 70
   128
 13
4226.9596492093488
 23
2951.0505099581378
 33
0.0
 14
4658.9596492093488
 24
2908.0773729581379
 34
0.0
1001
ACAD
1000
DSTYLE
1002
{
1070
   287
1070
     3
1070
   287
1070
     3
1070
    40
1040
30.0
1070
   143
1040
0.039
1070
   172
1070
     1
1070
   271
1070
     0
1070
   279
1070
     0
1070
   288
1070
     1
1002
}
  0
DIMENSION
  5
7BAE
  8
3
  6
CONTINUOUS
  2
*D12
 10
4976.9596492093488
 20
2761.195327958138
 30
0.0
 11
4817.9596492093488
 21
2837.9438367921898
 31
0.0
 70
   128
 13
4658.9596492093488
 23
2908.0773729581379
 33
0.0
 14
4976.9596492093488
 24
2951.0505099581378
 34
0.0
1001
ACAD
1000
DSTYLE
1002
{
1070
   288
1070
     1
1070
   172
1070
     1
1070
    40
1040
30.0
1070
   271
1070
     0
1070
   143
1040
0.039
1002
}
  0
DIMENSION
  5
7BD1
  8
3
  6
CONTINUOUS
  2
*D13
 10
5283.0212612093492
 20
3466.0505099581378
 30
0.0
 11
5283.0212612093492
 21
3818.3412569581378
 31
0.0
 70
   128
 13
5006.9596492093488
 23
4176.0505099581378
 33
0.0
 14
5006.9596492093488
 24
3466.0505099581378
 34
0.0
 50
90.0
1001
ACAD
1000
DSTYLE
1002
{
1070
   287
1070
     3
1070
   287
1070
     3
1070
     3
1000
φ<>
1070
    40
1040
30.0
1070
   143
1040
0.039
1070
   172
1070
     1
1070
   271
1070
     0
1070
   279
1070
     0
1070
   288
1070
     1
1002
}
  0
DIMENSION
  5
7BDE
  8
3
  6
CONTINUOUS
  2
*D14
 10
4923.9596492093488
 20
4448.0835959581382
 30
0.0
 11
4633.9596492093488
 21
4448.0835959581382
 31
0.0
 70
   128
 13
4393.9596492093488
 23
4327.0505099581378
 33
0.0
 14
4923.9596492093488
 24
4327.0505099581378
 34
0.0
1001
ACAD
1000
DSTYLE
1002
{
1070
   287
1070
     3
1070
   287
1070
     3
1070
    40
1040
30.0
1070
   143
1040
0.039
1070
   172
1070
     1
1070
   271
1070
     0
1070
   279
1070
     0
1070
   288
1070
     1
1002
}
  0
DIMENSION
  5
7BEB
  8
3
  6
CONTINUOUS
  2
*D15
 10
4658.9596492093488
 20
4685.5320688099282
 30
0.0
 11
4440.3882206379194
 21
4685.5320688099282
 31
0.0
 70
   128
  1
MAX\P590
 13
4148.9596492093488
 23
4010.7505099581381
 33
0.0
 14
4658.9596492093488
 24
4620.1206669581379
 34
0.0
1001
ACAD
1000
DSTYLE
1002
{
1070
   287
1070
     3
1070
   287
1070
     3
1070
    40
1040
30.0
1070
   143
1040
0.039
1070
   172
1070
     1
1070
   271
1070
     0
1070
   279
1070
     0
1070
   288
1070
     1
1002
}
  0
DIMENSION
  5
7BF9
  8
3
  6
CONTINUOUS
  2
*D16
 10
5006.9596492093488
 20
4685.5320688099282
 30
0.0
 11
4832.9596492093488
 21
4768.9139625189309
 31
0.0
 70
   128
 13
4658.9596492093488
 23
4620.1206669581379
 33
0.0
 14
5006.9596492093488
 24
4216.0505099581378
 34
0.0
1001
ACAD
1000
DSTYLE
1002
{
1070
   288
1070
     1
1070
   172
1070
     1
1070
    40
1040
30.0
1070
   271
1070
     0
1070
   143
1040
0.039
1002
}
  0
LINE
  5
7C1C
  8
2
  6
CENTER
 10
4035.8651962093491
 20
3821.0505099581392
 30
0.0
 11
5054.0118552093481
 21
3821.0505099581392
 31
0.0
  0
LINE
  5
7C1D
  8
4
  6
CONTINUOUS
 10
5550.0
 20
1500.0
 30
0.0
 11
5550.0
 21
900.0
 31
0.0
  0
LINE
  5
7C1E
  8
4
  6
CONTINUOUS
 10
3450.0
 20
1500.0
 30
0.0
 11
3450.0
 21
900.0
 31
0.0
  0
LINE
  5
7C1F
  8
4
  6
CONTINUOUS
 10
1950.0
 20
1500.0
 30
0.0
 11
1950.0
 21
900.0
 31
0.0
  0
LINE
  5
7C22
  8
4
  6
CONTINUOUS
 10
1950.0
 20
900.0
 30
0.0
 11
5550.0
 21
900.0
 31
0.0
  0
LINE
  5
7C23
  8
4
  6
CONTINUOUS
 10
1950.0
 20
1200.0
 30
0.0
 11
5550.0
 21
1200.0
 31
0.0
  0
TEXT
  5
7C24
  8
4
  6
CONTINUOUS
 10
2065.50624225
 20
1294.6290779999999
 30
0.0
 40
150.0
  1
機器名称
  0
TEXT
  5
7C25
  8
4
  6
CONTINUOUS
 10
2058.7743179999989
 20
964.93547024999998
 30
0.0
 40
150.0
  1
機器型番
  0
TEXT
  5
7C26
  8
4
  6
CONTINUOUS
 10
3533.0362365000001
 20
1267.715306249999
 30
0.0
 40
120.0
  1
ミツヤリミットロードファン
  0
TEXT
  5
7C27
  8
4
  6
CONTINUOUS
 10
3559.9634872500001
 20
951.4787527499999
 30
0.0
 40
150.0
  1
LLE#4 1/2-4
  0
TEXT
  5
7C29
  8
4
  6
CONTINUOUS
 10
2714.3572964999998
 20
7150.2865245000012
 30
0.0
 40
162.0
  1
床置ベット
  0
TEXT
  5
7C2A
  8
4
  6
CONTINUOUS
 10
948.50278049999986
 20
7601.6429287499996
 30
0.0
 40
171.42857175
  1
ベルト駆動式片吸込両持排煙ファン
  0
LINE
  5
7C2B
  8
4
  6
CONTINUOUS
 10
750.0
 20
7408.2262627500004
 30
0.0
 11
5550.0
 21
7408.2262627500004
 31
0.0
  0
LINE
  5
7C2C
  8
4
  6
CONTINUOUS
 10
750.0
 20
8008.2262627500004
 30
0.0
 11
5550.0
 21
8008.2262627500004
 31
0.0
  0
LINE
  5
7C2D
  8
4
  6
CONTINUOUS
 10
1950.0
 20
1500.0
 30
0.0
 11
5550.0
 21
1500.0
 31
0.0
  0
LINE
  5
7C2E
  8
4
  6
CONTINUOUS
 10
750.0
 20
8008.2262627500004
 30
0.0
 11
750.0
 21
7408.2262627500004
 31
0.0
  0
TEXT
  5
7C2F
  8
4
  6
CONTINUOUS
 10
1406.780799749999
 20
7146.9584324999987
 30
0.0
 40
162.0
  1
左回転右横向
  0
TEXT
  5
7C30
  8
4
  6
CONTINUOUS
 10
4406.9086777499988
 20
8118.1832445
 30
0.0
 40
168.0
  1
No.
  0
TEXT
  5
7C31
  8
4
  6
CONTINUOUS
 10
3933.8881875000002
 20
7150.2865245000012
 30
0.0
 40
162.0
  1
縮尺：1/30
  0
LINE
  5
7C32
  8
4
  6
CONTINUOUS
 10
5550.0
 20
8008.2262627500004
 30
0.0
 11
5550.0
 21
7408.2262627500004
 31
0.0
  0
LINE
  5
7C34
  8
4
  6
CONTINUOUS
 10
4321.8522667500001
 20
8043.79074975
 30
0.0
 11
4321.8522667500001
 21
8359.9567845000001
 31
0.0
  0
LINE
  5
7C35
  8
4
  6
CONTINUOUS
 10
4321.8522667500001
 20
8359.9567845000001
 30
0.0
 11
5550.0
 21
8359.9567845000001
 31
0.0
  0
LINE
  5
7C36
  8
4
  6
CONTINUOUS
 10
5550.0
 20
8359.9567845000001
 30
0.0
 11
5550.0
 21
8043.79074975
 31
0.0
  0
LINE
  5
7C37
  8
4
  6
CONTINUOUS
 10
5550.0
 20
8043.79074975
 30
0.0
 11
4321.8522667500001
 21
8043.79074975
 31
0.0
  0
DIMENSION
  5
7DDB
  8
3
  2
*D17
 10
3563.4449231265248
 20
2951.0505099581378
 30
0.0
 11
3563.4449231265239
 21
3658.8952146680858
 31
0.0
 70
   128
 13
2192.4420721641168
 23
4327.0505099581378
 33
0.0
 14
2642.4420721641181
 24
2951.0505099581378
 34
0.0
 50
90.0
1001
ACAD
1000
DSTYLE
1002
{
1070
   287
1070
     3
1070
   287
1070
     3
1070
    40
1040
30.0
1070
   143
1040
0.039
1070
   172
1070
     1
1070
   271
1070
     0
1070
   279
1070
     0
1070
   288
1070
     1
1002
}
  0
DIMENSION
  5
7DF5
  8
3
  2
*D18
 10
1092.4420721641179
 20
4699.5378153339962
 30
0.0
 11
1862.324869824864
 21
4699.5378153339962
 31
0.0
 70
   128
 13
2692.4420721641181
 23
3847.0505099581392
 33
0.0
 14
1092.4420721641179
 24
3051.0505099581378
 34
0.0
1001
ACAD
1000
DSTYLE
1002
{
1070
   287
1070
     3
1070
   287
1070
     3
1070
    40
1040
30.0
1070
   143
1040
0.039
1070
   172
1070
     1
1070
   271
1070
     0
1070
   279
1070
     0
1070
   288
1070
     1
1002
}
  0
ENDSEC
  0
EOF
