  0
SECTION
  2
HEADER
  9
$ACADVER
  1
AC1009
  9
$INSBASE
 10
0.0
 20
0.0
 30
0.0
  9
$EXTMIN
 10
750.0
 20
900.0
 30
0.0
  9
$EXTMAX
 10
5550.0
 20
8359.9567845000001
 30
0.0
  9
$LIMMIN
 10
0.0
 20
0.0
  9
$LIMMAX
 10
297.0
 20
210.0
  9
$ORTHOMODE
 70
     0
  9
$REGENMODE
 70
     1
  9
$FILLMODE
 70
     0
  9
$QTEXTMODE
 70
     0
  9
$MIRRTEXT
 70
     1
  9
$DRAGMODE
 70
     2
  9
$LTSCALE
 40
100.0
  9
$OSMODE
 70
    37
  9
$ATTMODE
 70
     1
  9
$TEXTSIZE
 40
180.0
  9
$TRACEWID
 40
0.05
  9
$TEXTSTYLE
  7
STANDARD
  9
$CLAYER
  8
3
  9
$CELTYPE
  6
BYLAYER
  9
$CECOLOR
 62
   256
  9
$DIMSCALE
 40
30.0
  9
$DIMASZ
 40
2.0
  9
$DIMEXO
 40
0.5
  9
$DIMDLI
 40
10.0
  9
$DIMRND
 40
0.0
  9
$DIMDLE
 40
0.0
  9
$DIMEXE
 40
1.0
  9
$DIMTP
 40
1.0
  9
$DIMTM
 40
1.0
  9
$DIMTXT
 40
3.0
  9
$DIMCEN
 40
0.0
  9
$DIMTSZ
 40
0.0
  9
$DIMTOL
 70
     0
  9
$DIMLIM
 70
     0
  9
$DIMTIH
 70
     0
  9
$DIMTOH
 70
     0
  9
$DIMSE1
 70
     0
  9
$DIMSE2
 70
     0
  9
$DIMTAD
 70
     1
  9
$DIMZIN
 70
     8
  9
$DIMBLK
  1

  9
$DIMASO
 70
     1
  9
$DIMSHO
 70
     1
  9
$DIMPOST
  1

  9
$DIMAPOST
  1

  9
$DIMALT
 70
     0
  9
$DIMALTD
 70
     2
  9
$DIMALTF
 40
0.039
  9
$DIMLFAC
 40
1.0
  9
$DIMTOFL
 70
     1
  9
$DIMTVP
 40
0.0
  9
$DIMTIX
 70
     0
  9
$DIMSOXD
 70
     0
  9
$DIMSAH
 70
     1
  9
$DIMBLK1
  1
OPEN
  9
$DIMBLK2
  1
OPEN
  9
$DIMSTYLE
  2
IGA
  9
$DIMCLRD
 70
     0
  9
$DIMCLRE
 70
     0
  9
$DIMCLRT
 70
     0
  9
$DIMTFAC
 40
10.0
  9
$DIMGAP
 40
1.0
  9
$LUNITS
 70
     2
  9
$LUPREC
 70
     3
  9
$SKETCHINC
 40
0.1
  9
$FILLETRAD
 40
50.0
  9
$AUNITS
 70
     0
  9
$AUPREC
 70
     0
  9
$MENU
  1
acad
  9
$ELEVATION
 40
0.0
  9
$PELEVATION
 40
0.0
  9
$THICKNESS
 40
0.0
  9
$LIMCHECK
 70
     0
  9
$BLIPMODE
 70
     0
  9
$CHAMFERA
 40
0.5
  9
$CHAMFERB
 40
0.5
  9
$SKPOLY
 70
     0
  9
$TDCREATE
 40
2450753.6085813651
  9
$TDUPDATE
 40
2454953.6838581362
  9
$TDINDWG
 40
0.0059774884
  9
$TDUSRTIMER
 40
0.0059774884
  9
$USRTIMER
 70
     1
  9
$ANGBASE
 50
0.0
  9
$ANGDIR
 70
     0
  9
$PDMODE
 70
     0
  9
$PDSIZE
 40
0.0
  9
$PLINEWID
 40
0.0
  9
$COORDS
 70
     1
  9
$SPLFRAME
 70
     0
  9
$SPLINETYPE
 70
     6
  9
$SPLINESEGS
 70
     8
  9
$ATTDIA
 70
     0
  9
$ATTREQ
 70
     1
  9
$HANDLING
 70
 10241
  9
$HANDSEED
  5
7F79
  9
$SURFTAB1
 70
     6
  9
$SURFTAB2
 70
     6
  9
$SURFTYPE
 70
     6
  9
$SURFU
 70
     6
  9
$SURFV
 70
     6
  9
$UCSNAME
  2

  9
$UCSORG
 10
0.0
 20
0.0
 30
0.0
  9
$UCSXDIR
 10
1.0
 20
0.0
 30
0.0
  9
$UCSYDIR
 10
0.0
 20
1.0
 30
0.0
  9
$PUCSNAME
  2

  9
$PUCSORG
 10
0.0
 20
0.0
 30
0.0
  9
$PUCSXDIR
 10
1.0
 20
0.0
 30
0.0
  9
$PUCSYDIR
 10
0.0
 20
1.0
 30
0.0
  9
$USERI1
 70
     0
  9
$USERI2
 70
     0
  9
$USERI3
 70
     0
  9
$USERI4
 70
     0
  9
$USERI5
 70
     0
  9
$USERR1
 40
0.0
  9
$USERR2
 40
0.0
  9
$USERR3
 40
0.0
  9
$USERR4
 40
0.0
  9
$USERR5
 40
0.0
  9
$WORLDVIEW
 70
     1
  9
$SHADEDGE
 70
     3
  9
$SHADEDIF
 70
    70
  9
$TILEMODE
 70
     1
  9
$MAXACTVP
 70
    16
  9
$PLIMCHECK
 70
     0
  9
$PEXTMIN
 10
1.0000000000000000E+020
 20
1.0000000000000000E+020
 30
1.0000000000000000E+020
  9
$PEXTMAX
 10
-1.0000000000000000E+020
 20
-1.0000000000000000E+020
 30
-1.0000000000000000E+020
  9
$PLIMMIN
 10
0.0
 20
0.0
  9
$PLIMMAX
 10
12.0
 20
9.0
  9
$UNITMODE
 70
     0
  9
$VISRETAIN
 70
     0
  9
$PLINEGEN
 70
     0
  9
$PSLTSCALE
 70
     1
  0
ENDSEC
  0
SECTION
  2
TABLES
  0
TABLE
  2
VPORT
 70
     2
  0
VPORT
  2
*ACTIVE
 70
     0
 10
0.0
 20
0.0
 11
1.0
 21
1.0
 12
13856.46267307744
 22
4123.1568533075242
 13
0.0
 23
0.0
 14
10.0
 24
10.0
 15
10.0
 25
10.0
 16
0.0
 26
0.0
 36
1.0
 17
0.0
 27
0.0
 37
0.0
 40
10094.01667079767
 41
3.1666666666666661
 42
50.0
 43
0.0
 44
0.0
 50
0.0
 51
0.0
 71
     0
 72
   100
 73
     1
 74
     0
 75
     0
 76
     0
 77
     0
 78
     0
  0
ENDTAB
  0
TABLE
  2
LTYPE
 70
     2
  0
LTYPE
  2
CONTINUOUS
 70
     0
  3
Solid line
 72
    65
 73
     0
 40
0.0
  0
LTYPE
  2
CENTER
 70
     0
  3
____ _ ____ _ ____ _ ____ _ ____ _ ____ _ ____ 
 72
    65
 73
     4
 40
2.0
 49
1.25
 49
-0.25
 49
0.25
 49
-0.25
  0
ENDTAB
  0
TABLE
  2
LAYER
 70
     6
  0
LAYER
  2
0
 70
     0
 62
     7
  6
CONTINUOUS
  0
LAYER
  2
3
 70
     0
 62
     2
  6
CONTINUOUS
  0
LAYER
  2
2
 70
     0
 62
     3
  6
CENTER
  0
LAYER
  2
1
 70
     0
 62
     4
  6
CONTINUOUS
  0
LAYER
  2
4
 70
     0
 62
     7
  6
CONTINUOUS
  0
LAYER
  2
DEFPOINTS
 70
     0
 62
     7
  6
CONTINUOUS
  0
ENDTAB
  0
TABLE
  2
STYLE
 70
     1
  0
STYLE
  2
STANDARD
 70
     0
 40
0.0
 41
1.0
 50
0.0
 71
     0
 42
180.0
  3
simplex.shx
  4
extfont.shx
  0
ENDTAB
  0
TABLE
  2
VIEW
 70
     0
  0
ENDTAB
  0
TABLE
  2
UCS
 70
     0
  0
ENDTAB
  0
TABLE
  2
APPID
 70
     1
  0
APPID
  2
ACAD
 70
     0
  0
ENDTAB
  0
TABLE
  2
DIMSTYLE
 70
     1
  0
DIMSTYLE
  2
IGA
 70
     0
  3

  4

  5

  6
OPEN
  7
OPEN
 40
2.0
 41
2.0
 42
0.5
 43
10.0
 44
1.0
 45
0.0
 46
0.0
 47
1.0
 48
1.0
140
3.0
141
0.0
142
0.0
143
0.03937
144
1.0
145
0.0
146
10.0
147
1.0
 71
     0
 72
     0
 73
     0
 74
     0
 75
     0
 76
     0
 77
     1
 78
     8
170
     0
171
     2
172
     0
173
     1
174
     0
175
     0
176
     0
177
     0
178
     0
  0
ENDTAB
  0
ENDSEC
  0
SECTION
  2
BLOCKS
  0
BLOCK
  8
0
  2
$MODEL_SPACE
 70
     0
 10
0.0
 20
0.0
 30
0.0
  3
$MODEL_SPACE
  1

  0
ENDBLK
  5
1B
  8
0
  0
BLOCK
 67
     1
  8
0
  2
$PAPER_SPACE
 70
     0
 10
0.0
 20
0.0
 30
0.0
  3
$PAPER_SPACE
  1

  0
ENDBLK
  5
18
 67
     1
  8
0
  0
BLOCK
  8
0
  2
_OPEN
 70
     0
 10
0.0
 20
0.0
 30
0.0
  3
_OPEN
  1

  0
LINE
  5
7AD6
  8
0
  6
BYBLOCK
 62
     0
 10
-1.0
 20
0.166667
 30
0.0
 11
0.0
 21
0.0
 31
0.0
  0
LINE
  5
7AD7
  8
0
  6
BYBLOCK
 62
     0
 10
0.0
 20
0.0
 30
0.0
 11
-1.0
 21
-0.166667
 31
0.0
  0
LINE
  5
7AD8
  8
0
  6
BYBLOCK
 62
     0
 10
0.0
 20
0.0
 30
0.0
 11
-1.0
 21
0.0
 31
0.0
  0
ENDBLK
  5
7AD9
  8
0
  0
BLOCK
  8
0
  2
*D1
 70
     1
 10
0.0
 20
0.0
 30
0.0
  3
*D1
  1

  0
LINE
  5
7EE2
  8
3
  6
CONTINUOUS
 62
     0
 10
1372.738135599202
 20
2891.122017150527
 30
0.0
 11
1372.738135599202
 21
2657.4832684409548
 31
0.0
  0
LINE
  5
7EE3
  8
3
  6
CONTINUOUS
 62
     0
 10
1822.738135599202
 20
2749.8711111505258
 30
0.0
 11
1822.738135599202
 21
2657.4832684409548
 31
0.0
  0
LINE
  5
7EE4
  8
3
  6
CONTINUOUS
 62
     0
 10
1432.738135599202
 20
2687.4832684409548
 30
0.0
 11
1762.738135599202
 21
2687.4832684409548
 31
0.0
  0
INSERT
  5
7EE5
  8
3
  6
CONTINUOUS
 62
     0
  2
_OPEN
 10
1372.738135599202
 20
2687.4832684409548
 30
0.0
 41
60.0
 42
60.0
 43
60.0
 50
180.0
  0
INSERT
  5
7EE6
  8
3
  6
CONTINUOUS
 62
     0
  2
_OPEN
 10
1822.738135599202
 20
2687.4832684409548
 30
0.0
 41
60.0
 42
60.0
 43
60.0
  0
TEXT
  8
3
  40
90
  5
7F69
  62
0
  72
0
  71
0
 10
1437.02
 20
2603.18
 30
0.000000
  1
450
  0
POINT
  5
7EE8
  8
DEFPOINTS
  6
CONTINUOUS
 62
     0
 10
1372.738135599202
 20
2906.1220171505261
 30
0.0
  0
POINT
  5
7EE9
  8
DEFPOINTS
  6
CONTINUOUS
 62
     0
 10
1822.738135599202
 20
2764.8711111505258
 30
0.0
  0
POINT
  5
7EEA
  8
DEFPOINTS
  6
CONTINUOUS
 62
     0
 10
1822.738135599202
 20
2687.4832684409548
 30
0.0
  0
ENDBLK
  5
7DBD
  8
0
  0
BLOCK
  8
0
  2
*D2
 70
     1
 10
0.0
 20
0.0
 30
0.0
  3
*D2
  1

  0
LINE
  5
7EEB
  8
3
  6
CONTINUOUS
 62
     0
 10
1822.738135599202
 20
2749.8711111505258
 30
0.0
 11
1822.738135599202
 21
2657.4832684409548
 31
0.0
  0
LINE
  5
7EEC
  8
3
  6
CONTINUOUS
 62
     0
 10
2922.7381355992011
 20
2891.122017150527
 30
0.0
 11
2922.7381355992011
 21
2657.4832684409548
 31
0.0
  0
LINE
  5
7EED
  8
3
  6
CONTINUOUS
 62
     0
 10
1882.738135599202
 20
2687.4832684409548
 30
0.0
 11
2862.738135599202
 21
2687.4832684409548
 31
0.0
  0
INSERT
  5
7EEE
  8
3
  6
CONTINUOUS
 62
     0
  2
_OPEN
 10
1822.738135599202
 20
2687.4832684409548
 30
0.0
 41
60.0
 42
60.0
 43
60.0
 50
180.0
  0
INSERT
  5
7EEF
  8
3
  6
CONTINUOUS
 62
     0
  2
_OPEN
 10
2922.7381355992011
 20
2687.4832684409548
 30
0.0
 41
60.0
 42
60.0
 43
60.0
  0
TEXT
  8
3
  40
90
  5
7F6A
  62
0
  72
0
  71
0
 10
2192.74
 20
2603.18
 30
0.000000
  1
1100
  0
POINT
  5
7EF1
  8
DEFPOINTS
  6
CONTINUOUS
 62
     0
 10
1822.738135599202
 20
2764.8711111505258
 30
0.0
  0
POINT
  5
7EF2
  8
DEFPOINTS
  6
CONTINUOUS
 62
     0
 10
2922.7381355992011
 20
2906.1220171505261
 30
0.0
  0
POINT
  5
7EF3
  8
DEFPOINTS
  6
CONTINUOUS
 62
     0
 10
2922.7381355992011
 20
2687.4832684409548
 30
0.0
  0
ENDBLK
  5
7DC8
  8
0
  0
BLOCK
  8
0
  2
*D3
 70
     1
 10
0.0
 20
0.0
 30
0.0
  3
*D3
  1

  0
LINE
  5
7EF4
  8
3
  6
CONTINUOUS
 62
     0
 10
2636.738135599202
 20
4046.1220171505261
 30
0.0
 11
3272.606854599203
 21
4046.1220171505252
 31
0.0
  0
LINE
  5
7EF5
  8
3
  6
CONTINUOUS
 62
     0
 10
2553.6227405992022
 20
3546.1220171505261
 30
0.0
 11
3272.606854599203
 21
3546.1220171505261
 31
0.0
  0
LINE
  5
7EF6
  8
3
  6
CONTINUOUS
 62
     0
 10
3242.606854599203
 20
3986.1220171505261
 30
0.0
 11
3242.606854599203
 21
3606.1220171505261
 31
0.0
  0
INSERT
  5
7EF7
  8
3
  6
CONTINUOUS
 62
     0
  2
_OPEN
 10
3242.606854599203
 20
4046.1220171505252
 30
0.0
 41
60.0
 42
60.0
 43
60.0
 50
90.0
  0
INSERT
  5
7EF8
  8
3
  6
CONTINUOUS
 62
     0
  2
_OPEN
 10
3242.606854599203
 20
3546.1220171505261
 30
0.0
 41
60.0
 42
60.0
 43
60.0
 50
270.0
  0
TEXT
  8
3
  40
90
  5
7F6B
  62
0
  72
0
  71
0
 10
2987.61
 20
3626.82
 30
0.000000
  1
500
  0
POINT
  5
7EFA
  8
DEFPOINTS
  6
CONTINUOUS
 62
     0
 10
2621.738135599202
 20
4046.1220171505261
 30
0.0
  0
POINT
  5
7EFB
  8
DEFPOINTS
  6
CONTINUOUS
 62
     0
 10
2538.6227405992022
 20
3546.1220171505261
 30
0.0
  0
POINT
  5
7EFC
  8
DEFPOINTS
  6
CONTINUOUS
 62
     0
 10
3242.606854599203
 20
3546.1220171505261
 30
0.0
  0
ENDBLK
  5
7DA7
  8
0
  0
BLOCK
  8
0
  2
*D4
 70
     1
 10
0.0
 20
0.0
 30
0.0
  3
*D4
  1

  0
LINE
  5
7EFD
  8
3
  6
CONTINUOUS
 62
     0
 10
2553.6227405992022
 20
3546.1220171505261
 30
0.0
 11
3272.606854599203
 21
3546.1220171505261
 31
0.0
  0
LINE
  5
7EFE
  8
3
  6
CONTINUOUS
 62
     0
 10
2937.738135599202
 20
2906.1220171505261
 30
0.0
 11
3272.606854599203
 21
2906.1220171505261
 31
0.0
  0
LINE
  5
7EFF
  8
3
  6
CONTINUOUS
 62
     0
 10
3242.606854599203
 20
3486.1220171505261
 30
0.0
 11
3242.6068545992021
 21
2966.1220171505261
 31
0.0
  0
INSERT
  5
7F00
  8
3
  6
CONTINUOUS
 62
     0
  2
_OPEN
 10
3242.606854599203
 20
3546.1220171505261
 30
0.0
 41
60.0
 42
60.0
 43
60.0
 50
90.0
  0
INSERT
  5
7F01
  8
3
  6
CONTINUOUS
 62
     0
  2
_OPEN
 10
3242.6068545992021
 20
2906.1220171505261
 30
0.0
 41
60.0
 42
60.0
 43
60.0
 50
270.0
  0
TEXT
  8
3
  40
90
  5
7F6C
  62
0
  72
0
  71
0
 10
2987.61
 20
3066.82
 30
0.000000
  1
640
  0
POINT
  5
7F03
  8
DEFPOINTS
  6
CONTINUOUS
 62
     0
 10
2538.6227405992022
 20
3546.1220171505261
 30
0.0
  0
POINT
  5
7F04
  8
DEFPOINTS
  6
CONTINUOUS
 62
     0
 10
2922.7381355992011
 20
2906.1220171505261
 30
0.0
  0
POINT
  5
7F05
  8
DEFPOINTS
  6
CONTINUOUS
 62
     0
 10
3242.6068545992021
 20
2906.1220171505261
 30
0.0
  0
ENDBLK
  5
7D9C
  8
0
  0
BLOCK
  8
0
  2
*D5
 70
     1
 10
0.0
 20
0.0
 30
0.0
  3
*D5
  1

  0
LINE
  5
7F06
  8
3
  6
CONTINUOUS
 62
     0
 10
2636.738135599202
 20
4046.1220171505261
 30
0.0
 11
3554.284971599202
 21
4046.1220171505252
 31
0.0
  0
LINE
  5
7F07
  8
3
  6
CONTINUOUS
 62
     0
 10
2937.738135599202
 20
2906.1220171505261
 30
0.0
 11
3554.284971599202
 21
2906.1220171505261
 31
0.0
  0
LINE
  5
7F08
  8
3
  6
CONTINUOUS
 62
     0
 10
3524.2849715992029
 20
3986.1220171505261
 30
0.0
 11
3524.284971599202
 21
2966.1220171505261
 31
0.0
  0
INSERT
  5
7F09
  8
3
  6
CONTINUOUS
 62
     0
  2
_OPEN
 10
3524.2849715992029
 20
4046.1220171505252
 30
0.0
 41
60.0
 42
60.0
 43
60.0
 50
90.0
  0
INSERT
  5
7F0A
  8
3
  6
CONTINUOUS
 62
     0
  2
_OPEN
 10
3524.284971599202
 20
2906.1220171505261
 30
0.0
 41
60.0
 42
60.0
 43
60.0
 50
270.0
  0
TEXT
  8
3
  40
90
  5
7F6D
  62
0
  72
0
  71
0
 10
3269.28
 20
3344.52
 30
0.000000
  1
1140
  0
POINT
  5
7F0C
  8
DEFPOINTS
  6
CONTINUOUS
 62
     0
 10
2621.738135599202
 20
4046.1220171505261
 30
0.0
  0
POINT
  5
7F0D
  8
DEFPOINTS
  6
CONTINUOUS
 62
     0
 10
2922.7381355992011
 20
2906.1220171505261
 30
0.0
  0
POINT
  5
7F0E
  8
DEFPOINTS
  6
CONTINUOUS
 62
     0
 10
3524.284971599202
 20
2906.1220171505261
 30
0.0
  0
ENDBLK
  5
7D91
  8
0
  0
BLOCK
  8
0
  2
*D6
 70
     1
 10
0.0
 20
0.0
 30
0.0
  3
*D6
  1

  0
LINE
  5
7F0F
  8
3
  6
CONTINUOUS
 62
     0
 10
1851.738135599202
 20
4061.1220171505261
 30
0.0
 11
1851.738135599202
 21
4253.8549841505264
 31
0.0
  0
LINE
  5
7F10
  8
3
  6
CONTINUOUS
 62
     0
 10
2581.738135599202
 20
4061.1220171505261
 30
0.0
 11
2581.738135599202
 21
4253.8549841505264
 31
0.0
  0
LINE
  5
7F11
  8
3
  6
CONTINUOUS
 62
     0
 10
1911.7381355992011
 20
4223.8549841505264
 30
0.0
 11
2521.738135599202
 21
4223.8549841505264
 31
0.0
  0
INSERT
  5
7F12
  8
3
  6
CONTINUOUS
 62
     0
  2
_OPEN
 10
1851.738135599202
 20
4223.8549841505264
 30
0.0
 41
60.0
 42
60.0
 43
60.0
 50
180.0
  0
INSERT
  5
7F13
  8
3
  6
CONTINUOUS
 62
     0
  2
_OPEN
 10
2581.738135599202
 20
4223.8549841505264
 30
0.0
 41
60.0
 42
60.0
 43
60.0
  0
TEXT
  8
3
  40
90
  5
7F6E
  62
0
  72
0
  71
0
 10
2042.10
 20
4139.55
 30
0.000000
  1
730
  0
POINT
  5
7F15
  8
DEFPOINTS
  6
CONTINUOUS
 62
     0
 10
1851.738135599202
 20
4046.1220171505261
 30
0.0
  0
POINT
  5
7F16
  8
DEFPOINTS
  6
CONTINUOUS
 62
     0
 10
2581.738135599202
 20
4046.1220171505261
 30
0.0
  0
POINT
  5
7F17
  8
DEFPOINTS
  6
CONTINUOUS
 62
     0
 10
2581.738135599202
 20
4223.8549841505264
 30
0.0
  0
ENDBLK
  5
7D86
  8
0
  0
BLOCK
  8
0
  2
*D7
 70
     1
 10
0.0
 20
0.0
 30
0.0
  3
*D7
  1

  0
LINE
  5
7F18
  8
3
  6
CONTINUOUS
 62
     0
 10
2581.738135599202
 20
4061.1220171505261
 30
0.0
 11
2581.738135599202
 21
4452.6594811505274
 31
0.0
  0
LINE
  5
7F19
  8
3
  6
CONTINUOUS
 62
     0
 10
1822.738135599202
 20
3981.2172451505262
 30
0.0
 11
1822.738135599202
 21
4452.6594811505274
 31
0.0
  0
LINE
  5
7F1A
  8
3
  6
CONTINUOUS
 62
     0
 10
2521.738135599202
 20
4422.6594811505256
 30
0.0
 11
1882.738135599202
 21
4422.6594811505256
 31
0.0
  0
INSERT
  5
7F1B
  8
3
  6
CONTINUOUS
 62
     0
  2
_OPEN
 10
2581.738135599202
 20
4422.6594811505256
 30
0.0
 41
60.0
 42
60.0
 43
60.0
  0
INSERT
  5
7F1C
  8
3
  6
CONTINUOUS
 62
     0
  2
_OPEN
 10
1822.738135599202
 20
4422.6594811505256
 30
0.0
 41
60.0
 42
60.0
 43
60.0
 50
180.0
  0
TEXT
  8
3
  40
90
  5
7F6F
  62
0
  72
0
  71
0
 10
2028.25
 20
4338.36
 30
0.000000
  1
759
  0
POINT
  5
7F1E
  8
DEFPOINTS
  6
CONTINUOUS
 62
     0
 10
2581.738135599202
 20
4046.1220171505261
 30
0.0
  0
POINT
  5
7F1F
  8
DEFPOINTS
  6
CONTINUOUS
 62
     0
 10
1822.738135599202
 20
3966.2172451505271
 30
0.0
  0
POINT
  5
7F20
  8
DEFPOINTS
  6
CONTINUOUS
 62
     0
 10
1822.738135599202
 20
4422.6594811505256
 30
0.0
  0
ENDBLK
  5
7D7B
  8
0
  0
BLOCK
  8
0
  2
*D8
 70
     1
 10
0.0
 20
0.0
 30
0.0
  3
*D8
  1

  0
LINE
  5
7F21
  8
3
  6
CONTINUOUS
 62
     0
 10
1822.738135599202
 20
3981.2172451505262
 30
0.0
 11
1822.738135599202
 21
4452.6594811505274
 31
0.0
  0
LINE
  5
7F22
  8
3
  6
CONTINUOUS
 62
     0
 10
1316.738135599202
 20
3561.1220171505261
 30
0.0
 11
1316.738135599202
 21
4452.6594811505274
 31
0.0
  0
LINE
  5
7F23
  8
3
  6
CONTINUOUS
 62
     0
 10
1762.738135599202
 20
4422.6594811505256
 30
0.0
 11
1376.738135599202
 21
4422.6594811505256
 31
0.0
  0
INSERT
  5
7F24
  8
3
  6
CONTINUOUS
 62
     0
  2
_OPEN
 10
1822.738135599202
 20
4422.6594811505256
 30
0.0
 41
60.0
 42
60.0
 43
60.0
  0
INSERT
  5
7F25
  8
3
  6
CONTINUOUS
 62
     0
  2
_OPEN
 10
1316.738135599202
 20
4422.6594811505256
 30
0.0
 41
60.0
 42
60.0
 43
60.0
 50
180.0
  0
TEXT
  8
3
  40
90
  5
7F70
  62
0
  72
0
  71
0
 10
1389.74
 20
4338.36
 30
0.000000
  1
506
  0
POINT
  5
7F27
  8
DEFPOINTS
  6
CONTINUOUS
 62
     0
 10
1822.738135599202
 20
3966.2172451505271
 30
0.0
  0
POINT
  5
7F28
  8
DEFPOINTS
  6
CONTINUOUS
 62
     0
 10
1316.738135599202
 20
3546.1220171505261
 30
0.0
  0
POINT
  5
7F29
  8
DEFPOINTS
  6
CONTINUOUS
 62
     0
 10
1316.738135599202
 20
4422.6594811505256
 30
0.0
  0
ENDBLK
  5
7D70
  8
0
  0
BLOCK
  8
0
  2
*D9
 70
     1
 10
0.0
 20
0.0
 30
0.0
  3
*D9
  1

  0
LINE
  5
7F2A
  8
3
  6
CONTINUOUS
 62
     0
 10
1372.738135599202
 20
5543.2220171505269
 30
0.0
 11
1372.738135599202
 21
5189.7248771505274
 31
0.0
  0
LINE
  5
7F2B
  8
3
  6
CONTINUOUS
 62
     0
 10
2922.7381355992011
 20
5543.2220171505269
 30
0.0
 11
2922.7381355992011
 21
5189.7248771505274
 31
0.0
  0
LINE
  5
7F2C
  8
3
  6
CONTINUOUS
 62
     0
 10
1432.738135599202
 20
5219.7248771505256
 30
0.0
 11
2862.738135599202
 21
5219.7248771505256
 31
0.0
  0
INSERT
  5
7F2D
  8
3
  6
CONTINUOUS
 62
     0
  2
_OPEN
 10
1372.738135599202
 20
5219.7248771505256
 30
0.0
 41
60.0
 42
60.0
 43
60.0
 50
180.0
  0
INSERT
  5
7F2E
  8
3
  6
CONTINUOUS
 62
     0
  2
_OPEN
 10
2922.7381355992011
 20
5219.7248771505256
 30
0.0
 41
60.0
 42
60.0
 43
60.0
  0
TEXT
  8
3
  40
90
  5
7F71
  62
0
  72
0
  71
0
 10
1931.28
 20
5135.42
 30
0.000000
  1
1550
  0
POINT
  5
7F30
  8
DEFPOINTS
  6
CONTINUOUS
 62
     0
 10
1372.738135599202
 20
5558.222017150526
 30
0.0
  0
POINT
  5
7F31
  8
DEFPOINTS
  6
CONTINUOUS
 62
     0
 10
2922.7381355992011
 20
5558.222017150526
 30
0.0
  0
POINT
  5
7F32
  8
DEFPOINTS
  6
CONTINUOUS
 62
     0
 10
2922.7381355992011
 20
5219.7248771505256
 30
0.0
  0
ENDBLK
  5
7D65
  8
0
  0
BLOCK
  8
0
  2
*D10
 70
     1
 10
0.0
 20
0.0
 30
0.0
  3
*D10
  1

  0
LINE
  5
7F33
  8
3
  6
CONTINUOUS
 62
     0
 10
2937.738135599202
 20
6308.222017150526
 30
0.0
 11
3286.4598785992021
 21
6308.222017150526
 31
0.0
  0
LINE
  5
7F34
  8
3
  6
CONTINUOUS
 62
     0
 10
2937.738135599202
 20
5558.222017150526
 30
0.0
 11
3286.4598785992021
 21
5558.222017150526
 31
0.0
  0
LINE
  5
7F35
  8
3
  6
CONTINUOUS
 62
     0
 10
3256.459878599203
 20
6248.2220171505269
 30
0.0
 11
3256.459878599203
 21
5618.2220171505269
 31
0.0
  0
INSERT
  5
7F36
  8
3
  6
CONTINUOUS
 62
     0
  2
_OPEN
 10
3256.459878599203
 20
6308.222017150526
 30
0.0
 41
60.0
 42
60.0
 43
60.0
 50
90.0
  0
INSERT
  5
7F37
  8
3
  6
CONTINUOUS
 62
     0
  2
_OPEN
 10
3256.459878599203
 20
5558.222017150526
 30
0.0
 41
60.0
 42
60.0
 43
60.0
 50
270.0
  0
TEXT
  8
3
  40
90
  5
7F72
  62
0
  72
0
  71
0
 10
3001.46
 20
5757.86
 30
0.000000
  1
750
  0
POINT
  5
7F39
  8
DEFPOINTS
  6
CONTINUOUS
 62
     0
 10
2922.7381355992011
 20
6308.222017150526
 30
0.0
  0
POINT
  5
7F3A
  8
DEFPOINTS
  6
CONTINUOUS
 62
     0
 10
2922.7381355992011
 20
5558.222017150526
 30
0.0
  0
POINT
  5
7F3B
  8
DEFPOINTS
  6
CONTINUOUS
 62
     0
 10
3256.459878599203
 20
5558.222017150526
 30
0.0
  0
ENDBLK
  5
7D5A
  8
0
  0
BLOCK
  8
0
  2
*D11
 70
     1
 10
0.0
 20
0.0
 30
0.0
  3
*D11
  1

  0
LINE
  5
7F3C
  8
3
  6
CONTINUOUS
 62
     0
 10
4396.6149671347193
 20
2891.122017150527
 30
0.0
 11
4396.6149671347193
 21
2690.2379214660718
 31
0.0
  0
LINE
  5
7F3D
  8
3
  6
CONTINUOUS
 62
     0
 10
4828.6149671347193
 20
2838.4395831505258
 30
0.0
 11
4828.6149671347193
 21
2690.2379214660718
 31
0.0
  0
LINE
  5
7F3E
  8
3
  6
CONTINUOUS
 62
     0
 10
4456.6149671347193
 20
2720.2379214660718
 30
0.0
 11
4768.6149671347193
 21
2720.2379214660718
 31
0.0
  0
INSERT
  5
7F3F
  8
3
  6
CONTINUOUS
 62
     0
  2
_OPEN
 10
4396.6149671347193
 20
2720.2379214660718
 30
0.0
 41
60.0
 42
60.0
 43
60.0
 50
180.0
  0
INSERT
  5
7F40
  8
3
  6
CONTINUOUS
 62
     0
  2
_OPEN
 10
4828.6149671347193
 20
2720.2379214660718
 30
0.0
 41
60.0
 42
60.0
 43
60.0
  0
TEXT
  8
3
  40
90
  5
7F73
  62
0
  72
0
  71
0
 10
4442.90
 20
2635.94
 30
0.000000
  1
432
  0
POINT
  5
7F42
  8
DEFPOINTS
  6
CONTINUOUS
 62
     0
 10
4396.6149671347193
 20
2906.1220171505261
 30
0.0
  0
POINT
  5
7F43
  8
DEFPOINTS
  6
CONTINUOUS
 62
     0
 10
4828.6149671347193
 20
2853.4395831505258
 30
0.0
  0
POINT
  5
7F44
  8
DEFPOINTS
  6
CONTINUOUS
 62
     0
 10
4828.6149671347193
 20
2720.2379214660718
 30
0.0
  0
ENDBLK
  5
7D4F
  8
0
  0
BLOCK
  8
0
  2
*D12
 70
     1
 10
0.0
 20
0.0
 30
0.0
  3
*D12
  1

  0
LINE
  5
7DEB
  8
0
  6
BYBLOCK
 62
     0
 10
4828.6149671347193
 20
2838.4395831505258
 30
0.0
 11
4828.6149671347193
 21
2690.2379214660718
 31
0.0
  0
LINE
  5
7DEC
  8
0
  6
BYBLOCK
 62
     0
 10
5146.6149671347202
 20
2891.122017150527
 30
0.0
 11
5146.6149671347202
 21
2690.2379214660718
 31
0.0
  0
LINE
  5
7DED
  8
0
  6
BYBLOCK
 62
     0
 10
4888.6149671347202
 20
2720.2379214660718
 30
0.0
 11
5086.6149671347193
 21
2720.2379214660718
 31
0.0
  0
TEXT
  5
7DEE
  8
3
 62
     0
 10
4880.4721099918625
 20
2748.7173205807012
 30
0.0
 40
90.0
  1
318
  0
INSERT
  5
7DEF
  8
0
  6
BYBLOCK
 62
     0
  2
_OPEN
 10
4828.6149671347193
 20
2720.2379214660718
 30
0.0
 41
60.0
 42
60.0
 43
60.0
 50
180.0
  0
INSERT
  5
7DF0
  8
0
  6
BYBLOCK
 62
     0
  2
_OPEN
 10
5146.6149671347202
 20
2720.2379214660718
 30
0.0
 41
60.0
 42
60.0
 43
60.0
  0
POINT
  5
7DF1
  8
DEFPOINTS
  6
BYBLOCK
 62
     0
 10
4828.6149671347193
 20
2853.4395831505258
 30
0.0
  0
POINT
  5
7DF2
  8
DEFPOINTS
  6
BYBLOCK
 62
     0
 10
5146.6149671347202
 20
2906.1220171505261
 30
0.0
  0
POINT
  5
7DF3
  8
DEFPOINTS
  6
BYBLOCK
 62
     0
 10
5146.6149671347202
 20
2720.2379214660718
 30
0.0
  0
ENDBLK
  5
7DF4
  8
0
  0
BLOCK
  8
0
  2
*D13
 70
     1
 10
0.0
 20
0.0
 30
0.0
  3
*D13
  1

  0
LINE
  5
7F45
  8
3
  6
CONTINUOUS
 62
     0
 10
5191.6149671347193
 20
3901.1220171505261
 30
0.0
 11
5487.9820671347197
 21
3901.1220171505261
 31
0.0
  0
LINE
  5
7F46
  8
3
  6
CONTINUOUS
 62
     0
 10
5191.6149671347193
 20
3191.1220171505261
 30
0.0
 11
5487.9820671347197
 21
3191.1220171505261
 31
0.0
  0
LINE
  5
7F47
  8
3
  6
CONTINUOUS
 62
     0
 10
5457.9820671347206
 20
3841.1220171505261
 30
0.0
 11
5457.9820671347206
 21
3251.1220171505261
 31
0.0
  0
INSERT
  5
7F48
  8
3
  6
CONTINUOUS
 62
     0
  2
_OPEN
 10
5457.9820671347206
 20
3901.1220171505261
 30
0.0
 41
60.0
 42
60.0
 43
60.0
 50
90.0
  0
INSERT
  5
7F49
  8
3
  6
CONTINUOUS
 62
     0
  2
_OPEN
 10
5457.9820671347206
 20
3191.1220171505261
 30
0.0
 41
60.0
 42
60.0
 43
60.0
 50
270.0
  0
TEXT
  8
3
  40
90
  5
7F74
  62
0
  72
0
  71
0
 10
5202.98
 20
3367.59
 30
0.000000
  1
φ710
  0
POINT
  5
7F4B
  8
DEFPOINTS
  6
CONTINUOUS
 62
     0
 10
5176.6149671347193
 20
3901.1220171505261
 30
0.0
  0
POINT
  5
7F4C
  8
DEFPOINTS
  6
CONTINUOUS
 62
     0
 10
5176.6149671347193
 20
3191.1220171505261
 30
0.0
  0
POINT
  5
7F4D
  8
DEFPOINTS
  6
CONTINUOUS
 62
     0
 10
5457.9820671347206
 20
3191.1220171505261
 30
0.0
  0
ENDBLK
  5
7DFF
  8
0
  0
BLOCK
  8
0
  2
*D14
 70
     1
 10
0.0
 20
0.0
 30
0.0
  3
*D14
  1

  0
LINE
  5
7F4E
  8
3
  6
CONTINUOUS
 62
     0
 10
4563.6149671347193
 20
4061.1220171505261
 30
0.0
 11
4563.6149671347193
 21
4212.8115351505257
 31
0.0
  0
LINE
  5
7F4F
  8
3
  6
CONTINUOUS
 62
     0
 10
5093.6149671347193
 20
4061.1220171505261
 30
0.0
 11
5093.6149671347193
 21
4212.8115351505257
 31
0.0
  0
LINE
  5
7F50
  8
3
  6
CONTINUOUS
 62
     0
 10
4623.6149671347193
 20
4182.8115351505257
 30
0.0
 11
5033.6149671347193
 21
4182.8115351505257
 31
0.0
  0
INSERT
  5
7F51
  8
3
  6
CONTINUOUS
 62
     0
  2
_OPEN
 10
4563.6149671347193
 20
4182.8115351505257
 30
0.0
 41
60.0
 42
60.0
 43
60.0
 50
180.0
  0
INSERT
  5
7F52
  8
3
  6
CONTINUOUS
 62
     0
  2
_OPEN
 10
5093.6149671347193
 20
4182.8115351505257
 30
0.0
 41
60.0
 42
60.0
 43
60.0
  0
TEXT
  8
3
  40
90
  5
7F75
  62
0
  72
0
  71
0
 10
4673.61
 20
4098.51
 30
0.000000
  1
530
  0
POINT
  5
7F54
  8
DEFPOINTS
  6
CONTINUOUS
 62
     0
 10
4563.6149671347193
 20
4046.1220171505261
 30
0.0
  0
POINT
  5
7F55
  8
DEFPOINTS
  6
CONTINUOUS
 62
     0
 10
5093.6149671347193
 20
4046.1220171505261
 30
0.0
  0
POINT
  5
7F56
  8
DEFPOINTS
  6
CONTINUOUS
 62
     0
 10
5093.6149671347193
 20
4182.8115351505257
 30
0.0
  0
ENDBLK
  5
7D2C
  8
0
  0
BLOCK
  8
0
  2
*D15
 70
     1
 10
0.0
 20
0.0
 30
0.0
  3
*D15
  1

  0
LINE
  5
7F57
  8
3
  6
CONTINUOUS
 62
     0
 10
4318.6149671347202
 20
3750.8220171505259
 30
0.0
 11
4318.6149671347202
 21
4442.6576702999928
 31
0.0
  0
LINE
  5
7F58
  8
3
  6
CONTINUOUS
 62
     0
 10
4828.6149671347193
 20
4364.6989724614386
 30
0.0
 11
4828.6149671347193
 21
4442.6576702999928
 31
0.0
  0
LINE
  5
7F59
  8
3
  6
CONTINUOUS
 62
     0
 10
4378.6149671347193
 20
4412.6576702999937
 30
0.0
 11
4768.6149671347193
 21
4412.6576702999937
 31
0.0
  0
INSERT
  5
7F5A
  8
3
  6
CONTINUOUS
 62
     0
  2
_OPEN
 10
4318.6149671347202
 20
4412.6576702999937
 30
0.0
 41
60.0
 42
60.0
 43
60.0
 50
180.0
  0
INSERT
  5
7F5B
  8
3
  6
CONTINUOUS
 62
     0
  2
_OPEN
 10
4828.6149671347193
 20
4412.6576702999937
 30
0.0
 41
60.0
 42
60.0
 43
60.0
  0
TEXT
  8
3
  40
90
  5
7F76
  62
0
  72
0
  71
0
 10
4393.61
 20
4403.36
 30
0.000000
  1
MAX
  0
TEXT
  8
3
  40
90
  5
7F77
  62
0
  72
0
  71
0
 10
4393.61
 20
4286.36
 30
0.000000
  1
590
  0
POINT
  5
7F5D
  8
DEFPOINTS
  6
CONTINUOUS
 62
     0
 10
4318.6149671347202
 20
3735.8220171505259
 30
0.0
  0
POINT
  5
7F5E
  8
DEFPOINTS
  6
CONTINUOUS
 62
     0
 10
4828.6149671347193
 20
4349.6989724614386
 30
0.0
  0
POINT
  5
7F5F
  8
DEFPOINTS
  6
CONTINUOUS
 62
     0
 10
4828.6149671347193
 20
4412.6576702999937
 30
0.0
  0
ENDBLK
  5
7D21
  8
0
  0
BLOCK
  8
0
  2
*D16
 70
     1
 10
0.0
 20
0.0
 30
0.0
  3
*D16
  1

  0
LINE
  5
7E01
  8
0
  6
BYBLOCK
 62
     0
 10
4828.6149671347193
 20
4362.1070161191528
 30
0.0
 11
4828.6149671347193
 21
4442.6576702999928
 31
0.0
  0
LINE
  5
7E02
  8
0
  6
BYBLOCK
 62
     0
 10
5176.6149671347193
 20
3956.1220171505261
 30
0.0
 11
5176.6149671347193
 21
4442.6576702999928
 31
0.0
  0
LINE
  5
7E03
  8
0
  6
BYBLOCK
 62
     0
 10
4888.6149671347202
 20
4412.6576702999937
 30
0.0
 11
5116.6149671347193
 21
4412.6576702999937
 31
0.0
  0
TEXT
  5
7E04
  8
3
 62
     0
 10
4886.900681420434
 20
4458.2415560132031
 30
0.0
 40
90.0
  1
348
  0
INSERT
  5
7E05
  8
0
  6
BYBLOCK
 62
     0
  2
_OPEN
 10
4828.6149671347193
 20
4412.6576702999937
 30
0.0
 41
60.0
 42
60.0
 43
60.0
 50
180.0
  0
INSERT
  5
7E06
  8
0
  6
BYBLOCK
 62
     0
  2
_OPEN
 10
5176.6149671347193
 20
4412.6576702999937
 30
0.0
 41
60.0
 42
60.0
 43
60.0
  0
POINT
  5
7E07
  8
DEFPOINTS
  6
BYBLOCK
 62
     0
 10
4828.6149671347193
 20
4347.1070161191519
 30
0.0
  0
POINT
  5
7E08
  8
DEFPOINTS
  6
BYBLOCK
 62
     0
 10
5176.6149671347193
 20
3941.1220171505261
 30
0.0
  0
POINT
  5
7E09
  8
DEFPOINTS
  6
BYBLOCK
 62
     0
 10
5176.6149671347193
 20
4412.6576702999937
 30
0.0
  0
ENDBLK
  5
7E0A
  8
0
  0
BLOCK
  8
0
  2
*D17
 70
     1
 10
0.0
 20
0.0
 30
0.0
  3
*D17
  1

  0
LINE
  5
7F60
  8
3
 62
     0
 10
1316.738135599202
 20
3578.6220171505261
 30
0.0
 11
1316.738135599202
 21
4669.6611535199436
 31
0.0
  0
LINE
  5
7F61
  8
3
 62
     0
 10
2922.7381355992011
 20
3021.1220171505261
 30
0.0
 11
2922.7381355992011
 21
4669.6611535199436
 31
0.0
  0
LINE
  5
7F62
  8
3
 62
     0
 10
1376.738135599202
 20
4639.6611535199436
 30
0.0
 11
2862.738135599202
 21
4639.6611535199436
 31
0.0
  0
INSERT
  5
7F63
  8
3
 62
     0
  2
_OPEN
 10
1316.738135599202
 20
4639.6611535199436
 30
0.0
 41
60.0
 42
60.0
 43
60.0
 50
180.0
  0
INSERT
  5
7F64
  8
3
 62
     0
  2
_OPEN
 10
2922.7381355992011
 20
4639.6611535199436
 30
0.0
 41
60.0
 42
60.0
 43
60.0
  0
TEXT
  8
3
  40
90
  5
7F78
  62
0
  72
0
  71
0
 10
2003.97
 20
4555.36
 30
0.000000
  1
1606
  0
POINT
  5
7F66
  8
DEFPOINTS
 62
     0
 10
1316.738135599202
 20
3563.6220171505261
 30
0.0
  0
POINT
  5
7F67
  8
DEFPOINTS
 62
     0
 10
2922.7381355992011
 20
3006.1220171505261
 30
0.0
  0
POINT
  5
7F68
  8
DEFPOINTS
 62
     0
 10
2922.7381355992011
 20
4639.6611535199436
 30
0.0
  0
ENDBLK
  5
7D09
  8
0
  0
ENDSEC
  0
SECTION
  2
ENTITIES
  0
LINE
  5
7A6E
  8
1
  6
CONTINUOUS
 10
1774.6457615992019
 20
3414.9609961505248
 30
0.0
 11
2674.6457615992022
 21
3084.9609961505262
 31
0.0
  0
LINE
  5
7A6F
  8
1
  6
CONTINUOUS
 10
1757.433028599201
 20
3368.0171801505262
 30
0.0
 11
2657.4330285992019
 21
3038.0171801505262
 31
0.0
  0
ARC
  5
7A70
  8
1
  6
CONTINUOUS
 10
2722.738135599202
 20
3216.1220171505261
 30
0.0
 40
189.69999999999999
 50
249.863697
 51
69.863697000000002
  0
LINE
  5
7A71
  8
2
  6
CENTER
 10
2722.738135599202
 20
3071.4220171505249
 30
0.0
 11
2722.738135599202
 21
3360.8220171505259
 31
0.0
  0
CIRCLE
  5
7A72
  8
1
  6
CONTINUOUS
 10
2722.738135599202
 20
3216.1220171505261
 30
0.0
 40
139.69999999999999
  0
ARC
  5
7A73
  8
1
  6
CONTINUOUS
 10
2722.738135599202
 20
3216.1220171505261
 30
0.0
 40
162.0
 50
324.972283
 51
215.02771699999991
  0
ARC
  5
7A74
  8
1
  6
CONTINUOUS
 10
1875.738135599202
 20
3493.1220171505261
 30
0.0
 40
559.0
 50
174.55949099999989
 51
240.598221
  0
ARC
  5
7A75
  8
1
  6
CONTINUOUS
 10
1875.738135599202
 20
3599.122017150527
 30
0.0
 40
665.0
 50
296.908636
 51
355.428721
  0
LINE
  5
7A76
  8
1
  6
CONTINUOUS
 10
2922.7381355992011
 20
3006.1220171505261
 30
0.0
 11
1372.738135599202
 21
3006.1220171505261
 31
0.0
  0
LINE
  5
7A77
  8
1
  6
CONTINUOUS
 10
2922.7381355992011
 20
2906.1220171505261
 30
0.0
 11
1372.738135599202
 21
2906.1220171505261
 31
0.0
  0
LINE
  5
7A78
  8
1
  6
CONTINUOUS
 10
1372.738135599202
 20
3006.1220171505261
 30
0.0
 11
1372.738135599202
 21
2906.1220171505261
 31
0.0
  0
LINE
  5
7A79
  8
1
  6
CONTINUOUS
 10
2525.238135599202
 20
3056.1220171505261
 30
0.0
 11
2920.238135599202
 21
3056.1220171505261
 31
0.0
  0
LINE
  5
7A7A
  8
1
  6
CONTINUOUS
 10
2525.238135599202
 20
3006.1220171505261
 30
0.0
 11
2525.238135599202
 21
3056.1220171505261
 31
0.0
  0
LINE
  5
7A7B
  8
1
  6
CONTINUOUS
 10
2920.238135599202
 20
3006.1220171505261
 30
0.0
 11
2920.238135599202
 21
3056.1220171505261
 31
0.0
  0
LINE
  5
7A7C
  8
1
  6
CONTINUOUS
 10
2876.738135599202
 20
3074.1220171505261
 30
0.0
 11
2855.395801599203
 21
3123.1384501505258
 31
0.0
  0
LINE
  5
7A7D
  8
1
  6
CONTINUOUS
 10
2876.738135599202
 20
3056.1220171505261
 30
0.0
 11
2876.738135599202
 21
3074.1220171505261
 31
0.0
  0
LINE
  5
7A7E
  8
1
  6
CONTINUOUS
 10
2568.738135599202
 20
3056.1220171505261
 30
0.0
 11
2568.738135599202
 21
3074.1220171505261
 31
0.0
  0
LINE
  5
7A7F
  8
1
  6
CONTINUOUS
 10
2568.738135599202
 20
3074.1220171505261
 30
0.0
 11
2590.0804695992028
 21
3123.1384501505258
 31
0.0
  0
LINE
  5
7A80
  8
1
  6
CONTINUOUS
 10
2922.7381355992011
 20
3006.1220171505261
 30
0.0
 11
2922.7381355992011
 21
2906.1220171505261
 31
0.0
  0
ARC
  5
7A81
  8
1
  6
CONTINUOUS
 10
1822.738135599202
 20
3546.1220171505261
 30
0.0
 40
189.69999999999999
 50
69.863697000000002
 51
249.863697
  0
LINE
  5
7A82
  8
2
  6
CENTER
 10
1142.3879485992011
 20
3546.1220171505261
 30
0.0
 11
2629.378341599202
 21
3546.1220171505261
 31
0.0
  0
CIRCLE
  5
7A83
  8
1
  6
CONTINUOUS
 10
1822.738135599202
 20
3546.1220171505261
 30
0.0
 40
139.69999999999999
  0
CIRCLE
  5
7A84
  8
1
  6
CONTINUOUS
 10
1822.738135599202
 20
3546.1220171505261
 30
0.0
 40
395.0
  0
CIRCLE
  5
7A85
  8
1
  6
CONTINUOUS
 10
1822.738135599202
 20
3546.1220171505261
 30
0.0
 40
355.0
  0
ARC
  5
7A86
  8
1
  6
CONTINUOUS
 10
1780.738135599202
 20
3504.1220171505261
 30
0.0
 40
464.0
 50
84.806635999999983
 51
174.80663599999991
  0
LINE
  5
7A87
  8
1
  6
CONTINUOUS
 10
1851.738135599202
 20
3961.430201150527
 30
0.0
 11
1851.738135599202
 21
4046.1220171505261
 31
0.0
  0
LINE
  5
7A88
  8
1
  6
CONTINUOUS
 10
2538.6227405992022
 20
3546.1220171505261
 30
0.0
 11
2581.738135599202
 21
4046.1220171505261
 31
0.0
  0
LINE
  5
7A89
  8
1
  6
CONTINUOUS
 10
1870.8305095992009
 20
3677.283038150526
 30
0.0
 11
2770.8305095992018
 21
3347.283038150526
 31
0.0
  0
LINE
  5
7A8A
  8
1
  6
CONTINUOUS
 10
1888.0432425992019
 20
3724.2268541505259
 30
0.0
 11
2788.0432425992021
 21
3394.2268541505259
 31
0.0
  0
LINE
  5
7A8B
  8
2
  6
CENTER
 10
1822.738135599202
 20
2764.8711111505258
 30
0.0
 11
1822.738135599202
 21
4014.8955141505262
 31
0.0
  0
ARC
  5
7A8C
  8
1
  6
CONTINUOUS
 10
1780.738135599202
 20
3588.122017150527
 30
0.0
 40
380.0
 50
79.231449999999995
 51
83.654343999999995
  0
LINE
  5
7A8D
  8
2
  6
CENTER
 10
2867.4381355992018
 20
3216.1220171505261
 30
0.0
 11
2578.0381355992022
 21
3216.1220171505261
 31
0.0
  0
LINE
  5
7A8E
  8
1
  6
CONTINUOUS
 10
2578.2889035992021
 20
4006.1220171505261
 30
0.0
 11
1851.738135599202
 21
4006.1220171505261
 31
0.0
  0
LINE
  5
7A8F
  8
1
  6
CONTINUOUS
 10
2621.738135599202
 20
4046.1220171505261
 30
0.0
 11
1811.738135599202
 21
4046.1220171505261
 31
0.0
  0
LINE
  5
7A90
  8
1
  6
CONTINUOUS
 10
2912.4381355992018
 20
5590.2220171505269
 30
0.0
 11
1633.038135599202
 21
5590.2220171505269
 31
0.0
  0
LINE
  5
7A91
  8
1
  6
CONTINUOUS
 10
2912.4381355992018
 20
5480.2220171505269
 30
0.0
 11
1633.038135599202
 21
5480.2220171505269
 31
0.0
  0
LINE
  5
7A92
  8
1
  6
CONTINUOUS
 10
1962.438135599202
 20
5573.2220171505269
 30
0.0
 11
1683.038135599202
 21
5573.2220171505269
 31
0.0
  0
LINE
  5
7A93
  8
1
  6
CONTINUOUS
 10
1962.438135599202
 20
5488.222017150526
 30
0.0
 11
1683.038135599202
 21
5488.222017150526
 31
0.0
  0
LINE
  5
7A94
  8
1
  6
CONTINUOUS
 10
2217.738135599202
 20
6338.2220171505269
 30
0.0
 11
1427.7381355992011
 21
6338.2220171505269
 31
0.0
  0
LINE
  5
7A95
  8
1
  6
CONTINUOUS
 10
2581.738135599202
 20
5725.2220171505269
 30
0.0
 11
1316.738135599202
 21
5725.2220171505269
 31
0.0
  0
LINE
  5
7A96
  8
1
  6
CONTINUOUS
 10
2581.738135599202
 20
6255.2220171505269
 30
0.0
 11
1316.738135599202
 21
6255.2220171505269
 31
0.0
  0
LINE
  5
7A97
  8
1
  6
CONTINUOUS
 10
1316.738135599202
 20
5725.2220171505269
 30
0.0
 11
1316.738135599202
 21
6255.2220171505269
 31
0.0
  0
LINE
  5
7A98
  8
1
  6
CONTINUOUS
 10
1633.038135599202
 20
5480.2220171505269
 30
0.0
 11
1633.038135599202
 21
5590.2220171505269
 31
0.0
  0
LINE
  5
7A99
  8
1
  6
CONTINUOUS
 10
1683.038135599202
 20
5488.222017150526
 30
0.0
 11
1683.038135599202
 21
5573.2220171505269
 31
0.0
  0
LINE
  5
7A9A
  8
1
  6
CONTINUOUS
 10
1683.038135599202
 20
5558.222017150526
 30
0.0
 11
1372.738135599202
 21
5558.222017150526
 31
0.0
  0
LINE
  5
7A9B
  8
1
  6
CONTINUOUS
 10
1372.738135599202
 20
5558.222017150526
 30
0.0
 11
1372.738135599202
 21
5725.2220171505269
 31
0.0
  0
LINE
  5
7A9C
  8
1
  6
CONTINUOUS
 10
1467.738135599202
 20
6308.222017150526
 30
0.0
 11
1372.738135599202
 21
6308.222017150526
 31
0.0
  0
LINE
  5
7A9D
  8
1
  6
CONTINUOUS
 10
1467.738135599202
 20
6255.2220171505269
 30
0.0
 11
1467.738135599202
 21
6338.2220171505269
 31
0.0
  0
LINE
  5
7A9E
  8
1
  6
CONTINUOUS
 10
1372.738135599202
 20
6255.2220171505269
 30
0.0
 11
1372.738135599202
 21
6308.222017150526
 31
0.0
  0
LINE
  5
7A9F
  8
1
  6
CONTINUOUS
 10
2884.738135599202
 20
5613.222017150526
 30
0.0
 11
2884.738135599202
 21
6150.2220171505269
 31
0.0
  0
LINE
  5
7AA0
  8
1
  6
CONTINUOUS
 10
2922.7381355992011
 20
5558.222017150526
 30
0.0
 11
2922.7381355992011
 21
6308.222017150526
 31
0.0
  0
LINE
  5
7AA1
  8
1
  6
CONTINUOUS
 10
2581.738135599202
 20
5725.2220171505269
 30
0.0
 11
2581.738135599202
 21
6255.2220171505269
 31
0.0
  0
LINE
  5
7AA2
  8
1
  6
CONTINUOUS
 10
1851.738135599202
 20
5725.2220171505269
 30
0.0
 11
1851.738135599202
 21
6255.2220171505269
 31
0.0
  0
LINE
  5
7AA3
  8
1
  6
CONTINUOUS
 10
2581.738135599202
 20
6255.2220171505269
 30
0.0
 11
1851.738135599202
 21
5725.2220171505269
 31
0.0
  0
LINE
  5
7AA4
  8
1
  6
CONTINUOUS
 10
1851.738135599202
 20
6255.2220171505269
 30
0.0
 11
2581.738135599202
 21
5725.2220171505269
 31
0.0
  0
LINE
  5
7AA5
  8
1
  6
CONTINUOUS
 10
2583.0381355992022
 20
5558.222017150526
 30
0.0
 11
1962.438135599202
 21
5558.222017150526
 31
0.0
  0
LINE
  5
7AA6
  8
1
  6
CONTINUOUS
 10
1962.438135599202
 20
5488.222017150526
 30
0.0
 11
1962.438135599202
 21
5573.2220171505269
 31
0.0
  0
LINE
  5
7AA7
  8
1
  6
CONTINUOUS
 10
1800.238135599202
 20
5573.2220171505269
 30
0.0
 11
1800.238135599202
 21
5725.2220171505269
 31
0.0
  0
LINE
  5
7AA8
  8
1
  6
CONTINUOUS
 10
1845.238135599202
 20
5573.2220171505269
 30
0.0
 11
1845.238135599202
 21
5725.2220171505269
 31
0.0
  0
LINE
  5
7AA9
  8
1
  6
CONTINUOUS
 10
2912.4381355992018
 20
5480.2220171505269
 30
0.0
 11
2912.4381355992018
 21
5590.2220171505269
 31
0.0
  0
LINE
  5
7AAA
  8
1
  6
CONTINUOUS
 10
2862.4381355992032
 20
5488.222017150526
 30
0.0
 11
2862.4381355992032
 21
5573.2220171505269
 31
0.0
  0
LINE
  5
7AAB
  8
1
  6
CONTINUOUS
 10
2583.0381355992022
 20
5488.222017150526
 30
0.0
 11
2583.0381355992022
 21
5573.2220171505269
 31
0.0
  0
LINE
  5
7AAC
  8
1
  6
CONTINUOUS
 10
2862.4381355992032
 20
5488.222017150526
 30
0.0
 11
2583.0381355992022
 21
5488.222017150526
 31
0.0
  0
LINE
  5
7AAD
  8
1
  6
CONTINUOUS
 10
2862.4381355992032
 20
5573.2220171505269
 30
0.0
 11
2583.0381355992022
 21
5573.2220171505269
 31
0.0
  0
LINE
  5
7AAE
  8
1
  6
CONTINUOUS
 10
2560.738135599202
 20
5613.222017150526
 30
0.0
 11
2560.738135599202
 21
5725.2220171505269
 31
0.0
  0
LINE
  5
7AAF
  8
1
  6
CONTINUOUS
 10
2884.738135599202
 20
5613.222017150526
 30
0.0
 11
2560.738135599202
 21
5613.222017150526
 31
0.0
  0
LINE
  5
7AB0
  8
1
  6
CONTINUOUS
 10
2743.738135599202
 20
5573.2220171505269
 30
0.0
 11
2743.738135599202
 21
5613.222017150526
 31
0.0
  0
LINE
  5
7AB1
  8
1
  6
CONTINUOUS
 10
2701.738135599202
 20
5573.2220171505269
 30
0.0
 11
2701.738135599202
 21
5613.222017150526
 31
0.0
  0
LINE
  5
7AB2
  8
1
  6
CONTINUOUS
 10
2922.7381355992011
 20
5558.222017150526
 30
0.0
 11
2862.4381355992032
 21
5558.222017150526
 31
0.0
  0
LINE
  5
7AB3
  8
1
  6
CONTINUOUS
 10
2922.7381355992011
 20
6308.222017150526
 30
0.0
 11
2177.738135599202
 21
6308.222017150526
 31
0.0
  0
LINE
  5
7AB4
  8
1
  6
CONTINUOUS
 10
2177.738135599202
 20
6255.2220171505269
 30
0.0
 11
2177.738135599202
 21
6338.2220171505269
 31
0.0
  0
LINE
  5
7AB5
  8
1
  6
CONTINUOUS
 10
2884.738135599202
 20
6150.2220171505269
 30
0.0
 11
2581.738135599202
 21
6150.2220171505269
 31
0.0
  0
LINE
  5
7AB6
  8
1
  6
CONTINUOUS
 10
4411.6149671347202
 20
3355.8220171505259
 30
0.0
 11
4411.6149671347202
 21
3076.4220171505249
 31
0.0
  0
LINE
  5
7AB7
  8
1
  6
CONTINUOUS
 10
4326.6149671347193
 20
3355.8220171505259
 30
0.0
 11
4326.6149671347193
 21
3076.4220171505249
 31
0.0
  0
LINE
  5
7AB8
  8
1
  6
CONTINUOUS
 10
4428.6149671347193
 20
3026.4220171505258
 30
0.0
 11
4428.6149671347193
 21
3735.8220171505259
 31
0.0
  0
LINE
  5
7AB9
  8
1
  6
CONTINUOUS
 10
4318.6149671347202
 20
3026.4220171505258
 30
0.0
 11
4318.6149671347202
 21
3735.8220171505259
 31
0.0
  0
LINE
  5
7ABA
  8
1
  6
CONTINUOUS
 10
5093.6149671347193
 20
4046.1220171505261
 30
0.0
 11
5093.6149671347193
 21
3006.1220171505261
 31
0.0
  0
LINE
  5
7ABB
  8
1
  6
CONTINUOUS
 10
4563.6149671347193
 20
4046.1220171505261
 30
0.0
 11
4563.6149671347193
 21
3006.1220171505261
 31
0.0
  0
LINE
  5
7ABC
  8
1
  6
CONTINUOUS
 10
4451.6149671347193
 20
3378.122017150527
 30
0.0
 11
4451.6149671347193
 21
3006.1220171505261
 31
0.0
  0
LINE
  5
7ABD
  8
1
  6
CONTINUOUS
 10
4396.6149671347193
 20
3006.1220171505261
 30
0.0
 11
5146.6149671347202
 21
3006.1220171505261
 31
0.0
  0
LINE
  5
7ABE
  8
1
  6
CONTINUOUS
 10
4396.6149671347193
 20
2906.1220171505261
 30
0.0
 11
5146.6149671347202
 21
2906.1220171505261
 31
0.0
  0
LINE
  5
7ABF
  8
1
  6
CONTINUOUS
 10
4396.6149671347193
 20
3006.1220171505261
 30
0.0
 11
4396.6149671347193
 21
2906.1220171505261
 31
0.0
  0
LINE
  5
7AC0
  8
1
  6
CONTINUOUS
 10
4563.6149671347193
 20
3056.1220171505261
 30
0.0
 11
4451.6149671347193
 21
3056.1220171505261
 31
0.0
  0
LINE
  5
7AC1
  8
1
  6
CONTINUOUS
 10
4326.6149671347193
 20
3076.4220171505249
 30
0.0
 11
4411.6149671347202
 21
3076.4220171505249
 31
0.0
  0
LINE
  5
7AC2
  8
1
  6
CONTINUOUS
 10
4318.6149671347202
 20
3026.4220171505258
 30
0.0
 11
4428.6149671347193
 21
3026.4220171505258
 31
0.0
  0
LINE
  5
7AC3
  8
1
  6
CONTINUOUS
 10
5146.6149671347202
 20
3006.1220171505261
 30
0.0
 11
5146.6149671347202
 21
2906.1220171505261
 31
0.0
  0
LINE
  5
7AC4
  8
1
  6
CONTINUOUS
 10
4563.6149671347193
 20
4006.1220171505261
 30
0.0
 11
5093.6149671347193
 21
4006.1220171505261
 31
0.0
  0
LINE
  5
7AC5
  8
1
  6
CONTINUOUS
 10
4523.6149671347193
 20
4046.1220171505261
 30
0.0
 11
5133.6149671347193
 21
4046.1220171505261
 31
0.0
  0
LINE
  5
7AC6
  8
1
  6
CONTINUOUS
 10
4411.6149671347202
 20
3677.2790631505259
 30
0.0
 11
4411.6149671347202
 21
3414.9649701505259
 31
0.0
  0
LINE
  5
7AC7
  8
1
  6
CONTINUOUS
 10
4326.6149671347193
 20
3677.2790631505259
 30
0.0
 11
4326.6149671347193
 21
3414.9649701505259
 31
0.0
  0
LINE
  5
7AC8
  8
1
  6
CONTINUOUS
 10
4326.6149671347193
 20
3355.8220171505259
 30
0.0
 11
4411.6149671347202
 21
3355.8220171505259
 31
0.0
  0
LINE
  5
7AC9
  8
1
  6
CONTINUOUS
 10
4326.6149671347193
 20
3414.9649701505259
 30
0.0
 11
4411.6149671347202
 21
3414.9649701505259
 31
0.0
  0
LINE
  5
7ACA
  8
1
  6
CONTINUOUS
 10
4326.6149671347193
 20
3677.2790631505259
 30
0.0
 11
4411.6149671347202
 21
3677.2790631505259
 31
0.0
  0
LINE
  5
7ACB
  8
1
  6
CONTINUOUS
 10
4318.6149671347202
 20
3735.8220171505259
 30
0.0
 11
4428.6149671347193
 21
3735.8220171505259
 31
0.0
  0
LINE
  5
7ACC
  8
1
  6
CONTINUOUS
 10
4411.6149671347202
 20
3568.622017150527
 30
0.0
 11
4563.6149671347193
 21
3568.622017150527
 31
0.0
  0
LINE
  5
7ACD
  8
1
  6
CONTINUOUS
 10
4411.6149671347202
 20
3523.6220171505261
 30
0.0
 11
4563.6149671347193
 21
3523.6220171505261
 31
0.0
  0
LINE
  5
7ACE
  8
1
  6
CONTINUOUS
 10
4411.6149671347202
 20
3237.1220171505261
 30
0.0
 11
4451.6149671347193
 21
3237.1220171505261
 31
0.0
  0
LINE
  5
7ACF
  8
1
  6
CONTINUOUS
 10
4411.6149671347202
 20
3195.1220171505261
 30
0.0
 11
4451.6149671347193
 21
3195.1220171505261
 31
0.0
  0
LINE
  5
7AD0
  8
1
  6
CONTINUOUS
 10
4451.6149671347193
 20
3378.122017150527
 30
0.0
 11
4563.6149671347193
 21
3378.122017150527
 31
0.0
  0
LINE
  5
7AD1
  8
1
  6
CONTINUOUS
 10
5093.6149671347193
 20
3901.1220171505261
 30
0.0
 11
5176.6149671347193
 21
3901.1220171505261
 31
0.0
  0
LINE
  5
7AD2
  8
1
  6
CONTINUOUS
 10
5093.6149671347193
 20
3191.1220171505261
 30
0.0
 11
5176.6149671347193
 21
3191.1220171505261
 31
0.0
  0
LINE
  5
7AD3
  8
1
  6
CONTINUOUS
 10
5176.6149671347193
 20
3941.1220171505261
 30
0.0
 11
5176.6149671347193
 21
3151.1220171505261
 31
0.0
  0
DIMENSION
  5
7AE9
  8
3
  6
CONTINUOUS
  2
*D1
 10
1822.738135599202
 20
2687.4832684409548
 30
0.0
 11
1617.023849884916
 21
2687.4832684409548
 31
0.0
 70
   128
 13
1372.738135599202
 23
2906.1220171505261
 33
0.0
 14
1822.738135599202
 24
2764.8711111505258
 34
0.0
1001
ACAD
1000
DSTYLE
1002
{
1070
   287
1070
     3
1070
   287
1070
     3
1070
    40
1040
30.0
1070
   143
1040
0.039
1070
   172
1070
     1
1070
   271
1070
     0
1070
   279
1070
     0
1070
   288
1070
     1
1002
}
  0
DIMENSION
  5
7AF5
  8
3
  6
CONTINUOUS
  2
*D2
 10
2922.7381355992011
 20
2687.4832684409548
 30
0.0
 11
2372.738135599202
 21
2762.4832684409562
 31
0.0
 70
     0
 13
1822.738135599202
 23
2764.8711111505258
 33
0.0
 14
2922.7381355992011
 24
2906.1220171505261
 34
0.0
1001
ACAD
1000
DSTYLE
1002
{
1070
   287
1070
     3
1070
   287
1070
     3
1070
    40
1040
30.0
1070
   143
1040
0.039
1070
   172
1070
     1
1070
   271
1070
     0
1070
   279
1070
     0
1070
   288
1070
     1
1002
}
  0
DIMENSION
  5
7B02
  8
3
  6
CONTINUOUS
  2
*D3
 10
3242.606854599203
 20
3546.1220171505261
 30
0.0
 11
3242.6068545992021
 21
3786.1220171505261
 31
0.0
 70
   128
 13
2621.738135599202
 23
4046.1220171505261
 33
0.0
 14
2538.6227405992022
 24
3546.1220171505261
 34
0.0
 50
90.0
1001
ACAD
1000
DSTYLE
1002
{
1070
   287
1070
     3
1070
   287
1070
     3
1070
    40
1040
30.0
1070
   143
1040
0.039
1070
   172
1070
     1
1070
   271
1070
     0
1070
   279
1070
     0
1070
   288
1070
     1
1002
}
  0
DIMENSION
  5
7B0E
  8
3
  6
CONTINUOUS
  2
*D4
 10
3242.6068545992021
 20
2906.1220171505261
 30
0.0
 11
3167.6068545992021
 21
3226.122017150527
 31
0.0
 70
     0
 13
2538.6227405992022
 23
3546.1220171505261
 33
0.0
 14
2922.7381355992011
 24
2906.1220171505261
 34
0.0
 50
90.0
1001
ACAD
1000
DSTYLE
1002
{
1070
   287
1070
     3
1070
   287
1070
     3
1070
    40
1040
30.0
1070
   143
1040
0.039
1070
   172
1070
     1
1070
   271
1070
     0
1070
   279
1070
     0
1070
   288
1070
     1
1002
}
  0
DIMENSION
  5
7B1B
  8
3
  6
CONTINUOUS
  2
*D5
 10
3524.284971599202
 20
2906.1220171505261
 30
0.0
 11
3524.284971599202
 21
3503.8167671505262
 31
0.0
 70
   128
 13
2621.738135599202
 23
4046.1220171505261
 33
0.0
 14
2922.7381355992011
 24
2906.1220171505261
 34
0.0
 50
90.0
1001
ACAD
1000
DSTYLE
1002
{
1070
   287
1070
     3
1070
   287
1070
     3
1070
    40
1040
30.0
1070
   143
1040
0.039
1070
   172
1070
     1
1070
   271
1070
     0
1070
   279
1070
     0
1070
   288
1070
     1
1002
}
  0
DIMENSION
  5
7B28
  8
3
  6
CONTINUOUS
  2
*D6
 10
2581.738135599202
 20
4223.8549841505264
 30
0.0
 11
2222.1008445992029
 21
4223.8549841505264
 31
0.0
 70
   128
 13
1851.738135599202
 23
4046.1220171505261
 33
0.0
 14
2581.738135599202
 24
4046.1220171505261
 34
0.0
1001
ACAD
1000
DSTYLE
1002
{
1070
   287
1070
     3
1070
   287
1070
     3
1070
    40
1040
30.0
1070
   143
1040
0.039
1070
   172
1070
     1
1070
   271
1070
     0
1070
   279
1070
     0
1070
   288
1070
     1
1002
}
  0
DIMENSION
  5
7B35
  8
3
  6
CONTINUOUS
  2
*D7
 10
1822.738135599202
 20
4422.6594811505256
 30
0.0
 11
2208.247820599202
 21
4422.6594811505256
 31
0.0
 70
   128
 13
2581.738135599202
 23
4046.1220171505261
 33
0.0
 14
1822.738135599202
 24
3966.2172451505271
 34
0.0
1001
ACAD
1000
DSTYLE
1002
{
1070
   287
1070
     3
1070
   287
1070
     3
1070
    40
1040
30.0
1070
   143
1040
0.039
1070
   172
1070
     1
1070
   271
1070
     0
1070
   279
1070
     0
1070
   288
1070
     1
1002
}
  0
DIMENSION
  5
7B41
  8
3
  6
CONTINUOUS
  2
*D8
 10
1316.738135599202
 20
4422.6594811505256
 30
0.0
 11
1569.738135599202
 21
4497.6594811505274
 31
0.0
 70
     0
 13
1822.738135599202
 23
3966.2172451505271
 33
0.0
 14
1316.738135599202
 24
3546.1220171505261
 34
0.0
1001
ACAD
1000
DSTYLE
1002
{
1070
   287
1070
     3
1070
   287
1070
     3
1070
    40
1040
30.0
1070
   143
1040
0.039
1070
   172
1070
     1
1070
   271
1070
     0
1070
   279
1070
     0
1070
   288
1070
     1
1002
}
  0
DIMENSION
  5
7B4E
  8
3
  6
CONTINUOUS
  2
*D9
 10
2922.7381355992011
 20
5219.7248771505256
 30
0.0
 11
2111.2766565992019
 21
5219.7248771505256
 31
0.0
 70
   128
 13
1372.738135599202
 23
5558.222017150526
 33
0.0
 14
2922.7381355992011
 24
5558.222017150526
 34
0.0
1001
ACAD
1000
DSTYLE
1002
{
1070
   287
1070
     3
1070
   287
1070
     3
1070
    40
1040
30.0
1070
   143
1040
0.039
1070
   172
1070
     1
1070
   271
1070
     0
1070
   279
1070
     0
1070
   288
1070
     1
1002
}
  0
DIMENSION
  5
7B5B
  8
3
  6
CONTINUOUS
  2
*D10
 10
3256.459878599203
 20
5558.222017150526
 30
0.0
 11
3256.4598785992011
 21
5917.1585761505257
 31
0.0
 70
   128
 13
2922.7381355992011
 23
6308.222017150526
 33
0.0
 14
2922.7381355992011
 24
5558.222017150526
 34
0.0
 50
90.0
1001
ACAD
1000
DSTYLE
1002
{
1070
   287
1070
     3
1070
   287
1070
     3
1070
    40
1040
30.0
1070
   143
1040
0.039
1070
   172
1070
     1
1070
   271
1070
     0
1070
   279
1070
     0
1070
   288
1070
     1
1002
}
  0
LINE
  5
7B5C
  8
2
  6
CENTER
 10
2632.532541599202
 20
5990.2220171505269
 30
0.0
 11
1206.2124805992021
 21
5990.2220171505269
 31
0.0
  0
LINE
  5
7B5D
  8
2
  6
CENTER
 10
1822.738135599202
 20
5421.7653421505283
 30
0.0
 11
1822.738135599202
 21
6405.8359391505264
 31
0.0
  0
DIMENSION
  5
7B6E
  8
3
  6
CONTINUOUS
  2
*D11
 10
4828.6149671347193
 20
2720.2379214660718
 30
0.0
 11
4622.900681420434
 21
2720.2379214660718
 31
0.0
 70
   128
 13
4396.6149671347193
 23
2906.1220171505261
 33
0.0
 14
4828.6149671347193
 24
2853.4395831505258
 34
0.0
1001
ACAD
1000
DSTYLE
1002
{
1070
   287
1070
     3
1070
   287
1070
     3
1070
    40
1040
30.0
1070
   143
1040
0.039
1070
   172
1070
     1
1070
   271
1070
     0
1070
   279
1070
     0
1070
   288
1070
     1
1002
}
  0
DIMENSION
  5
7B7C
  8
3
  6
CONTINUOUS
  2
*D12
 10
5146.6149671347202
 20
2720.2379214660718
 30
0.0
 11
4987.6149671347193
 21
2793.7173205807012
 31
0.0
 70
   128
 13
4828.6149671347193
 23
2853.4395831505258
 33
0.0
 14
5146.6149671347202
 24
2906.1220171505261
 34
0.0
1001
ACAD
1000
DSTYLE
1002
{
1070
   288
1070
     1
1070
   172
1070
     1
1070
    40
1040
30.0
1070
   271
1070
     0
1070
   143
1040
0.039
1002
}
  0
DIMENSION
  5
7B9F
  8
3
  6
CONTINUOUS
  2
*D13
 10
5457.9820671347206
 20
3191.1220171505261
 30
0.0
 11
5457.9820671347197
 21
3526.8920311505258
 31
0.0
 70
   128
 13
5176.6149671347193
 23
3901.1220171505261
 33
0.0
 14
5176.6149671347193
 24
3191.1220171505261
 34
0.0
 50
90.0
1001
ACAD
1000
DSTYLE
1002
{
1070
   287
1070
     3
1070
   287
1070
     3
1070
     3
1000
φ<>
1070
    40
1040
30.0
1070
   143
1040
0.039
1070
   172
1070
     1
1070
   271
1070
     0
1070
   279
1070
     0
1070
   288
1070
     1
1002
}
  0
DIMENSION
  5
7BAC
  8
3
  6
CONTINUOUS
  2
*D14
 10
5093.6149671347193
 20
4182.8115351505257
 30
0.0
 11
4853.6149671347202
 21
4182.8115351505257
 31
0.0
 70
   128
 13
4563.6149671347193
 23
4046.1220171505261
 33
0.0
 14
5093.6149671347193
 24
4046.1220171505261
 34
0.0
1001
ACAD
1000
DSTYLE
1002
{
1070
   287
1070
     3
1070
   287
1070
     3
1070
    40
1040
30.0
1070
   143
1040
0.039
1070
   172
1070
     1
1070
   271
1070
     0
1070
   279
1070
     0
1070
   288
1070
     1
1002
}
  0
DIMENSION
  5
7BB9
  8
3
  6
CONTINUOUS
  2
*D15
 10
4828.6149671347193
 20
4412.6576702999937
 30
0.0
 11
4573.6149671347193
 21
4412.6576702999937
 31
0.0
 70
   128
  1
MAX\P590
 13
4318.6149671347202
 23
3735.8220171505259
 33
0.0
 14
4828.6149671347193
 24
4349.6989724614386
 34
0.0
1001
ACAD
1000
DSTYLE
1002
{
1070
   287
1070
     3
1070
   287
1070
     3
1070
    40
1040
30.0
1070
   143
1040
0.039
1070
   172
1070
     1
1070
   271
1070
     0
1070
   279
1070
     0
1070
   288
1070
     1
1002
}
  0
DIMENSION
  5
7BC7
  8
3
  6
CONTINUOUS
  2
*D16
 10
5176.6149671347193
 20
4412.6576702999937
 30
0.0
 11
5002.6149671347193
 21
4503.2415560132031
 31
0.0
 70
   128
 13
4828.6149671347193
 23
4347.1070161191519
 33
0.0
 14
5176.6149671347193
 24
3941.1220171505261
 34
0.0
1001
ACAD
1000
DSTYLE
1002
{
1070
   288
1070
     1
1070
   172
1070
     1
1070
    40
1040
30.0
1070
   271
1070
     0
1070
   143
1040
0.039
1002
}
  0
LINE
  5
7BDE
  8
2
  6
CENTER
 10
4219.9842641347186
 20
3546.1220171505261
 30
0.0
 11
5231.4863011347188
 21
3546.1220171505261
 31
0.0
  0
LINE
  5
7BE0
  8
4
  6
CONTINUOUS
 10
5550.0
 20
1500.0
 30
0.0
 11
5550.0
 21
900.0
 31
0.0
  0
LINE
  5
7BE1
  8
4
  6
CONTINUOUS
 10
3450.0
 20
1500.0
 30
0.0
 11
3450.0
 21
900.0
 31
0.0
  0
LINE
  5
7BE2
  8
4
  6
CONTINUOUS
 10
1950.0
 20
1500.0
 30
0.0
 11
1950.0
 21
900.0
 31
0.0
  0
LINE
  5
7BE5
  8
4
  6
CONTINUOUS
 10
1950.0
 20
900.0
 30
0.0
 11
5550.0
 21
900.0
 31
0.0
  0
LINE
  5
7BE6
  8
4
  6
CONTINUOUS
 10
1950.0
 20
1200.0
 30
0.0
 11
5550.0
 21
1200.0
 31
0.0
  0
TEXT
  5
7BE7
  8
4
  6
CONTINUOUS
 10
2065.50624225
 20
1294.6290779999999
 30
0.0
 40
150.0
  1
機器名称
  0
TEXT
  5
7BE8
  8
4
  6
CONTINUOUS
 10
2058.7743179999989
 20
964.93547024999998
 30
0.0
 40
150.0
  1
機器型番
  0
TEXT
  5
7BE9
  8
4
  6
CONTINUOUS
 10
3533.0362365000001
 20
1267.715306249999
 30
0.0
 40
120.0
  1
ミツヤリミットロードファン
  0
TEXT
  5
7BEA
  8
4
  6
CONTINUOUS
 10
3559.9634872500001
 20
951.4787527499999
 30
0.0
 40
150.0
  1
LLE#4 1/2-4
  0
TEXT
  5
7BEC
  8
4
  6
CONTINUOUS
 10
2714.3572964999998
 20
7150.2865245000012
 30
0.0
 40
162.0
  1
床置ベット
  0
TEXT
  5
7BED
  8
4
  6
CONTINUOUS
 10
948.50278049999986
 20
7601.6429287499996
 30
0.0
 40
171.42857175
  1
ベルト駆動式片吸込両持排煙ファン
  0
LINE
  5
7BEE
  8
4
  6
CONTINUOUS
 10
750.0
 20
7408.2262627500004
 30
0.0
 11
5550.0
 21
7408.2262627500004
 31
0.0
  0
LINE
  5
7BEF
  8
4
  6
CONTINUOUS
 10
750.0
 20
8008.2262627500004
 30
0.0
 11
5550.0
 21
8008.2262627500004
 31
0.0
  0
LINE
  5
7BF0
  8
4
  6
CONTINUOUS
 10
1950.0
 20
1500.0
 30
0.0
 11
5550.0
 21
1500.0
 31
0.0
  0
LINE
  5
7BF1
  8
4
  6
CONTINUOUS
 10
750.0
 20
8008.2262627500004
 30
0.0
 11
750.0
 21
7408.2262627500004
 31
0.0
  0
TEXT
  5
7BF2
  8
4
  6
CONTINUOUS
 10
1406.780799749999
 20
7146.9584324999987
 30
0.0
 40
162.0
  1
左回転上向
  0
TEXT
  5
7BF3
  8
4
  6
CONTINUOUS
 10
4406.9086777499988
 20
8118.1832445
 30
0.0
 40
168.0
  1
No.
  0
TEXT
  5
7BF4
  8
4
  6
CONTINUOUS
 10
3933.8881875000002
 20
7150.2865245000012
 30
0.0
 40
162.0
  1
縮尺：1/30
  0
LINE
  5
7BF5
  8
4
  6
CONTINUOUS
 10
5550.0
 20
8008.2262627500004
 30
0.0
 11
5550.0
 21
7408.2262627500004
 31
0.0
  0
LINE
  5
7BF7
  8
4
  6
CONTINUOUS
 10
4321.8522667500001
 20
8043.79074975
 30
0.0
 11
4321.8522667500001
 21
8359.9567845000001
 31
0.0
  0
LINE
  5
7BF8
  8
4
  6
CONTINUOUS
 10
4321.8522667500001
 20
8359.9567845000001
 30
0.0
 11
5550.0
 21
8359.9567845000001
 31
0.0
  0
LINE
  5
7BF9
  8
4
  6
CONTINUOUS
 10
5550.0
 20
8359.9567845000001
 30
0.0
 11
5550.0
 21
8043.79074975
 31
0.0
  0
LINE
  5
7BFA
  8
4
  6
CONTINUOUS
 10
5550.0
 20
8043.79074975
 30
0.0
 11
4321.8522667500001
 21
8043.79074975
 31
0.0
  0
LINE
  5
7C05
  8
2
  6
CENTER
 10
4828.6149671347193
 20
4193.199853150526
 30
0.0
 11
4828.6149671347193
 21
2853.4395831505258
 31
0.0
  0
DIMENSION
  5
7CE0
  8
3
  2
*D17
 10
2922.7381355992011
 20
4639.6611535199436
 30
0.0
 11
2183.9658344411582
 21
4639.6611535199436
 31
0.0
 70
   128
 13
1316.738135599202
 23
3563.6220171505261
 33
0.0
 14
2922.7381355992011
 24
3006.1220171505261
 34
0.0
1001
ACAD
1000
DSTYLE
1002
{
1070
   287
1070
     3
1070
   287
1070
     3
1070
    40
1040
30.0
1070
   143
1040
0.039
1070
   172
1070
     1
1070
   271
1070
     0
1070
   279
1070
     0
1070
   288
1070
     1
1002
}
  0
ENDSEC
  0
EOF
