  0
SECTION
  2
HEADER
  9
$ACADVER
  1
AC1009
  9
$INSBASE
 10
0.0
 20
0.0
 30
0.0
  9
$EXTMIN
 10
750.0
 20
900.0
 30
0.0
  9
$EXTMAX
 10
5550.0
 20
8359.9567845000001
 30
0.0
  9
$LIMMIN
 10
0.0
 20
0.0
  9
$LIMMAX
 10
297.0
 20
210.0
  9
$ORTHOMODE
 70
     0
  9
$REGENMODE
 70
     1
  9
$FILLMODE
 70
     0
  9
$QTEXTMODE
 70
     0
  9
$MIRRTEXT
 70
     1
  9
$DRAGMODE
 70
     2
  9
$LTSCALE
 40
100.0
  9
$OSMODE
 70
    37
  9
$ATTMODE
 70
     1
  9
$TEXTSIZE
 40
180.0
  9
$TRACEWID
 40
0.05
  9
$TEXTSTYLE
  7
STANDARD
  9
$CLAYER
  8
3
  9
$CELTYPE
  6
BYLAYER
  9
$CECOLOR
 62
   256
  9
$DIMSCALE
 40
30.0
  9
$DIMASZ
 40
2.0
  9
$DIMEXO
 40
0.5
  9
$DIMDLI
 40
10.0
  9
$DIMRND
 40
0.0
  9
$DIMDLE
 40
0.0
  9
$DIMEXE
 40
1.0
  9
$DIMTP
 40
1.0
  9
$DIMTM
 40
1.0
  9
$DIMTXT
 40
3.0
  9
$DIMCEN
 40
0.0
  9
$DIMTSZ
 40
0.0
  9
$DIMTOL
 70
     0
  9
$DIMLIM
 70
     0
  9
$DIMTIH
 70
     0
  9
$DIMTOH
 70
     0
  9
$DIMSE1
 70
     0
  9
$DIMSE2
 70
     0
  9
$DIMTAD
 70
     1
  9
$DIMZIN
 70
     8
  9
$DIMBLK
  1

  9
$DIMASO
 70
     1
  9
$DIMSHO
 70
     1
  9
$DIMPOST
  1

  9
$DIMAPOST
  1

  9
$DIMALT
 70
     0
  9
$DIMALTD
 70
     2
  9
$DIMALTF
 40
0.039
  9
$DIMLFAC
 40
1.0
  9
$DIMTOFL
 70
     1
  9
$DIMTVP
 40
0.0
  9
$DIMTIX
 70
     0
  9
$DIMSOXD
 70
     0
  9
$DIMSAH
 70
     1
  9
$DIMBLK1
  1
OPEN
  9
$DIMBLK2
  1
OPEN
  9
$DIMSTYLE
  2
IGA
  9
$DIMCLRD
 70
     0
  9
$DIMCLRE
 70
     0
  9
$DIMCLRT
 70
     0
  9
$DIMTFAC
 40
10.0
  9
$DIMGAP
 40
1.0
  9
$LUNITS
 70
     2
  9
$LUPREC
 70
     3
  9
$SKETCHINC
 40
0.1
  9
$FILLETRAD
 40
50.0
  9
$AUNITS
 70
     0
  9
$AUPREC
 70
     0
  9
$MENU
  1
acad
  9
$ELEVATION
 40
0.0
  9
$PELEVATION
 40
0.0
  9
$THICKNESS
 40
0.0
  9
$LIMCHECK
 70
     0
  9
$BLIPMODE
 70
     0
  9
$CHAMFERA
 40
0.5
  9
$CHAMFERB
 40
0.5
  9
$SKPOLY
 70
     0
  9
$TDCREATE
 40
2450753.5507126148
  9
$TDUPDATE
 40
2454953.6838087728
  9
$TDINDWG
 40
0.0046535764
  9
$TDUSRTIMER
 40
0.0046535764
  9
$USRTIMER
 70
     1
  9
$ANGBASE
 50
0.0
  9
$ANGDIR
 70
     0
  9
$PDMODE
 70
     0
  9
$PDSIZE
 40
0.0
  9
$PLINEWID
 40
0.0
  9
$COORDS
 70
     1
  9
$SPLFRAME
 70
     0
  9
$SPLINETYPE
 70
     6
  9
$SPLINESEGS
 70
     8
  9
$ATTDIA
 70
     0
  9
$ATTREQ
 70
     1
  9
$HANDLING
 70
 10241
  9
$HANDSEED
  5
7EDC
  9
$SURFTAB1
 70
     6
  9
$SURFTAB2
 70
     6
  9
$SURFTYPE
 70
     6
  9
$SURFU
 70
     6
  9
$SURFV
 70
     6
  9
$UCSNAME
  2

  9
$UCSORG
 10
0.0
 20
0.0
 30
0.0
  9
$UCSXDIR
 10
1.0
 20
0.0
 30
0.0
  9
$UCSYDIR
 10
0.0
 20
1.0
 30
0.0
  9
$PUCSNAME
  2

  9
$PUCSORG
 10
0.0
 20
0.0
 30
0.0
  9
$PUCSXDIR
 10
1.0
 20
0.0
 30
0.0
  9
$PUCSYDIR
 10
0.0
 20
1.0
 30
0.0
  9
$USERI1
 70
     0
  9
$USERI2
 70
     0
  9
$USERI3
 70
     0
  9
$USERI4
 70
     0
  9
$USERI5
 70
     0
  9
$USERR1
 40
0.0
  9
$USERR2
 40
0.0
  9
$USERR3
 40
0.0
  9
$USERR4
 40
0.0
  9
$USERR5
 40
0.0
  9
$WORLDVIEW
 70
     1
  9
$SHADEDGE
 70
     3
  9
$SHADEDIF
 70
    70
  9
$TILEMODE
 70
     1
  9
$MAXACTVP
 70
    16
  9
$PLIMCHECK
 70
     0
  9
$PEXTMIN
 10
1.0000000000000000E+020
 20
1.0000000000000000E+020
 30
1.0000000000000000E+020
  9
$PEXTMAX
 10
-1.0000000000000000E+020
 20
-1.0000000000000000E+020
 30
-1.0000000000000000E+020
  9
$PLIMMIN
 10
0.0
 20
0.0
  9
$PLIMMAX
 10
12.0
 20
9.0
  9
$UNITMODE
 70
     0
  9
$VISRETAIN
 70
     0
  9
$PLINEGEN
 70
     0
  9
$PSLTSCALE
 70
     1
  0
ENDSEC
  0
SECTION
  2
TABLES
  0
TABLE
  2
VPORT
 70
     2
  0
VPORT
  2
*ACTIVE
 70
     0
 10
0.0
 20
0.0
 11
1.0
 21
1.0
 12
12849.717426982081
 22
3635.845928584286
 13
0.0
 23
0.0
 14
10.0
 24
10.0
 15
10.0
 25
10.0
 16
0.0
 26
0.0
 36
1.0
 17
0.0
 27
0.0
 37
0.0
 40
9182.1957827991682
 41
3.1666666666666661
 42
50.0
 43
0.0
 44
0.0
 50
0.0
 51
0.0
 71
     0
 72
   100
 73
     1
 74
     0
 75
     0
 76
     0
 77
     0
 78
     0
  0
ENDTAB
  0
TABLE
  2
LTYPE
 70
     2
  0
LTYPE
  2
CONTINUOUS
 70
     0
  3
Solid line
 72
    65
 73
     0
 40
0.0
  0
LTYPE
  2
CENTER
 70
     0
  3
____ _ ____ _ ____ _ ____ _ ____ _ ____ _ ____ 
 72
    65
 73
     4
 40
2.0
 49
1.25
 49
-0.25
 49
0.25
 49
-0.25
  0
ENDTAB
  0
TABLE
  2
LAYER
 70
     6
  0
LAYER
  2
0
 70
     0
 62
     7
  6
CONTINUOUS
  0
LAYER
  2
3
 70
     0
 62
     2
  6
CONTINUOUS
  0
LAYER
  2
2
 70
     0
 62
     3
  6
CENTER
  0
LAYER
  2
1
 70
     0
 62
     4
  6
CONTINUOUS
  0
LAYER
  2
4
 70
     0
 62
     7
  6
CONTINUOUS
  0
LAYER
  2
DEFPOINTS
 70
     0
 62
     7
  6
CONTINUOUS
  0
ENDTAB
  0
TABLE
  2
STYLE
 70
     1
  0
STYLE
  2
STANDARD
 70
     0
 40
0.0
 41
1.0
 50
0.0
 71
     0
 42
180.0
  3
simplex.shx
  4
extfont.shx
  0
ENDTAB
  0
TABLE
  2
VIEW
 70
     0
  0
ENDTAB
  0
TABLE
  2
UCS
 70
     0
  0
ENDTAB
  0
TABLE
  2
APPID
 70
     1
  0
APPID
  2
ACAD
 70
     0
  0
ENDTAB
  0
TABLE
  2
DIMSTYLE
 70
     1
  0
DIMSTYLE
  2
IGA
 70
     0
  3

  4

  5

  6
OPEN
  7
OPEN
 40
2.0
 41
2.0
 42
0.5
 43
10.0
 44
1.0
 45
0.0
 46
0.0
 47
1.0
 48
1.0
140
3.0
141
0.0
142
0.0
143
0.03937
144
1.0
145
0.0
146
10.0
147
1.0
 71
     0
 72
     0
 73
     0
 74
     0
 75
     0
 76
     0
 77
     1
 78
     8
170
     0
171
     2
172
     0
173
     1
174
     0
175
     0
176
     0
177
     0
178
     0
  0
ENDTAB
  0
ENDSEC
  0
SECTION
  2
BLOCKS
  0
BLOCK
  8
0
  2
$MODEL_SPACE
 70
     0
 10
0.0
 20
0.0
 30
0.0
  3
$MODEL_SPACE
  1

  0
ENDBLK
  5
1B
  8
0
  0
BLOCK
 67
     1
  8
0
  2
$PAPER_SPACE
 70
     0
 10
0.0
 20
0.0
 30
0.0
  3
$PAPER_SPACE
  1

  0
ENDBLK
  5
18
 67
     1
  8
0
  0
BLOCK
  8
0
  2
_OPEN
 70
     0
 10
0.0
 20
0.0
 30
0.0
  3
_OPEN
  1

  0
LINE
  5
7AE7
  8
0
  6
BYBLOCK
 62
     0
 10
-1.0
 20
0.166667
 30
0.0
 11
0.0
 21
0.0
 31
0.0
  0
LINE
  5
7AE8
  8
0
  6
BYBLOCK
 62
     0
 10
0.0
 20
0.0
 30
0.0
 11
-1.0
 21
-0.166667
 31
0.0
  0
LINE
  5
7AE9
  8
0
  6
BYBLOCK
 62
     0
 10
0.0
 20
0.0
 30
0.0
 11
-1.0
 21
0.0
 31
0.0
  0
ENDBLK
  5
7AEA
  8
0
  0
BLOCK
  8
0
  2
*D1
 70
     1
 10
0.0
 20
0.0
 30
0.0
  3
*D1
  1

  0
LINE
  5
7E45
  8
3
  6
CONTINUOUS
 62
     0
 10
1834.0553689595231
 20
2285.45991410635
 30
0.0
 11
1834.0553689595231
 21
2020.6394551063499
 31
0.0
  0
LINE
  5
7E46
  8
3
  6
CONTINUOUS
 62
     0
 10
2284.0553689595231
 20
2203.3663501063502
 30
0.0
 11
2284.0553689595231
 21
2020.6394551063499
 31
0.0
  0
LINE
  5
7E47
  8
3
  6
CONTINUOUS
 62
     0
 10
1894.0553689595231
 20
2050.6394551063499
 30
0.0
 11
2224.0553689595231
 21
2050.6394551063499
 31
0.0
  0
INSERT
  5
7E48
  8
3
  6
CONTINUOUS
 62
     0
  2
_OPEN
 10
1834.0553689595231
 20
2050.6394551063499
 30
0.0
 41
60.0
 42
60.0
 43
60.0
 50
180.0
  0
INSERT
  5
7E49
  8
3
  6
CONTINUOUS
 62
     0
  2
_OPEN
 10
2284.0553689595231
 20
2050.6394551063499
 30
0.0
 41
60.0
 42
60.0
 43
60.0
  0
TEXT
  8
3
  40
90
  5
7ECC
  62
0
  72
0
  71
0
 10
1859.77
 20
1966.34
 30
0.000000
  1
450
  0
POINT
  5
7E4B
  8
DEFPOINTS
  6
CONTINUOUS
 62
     0
 10
1834.0553689595231
 20
2300.45991410635
 30
0.0
  0
POINT
  5
7E4C
  8
DEFPOINTS
  6
CONTINUOUS
 62
     0
 10
2284.0553689595231
 20
2218.3663501063502
 30
0.0
  0
POINT
  5
7E4D
  8
DEFPOINTS
  6
CONTINUOUS
 62
     0
 10
2284.0553689595231
 20
2050.6394551063499
 30
0.0
  0
ENDBLK
  5
7CBD
  8
0
  0
BLOCK
  8
0
  2
*D2
 70
     1
 10
0.0
 20
0.0
 30
0.0
  3
*D2
  1

  0
LINE
  5
7E4E
  8
3
  6
CONTINUOUS
 62
     0
 10
2284.0553689595231
 20
2203.3663501063502
 30
0.0
 11
2284.0553689595231
 21
2020.6394551063499
 31
0.0
  0
LINE
  5
7E4F
  8
3
  6
CONTINUOUS
 62
     0
 10
3384.055368959524
 20
2285.45991410635
 30
0.0
 11
3384.055368959524
 21
2020.6394551063499
 31
0.0
  0
LINE
  5
7E50
  8
3
  6
CONTINUOUS
 62
     0
 10
2344.0553689595231
 20
2050.6394551063499
 30
0.0
 11
3324.0553689595231
 21
2050.6394551063499
 31
0.0
  0
INSERT
  5
7E51
  8
3
  6
CONTINUOUS
 62
     0
  2
_OPEN
 10
2284.0553689595231
 20
2050.6394551063499
 30
0.0
 41
60.0
 42
60.0
 43
60.0
 50
180.0
  0
INSERT
  5
7E52
  8
3
  6
CONTINUOUS
 62
     0
  2
_OPEN
 10
3384.055368959524
 20
2050.6394551063499
 30
0.0
 41
60.0
 42
60.0
 43
60.0
  0
TEXT
  8
3
  40
90
  5
7ECD
  62
0
  72
0
  71
0
 10
2654.06
 20
1966.34
 30
0.000000
  1
1100
  0
POINT
  5
7E54
  8
DEFPOINTS
  6
CONTINUOUS
 62
     0
 10
2284.0553689595231
 20
2218.3663501063502
 30
0.0
  0
POINT
  5
7E55
  8
DEFPOINTS
  6
CONTINUOUS
 62
     0
 10
3384.055368959524
 20
2300.45991410635
 30
0.0
  0
POINT
  5
7E56
  8
DEFPOINTS
  6
CONTINUOUS
 62
     0
 10
3384.055368959524
 20
2050.6394551063499
 30
0.0
  0
ENDBLK
  5
7CB2
  8
0
  0
BLOCK
  8
0
  2
*D3
 70
     1
 10
0.0
 20
0.0
 30
0.0
  3
*D3
  1

  0
LINE
  5
7E57
  8
3
  6
CONTINUOUS
 62
     0
 10
1769.0553689595231
 20
3604.45991410635
 30
0.0
 11
1535.4102629595241
 21
3604.45991410635
 31
0.0
  0
LINE
  5
7E58
  8
3
  6
CONTINUOUS
 62
     0
 10
1769.0553689595231
 20
2874.4599141063491
 30
0.0
 11
1535.4102629595241
 21
2874.4599141063491
 31
0.0
  0
LINE
  5
7E59
  8
3
  6
CONTINUOUS
 62
     0
 10
1565.4102629595241
 20
3544.4599141063491
 30
0.0
 11
1565.4102629595241
 21
2934.45991410635
 31
0.0
  0
INSERT
  5
7E5A
  8
3
  6
CONTINUOUS
 62
     0
  2
_OPEN
 10
1565.4102629595241
 20
3604.45991410635
 30
0.0
 41
60.0
 42
60.0
 43
60.0
 50
90.0
  0
INSERT
  5
7E5B
  8
3
  6
CONTINUOUS
 62
     0
  2
_OPEN
 10
1565.4102629595241
 20
2874.4599141063491
 30
0.0
 41
60.0
 42
60.0
 43
60.0
 50
270.0
  0
TEXT
  8
3
  40
90
  5
7ECE
  62
0
  72
0
  71
0
 10
1310.41
 20
3079.67
 30
0.000000
  1
730
  0
POINT
  5
7E5D
  8
DEFPOINTS
  6
CONTINUOUS
 62
     0
 10
1784.0553689595231
 20
3604.45991410635
 30
0.0
  0
POINT
  5
7E5E
  8
DEFPOINTS
  6
CONTINUOUS
 62
     0
 10
1784.0553689595231
 20
2874.4599141063491
 30
0.0
  0
POINT
  5
7E5F
  8
DEFPOINTS
  6
CONTINUOUS
 62
     0
 10
1565.4102629595241
 20
2874.4599141063491
 30
0.0
  0
ENDBLK
  5
7CA7
  8
0
  0
BLOCK
  8
0
  2
*D4
 70
     1
 10
0.0
 20
0.0
 30
0.0
  3
*D4
  1

  0
LINE
  5
7E60
  8
3
  6
CONTINUOUS
 62
     0
 10
1769.0553689595231
 20
3604.45991410635
 30
0.0
 11
1323.398813959524
 21
3604.45991410635
 31
0.0
  0
LINE
  5
7E61
  8
3
  6
CONTINUOUS
 62
     0
 10
1848.960140959523
 20
2845.45991410635
 30
0.0
 11
1323.398813959524
 21
2845.45991410635
 31
0.0
  0
LINE
  5
7E62
  8
3
  6
CONTINUOUS
 62
     0
 10
1353.398813959524
 20
3544.4599141063491
 30
0.0
 11
1353.398813959524
 21
2905.45991410635
 31
0.0
  0
INSERT
  5
7E63
  8
3
  6
CONTINUOUS
 62
     0
  2
_OPEN
 10
1353.398813959524
 20
3604.45991410635
 30
0.0
 41
60.0
 42
60.0
 43
60.0
 50
90.0
  0
INSERT
  5
7E64
  8
3
  6
CONTINUOUS
 62
     0
  2
_OPEN
 10
1353.398813959524
 20
2845.45991410635
 30
0.0
 41
60.0
 42
60.0
 43
60.0
 50
270.0
  0
TEXT
  8
3
  40
90
  5
7ECF
  62
0
  72
0
  71
0
 10
1098.40
 20
3085.56
 30
0.000000
  1
759
  0
POINT
  5
7E66
  8
DEFPOINTS
  6
CONTINUOUS
 62
     0
 10
1784.0553689595231
 20
3604.45991410635
 30
0.0
  0
POINT
  5
7E67
  8
DEFPOINTS
  6
CONTINUOUS
 62
     0
 10
1863.960140959523
 20
2845.45991410635
 30
0.0
  0
POINT
  5
7E68
  8
DEFPOINTS
  6
CONTINUOUS
 62
     0
 10
1353.398813959524
 20
2845.45991410635
 30
0.0
  0
ENDBLK
  5
7C9C
  8
0
  0
BLOCK
  8
0
  2
*D5
 70
     1
 10
0.0
 20
0.0
 30
0.0
  3
*D5
  1

  0
LINE
  5
7E69
  8
3
  6
CONTINUOUS
 62
     0
 10
1848.960140959523
 20
2845.45991410635
 30
0.0
 11
1323.398813959524
 21
2845.45991410635
 31
0.0
  0
LINE
  5
7E6A
  8
3
  6
CONTINUOUS
 62
     0
 10
1819.0553689595231
 20
2300.45991410635
 30
0.0
 11
1323.398813959524
 21
2300.45991410635
 31
0.0
  0
LINE
  5
7E6B
  8
3
  6
CONTINUOUS
 62
     0
 10
1353.398813959524
 20
2785.45991410635
 30
0.0
 11
1353.398813959524
 21
2360.4599141063491
 31
0.0
  0
INSERT
  5
7E6C
  8
3
  6
CONTINUOUS
 62
     0
  2
_OPEN
 10
1353.398813959524
 20
2845.45991410635
 30
0.0
 41
60.0
 42
60.0
 43
60.0
 50
90.0
  0
INSERT
  5
7E6D
  8
3
  6
CONTINUOUS
 62
     0
  2
_OPEN
 10
1353.398813959524
 20
2300.45991410635
 30
0.0
 41
60.0
 42
60.0
 43
60.0
 50
270.0
  0
TEXT
  8
3
  40
90
  5
7ED0
  62
0
  72
0
  71
0
 10
1098.40
 20
2413.66
 30
0.000000
  1
545
  0
POINT
  5
7E6F
  8
DEFPOINTS
  6
CONTINUOUS
 62
     0
 10
1863.960140959523
 20
2845.45991410635
 30
0.0
  0
POINT
  5
7E70
  8
DEFPOINTS
  6
CONTINUOUS
 62
     0
 10
1834.0553689595231
 20
2300.45991410635
 30
0.0
  0
POINT
  5
7E71
  8
DEFPOINTS
  6
CONTINUOUS
 62
     0
 10
1353.398813959524
 20
2300.45991410635
 30
0.0
  0
ENDBLK
  5
7C91
  8
0
  0
BLOCK
  8
0
  2
*D6
 70
     1
 10
0.0
 20
0.0
 30
0.0
  3
*D6
  1

  0
LINE
  5
7E72
  8
3
  6
CONTINUOUS
 62
     0
 10
1784.0553689595231
 20
3619.45991410635
 30
0.0
 11
1784.0553689595231
 21
3759.0070221063502
 31
0.0
  0
LINE
  5
7E73
  8
3
  6
CONTINUOUS
 62
     0
 10
2284.0553689595231
 20
3576.3445191063502
 30
0.0
 11
2284.0553689595231
 21
3759.0070221063502
 31
0.0
  0
LINE
  5
7E74
  8
3
  6
CONTINUOUS
 62
     0
 10
1844.0553689595231
 20
3729.0070221063488
 30
0.0
 11
2224.0553689595231
 21
3729.0070221063488
 31
0.0
  0
INSERT
  5
7E75
  8
3
  6
CONTINUOUS
 62
     0
  2
_OPEN
 10
1784.0553689595231
 20
3729.0070221063488
 30
0.0
 41
60.0
 42
60.0
 43
60.0
 50
180.0
  0
INSERT
  5
7E76
  8
3
  6
CONTINUOUS
 62
     0
  2
_OPEN
 10
2284.0553689595231
 20
3729.0070221063488
 30
0.0
 41
60.0
 42
60.0
 43
60.0
  0
TEXT
  8
3
  40
90
  5
7ED1
  62
0
  72
0
  71
0
 10
1864.06
 20
3644.71
 30
0.000000
  1
500
  0
POINT
  5
7E78
  8
DEFPOINTS
  6
CONTINUOUS
 62
     0
 10
1784.0553689595231
 20
3604.45991410635
 30
0.0
  0
POINT
  5
7E79
  8
DEFPOINTS
  6
CONTINUOUS
 62
     0
 10
2284.0553689595231
 20
3561.3445191063502
 30
0.0
  0
POINT
  5
7E7A
  8
DEFPOINTS
  6
CONTINUOUS
 62
     0
 10
2284.0553689595231
 20
3729.0070221063488
 30
0.0
  0
ENDBLK
  5
7C86
  8
0
  0
BLOCK
  8
0
  2
*D7
 70
     1
 10
0.0
 20
0.0
 30
0.0
  3
*D7
  1

  0
LINE
  5
7E7B
  8
3
  6
CONTINUOUS
 62
     0
 10
2284.0553689595231
 20
3576.3445191063502
 30
0.0
 11
2284.0553689595231
 21
3759.0070221063502
 31
0.0
  0
LINE
  5
7E7C
  8
3
  6
CONTINUOUS
 62
     0
 10
2896.0553689595231
 20
2860.45991410635
 30
0.0
 11
2896.0553689595231
 21
3759.0070221063502
 31
0.0
  0
LINE
  5
7E7D
  8
3
  6
CONTINUOUS
 62
     0
 10
2344.0553689595231
 20
3729.0070221063488
 30
0.0
 11
2836.0553689595231
 21
3729.0070221063488
 31
0.0
  0
INSERT
  5
7E7E
  8
3
  6
CONTINUOUS
 62
     0
  2
_OPEN
 10
2284.0553689595231
 20
3729.0070221063488
 30
0.0
 41
60.0
 42
60.0
 43
60.0
 50
180.0
  0
INSERT
  5
7E7F
  8
3
  6
CONTINUOUS
 62
     0
  2
_OPEN
 10
2896.0553689595231
 20
3729.0070221063488
 30
0.0
 41
60.0
 42
60.0
 43
60.0
  0
TEXT
  8
3
  40
90
  5
7ED2
  62
0
  72
0
  71
0
 10
2410.06
 20
3644.71
 30
0.000000
  1
612
  0
POINT
  5
7E81
  8
DEFPOINTS
  6
CONTINUOUS
 62
     0
 10
2284.0553689595231
 20
3561.3445191063502
 30
0.0
  0
POINT
  5
7E82
  8
DEFPOINTS
  6
CONTINUOUS
 62
     0
 10
2896.0553689595231
 20
2845.45991410635
 30
0.0
  0
POINT
  5
7E83
  8
DEFPOINTS
  6
CONTINUOUS
 62
     0
 10
2896.0553689595231
 20
3729.0070221063488
 30
0.0
  0
ENDBLK
  5
7D69
  8
0
  0
BLOCK
  8
0
  2
*D8
 70
     1
 10
0.0
 20
0.0
 30
0.0
  3
*D8
  1

  0
LINE
  5
7E84
  8
3
  6
CONTINUOUS
 62
     0
 10
1834.0553689595231
 20
5279.0446411510156
 30
0.0
 11
1834.0553689595231
 21
4881.3024131510147
 31
0.0
  0
LINE
  5
7E85
  8
3
  6
CONTINUOUS
 62
     0
 10
3384.055368959524
 20
5279.0446411510156
 30
0.0
 11
3384.055368959524
 21
4881.3024131510147
 31
0.0
  0
LINE
  5
7E86
  8
3
  6
CONTINUOUS
 62
     0
 10
1894.0553689595231
 20
4911.3024131510156
 30
0.0
 11
3324.0553689595231
 21
4911.3024131510156
 31
0.0
  0
INSERT
  5
7E87
  8
3
  6
CONTINUOUS
 62
     0
  2
_OPEN
 10
1834.0553689595231
 20
4911.3024131510156
 30
0.0
 41
60.0
 42
60.0
 43
60.0
 50
180.0
  0
INSERT
  5
7E88
  8
3
  6
CONTINUOUS
 62
     0
  2
_OPEN
 10
3384.055368959524
 20
4911.3024131510156
 30
0.0
 41
60.0
 42
60.0
 43
60.0
  0
TEXT
  8
3
  40
90
  5
7ED3
  62
0
  72
0
  71
0
 10
2404.24
 20
4827.00
 30
0.000000
  1
1550
  0
POINT
  5
7E8A
  8
DEFPOINTS
  6
CONTINUOUS
 62
     0
 10
1834.0553689595231
 20
5294.0446411510156
 30
0.0
  0
POINT
  5
7E8B
  8
DEFPOINTS
  6
CONTINUOUS
 62
     0
 10
3384.055368959524
 20
5294.0446411510156
 30
0.0
  0
POINT
  5
7E8C
  8
DEFPOINTS
  6
CONTINUOUS
 62
     0
 10
3384.055368959524
 20
4911.3024131510156
 30
0.0
  0
ENDBLK
  5
7C70
  8
0
  0
BLOCK
  8
0
  2
*D9
 70
     1
 10
0.0
 20
0.0
 30
0.0
  3
*D9
  1

  0
LINE
  5
7E8D
  8
3
  6
CONTINUOUS
 62
     0
 10
3399.0553689595231
 20
6044.0446411510156
 30
0.0
 11
3721.4142449595251
 21
6044.0446411510156
 31
0.0
  0
LINE
  5
7E8E
  8
3
  6
CONTINUOUS
 62
     0
 10
3399.0553689595231
 20
5294.0446411510156
 30
0.0
 11
3721.4142449595251
 21
5294.0446411510156
 31
0.0
  0
LINE
  5
7E8F
  8
3
  6
CONTINUOUS
 62
     0
 10
3691.4142449595238
 20
5984.0446411510147
 30
0.0
 11
3691.4142449595238
 21
5354.0446411510156
 31
0.0
  0
INSERT
  5
7E90
  8
3
  6
CONTINUOUS
 62
     0
  2
_OPEN
 10
3691.4142449595238
 20
6044.0446411510156
 30
0.0
 41
60.0
 42
60.0
 43
60.0
 50
90.0
  0
INSERT
  5
7E91
  8
3
  6
CONTINUOUS
 62
     0
  2
_OPEN
 10
3691.4142449595238
 20
5294.0446411510156
 30
0.0
 41
60.0
 42
60.0
 43
60.0
 50
270.0
  0
TEXT
  8
3
  40
90
  5
7ED4
  62
0
  72
0
  71
0
 10
3436.41
 20
5516.77
 30
0.000000
  1
750
  0
POINT
  5
7E93
  8
DEFPOINTS
  6
CONTINUOUS
 62
     0
 10
3384.055368959524
 20
6044.0446411510156
 30
0.0
  0
POINT
  5
7E94
  8
DEFPOINTS
  6
CONTINUOUS
 62
     0
 10
3384.055368959524
 20
5294.0446411510156
 30
0.0
  0
POINT
  5
7E95
  8
DEFPOINTS
  6
CONTINUOUS
 62
     0
 10
3691.4142449595238
 20
5294.0446411510156
 30
0.0
  0
ENDBLK
  5
7C65
  8
0
  0
BLOCK
  8
0
  2
*D10
 70
     1
 10
0.0
 20
0.0
 30
0.0
  3
*D10
  1

  0
LINE
  5
7E96
  8
3
  6
CONTINUOUS
 62
     0
 10
4202.323470680808
 20
2285.45991410635
 30
0.0
 11
4202.323470680808
 21
2055.885868073749
 31
0.0
  0
LINE
  5
7E97
  8
3
  6
CONTINUOUS
 62
     0
 10
4634.3234706808089
 20
2206.8122631063488
 30
0.0
 11
4634.3234706808089
 21
2055.885868073749
 31
0.0
  0
LINE
  5
7E98
  8
3
  6
CONTINUOUS
 62
     0
 10
4262.3234706808089
 20
2085.885868073749
 30
0.0
 11
4574.323470680808
 21
2085.885868073749
 31
0.0
  0
INSERT
  5
7E99
  8
3
  6
CONTINUOUS
 62
     0
  2
_OPEN
 10
4202.323470680808
 20
2085.885868073749
 30
0.0
 41
60.0
 42
60.0
 43
60.0
 50
180.0
  0
INSERT
  5
7E9A
  8
3
  6
CONTINUOUS
 62
     0
  2
_OPEN
 10
4634.3234706808089
 20
2085.885868073749
 30
0.0
 41
60.0
 42
60.0
 43
60.0
  0
TEXT
  8
3
  40
90
  5
7ED5
  62
0
  72
0
  71
0
 10
4228.04
 20
2001.59
 30
0.000000
  1
432
  0
POINT
  5
7E9C
  8
DEFPOINTS
  6
CONTINUOUS
 62
     0
 10
4202.323470680808
 20
2300.45991410635
 30
0.0
  0
POINT
  5
7E9D
  8
DEFPOINTS
  6
CONTINUOUS
 62
     0
 10
4634.3234706808089
 20
2221.8122631063488
 30
0.0
  0
POINT
  5
7E9E
  8
DEFPOINTS
  6
CONTINUOUS
 62
     0
 10
4634.3234706808089
 20
2085.885868073749
 30
0.0
  0
ENDBLK
  5
7D4C
  8
0
  0
BLOCK
  8
0
  2
*D11
 70
     1
 10
0.0
 20
0.0
 30
0.0
  3
*D11
  1

  0
LINE
  5
7D38
  8
0
  6
BYBLOCK
 62
     0
 10
4634.3234706808089
 20
2742.5094578550088
 30
0.0
 11
4634.3234706808089
 21
2590.7455168224101
 31
0.0
  0
LINE
  5
7D39
  8
0
  6
BYBLOCK
 62
     0
 10
4952.3234706808089
 20
2821.1571088550099
 30
0.0
 11
4952.3234706808089
 21
2590.7455168224101
 31
0.0
  0
LINE
  5
7D3A
  8
0
  6
BYBLOCK
 62
     0
 10
4694.3234706808089
 20
2620.7455168224101
 30
0.0
 11
4892.3234706808089
 21
2620.7455168224101
 31
0.0
  0
TEXT
  5
7D3B
  8
3
 62
     0
 10
4696.7315482587992
 20
2658.4228643724132
 30
0.0
 40
90.0
  1
318
  0
INSERT
  5
7D3C
  8
0
  6
BYBLOCK
 62
     0
  2
_OPEN
 10
4634.3234706808089
 20
2620.7455168224101
 30
0.0
 41
60.0
 42
60.0
 43
60.0
 50
180.0
  0
INSERT
  5
7D3D
  8
0
  6
BYBLOCK
 62
     0
  2
_OPEN
 10
4952.3234706808089
 20
2620.7455168224101
 30
0.0
 41
60.0
 42
60.0
 43
60.0
  0
POINT
  5
7D3E
  8
DEFPOINTS
  6
BYBLOCK
 62
     0
 10
4634.3234706808089
 20
2757.5094578550088
 30
0.0
  0
POINT
  5
7D3F
  8
DEFPOINTS
  6
BYBLOCK
 62
     0
 10
4952.3234706808089
 20
2836.1571088550099
 30
0.0
  0
POINT
  5
7D40
  8
DEFPOINTS
  6
BYBLOCK
 62
     0
 10
4952.3234706808089
 20
2620.7455168224101
 30
0.0
  0
ENDBLK
  5
7D41
  8
0
  0
BLOCK
  8
0
  2
*D12
 70
     1
 10
0.0
 20
0.0
 30
0.0
  3
*D12
  1

  0
LINE
  5
7E9F
  8
3
  6
CONTINUOUS
 62
     0
 10
4997.3234706808089
 20
3200.45991410635
 30
0.0
 11
5264.5862526808096
 21
3200.4599141063491
 31
0.0
  0
LINE
  5
7EA0
  8
3
  6
CONTINUOUS
 62
     0
 10
4997.3234706808089
 20
2490.45991410635
 30
0.0
 11
5264.5862526808096
 21
2490.4599141063491
 31
0.0
  0
LINE
  5
7EA1
  8
3
  6
CONTINUOUS
 62
     0
 10
5234.5862526808087
 20
3140.4599141063491
 30
0.0
 11
5234.5862526808087
 21
2550.4599141063491
 31
0.0
  0
INSERT
  5
7EA2
  8
3
  6
CONTINUOUS
 62
     0
  2
_OPEN
 10
5234.5862526808087
 20
3200.4599141063491
 30
0.0
 41
60.0
 42
60.0
 43
60.0
 50
90.0
  0
INSERT
  5
7EA3
  8
3
  6
CONTINUOUS
 62
     0
  2
_OPEN
 10
5234.5862526808087
 20
2490.4599141063491
 30
0.0
 41
60.0
 42
60.0
 43
60.0
 50
270.0
  0
TEXT
  8
3
  40
90
  5
7ED6
  62
0
  72
0
  71
0
 10
4979.59
 20
2680.21
 30
0.000000
  1
φ710
  0
POINT
  5
7EA5
  8
DEFPOINTS
  6
CONTINUOUS
 62
     0
 10
4982.3234706808089
 20
3200.45991410635
 30
0.0
  0
POINT
  5
7EA6
  8
DEFPOINTS
  6
CONTINUOUS
 62
     0
 10
4982.3234706808089
 20
2490.45991410635
 30
0.0
  0
POINT
  5
7EA7
  8
DEFPOINTS
  6
CONTINUOUS
 62
     0
 10
5234.5862526808087
 20
2490.4599141063491
 30
0.0
  0
ENDBLK
  5
7CF4
  8
0
  0
BLOCK
  8
0
  2
*D13
 70
     1
 10
0.0
 20
0.0
 30
0.0
  3
*D13
  1

  0
LINE
  5
7EA8
  8
3
  6
CONTINUOUS
 62
     0
 10
4369.3234706808089
 20
3619.45991410635
 30
0.0
 11
4369.3234706808089
 21
3729.2538234436529
 31
0.0
  0
LINE
  5
7EA9
  8
3
  6
CONTINUOUS
 62
     0
 10
4899.323470680808
 20
3619.45991410635
 30
0.0
 11
4899.323470680808
 21
3729.2538234436529
 31
0.0
  0
LINE
  5
7EAA
  8
3
  6
CONTINUOUS
 62
     0
 10
4429.3234706808089
 20
3699.2538234436529
 30
0.0
 11
4839.3234706808089
 21
3699.2538234436529
 31
0.0
  0
INSERT
  5
7EAB
  8
3
  6
CONTINUOUS
 62
     0
  2
_OPEN
 10
4369.3234706808089
 20
3699.2538234436529
 30
0.0
 41
60.0
 42
60.0
 43
60.0
 50
180.0
  0
INSERT
  5
7EAC
  8
3
  6
CONTINUOUS
 62
     0
  2
_OPEN
 10
4899.323470680808
 20
3699.2538234436529
 30
0.0
 41
60.0
 42
60.0
 43
60.0
  0
TEXT
  8
3
  40
90
  5
7ED7
  62
0
  72
0
  71
0
 10
4479.32
 20
3614.95
 30
0.000000
  1
530
  0
POINT
  5
7EAE
  8
DEFPOINTS
  6
CONTINUOUS
 62
     0
 10
4369.3234706808089
 20
3604.45991410635
 30
0.0
  0
POINT
  5
7EAF
  8
DEFPOINTS
  6
CONTINUOUS
 62
     0
 10
4899.323470680808
 20
3604.45991410635
 30
0.0
  0
POINT
  5
7EB0
  8
DEFPOINTS
  6
CONTINUOUS
 62
     0
 10
4899.323470680808
 20
3699.2538234436529
 30
0.0
  0
ENDBLK
  5
7D20
  8
0
  0
BLOCK
  8
0
  2
*D14
 70
     1
 10
0.0
 20
0.0
 30
0.0
  3
*D14
  1

  0
LINE
  5
7EB1
  8
3
  6
CONTINUOUS
 62
     0
 10
4124.3234706808089
 20
3050.1599141063498
 30
0.0
 11
4124.3234706808089
 21
3966.528498343715
 31
0.0
  0
LINE
  5
7EB2
  8
3
  6
CONTINUOUS
 62
     0
 10
4634.3234706808089
 20
3885.824939343715
 30
0.0
 11
4634.3234706808089
 21
3966.528498343715
 31
0.0
  0
LINE
  5
7EB3
  8
3
  6
CONTINUOUS
 62
     0
 10
4184.3234706808089
 20
3936.528498343715
 30
0.0
 11
4574.323470680808
 21
3936.528498343715
 31
0.0
  0
INSERT
  5
7EB4
  8
3
  6
CONTINUOUS
 62
     0
  2
_OPEN
 10
4124.3234706808089
 20
3936.528498343715
 30
0.0
 41
60.0
 42
60.0
 43
60.0
 50
180.0
  0
INSERT
  5
7EB5
  8
3
  6
CONTINUOUS
 62
     0
  2
_OPEN
 10
4634.3234706808089
 20
3936.528498343715
 30
0.0
 41
60.0
 42
60.0
 43
60.0
  0
TEXT
  8
3
  40
90
  5
7ED8
  62
0
  72
0
  71
0
 10
4235.75
 20
3927.23
 30
0.000000
  1
MAX
  0
TEXT
  8
3
  40
90
  5
7ED9
  62
0
  72
0
  71
0
 10
4235.75
 20
3810.23
 30
0.000000
  1
590
  0
POINT
  5
7EB7
  8
DEFPOINTS
  6
CONTINUOUS
 62
     0
 10
4124.3234706808089
 20
3035.1599141063489
 30
0.0
  0
POINT
  5
7EB8
  8
DEFPOINTS
  6
CONTINUOUS
 62
     0
 10
4634.3234706808089
 20
3870.824939343714
 30
0.0
  0
POINT
  5
7EB9
  8
DEFPOINTS
  6
CONTINUOUS
 62
     0
 10
4634.3234706808089
 20
3936.528498343715
 30
0.0
  0
ENDBLK
  5
7D36
  8
0
  0
BLOCK
  8
0
  2
*D15
 70
     1
 10
0.0
 20
0.0
 30
0.0
  3
*D15
  1

  0
LINE
  5
7D22
  8
0
  6
BYBLOCK
 62
     0
 10
4634.3234706808089
 20
4421.5221340923736
 30
0.0
 11
4634.3234706808089
 21
4502.225693092375
 31
0.0
  0
LINE
  5
7D23
  8
0
  6
BYBLOCK
 62
     0
 10
4982.3234706808089
 20
3791.1571088550099
 30
0.0
 11
4982.3234706808089
 21
4502.225693092375
 31
0.0
  0
LINE
  5
7D24
  8
0
  6
BYBLOCK
 62
     0
 10
4694.3234706808089
 20
4472.225693092375
 30
0.0
 11
4922.3234706808089
 21
4472.225693092375
 31
0.0
  0
TEXT
  5
7D25
  8
3
 62
     0
 10
4711.4849996251914
 20
4511.2197989773549
 30
0.0
 40
90.0
  1
348
  0
INSERT
  5
7D26
  8
0
  6
BYBLOCK
 62
     0
  2
_OPEN
 10
4634.3234706808089
 20
4472.225693092375
 30
0.0
 41
60.0
 42
60.0
 43
60.0
 50
180.0
  0
INSERT
  5
7D27
  8
0
  6
BYBLOCK
 62
     0
  2
_OPEN
 10
4982.3234706808089
 20
4472.225693092375
 30
0.0
 41
60.0
 42
60.0
 43
60.0
  0
POINT
  5
7D28
  8
DEFPOINTS
  6
BYBLOCK
 62
     0
 10
4634.3234706808089
 20
4406.5221340923754
 30
0.0
  0
POINT
  5
7D29
  8
DEFPOINTS
  6
BYBLOCK
 62
     0
 10
4982.3234706808089
 20
3776.157108855009
 30
0.0
  0
POINT
  5
7D2A
  8
DEFPOINTS
  6
BYBLOCK
 62
     0
 10
4982.3234706808089
 20
4472.225693092375
 30
0.0
  0
ENDBLK
  5
7D2B
  8
0
  0
BLOCK
  8
0
  2
*D16
 70
     1
 10
0.0
 20
0.0
 30
0.0
  3
*D16
  1

  0
LINE
  5
7EBA
  8
3
  6
CONTINUOUS
 62
     0
 10
1769.0553689595231
 20
3644.45991410635
 30
0.0
 11
1071.717312959523
 21
3644.45991410635
 31
0.0
  0
LINE
  5
7EBB
  8
3
  6
CONTINUOUS
 62
     0
 10
1819.0553689595231
 20
2300.45991410635
 30
0.0
 11
1071.717312959523
 21
2300.45991410635
 31
0.0
  0
LINE
  5
7EBC
  8
3
  6
CONTINUOUS
 62
     0
 10
1101.717312959523
 20
3584.45991410635
 30
0.0
 11
1101.717312959523
 21
2360.4599141063491
 31
0.0
  0
INSERT
  5
7EBD
  8
3
  6
CONTINUOUS
 62
     0
  2
_OPEN
 10
1101.717312959523
 20
3644.45991410635
 30
0.0
 41
60.0
 42
60.0
 43
60.0
 50
90.0
  0
INSERT
  5
7EBE
  8
3
  6
CONTINUOUS
 62
     0
  2
_OPEN
 10
1101.717312959523
 20
2300.45991410635
 30
0.0
 41
60.0
 42
60.0
 43
60.0
 50
270.0
  0
TEXT
  8
3
  40
90
  5
7EDA
  62
0
  72
0
  71
0
 10
846.717
 20
2820.42
 30
0.000000
  1
1344
  0
POINT
  5
7EC0
  8
DEFPOINTS
  6
CONTINUOUS
 62
     0
 10
1784.0553689595231
 20
3644.45991410635
 30
0.0
  0
POINT
  5
7EC1
  8
DEFPOINTS
  6
CONTINUOUS
 62
     0
 10
1834.0553689595231
 20
2300.45991410635
 30
0.0
  0
POINT
  5
7EC2
  8
DEFPOINTS
  6
CONTINUOUS
 62
     0
 10
1101.717312959523
 20
2300.45991410635
 30
0.0
  0
ENDBLK
  5
7C14
  8
0
  0
BLOCK
  8
0
  2
*D17
 70
     1
 10
0.0
 20
0.0
 30
0.0
  3
*D17
  1

  0
LINE
  5
7EC3
  8
3
 62
     0
 10
1784.0553689595231
 20
3659.4599141063491
 30
0.0
 11
1784.0553689595231
 21
3945.6472828777182
 31
0.0
  0
LINE
  5
7EC4
  8
3
 62
     0
 10
3384.055368959524
 20
2415.4599141063491
 30
0.0
 11
3384.055368959524
 21
3945.6472828777182
 31
0.0
  0
LINE
  5
7EC5
  8
3
 62
     0
 10
1844.0553689595231
 20
3915.6472828777191
 30
0.0
 11
3324.0553689595231
 21
3915.6472828777191
 31
0.0
  0
INSERT
  5
7EC6
  8
3
 62
     0
  2
_OPEN
 10
1784.0553689595231
 20
3915.6472828777191
 30
0.0
 41
60.0
 42
60.0
 43
60.0
 50
180.0
  0
INSERT
  5
7EC7
  8
3
 62
     0
  2
_OPEN
 10
3384.055368959524
 20
3915.6472828777191
 30
0.0
 41
60.0
 42
60.0
 43
60.0
  0
TEXT
  8
3
  40
90
  5
7EDB
  62
0
  72
0
  71
0
 10
2448.83
 20
3831.35
 30
0.000000
  1
1600
  0
POINT
  5
7EC9
  8
DEFPOINTS
 62
     0
 10
1784.0553689595231
 20
3644.45991410635
 30
0.0
  0
POINT
  5
7ECA
  8
DEFPOINTS
 62
     0
 10
3384.055368959524
 20
2400.45991410635
 30
0.0
  0
POINT
  5
7ECB
  8
DEFPOINTS
 62
     0
 10
3384.055368959524
 20
3915.6472828777191
 30
0.0
  0
ENDBLK
  5
7D58
  8
0
  0
ENDSEC
  0
SECTION
  2
ENTITIES
  0
LINE
  5
7A63
  8
4
  6
CONTINUOUS
 10
5550.0
 20
1500.0
 30
0.0
 11
5550.0
 21
900.0
 31
0.0
  0
LINE
  5
7A64
  8
4
  6
CONTINUOUS
 10
3450.0
 20
1500.0
 30
0.0
 11
3450.0
 21
900.0
 31
0.0
  0
LINE
  5
7A65
  8
4
  6
CONTINUOUS
 10
1950.0
 20
1500.0
 30
0.0
 11
1950.0
 21
900.0
 31
0.0
  0
LINE
  5
7A68
  8
4
  6
CONTINUOUS
 10
1950.0
 20
900.0
 30
0.0
 11
5550.0
 21
900.0
 31
0.0
  0
LINE
  5
7A69
  8
4
  6
CONTINUOUS
 10
1950.0
 20
1200.0
 30
0.0
 11
5550.0
 21
1200.0
 31
0.0
  0
TEXT
  5
7A6A
  8
4
  6
CONTINUOUS
 10
2065.50624225
 20
1294.6290779999999
 30
0.0
 40
150.0
  1
機器名称
  0
TEXT
  5
7A6B
  8
4
  6
CONTINUOUS
 10
2058.7743179999989
 20
964.93547024999998
 30
0.0
 40
150.0
  1
機器型番
  0
TEXT
  5
7A6C
  8
4
  6
CONTINUOUS
 10
3533.0362365000001
 20
1267.715306249999
 30
0.0
 40
120.0
  1
ミツヤリミットロードファン
  0
TEXT
  5
7A6D
  8
4
  6
CONTINUOUS
 10
3559.9634872500001
 20
951.4787527499999
 30
0.0
 40
150.0
  1
LLE#4 1/2-4
  0
TEXT
  5
7A6F
  8
4
  6
CONTINUOUS
 10
2714.3572964999998
 20
7150.2865245000012
 30
0.0
 40
162.0
  1
床置ベット
  0
TEXT
  5
7A70
  8
4
  6
CONTINUOUS
 10
948.50278049999986
 20
7601.6429287499996
 30
0.0
 40
171.42857175
  1
ベルト駆動式片吸込両持排煙ファン
  0
LINE
  5
7A71
  8
4
  6
CONTINUOUS
 10
750.0
 20
7408.2262627500004
 30
0.0
 11
5550.0
 21
7408.2262627500004
 31
0.0
  0
LINE
  5
7A72
  8
4
  6
CONTINUOUS
 10
750.0
 20
8008.2262627500004
 30
0.0
 11
5550.0
 21
8008.2262627500004
 31
0.0
  0
LINE
  5
7A73
  8
4
  6
CONTINUOUS
 10
1950.0
 20
1500.0
 30
0.0
 11
5550.0
 21
1500.0
 31
0.0
  0
LINE
  5
7A74
  8
4
  6
CONTINUOUS
 10
750.0
 20
8008.2262627500004
 30
0.0
 11
750.0
 21
7408.2262627500004
 31
0.0
  0
TEXT
  5
7A75
  8
4
  6
CONTINUOUS
 10
1406.780799749999
 20
7146.9584324999987
 30
0.0
 40
162.0
  1
左回転左横向
  0
TEXT
  5
7A76
  8
4
  6
CONTINUOUS
 10
4406.9086777499988
 20
8118.1832445
 30
0.0
 40
168.0
  1
No.
  0
TEXT
  5
7A77
  8
4
  6
CONTINUOUS
 10
3933.8881875000002
 20
7150.2865245000012
 30
0.0
 40
162.0
  1
縮尺：1/30
  0
LINE
  5
7A78
  8
4
  6
CONTINUOUS
 10
5550.0
 20
8008.2262627500004
 30
0.0
 11
5550.0
 21
7408.2262627500004
 31
0.0
  0
LINE
  5
7A7A
  8
4
  6
CONTINUOUS
 10
4321.8522667500001
 20
8043.79074975
 30
0.0
 11
4321.8522667500001
 21
8359.9567845000001
 31
0.0
  0
LINE
  5
7A7B
  8
4
  6
CONTINUOUS
 10
4321.8522667500001
 20
8359.9567845000001
 30
0.0
 11
5550.0
 21
8359.9567845000001
 31
0.0
  0
LINE
  5
7A7C
  8
4
  6
CONTINUOUS
 10
5550.0
 20
8359.9567845000001
 30
0.0
 11
5550.0
 21
8043.79074975
 31
0.0
  0
LINE
  5
7A7D
  8
4
  6
CONTINUOUS
 10
5550.0
 20
8043.79074975
 30
0.0
 11
4321.8522667500001
 21
8043.79074975
 31
0.0
  0
ARC
  5
7A82
  8
1
  6
CONTINUOUS
 10
2231.0553689595231
 20
2898.45991410635
 30
0.0
 40
665.0
 50
355.428721
 51
85.428720999999996
  0
LINE
  5
7A83
  8
2
  6
CENTER
 10
5034.9335436808096
 20
2845.45991410635
 30
0.0
 11
4026.7106086808089
 21
2845.45991410635
 31
0.0
  0
LINE
  5
7A84
  8
1
  6
CONTINUOUS
 10
3219.3492759595229
 20
2745.6280691063498
 30
0.0
 11
2319.3492759595229
 21
2980.6280691063498
 31
0.0
  0
LINE
  5
7A85
  8
1
  6
CONTINUOUS
 10
3231.9813119595242
 20
2794.0060771063499
 30
0.0
 11
2331.9813119595228
 21
3029.0060771063499
 31
0.0
  0
LINE
  5
7A86
  8
1
  6
CONTINUOUS
 10
3384.055368959524
 20
2400.45991410635
 30
0.0
 11
1834.0553689595231
 21
2400.45991410635
 31
0.0
  0
LINE
  5
7A87
  8
1
  6
CONTINUOUS
 10
3384.055368959524
 20
2300.45991410635
 30
0.0
 11
1834.0553689595231
 21
2300.45991410635
 31
0.0
  0
LINE
  5
7A88
  8
1
  6
CONTINUOUS
 10
3148.761461959522
 20
2475.2917591063492
 30
0.0
 11
2248.761461959522
 21
2710.2917591063501
 31
0.0
  0
LINE
  5
7A89
  8
1
  6
CONTINUOUS
 10
3136.1294259595229
 20
2426.91375110635
 30
0.0
 11
2236.1294259595229
 21
2661.91375110635
 31
0.0
  0
CIRCLE
  5
7A8A
  8
1
  6
CONTINUOUS
 10
2284.0553689595231
 20
2845.45991410635
 30
0.0
 40
395.0
  0
CIRCLE
  5
7A8B
  8
1
  6
CONTINUOUS
 10
2284.0553689595231
 20
2845.45991410635
 30
0.0
 40
355.0
  0
LINE
  5
7A8C
  8
1
  6
CONTINUOUS
 10
1834.0553689595231
 20
2400.45991410635
 30
0.0
 11
1834.0553689595231
 21
2300.45991410635
 31
0.0
  0
LINE
  5
7A8D
  8
1
  6
CONTINUOUS
 10
1824.0553689595231
 20
3601.01068210635
 30
0.0
 11
1824.0553689595231
 21
2874.4599141063491
 31
0.0
  0
LINE
  5
7A8E
  8
1
  6
CONTINUOUS
 10
1784.0553689595231
 20
3644.45991410635
 30
0.0
 11
1784.0553689595231
 21
2834.45991410635
 31
0.0
  0
ARC
  5
7A8F
  8
1
  6
CONTINUOUS
 10
2284.0553689595231
 20
2845.45991410635
 30
0.0
 40
189.69999999999999
 50
75.366168999999999
 51
255.3661689999999
  0
ARC
  5
7A90
  8
1
  6
CONTINUOUS
 10
2326.055368959524
 20
2803.4599141063491
 30
0.0
 40
464.0
 50
174.80663599999991
 51
240.288781
  0
LINE
  5
7A91
  8
1
  6
CONTINUOUS
 10
1868.747184959524
 20
2874.4599141063491
 30
0.0
 11
1784.0553689595231
 21
2874.4599141063491
 31
0.0
  0
ARC
  5
7A92
  8
1
  6
CONTINUOUS
 10
2242.0553689595231
 20
2803.4599141063491
 30
0.0
 40
380.0
 50
169.23144999999991
 51
173.6543439999999
  0
LINE
  5
7A93
  8
2
  6
CENTER
 10
2284.0553689595231
 20
2218.3663501063502
 30
0.0
 11
2284.0553689595231
 21
3663.54263310635
 31
0.0
  0
CIRCLE
  5
7A94
  8
1
  6
CONTINUOUS
 10
2284.0553689595231
 20
2845.45991410635
 30
0.0
 40
139.69999999999999
  0
LINE
  5
7A95
  8
1
  6
CONTINUOUS
 10
2284.0553689595231
 20
3561.3445191063502
 30
0.0
 11
1784.0553689595231
 21
3604.45991410635
 31
0.0
  0
LINE
  5
7A96
  8
1
  6
CONTINUOUS
 10
3384.055368959524
 20
2400.45991410635
 30
0.0
 11
3384.055368959524
 21
2300.45991410635
 31
0.0
  0
LINE
  5
7A97
  8
2
  6
CENTER
 10
3328.7553689595229
 20
2610.45991410635
 30
0.0
 11
3039.3553689595219
 21
2610.45991410635
 31
0.0
  0
LINE
  5
7A98
  8
1
  6
CONTINUOUS
 10
2986.5553689595231
 20
2450.45991410635
 30
0.0
 11
3381.5553689595231
 21
2450.45991410635
 31
0.0
  0
CIRCLE
  5
7A99
  8
1
  6
CONTINUOUS
 10
3184.0553689595231
 20
2610.45991410635
 30
0.0
 40
139.69999999999999
  0
ARC
  5
7A9A
  8
1
  6
CONTINUOUS
 10
3184.0553689595231
 20
2610.45991410635
 30
0.0
 40
162.0
 50
324.972283
 51
215.02771699999991
  0
ARC
  5
7A9B
  8
1
  6
CONTINUOUS
 10
2337.0553689595231
 20
2898.45991410635
 30
0.0
 40
559.0
 50
297.01639699999998
 51
354.55949099999998
  0
LINE
  5
7A9C
  8
1
  6
CONTINUOUS
 10
2986.5553689595231
 20
2400.45991410635
 30
0.0
 11
2986.5553689595231
 21
2450.45991410635
 31
0.0
  0
LINE
  5
7A9D
  8
1
  6
CONTINUOUS
 10
3030.0553689595231
 20
2468.45991410635
 30
0.0
 11
3051.3977029595221
 21
2517.4763471063502
 31
0.0
  0
LINE
  5
7A9E
  8
1
  6
CONTINUOUS
 10
3030.0553689595231
 20
2450.45991410635
 30
0.0
 11
3030.0553689595231
 21
2468.45991410635
 31
0.0
  0
ARC
  5
7A9F
  8
1
  6
CONTINUOUS
 10
3184.0553689595231
 20
2610.45991410635
 30
0.0
 40
189.69999999999999
 50
255.3661689999999
 51
75.366168999999999
  0
LINE
  5
7AA0
  8
2
  6
CENTER
 10
3184.0553689595231
 20
2465.7599141063502
 30
0.0
 11
3184.0553689595231
 21
2755.1599141063498
 31
0.0
  0
LINE
  5
7AA1
  8
1
  6
CONTINUOUS
 10
3338.055368959524
 20
2468.45991410635
 30
0.0
 11
3316.7130349595241
 21
2517.4763471063502
 31
0.0
  0
LINE
  5
7AA2
  8
1
  6
CONTINUOUS
 10
3381.5553689595231
 20
2400.45991410635
 30
0.0
 11
3381.5553689595231
 21
2450.45991410635
 31
0.0
  0
LINE
  5
7AA3
  8
1
  6
CONTINUOUS
 10
3338.055368959524
 20
2450.45991410635
 30
0.0
 11
3338.055368959524
 21
2468.45991410635
 31
0.0
  0
LINE
  5
7AA4
  8
1
  6
CONTINUOUS
 10
2896.0553689595231
 20
5991.0446411510156
 30
0.0
 11
1784.0553689595231
 21
5991.0446411510156
 31
0.0
  0
LINE
  5
7AA5
  8
1
  6
CONTINUOUS
 10
2896.0553689595231
 20
5461.0446411510156
 30
0.0
 11
1784.0553689595231
 21
5461.0446411510156
 31
0.0
  0
LINE
  5
7AA6
  8
1
  6
CONTINUOUS
 10
3044.3553689595228
 20
5294.0446411510156
 30
0.0
 11
2423.755368959522
 21
5294.0446411510156
 31
0.0
  0
LINE
  5
7AA7
  8
1
  6
CONTINUOUS
 10
3373.755368959522
 20
5216.0446411510147
 30
0.0
 11
2094.3553689595242
 21
5216.0446411510147
 31
0.0
  0
LINE
  5
7AA8
  8
1
  6
CONTINUOUS
 10
3373.755368959522
 20
5326.0446411510156
 30
0.0
 11
2094.3553689595242
 21
5326.0446411510156
 31
0.0
  0
LINE
  5
7AA9
  8
1
  6
CONTINUOUS
 10
2679.0553689595231
 20
6074.0446411510147
 30
0.0
 11
1889.0553689595231
 21
6074.0446411510147
 31
0.0
  0
LINE
  5
7AAA
  8
1
  6
CONTINUOUS
 10
1784.0553689595231
 20
5421.0446411510156
 30
0.0
 11
1784.0553689595231
 21
6031.0446411510156
 31
0.0
  0
LINE
  5
7AAB
  8
1
  6
CONTINUOUS
 10
1824.0553689595231
 20
5461.0446411510156
 30
0.0
 11
1824.0553689595231
 21
5991.0446411510156
 31
0.0
  0
LINE
  5
7AAC
  8
1
  6
CONTINUOUS
 10
2144.3553689595242
 20
5294.0446411510156
 30
0.0
 11
1834.0553689595231
 21
5294.0446411510156
 31
0.0
  0
LINE
  5
7AAD
  8
1
  6
CONTINUOUS
 10
1834.0553689595231
 20
5294.0446411510156
 30
0.0
 11
1834.0553689595231
 21
5461.0446411510156
 31
0.0
  0
LINE
  5
7AAE
  8
1
  6
CONTINUOUS
 10
2094.3553689595242
 20
5216.0446411510147
 30
0.0
 11
2094.3553689595242
 21
5326.0446411510156
 31
0.0
  0
LINE
  5
7AAF
  8
1
  6
CONTINUOUS
 10
2306.5553689595231
 20
5309.0446411510147
 30
0.0
 11
2306.5553689595231
 21
5461.0446411510156
 31
0.0
  0
LINE
  5
7AB0
  8
1
  6
CONTINUOUS
 10
2261.5553689595231
 20
5309.0446411510147
 30
0.0
 11
2261.5553689595231
 21
5461.0446411510156
 31
0.0
  0
LINE
  5
7AB1
  8
1
  6
CONTINUOUS
 10
2423.755368959522
 20
5224.0446411510147
 30
0.0
 11
2144.3553689595242
 21
5224.0446411510147
 31
0.0
  0
LINE
  5
7AB2
  8
1
  6
CONTINUOUS
 10
2423.755368959522
 20
5309.0446411510147
 30
0.0
 11
2144.3553689595242
 21
5309.0446411510147
 31
0.0
  0
LINE
  5
7AB3
  8
1
  6
CONTINUOUS
 10
2144.3553689595242
 20
5224.0446411510147
 30
0.0
 11
2144.3553689595242
 21
5309.0446411510147
 31
0.0
  0
LINE
  5
7AB4
  8
1
  6
CONTINUOUS
 10
2423.755368959522
 20
5224.0446411510147
 30
0.0
 11
2423.755368959522
 21
5309.0446411510147
 31
0.0
  0
LINE
  5
7AB5
  8
1
  6
CONTINUOUS
 10
1929.0553689595231
 20
5991.0446411510156
 30
0.0
 11
1929.0553689595231
 21
6074.0446411510147
 31
0.0
  0
LINE
  5
7AB6
  8
1
  6
CONTINUOUS
 10
1929.0553689595231
 20
6044.0446411510156
 30
0.0
 11
1834.0553689595231
 21
6044.0446411510156
 31
0.0
  0
LINE
  5
7AB7
  8
1
  6
CONTINUOUS
 10
1834.0553689595231
 20
5991.0446411510156
 30
0.0
 11
1834.0553689595231
 21
6044.0446411510156
 31
0.0
  0
LINE
  5
7AB8
  8
1
  6
CONTINUOUS
 10
3384.055368959524
 20
5294.0446411510156
 30
0.0
 11
3384.055368959524
 21
6044.0446411510156
 31
0.0
  0
LINE
  5
7AB9
  8
1
  6
CONTINUOUS
 10
2896.0553689595231
 20
5461.0446411510156
 30
0.0
 11
2896.0553689595231
 21
5991.0446411510156
 31
0.0
  0
LINE
  5
7ABA
  8
1
  6
CONTINUOUS
 10
3022.0553689595231
 20
5349.0446411510147
 30
0.0
 11
3022.0553689595231
 21
5886.0446411510156
 31
0.0
  0
LINE
  5
7ABB
  8
1
  6
CONTINUOUS
 10
3346.055368959524
 20
5349.0446411510147
 30
0.0
 11
3346.055368959524
 21
5886.0446411510156
 31
0.0
  0
LINE
  5
7ABC
  8
1
  6
CONTINUOUS
 10
3346.055368959524
 20
5349.0446411510147
 30
0.0
 11
3022.0553689595231
 21
5349.0446411510147
 31
0.0
  0
LINE
  5
7ABD
  8
1
  6
CONTINUOUS
 10
3323.755368959522
 20
5309.0446411510147
 30
0.0
 11
3044.3553689595228
 21
5309.0446411510147
 31
0.0
  0
LINE
  5
7ABE
  8
1
  6
CONTINUOUS
 10
3323.755368959522
 20
5224.0446411510147
 30
0.0
 11
3044.3553689595228
 21
5224.0446411510147
 31
0.0
  0
LINE
  5
7ABF
  8
1
  6
CONTINUOUS
 10
3044.3553689595228
 20
5224.0446411510147
 30
0.0
 11
3044.3553689595228
 21
5309.0446411510147
 31
0.0
  0
LINE
  5
7AC0
  8
1
  6
CONTINUOUS
 10
3163.0553689595231
 20
5309.0446411510147
 30
0.0
 11
3163.0553689595231
 21
5349.0446411510147
 31
0.0
  0
LINE
  5
7AC1
  8
1
  6
CONTINUOUS
 10
3205.0553689595231
 20
5309.0446411510147
 30
0.0
 11
3205.0553689595231
 21
5349.0446411510147
 31
0.0
  0
LINE
  5
7AC2
  8
1
  6
CONTINUOUS
 10
3384.055368959524
 20
5294.0446411510156
 30
0.0
 11
3323.755368959522
 21
5294.0446411510156
 31
0.0
  0
LINE
  5
7AC3
  8
1
  6
CONTINUOUS
 10
3323.755368959522
 20
5224.0446411510147
 30
0.0
 11
3323.755368959522
 21
5309.0446411510147
 31
0.0
  0
LINE
  5
7AC4
  8
1
  6
CONTINUOUS
 10
3373.755368959522
 20
5216.0446411510147
 30
0.0
 11
3373.755368959522
 21
5326.0446411510156
 31
0.0
  0
LINE
  5
7AC5
  8
1
  6
CONTINUOUS
 10
3384.055368959524
 20
6044.0446411510156
 30
0.0
 11
2639.0553689595231
 21
6044.0446411510156
 31
0.0
  0
LINE
  5
7AC6
  8
1
  6
CONTINUOUS
 10
3346.055368959524
 20
5886.0446411510156
 30
0.0
 11
3022.0553689595231
 21
5886.0446411510156
 31
0.0
  0
LINE
  5
7AC7
  8
1
  6
CONTINUOUS
 10
2639.0553689595231
 20
5991.0446411510156
 30
0.0
 11
2639.0553689595231
 21
6074.0446411510147
 31
0.0
  0
LINE
  5
7AC8
  8
1
  6
CONTINUOUS
 10
4899.323470680808
 20
2490.45991410635
 30
0.0
 11
4982.3234706808089
 21
2490.45991410635
 31
0.0
  0
LINE
  5
7AC9
  8
1
  6
CONTINUOUS
 10
4899.323470680808
 20
3200.45991410635
 30
0.0
 11
4982.3234706808089
 21
3200.45991410635
 31
0.0
  0
LINE
  5
7ACA
  8
1
  6
CONTINUOUS
 10
4952.3234706808089
 20
2400.45991410635
 30
0.0
 11
4952.3234706808089
 21
2300.45991410635
 31
0.0
  0
LINE
  5
7ACB
  8
1
  6
CONTINUOUS
 10
4202.323470680808
 20
2400.45991410635
 30
0.0
 11
4202.323470680808
 21
2300.45991410635
 31
0.0
  0
LINE
  5
7ACC
  8
1
  6
CONTINUOUS
 10
4202.323470680808
 20
2300.45991410635
 30
0.0
 11
4952.3234706808089
 21
2300.45991410635
 31
0.0
  0
LINE
  5
7ACD
  8
1
  6
CONTINUOUS
 10
4202.323470680808
 20
2400.45991410635
 30
0.0
 11
4952.3234706808089
 21
2400.45991410635
 31
0.0
  0
LINE
  5
7ACE
  8
1
  6
CONTINUOUS
 10
4369.3234706808089
 20
2450.45991410635
 30
0.0
 11
4257.323470680808
 21
2450.45991410635
 31
0.0
  0
LINE
  5
7ACF
  8
1
  6
CONTINUOUS
 10
4257.323470680808
 20
2772.45991410635
 30
0.0
 11
4369.3234706808089
 21
2772.45991410635
 31
0.0
  0
LINE
  5
7AD0
  8
1
  6
CONTINUOUS
 10
4217.3234706808089
 20
2867.95991410635
 30
0.0
 11
4369.3234706808089
 21
2867.95991410635
 31
0.0
  0
LINE
  5
7AD1
  8
1
  6
CONTINUOUS
 10
4217.3234706808089
 20
2822.95991410635
 30
0.0
 11
4369.3234706808089
 21
2822.95991410635
 31
0.0
  0
LINE
  5
7AD2
  8
1
  6
CONTINUOUS
 10
4234.323470680808
 20
2420.7599141063502
 30
0.0
 11
4234.323470680808
 21
3035.1599141063489
 31
0.0
  0
LINE
  5
7AD3
  8
1
  6
CONTINUOUS
 10
4124.3234706808089
 20
2420.7599141063502
 30
0.0
 11
4124.3234706808089
 21
3035.1599141063489
 31
0.0
  0
LINE
  5
7AD4
  8
1
  6
CONTINUOUS
 10
4132.323470680808
 20
2985.1599141063498
 30
0.0
 11
4132.323470680808
 21
2470.7599141063502
 31
0.0
  0
LINE
  5
7AD5
  8
1
  6
CONTINUOUS
 10
4217.3234706808089
 20
2985.1599141063498
 30
0.0
 11
4217.3234706808089
 21
2470.7599141063502
 31
0.0
  0
LINE
  5
7AD6
  8
1
  6
CONTINUOUS
 10
4124.3234706808089
 20
2420.7599141063502
 30
0.0
 11
4234.323470680808
 21
2420.7599141063502
 31
0.0
  0
LINE
  5
7AD7
  8
1
  6
CONTINUOUS
 10
4132.323470680808
 20
2470.7599141063502
 30
0.0
 11
4217.3234706808089
 21
2470.7599141063502
 31
0.0
  0
LINE
  5
7AD8
  8
1
  6
CONTINUOUS
 10
4132.323470680808
 20
2705.7599141063502
 30
0.0
 11
4217.3234706808089
 21
2705.7599141063502
 31
0.0
  0
LINE
  5
7AD9
  8
1
  6
CONTINUOUS
 10
4257.323470680808
 20
2772.45991410635
 30
0.0
 11
4257.323470680808
 21
2400.45991410635
 31
0.0
  0
LINE
  5
7ADA
  8
1
  6
CONTINUOUS
 10
4217.3234706808089
 20
2589.45991410635
 30
0.0
 11
4257.323470680808
 21
2589.45991410635
 31
0.0
  0
LINE
  5
7ADB
  8
1
  6
CONTINUOUS
 10
4217.3234706808089
 20
2631.45991410635
 30
0.0
 11
4257.323470680808
 21
2631.45991410635
 31
0.0
  0
LINE
  5
7ADC
  8
1
  6
CONTINUOUS
 10
4124.3234706808089
 20
3035.1599141063489
 30
0.0
 11
4234.323470680808
 21
3035.1599141063489
 31
0.0
  0
LINE
  5
7ADD
  8
1
  6
CONTINUOUS
 10
4132.323470680808
 20
2985.1599141063498
 30
0.0
 11
4217.3234706808089
 21
2985.1599141063498
 31
0.0
  0
LINE
  5
7ADE
  8
1
  6
CONTINUOUS
 10
4899.323470680808
 20
3604.45991410635
 30
0.0
 11
4369.3234706808089
 21
2874.4599141063491
 31
0.0
  0
LINE
  5
7ADF
  8
1
  6
CONTINUOUS
 10
4369.3234706808089
 20
3604.45991410635
 30
0.0
 11
4899.323470680808
 21
2874.4599141063491
 31
0.0
  0
LINE
  5
7AE0
  8
1
  6
CONTINUOUS
 10
4369.3234706808089
 20
3604.45991410635
 30
0.0
 11
4369.3234706808089
 21
2400.45991410635
 31
0.0
  0
LINE
  5
7AE1
  8
1
  6
CONTINUOUS
 10
4899.323470680808
 20
3604.45991410635
 30
0.0
 11
4899.323470680808
 21
2400.45991410635
 31
0.0
  0
LINE
  5
7AE2
  8
1
  6
CONTINUOUS
 10
4369.3234706808089
 20
2874.4599141063491
 30
0.0
 11
4899.323470680808
 21
2874.4599141063491
 31
0.0
  0
LINE
  5
7AE3
  8
1
  6
CONTINUOUS
 10
4369.3234706808089
 20
3604.45991410635
 30
0.0
 11
4899.323470680808
 21
3604.45991410635
 31
0.0
  0
LINE
  5
7AE4
  8
1
  6
CONTINUOUS
 10
4982.3234706808089
 20
3240.45991410635
 30
0.0
 11
4982.3234706808089
 21
2450.45991410635
 31
0.0
  0
DIMENSION
  5
7AFA
  8
3
  6
CONTINUOUS
  2
*D1
 10
2284.0553689595231
 20
2050.6394551063499
 30
0.0
 11
2039.7696546738091
 21
2050.6394551063499
 31
0.0
 70
   128
 13
1834.0553689595231
 23
2300.45991410635
 33
0.0
 14
2284.0553689595231
 24
2218.3663501063502
 34
0.0
1001
ACAD
1000
DSTYLE
1002
{
1070
   287
1070
     3
1070
   287
1070
     3
1070
    40
1040
30.0
1070
   143
1040
0.039
1070
   172
1070
     1
1070
   271
1070
     0
1070
   279
1070
     0
1070
   288
1070
     1
1002
}
  0
DIMENSION
  5
7B06
  8
3
  6
CONTINUOUS
  2
*D2
 10
3384.055368959524
 20
2050.6394551063499
 30
0.0
 11
2834.0553689595231
 21
2125.639455106349
 31
0.0
 70
     0
 13
2284.0553689595231
 23
2218.3663501063502
 33
0.0
 14
3384.055368959524
 24
2300.45991410635
 34
0.0
1001
ACAD
1000
DSTYLE
1002
{
1070
   287
1070
     3
1070
   287
1070
     3
1070
    40
1040
30.0
1070
   143
1040
0.039
1070
   172
1070
     1
1070
   271
1070
     0
1070
   279
1070
     0
1070
   288
1070
     1
1002
}
  0
DIMENSION
  5
7B13
  8
3
  6
CONTINUOUS
  2
*D3
 10
1565.4102629595241
 20
2874.4599141063491
 30
0.0
 11
1565.4102629595229
 21
3238.9747991063491
 31
0.0
 70
   128
 13
1784.0553689595231
 23
3604.45991410635
 33
0.0
 14
1784.0553689595231
 24
2874.4599141063491
 34
0.0
 50
90.0
1001
ACAD
1000
DSTYLE
1002
{
1070
   287
1070
     3
1070
   287
1070
     3
1070
    40
1040
30.0
1070
   143
1040
0.039
1070
   172
1070
     1
1070
   271
1070
     0
1070
   279
1070
     0
1070
   288
1070
     1
1002
}
  0
DIMENSION
  5
7B20
  8
3
  6
CONTINUOUS
  2
*D4
 10
1353.398813959524
 20
2845.45991410635
 30
0.0
 11
1353.398813959524
 21
3244.857642106349
 31
0.0
 70
   128
 13
1784.0553689595231
 23
3604.45991410635
 33
0.0
 14
1863.960140959523
 24
2845.45991410635
 34
0.0
 50
90.0
1001
ACAD
1000
DSTYLE
1002
{
1070
   287
1070
     3
1070
   287
1070
     3
1070
    40
1040
30.0
1070
   143
1040
0.039
1070
   172
1070
     1
1070
   271
1070
     0
1070
   279
1070
     0
1070
   288
1070
     1
1002
}
  0
DIMENSION
  5
7B2C
  8
3
  6
CONTINUOUS
  2
*D5
 10
1353.398813959524
 20
2300.45991410635
 30
0.0
 11
1278.3988139595231
 21
2572.95991410635
 31
0.0
 70
     0
 13
1863.960140959523
 23
2845.45991410635
 33
0.0
 14
1834.0553689595231
 24
2300.45991410635
 34
0.0
 50
90.0
1001
ACAD
1000
DSTYLE
1002
{
1070
   287
1070
     3
1070
   287
1070
     3
1070
    40
1040
30.0
1070
   143
1040
0.039
1070
   172
1070
     1
1070
   271
1070
     0
1070
   279
1070
     0
1070
   288
1070
     1
1002
}
  0
DIMENSION
  5
7B39
  8
3
  6
CONTINUOUS
  2
*D6
 10
2284.0553689595231
 20
3729.0070221063488
 30
0.0
 11
2044.0553689595231
 21
3729.0070221063488
 31
0.0
 70
   128
 13
1784.0553689595231
 23
3604.45991410635
 33
0.0
 14
2284.0553689595231
 24
3561.3445191063502
 34
0.0
1001
ACAD
1000
DSTYLE
1002
{
1070
   287
1070
     3
1070
   287
1070
     3
1070
    40
1040
30.0
1070
   143
1040
0.039
1070
   172
1070
     1
1070
   271
1070
     0
1070
   279
1070
     0
1070
   288
1070
     1
1002
}
  0
DIMENSION
  5
7B45
  8
3
  6
CONTINUOUS
  2
*D7
 10
2896.0553689595231
 20
3729.0070221063488
 30
0.0
 11
2590.0553689595231
 21
3804.0070221063488
 31
0.0
 70
     0
 13
2284.0553689595231
 23
3561.3445191063502
 33
0.0
 14
2896.0553689595231
 24
2845.45991410635
 34
0.0
1001
ACAD
1000
DSTYLE
1002
{
1070
   287
1070
     3
1070
   287
1070
     3
1070
    40
1040
30.0
1070
   143
1040
0.039
1070
   172
1070
     1
1070
   271
1070
     0
1070
   279
1070
     0
1070
   288
1070
     1
1002
}
  0
DIMENSION
  5
7B52
  8
3
  6
CONTINUOUS
  2
*D8
 10
3384.055368959524
 20
4911.3024131510156
 30
0.0
 11
2584.2432069595229
 21
4911.3024131510156
 31
0.0
 70
   128
 13
1834.0553689595231
 23
5294.0446411510156
 33
0.0
 14
3384.055368959524
 24
5294.0446411510156
 34
0.0
1001
ACAD
1000
DSTYLE
1002
{
1070
   287
1070
     3
1070
   287
1070
     3
1070
    40
1040
30.0
1070
   143
1040
0.039
1070
   172
1070
     1
1070
   271
1070
     0
1070
   279
1070
     0
1070
   288
1070
     1
1002
}
  0
DIMENSION
  5
7B5F
  8
3
  6
CONTINUOUS
  2
*D9
 10
3691.4142449595238
 20
5294.0446411510156
 30
0.0
 11
3691.4142449595238
 21
5676.0726691510163
 31
0.0
 70
   128
 13
3384.055368959524
 23
6044.0446411510156
 33
0.0
 14
3384.055368959524
 24
5294.0446411510156
 34
0.0
 50
90.0
1001
ACAD
1000
DSTYLE
1002
{
1070
   287
1070
     3
1070
   287
1070
     3
1070
    40
1040
30.0
1070
   143
1040
0.039
1070
   172
1070
     1
1070
   271
1070
     0
1070
   279
1070
     0
1070
   288
1070
     1
1002
}
  0
LINE
  5
7B60
  8
2
  6
CENTER
 10
3078.620799959524
 20
5726.0446411510156
 30
0.0
 11
1659.6376009595219
 21
5726.0446411510156
 31
0.0
  0
LINE
  5
7B61
  8
2
  6
CENTER
 10
4634.3234706808089
 20
3658.3977871063489
 30
0.0
 11
4634.3234706808089
 21
2221.8122631063488
 31
0.0
  0
DIMENSION
  5
7B70
  8
3
  6
CONTINUOUS
  2
*D10
 10
4634.3234706808089
 20
2085.885868073749
 30
0.0
 11
4408.0377563950942
 21
2085.885868073749
 31
0.0
 70
   128
 13
4202.323470680808
 23
2300.45991410635
 33
0.0
 14
4634.3234706808089
 24
2221.8122631063488
 34
0.0
1001
ACAD
1000
DSTYLE
1002
{
1070
   287
1070
     3
1070
   287
1070
     3
1070
    40
1040
30.0
1070
   143
1040
0.039
1070
   172
1070
     1
1070
   271
1070
     0
1070
   279
1070
     0
1070
   288
1070
     1
1002
}
  0
DIMENSION
  5
7B7E
  8
3
  6
CONTINUOUS
  2
*D11
 10
4952.3234706808089
 20
2085.0483220737501
 30
0.0
 11
4803.874405401657
 21
2167.7256696237519
 31
0.0
 12
0.0
 22
-535.69719474865985
 32
0.0
 70
   128
 13
4634.3234706808089
 23
2221.8122631063488
 33
0.0
 14
4952.3234706808089
 24
2300.45991410635
 34
0.0
1001
ACAD
1000
DSTYLE
1002
{
1070
   288
1070
     1
1070
   172
1070
     1
1070
    40
1040
30.0
1070
   271
1070
     0
1070
   143
1040
0.039
1002
}
  0
DIMENSION
  5
7B8B
  8
3
  6
CONTINUOUS
  2
*D12
 10
5234.5862526808087
 20
2490.4599141063491
 30
0.0
 11
5234.5862526808087
 21
2839.5113301063502
 31
0.0
 70
   128
 13
4982.3234706808089
 23
3200.45991410635
 33
0.0
 14
4982.3234706808089
 24
2490.45991410635
 34
0.0
 50
90.0
1001
ACAD
1000
DSTYLE
1002
{
1070
   287
1070
     3
1070
   287
1070
     3
1070
     3
1000
φ<>
1070
    40
1040
30.0
1070
   143
1040
0.039
1070
   172
1070
     1
1070
   271
1070
     0
1070
   279
1070
     0
1070
   288
1070
     1
1002
}
  0
DIMENSION
  5
7B98
  8
3
  6
CONTINUOUS
  2
*D13
 10
4899.323470680808
 20
3699.2538234436529
 30
0.0
 11
4659.3234706808089
 21
3699.2538234436529
 31
0.0
 70
   128
 13
4369.3234706808089
 23
3604.45991410635
 33
0.0
 14
4899.323470680808
 24
3604.45991410635
 34
0.0
1001
ACAD
1000
DSTYLE
1002
{
1070
   287
1070
     3
1070
   287
1070
     3
1070
    40
1040
30.0
1070
   143
1040
0.039
1070
   172
1070
     1
1070
   271
1070
     0
1070
   279
1070
     0
1070
   288
1070
     1
1002
}
  0
DIMENSION
  5
7BA5
  8
3
  6
CONTINUOUS
  2
*D14
 10
4634.3234706808089
 20
3936.528498343715
 30
0.0
 11
4415.7520421093814
 21
3936.528498343715
 31
0.0
 70
   128
  1
MAX\P590
 13
4124.3234706808089
 23
3035.1599141063489
 33
0.0
 14
4634.3234706808089
 24
3870.824939343714
 34
0.0
1001
ACAD
1000
DSTYLE
1002
{
1070
   287
1070
     3
1070
   287
1070
     3
1070
    40
1040
30.0
1070
   143
1040
0.039
1070
   172
1070
     1
1070
   271
1070
     0
1070
   279
1070
     0
1070
   288
1070
     1
1002
}
  0
DIMENSION
  5
7BB3
  8
3
  6
CONTINUOUS
  2
*D15
 10
4982.3234706808089
 20
3936.528498343715
 30
0.0
 11
4827.1992853394768
 21
4020.5226042286959
 31
0.0
 12
0.0
 22
-535.69719474865985
 32
0.0
 70
   128
 13
4634.3234706808089
 23
3870.824939343714
 33
0.0
 14
4982.3234706808089
 24
3240.45991410635
 34
0.0
1001
ACAD
1000
DSTYLE
1002
{
1070
   288
1070
     1
1070
   172
1070
     1
1070
    40
1040
30.0
1070
   271
1070
     0
1070
   143
1040
0.039
1002
}
  0
LINE
  5
7BCB
  8
2
  6
CENTER
 10
3300.9536889595229
 20
2845.45991410635
 30
0.0
 11
1803.670564959524
 21
2845.45991410635
 31
0.0
  0
LINE
  5
7BCC
  8
2
  6
CENTER
 10
2284.0553689595231
 20
5040.9052041510149
 30
0.0
 11
2284.0553689595231
 21
6115.5660611510148
 31
0.0
  0
DIMENSION
  5
7BF5
  8
3
  6
CONTINUOUS
  2
*D16
 10
1101.717312959523
 20
2300.45991410635
 30
0.0
 11
1101.717312959523
 21
2979.7184071063498
 31
0.0
 70
   128
 13
1784.0553689595231
 23
3644.45991410635
 33
0.0
 14
1834.0553689595231
 24
2300.45991410635
 34
0.0
 50
90.0
1001
ACAD
1000
DSTYLE
1002
{
1070
   287
1070
     3
1070
   287
1070
     3
1070
    40
1040
30.0
1070
   143
1040
0.039
1070
   172
1070
     1
1070
   271
1070
     0
1070
   279
1070
     0
1070
   288
1070
     1
1002
}
  0
DIMENSION
  5
7D59
  8
3
  2
*D17
 10
3384.055368959524
 20
3915.6472828777191
 30
0.0
 11
2628.8302800474412
 21
3915.6472828777191
 31
0.0
 70
   128
 13
1784.0553689595231
 23
3644.45991410635
 33
0.0
 14
3384.055368959524
 24
2400.45991410635
 34
0.0
1001
ACAD
1000
DSTYLE
1002
{
1070
   287
1070
     3
1070
   287
1070
     3
1070
    40
1040
30.0
1070
   143
1040
0.039
1070
   172
1070
     1
1070
   271
1070
     0
1070
   279
1070
     0
1070
   288
1070
     1
1002
}
  0
ENDSEC
  0
EOF
