  0
SECTION
  2
HEADER
  9
$ACADVER
  1
AC1009
  9
$INSBASE
 10
0.0
 20
0.0
 30
0.0
  9
$EXTMIN
 10
750.0
 20
900.0
 30
0.0
  9
$EXTMAX
 10
5550.0
 20
8359.9567845000001
 30
0.0
  9
$LIMMIN
 10
0.0
 20
0.0
  9
$LIMMAX
 10
297.0
 20
210.0
  9
$ORTHOMODE
 70
     0
  9
$REGENMODE
 70
     1
  9
$FILLMODE
 70
     0
  9
$QTEXTMODE
 70
     0
  9
$MIRRTEXT
 70
     1
  9
$DRAGMODE
 70
     2
  9
$LTSCALE
 40
100.0
  9
$OSMODE
 70
    37
  9
$ATTMODE
 70
     1
  9
$TEXTSIZE
 40
180.0
  9
$TRACEWID
 40
0.05
  9
$TEXTSTYLE
  7
STANDARD
  9
$CLAYER
  8
3
  9
$CELTYPE
  6
BYLAYER
  9
$CECOLOR
 62
   256
  9
$DIMSCALE
 40
30.0
  9
$DIMASZ
 40
2.0
  9
$DIMEXO
 40
0.5
  9
$DIMDLI
 40
10.0
  9
$DIMRND
 40
0.0
  9
$DIMDLE
 40
0.0
  9
$DIMEXE
 40
1.0
  9
$DIMTP
 40
1.0
  9
$DIMTM
 40
1.0
  9
$DIMTXT
 40
3.0
  9
$DIMCEN
 40
0.0
  9
$DIMTSZ
 40
0.0
  9
$DIMTOL
 70
     0
  9
$DIMLIM
 70
     0
  9
$DIMTIH
 70
     0
  9
$DIMTOH
 70
     0
  9
$DIMSE1
 70
     0
  9
$DIMSE2
 70
     0
  9
$DIMTAD
 70
     1
  9
$DIMZIN
 70
     8
  9
$DIMBLK
  1

  9
$DIMASO
 70
     1
  9
$DIMSHO
 70
     1
  9
$DIMPOST
  1

  9
$DIMAPOST
  1

  9
$DIMALT
 70
     0
  9
$DIMALTD
 70
     2
  9
$DIMALTF
 40
0.039
  9
$DIMLFAC
 40
1.0
  9
$DIMTOFL
 70
     1
  9
$DIMTVP
 40
0.0
  9
$DIMTIX
 70
     0
  9
$DIMSOXD
 70
     0
  9
$DIMSAH
 70
     1
  9
$DIMBLK1
  1
OPEN
  9
$DIMBLK2
  1
OPEN
  9
$DIMSTYLE
  2
IGA
  9
$DIMCLRD
 70
     0
  9
$DIMCLRE
 70
     0
  9
$DIMCLRT
 70
     0
  9
$DIMTFAC
 40
10.0
  9
$DIMGAP
 40
1.0
  9
$LUNITS
 70
     2
  9
$LUPREC
 70
     3
  9
$SKETCHINC
 40
0.1
  9
$FILLETRAD
 40
50.0
  9
$AUNITS
 70
     0
  9
$AUPREC
 70
     0
  9
$MENU
  1
acad
  9
$ELEVATION
 40
0.0
  9
$PELEVATION
 40
0.0
  9
$THICKNESS
 40
0.0
  9
$LIMCHECK
 70
     0
  9
$BLIPMODE
 70
     0
  9
$CHAMFERA
 40
0.5
  9
$CHAMFERB
 40
0.5
  9
$SKPOLY
 70
     0
  9
$TDCREATE
 40
2450757.4077766198
  9
$TDUPDATE
 40
2454953.6837033331
  9
$TDINDWG
 40
0.0119582407
  9
$TDUSRTIMER
 40
0.0119582407
  9
$USRTIMER
 70
     1
  9
$ANGBASE
 50
0.0
  9
$ANGDIR
 70
     0
  9
$PDMODE
 70
     0
  9
$PDSIZE
 40
0.0
  9
$PLINEWID
 40
0.0
  9
$COORDS
 70
     1
  9
$SPLFRAME
 70
     0
  9
$SPLINETYPE
 70
     6
  9
$SPLINESEGS
 70
     8
  9
$ATTDIA
 70
     0
  9
$ATTREQ
 70
     1
  9
$HANDLING
 70
 10241
  9
$HANDSEED
  5
80F3
  9
$SURFTAB1
 70
     6
  9
$SURFTAB2
 70
     6
  9
$SURFTYPE
 70
     6
  9
$SURFU
 70
     6
  9
$SURFV
 70
     6
  9
$UCSNAME
  2

  9
$UCSORG
 10
0.0
 20
0.0
 30
0.0
  9
$UCSXDIR
 10
1.0
 20
0.0
 30
0.0
  9
$UCSYDIR
 10
0.0
 20
1.0
 30
0.0
  9
$PUCSNAME
  2

  9
$PUCSORG
 10
0.0
 20
0.0
 30
0.0
  9
$PUCSXDIR
 10
1.0
 20
0.0
 30
0.0
  9
$PUCSYDIR
 10
0.0
 20
1.0
 30
0.0
  9
$USERI1
 70
     0
  9
$USERI2
 70
     0
  9
$USERI3
 70
     0
  9
$USERI4
 70
     0
  9
$USERI5
 70
     0
  9
$USERR1
 40
0.0
  9
$USERR2
 40
0.0
  9
$USERR3
 40
0.0
  9
$USERR4
 40
0.0
  9
$USERR5
 40
0.0
  9
$WORLDVIEW
 70
     1
  9
$SHADEDGE
 70
     3
  9
$SHADEDIF
 70
    70
  9
$TILEMODE
 70
     1
  9
$MAXACTVP
 70
    16
  9
$PLIMCHECK
 70
     0
  9
$PEXTMIN
 10
1.0000000000000000E+020
 20
1.0000000000000000E+020
 30
1.0000000000000000E+020
  9
$PEXTMAX
 10
-1.0000000000000000E+020
 20
-1.0000000000000000E+020
 30
-1.0000000000000000E+020
  9
$PLIMMIN
 10
0.0
 20
0.0
  9
$PLIMMAX
 10
12.0
 20
9.0
  9
$UNITMODE
 70
     0
  9
$VISRETAIN
 70
     0
  9
$PLINEGEN
 70
     0
  9
$PSLTSCALE
 70
     1
  0
ENDSEC
  0
SECTION
  2
TABLES
  0
TABLE
  2
VPORT
 70
     2
  0
VPORT
  2
*ACTIVE
 70
     0
 10
0.0
 20
0.0
 11
1.0
 21
1.0
 12
12309.0944667813
 22
3753.3379032498979
 13
0.0
 23
0.0
 14
10.0
 24
10.0
 15
10.0
 25
10.0
 16
0.0
 26
0.0
 36
1.0
 17
0.0
 27
0.0
 37
0.0
 40
9585.3384479549604
 41
3.1666666666666661
 42
50.0
 43
0.0
 44
0.0
 50
0.0
 51
0.0
 71
     0
 72
   100
 73
     1
 74
     0
 75
     0
 76
     0
 77
     0
 78
     0
  0
ENDTAB
  0
TABLE
  2
LTYPE
 70
     2
  0
LTYPE
  2
CONTINUOUS
 70
     0
  3
Solid line
 72
    65
 73
     0
 40
0.0
  0
LTYPE
  2
CENTER
 70
     0
  3
____ _ ____ _ ____ _ ____ _ ____ _ ____ _ ____ 
 72
    65
 73
     4
 40
2.0
 49
1.25
 49
-0.25
 49
0.25
 49
-0.25
  0
ENDTAB
  0
TABLE
  2
LAYER
 70
     6
  0
LAYER
  2
0
 70
     0
 62
     7
  6
CONTINUOUS
  0
LAYER
  2
3
 70
     0
 62
     2
  6
CONTINUOUS
  0
LAYER
  2
2
 70
     0
 62
     3
  6
CENTER
  0
LAYER
  2
1
 70
     0
 62
     4
  6
CONTINUOUS
  0
LAYER
  2
4
 70
     0
 62
     7
  6
CONTINUOUS
  0
LAYER
  2
DEFPOINTS
 70
     0
 62
     7
  6
CONTINUOUS
  0
ENDTAB
  0
TABLE
  2
STYLE
 70
     1
  0
STYLE
  2
STANDARD
 70
     0
 40
0.0
 41
1.0
 50
0.0
 71
     0
 42
180.0
  3
simplex.shx
  4
extfont.shx
  0
ENDTAB
  0
TABLE
  2
VIEW
 70
     0
  0
ENDTAB
  0
TABLE
  2
UCS
 70
     0
  0
ENDTAB
  0
TABLE
  2
APPID
 70
     1
  0
APPID
  2
ACAD
 70
     0
  0
ENDTAB
  0
TABLE
  2
DIMSTYLE
 70
     1
  0
DIMSTYLE
  2
IGA
 70
     0
  3

  4

  5

  6
OPEN
  7
OPEN
 40
2.0
 41
2.0
 42
0.5
 43
10.0
 44
1.0
 45
0.0
 46
0.0
 47
1.0
 48
1.0
140
3.0
141
0.0
142
0.0
143
0.03937
144
1.0
145
0.0
146
10.0
147
1.0
 71
     0
 72
     0
 73
     0
 74
     0
 75
     0
 76
     0
 77
     1
 78
     8
170
     0
171
     2
172
     0
173
     1
174
     0
175
     0
176
     0
177
     0
178
     0
  0
ENDTAB
  0
ENDSEC
  0
SECTION
  2
BLOCKS
  0
BLOCK
  8
0
  2
$MODEL_SPACE
 70
     0
 10
0.0
 20
0.0
 30
0.0
  3
$MODEL_SPACE
  1

  0
ENDBLK
  5
1B
  8
0
  0
BLOCK
 67
     1
  8
0
  2
$PAPER_SPACE
 70
     0
 10
0.0
 20
0.0
 30
0.0
  3
$PAPER_SPACE
  1

  0
ENDBLK
  5
18
 67
     1
  8
0
  0
BLOCK
  8
0
  2
_OPEN
 70
     0
 10
0.0
 20
0.0
 30
0.0
  3
_OPEN
  1

  0
LINE
  5
7AE2
  8
0
  6
BYBLOCK
 62
     0
 10
-1.0
 20
0.166667
 30
0.0
 11
0.0
 21
0.0
 31
0.0
  0
LINE
  5
7AE3
  8
0
  6
BYBLOCK
 62
     0
 10
0.0
 20
0.0
 30
0.0
 11
-1.0
 21
-0.166667
 31
0.0
  0
LINE
  5
7AE4
  8
0
  6
BYBLOCK
 62
     0
 10
0.0
 20
0.0
 30
0.0
 11
-1.0
 21
0.0
 31
0.0
  0
ENDBLK
  5
7AE5
  8
0
  0
BLOCK
  8
0
  2
*D1
 70
     1
 10
0.0
 20
0.0
 30
0.0
  3
*D1
  1

  0
LINE
  5
8061
  8
3
  6
CONTINUOUS
 62
     0
 10
1319.6532090452311
 20
2699.2807702202531
 30
0.0
 11
1319.6532090452311
 21
2486.0084622202539
 31
0.0
  0
LINE
  5
8062
  8
3
  6
CONTINUOUS
 62
     0
 10
2319.6532090452311
 20
2673.561656220254
 30
0.0
 11
2319.6532090452311
 21
2486.0084622202539
 31
0.0
  0
LINE
  5
8063
  8
3
  6
CONTINUOUS
 62
     0
 10
1379.6532090452311
 20
2516.0084622202539
 30
0.0
 11
2259.6532090452311
 21
2516.0084622202539
 31
0.0
  0
INSERT
  5
8064
  8
3
  6
CONTINUOUS
 62
     0
  2
_OPEN
 10
1319.6532090452311
 20
2516.0084622202539
 30
0.0
 41
60.0
 42
60.0
 43
60.0
 50
180.0
  0
INSERT
  5
8065
  8
3
  6
CONTINUOUS
 62
     0
  2
_OPEN
 10
2319.6532090452311
 20
2516.0084622202539
 30
0.0
 41
60.0
 42
60.0
 43
60.0
  0
TEXT
  8
3
  40
90
  5
80E4
  62
0
  72
0
  71
0
 10
1634.83
 20
2431.71
 30
0.000000
  1
1000
  0
POINT
  5
8067
  8
DEFPOINTS
  6
CONTINUOUS
 62
     0
 10
1319.6532090452311
 20
2714.2807702202531
 30
0.0
  0
POINT
  5
8068
  8
DEFPOINTS
  6
CONTINUOUS
 62
     0
 10
2319.6532090452311
 20
2688.561656220254
 30
0.0
  0
POINT
  5
8069
  8
DEFPOINTS
  6
CONTINUOUS
 62
     0
 10
2319.6532090452311
 20
2516.0084622202539
 30
0.0
  0
ENDBLK
  5
7E96
  8
0
  0
BLOCK
  8
0
  2
*D2
 70
     1
 10
0.0
 20
0.0
 30
0.0
  3
*D2
  1

  0
LINE
  5
7EC4
  8
0
  6
BYBLOCK
 62
     0
 10
2319.6532090452311
 20
2673.561656220254
 30
0.0
 11
2319.6532090452311
 21
2485.4672312202529
 31
0.0
  0
LINE
  5
7EC5
  8
0
  6
BYBLOCK
 62
     0
 10
2719.6532090452311
 20
2699.2807702202531
 30
0.0
 11
2719.6532090452311
 21
2485.4672312202529
 31
0.0
  0
LINE
  5
7EC6
  8
0
  6
BYBLOCK
 62
     0
 10
2379.6532090452311
 20
2515.4672312202538
 30
0.0
 11
2659.6532090452311
 21
2515.4672312202538
 31
0.0
  0
TEXT
  5
7EC7
  8
3
 62
     0
 10
2402.9065530439152
 20
2541.1348877027699
 30
0.0
 40
90.0
  1
400
  0
INSERT
  5
7EC8
  8
0
  6
BYBLOCK
 62
     0
  2
_OPEN
 10
2319.6532090452311
 20
2515.4672312202538
 30
0.0
 41
60.0
 42
60.0
 43
60.0
 50
180.0
  0
INSERT
  5
7EC9
  8
0
  6
BYBLOCK
 62
     0
  2
_OPEN
 10
2719.6532090452311
 20
2515.4672312202538
 30
0.0
 41
60.0
 42
60.0
 43
60.0
  0
POINT
  5
7ECA
  8
DEFPOINTS
  6
BYBLOCK
 62
     0
 10
2319.6532090452311
 20
2688.561656220254
 30
0.0
  0
POINT
  5
7ECB
  8
DEFPOINTS
  6
BYBLOCK
 62
     0
 10
2719.6532090452311
 20
2714.2807702202531
 30
0.0
  0
POINT
  5
7ECC
  8
DEFPOINTS
  6
BYBLOCK
 62
     0
 10
2719.6532090452311
 20
2515.4672312202538
 30
0.0
  0
ENDBLK
  5
7ECD
  8
0
  0
BLOCK
  8
0
  2
*D3
 70
     1
 10
0.0
 20
0.0
 30
0.0
  3
*D3
  1

  0
LINE
  5
806A
  8
3
  6
CONTINUOUS
 62
     0
 10
1641.6532090452311
 20
3969.2807702202531
 30
0.0
 11
1641.6532090452311
 21
4142.0823392202528
 31
0.0
  0
LINE
  5
806B
  8
3
  6
CONTINUOUS
 62
     0
 10
2291.6532090452311
 20
3969.2807702202531
 30
0.0
 11
2291.6532090452311
 21
4142.0823392202528
 31
0.0
  0
LINE
  5
806C
  8
3
  6
CONTINUOUS
 62
     0
 10
1701.6532090452311
 20
4112.0823392202528
 30
0.0
 11
2231.6532090452311
 21
4112.0823392202528
 31
0.0
  0
INSERT
  5
806D
  8
3
  6
CONTINUOUS
 62
     0
  2
_OPEN
 10
1641.6532090452311
 20
4112.0823392202528
 30
0.0
 41
60.0
 42
60.0
 43
60.0
 50
180.0
  0
INSERT
  5
806E
  8
3
  6
CONTINUOUS
 62
     0
  2
_OPEN
 10
2291.6532090452311
 20
4112.0823392202528
 30
0.0
 41
60.0
 42
60.0
 43
60.0
  0
TEXT
  8
3
  40
90
  5
80E5
  62
0
  72
0
  71
0
 10
1790.06
 20
4027.78
 30
0.000000
  1
650
  0
POINT
  5
8070
  8
DEFPOINTS
  6
CONTINUOUS
 62
     0
 10
1641.6532090452311
 20
3954.280770220254
 30
0.0
  0
POINT
  5
8071
  8
DEFPOINTS
  6
CONTINUOUS
 62
     0
 10
2291.6532090452311
 20
3954.280770220254
 30
0.0
  0
POINT
  5
8072
  8
DEFPOINTS
  6
CONTINUOUS
 62
     0
 10
2291.6532090452311
 20
4112.0823392202528
 30
0.0
  0
ENDBLK
  5
7E7E
  8
0
  0
BLOCK
  8
0
  2
*D4
 70
     1
 10
0.0
 20
0.0
 30
0.0
  3
*D4
  1

  0
LINE
  5
8073
  8
3
  6
CONTINUOUS
 62
     0
 10
1641.6532090452311
 20
3969.2807702202531
 30
0.0
 11
1641.6532090452311
 21
4332.5779722202542
 31
0.0
  0
LINE
  5
8074
  8
3
  6
CONTINUOUS
 62
     0
 10
2319.6532090452311
 20
3886.5593572202538
 30
0.0
 11
2319.6532090452311
 21
4332.5779722202542
 31
0.0
  0
LINE
  5
8075
  8
3
  6
CONTINUOUS
 62
     0
 10
1701.6532090452311
 20
4302.5779722202542
 30
0.0
 11
2259.6532090452311
 21
4302.5779722202542
 31
0.0
  0
INSERT
  5
8076
  8
3
  6
CONTINUOUS
 62
     0
  2
_OPEN
 10
1641.6532090452311
 20
4302.5779722202542
 30
0.0
 41
60.0
 42
60.0
 43
60.0
 50
180.0
  0
INSERT
  5
8077
  8
3
  6
CONTINUOUS
 62
     0
  2
_OPEN
 10
2319.6532090452311
 20
4302.5779722202542
 30
0.0
 41
60.0
 42
60.0
 43
60.0
  0
TEXT
  8
3
  40
90
  5
80E6
  62
0
  72
0
  71
0
 10
1790.06
 20
4218.28
 30
0.000000
  1
678
  0
POINT
  5
8079
  8
DEFPOINTS
  6
CONTINUOUS
 62
     0
 10
1641.6532090452311
 20
3954.280770220254
 30
0.0
  0
POINT
  5
807A
  8
DEFPOINTS
  6
CONTINUOUS
 62
     0
 10
2319.6532090452311
 20
3871.5593572202538
 30
0.0
  0
POINT
  5
807B
  8
DEFPOINTS
  6
CONTINUOUS
 62
     0
 10
2319.6532090452311
 20
4302.5779722202542
 30
0.0
  0
ENDBLK
  5
7E73
  8
0
  0
BLOCK
  8
0
  2
*D5
 70
     1
 10
0.0
 20
0.0
 30
0.0
  3
*D5
  1

  0
LINE
  5
807C
  8
3
  6
CONTINUOUS
 62
     0
 10
2319.6532090452311
 20
3886.5593572202538
 30
0.0
 11
2319.6532090452311
 21
4332.5779722202542
 31
0.0
  0
LINE
  5
807D
  8
3
  6
CONTINUOUS
 62
     0
 10
2773.3521300452298
 20
3509.2807702202531
 30
0.0
 11
2773.3521300452298
 21
4332.5779722202542
 31
0.0
  0
LINE
  5
807E
  8
3
  6
CONTINUOUS
 62
     0
 10
2379.6532090452311
 20
4302.5779722202542
 30
0.0
 11
2713.3521300452298
 21
4302.5779722202542
 31
0.0
  0
INSERT
  5
807F
  8
3
  6
CONTINUOUS
 62
     0
  2
_OPEN
 10
2319.6532090452311
 20
4302.5779722202542
 30
0.0
 41
60.0
 42
60.0
 43
60.0
 50
180.0
  0
INSERT
  5
8080
  8
3
  6
CONTINUOUS
 62
     0
  2
_OPEN
 10
2773.3521300452298
 20
4302.5779722202542
 30
0.0
 41
60.0
 42
60.0
 43
60.0
  0
TEXT
  8
3
  40
90
  5
80E7
  62
0
  72
0
  71
0
 10
2347.51
 20
4218.28
 30
0.000000
  1
454
  0
POINT
  5
8082
  8
DEFPOINTS
  6
CONTINUOUS
 62
     0
 10
2319.6532090452311
 20
3871.5593572202538
 30
0.0
  0
POINT
  5
8083
  8
DEFPOINTS
  6
CONTINUOUS
 62
     0
 10
2773.3521300452298
 20
3494.2807702202531
 30
0.0
  0
POINT
  5
8084
  8
DEFPOINTS
  6
CONTINUOUS
 62
     0
 10
2773.3521300452298
 20
4302.5779722202542
 30
0.0
  0
ENDBLK
  5
7E68
  8
0
  0
BLOCK
  8
0
  2
*D6
 70
     1
 10
0.0
 20
0.0
 30
0.0
  3
*D6
  1

  0
LINE
  5
8085
  8
3
  6
CONTINUOUS
 62
     0
 10
2348.6532090452311
 20
3954.280770220254
 30
0.0
 11
3081.7211690452309
 21
3954.2807702202531
 31
0.0
  0
LINE
  5
8086
  8
3
  6
CONTINUOUS
 62
     0
 10
2788.3521300452298
 20
3494.2807702202531
 30
0.0
 11
3081.7211690452309
 21
3494.2807702202531
 31
0.0
  0
LINE
  5
8087
  8
3
  6
CONTINUOUS
 62
     0
 10
3051.7211690452309
 20
3894.2807702202531
 30
0.0
 11
3051.7211690452309
 21
3554.280770220254
 31
0.0
  0
INSERT
  5
8088
  8
3
  6
CONTINUOUS
 62
     0
  2
_OPEN
 10
3051.7211690452309
 20
3954.280770220254
 30
0.0
 41
60.0
 42
60.0
 43
60.0
 50
90.0
  0
INSERT
  5
8089
  8
3
  6
CONTINUOUS
 62
     0
  2
_OPEN
 10
3051.7211690452309
 20
3494.2807702202531
 30
0.0
 41
60.0
 42
60.0
 43
60.0
 50
270.0
  0
TEXT
  8
3
  40
90
  5
80E8
  62
0
  72
0
  71
0
 10
2796.72
 20
3589.27
 30
0.000000
  1
460
  0
POINT
  5
808B
  8
DEFPOINTS
  6
CONTINUOUS
 62
     0
 10
2333.6532090452311
 20
3954.280770220254
 30
0.0
  0
POINT
  5
808C
  8
DEFPOINTS
  6
CONTINUOUS
 62
     0
 10
2773.3521300452298
 20
3494.2807702202531
 30
0.0
  0
POINT
  5
808D
  8
DEFPOINTS
  6
CONTINUOUS
 62
     0
 10
3051.7211690452309
 20
3494.2807702202531
 30
0.0
  0
ENDBLK
  5
7E5D
  8
0
  0
BLOCK
  8
0
  2
*D7
 70
     1
 10
0.0
 20
0.0
 30
0.0
  3
*D7
  1

  0
LINE
  5
808E
  8
3
 62
     0
 10
2788.3521300452298
 20
3494.2807702202531
 30
0.0
 11
3081.7211690452309
 21
3494.2807702202531
 31
0.0
  0
LINE
  5
808F
  8
3
 62
     0
 10
2734.6532090452311
 20
2914.2807702202531
 30
0.0
 11
3081.7211690452309
 21
2914.2807702202531
 31
0.0
  0
LINE
  5
8090
  8
3
 62
     0
 10
3051.7211690452309
 20
3434.2807702202531
 30
0.0
 11
3051.7211690452309
 21
2974.280770220254
 31
0.0
  0
INSERT
  5
8091
  8
3
 62
     0
  2
_OPEN
 10
3051.7211690452309
 20
3494.2807702202531
 30
0.0
 41
60.0
 42
60.0
 43
60.0
 50
90.0
  0
INSERT
  5
8092
  8
3
 62
     0
  2
_OPEN
 10
3051.7211690452309
 20
2914.2807702202531
 30
0.0
 41
60.0
 42
60.0
 43
60.0
 50
270.0
  0
TEXT
  8
3
  40
90
  5
80E9
  62
0
  72
0
  71
0
 10
2796.72
 20
3044.98
 30
0.000000
  1
580
  0
POINT
  5
8094
  8
DEFPOINTS
 62
     0
 10
2773.3521300452298
 20
3494.2807702202531
 30
0.0
  0
POINT
  5
8095
  8
DEFPOINTS
 62
     0
 10
2719.6532090452311
 20
2914.2807702202531
 30
0.0
  0
POINT
  5
8096
  8
DEFPOINTS
 62
     0
 10
3051.7211690452309
 20
2914.2807702202531
 30
0.0
  0
ENDBLK
  5
7E52
  8
0
  0
BLOCK
  8
0
  2
*D8
 70
     1
 10
0.0
 20
0.0
 30
0.0
  3
*D8
  1

  0
LINE
  5
8097
  8
3
  6
CONTINUOUS
 62
     0
 10
2348.6532090452311
 20
3954.280770220254
 30
0.0
 11
3294.1339540452309
 21
3954.2807702202531
 31
0.0
  0
LINE
  5
8098
  8
3
  6
CONTINUOUS
 62
     0
 10
2734.6532090452311
 20
2714.2807702202531
 30
0.0
 11
3294.13395404523
 21
2714.2807702202531
 31
0.0
  0
LINE
  5
8099
  8
3
  6
CONTINUOUS
 62
     0
 10
3264.13395404523
 20
3894.2807702202531
 30
0.0
 11
3264.13395404523
 21
2774.2807702202522
 31
0.0
  0
INSERT
  5
809A
  8
3
  6
CONTINUOUS
 62
     0
  2
_OPEN
 10
3264.13395404523
 20
3954.2807702202531
 30
0.0
 41
60.0
 42
60.0
 43
60.0
 50
90.0
  0
INSERT
  5
809B
  8
3
  6
CONTINUOUS
 62
     0
  2
_OPEN
 10
3264.13395404523
 20
2714.2807702202531
 30
0.0
 41
60.0
 42
60.0
 43
60.0
 50
270.0
  0
TEXT
  8
3
  40
90
  5
80EA
  62
0
  72
0
  71
0
 10
3009.13
 20
3249.59
 30
0.000000
  1
1240
  0
POINT
  5
809D
  8
DEFPOINTS
  6
CONTINUOUS
 62
     0
 10
2333.6532090452311
 20
3954.280770220254
 30
0.0
  0
POINT
  5
809E
  8
DEFPOINTS
  6
CONTINUOUS
 62
     0
 10
2719.6532090452311
 20
2714.2807702202531
 30
0.0
  0
POINT
  5
809F
  8
DEFPOINTS
  6
CONTINUOUS
 62
     0
 10
3264.13395404523
 20
2714.2807702202531
 30
0.0
  0
ENDBLK
  5
7E47
  8
0
  0
BLOCK
  8
0
  2
*D9
 70
     1
 10
0.0
 20
0.0
 30
0.0
  3
*D9
  1

  0
LINE
  5
80A0
  8
3
  6
CONTINUOUS
 62
     0
 10
1319.6532090452311
 20
5444.2566881217863
 30
0.0
 11
1319.6532090452311
 21
5013.1209511217839
 31
0.0
  0
LINE
  5
80A1
  8
3
  6
CONTINUOUS
 62
     0
 10
2719.6532090452311
 20
5444.2566881217863
 30
0.0
 11
2719.6532090452311
 21
5013.1209511217839
 31
0.0
  0
LINE
  5
80A2
  8
3
  6
CONTINUOUS
 62
     0
 10
1379.6532090452311
 20
5043.1209511217849
 30
0.0
 11
2659.6532090452311
 21
5043.1209511217849
 31
0.0
  0
INSERT
  5
80A3
  8
3
  6
CONTINUOUS
 62
     0
  2
_OPEN
 10
1319.6532090452311
 20
5043.1209511217849
 30
0.0
 41
60.0
 42
60.0
 43
60.0
 50
180.0
  0
INSERT
  5
80A4
  8
3
  6
CONTINUOUS
 62
     0
  2
_OPEN
 10
2719.6532090452311
 20
5043.1209511217849
 30
0.0
 41
60.0
 42
60.0
 43
60.0
  0
TEXT
  8
3
  40
90
  5
80EB
  62
0
  72
0
  71
0
 10
1833.63
 20
4958.82
 30
0.000000
  1
1400
  0
POINT
  5
80A6
  8
DEFPOINTS
  6
CONTINUOUS
 62
     0
 10
1319.6532090452311
 20
5459.2566881217863
 30
0.0
  0
POINT
  5
80A7
  8
DEFPOINTS
  6
CONTINUOUS
 62
     0
 10
2719.6532090452311
 20
5459.2566881217863
 30
0.0
  0
POINT
  5
80A8
  8
DEFPOINTS
  6
CONTINUOUS
 62
     0
 10
2719.6532090452311
 20
5043.1209511217849
 30
0.0
  0
ENDBLK
  5
7E3C
  8
0
  0
BLOCK
  8
0
  2
*D10
 70
     1
 10
0.0
 20
0.0
 30
0.0
  3
*D10
  1

  0
LINE
  5
80A9
  8
3
  6
CONTINUOUS
 62
     0
 10
2734.6532090452311
 20
6149.2566881217854
 30
0.0
 11
3078.4583450452301
 21
6149.2566881217854
 31
0.0
  0
LINE
  5
80AA
  8
3
  6
CONTINUOUS
 62
     0
 10
2734.6532090452311
 20
5459.2566881217863
 30
0.0
 11
3078.4583450452301
 21
5459.2566881217863
 31
0.0
  0
LINE
  5
80AB
  8
3
  6
CONTINUOUS
 62
     0
 10
3048.458345045231
 20
6089.2566881217854
 30
0.0
 11
3048.458345045231
 21
5519.2566881217854
 31
0.0
  0
INSERT
  5
80AC
  8
3
  6
CONTINUOUS
 62
     0
  2
_OPEN
 10
3048.458345045231
 20
6149.2566881217854
 30
0.0
 41
60.0
 42
60.0
 43
60.0
 50
90.0
  0
INSERT
  5
80AD
  8
3
  6
CONTINUOUS
 62
     0
  2
_OPEN
 10
3048.458345045231
 20
5459.2566881217863
 30
0.0
 41
60.0
 42
60.0
 43
60.0
 50
270.0
  0
TEXT
  8
3
  40
90
  5
80EC
  62
0
  72
0
  71
0
 10
2793.46
 20
5668.39
 30
0.000000
  1
690
  0
POINT
  5
80AF
  8
DEFPOINTS
  6
CONTINUOUS
 62
     0
 10
2719.6532090452311
 20
6149.2566881217854
 30
0.0
  0
POINT
  5
80B0
  8
DEFPOINTS
  6
CONTINUOUS
 62
     0
 10
2719.6532090452311
 20
5459.2566881217863
 30
0.0
  0
POINT
  5
80B1
  8
DEFPOINTS
  6
CONTINUOUS
 62
     0
 10
3048.458345045231
 20
5459.2566881217863
 30
0.0
  0
ENDBLK
  5
7E31
  8
0
  0
BLOCK
  8
0
  2
*D11
 70
     1
 10
0.0
 20
0.0
 30
0.0
  3
*D11
  1

  0
LINE
  5
80B2
  8
3
  6
CONTINUOUS
 62
     0
 10
4766.1357333021642
 20
3809.2807702202531
 30
0.0
 11
5040.069179302166
 21
3809.2807702202531
 31
0.0
  0
LINE
  5
80B3
  8
3
  6
CONTINUOUS
 62
     0
 10
4766.1357333021642
 20
3179.280770220254
 30
0.0
 11
5040.069179302166
 21
3179.280770220254
 31
0.0
  0
LINE
  5
80B4
  8
3
  6
CONTINUOUS
 62
     0
 10
5010.069179302166
 20
3749.2807702202531
 30
0.0
 11
5010.069179302166
 21
3239.280770220254
 31
0.0
  0
INSERT
  5
80B5
  8
3
  6
CONTINUOUS
 62
     0
  2
_OPEN
 10
5010.069179302166
 20
3809.2807702202531
 30
0.0
 41
60.0
 42
60.0
 43
60.0
 50
90.0
  0
INSERT
  5
80B6
  8
3
  6
CONTINUOUS
 62
     0
  2
_OPEN
 10
5010.069179302166
 20
3179.280770220254
 30
0.0
 41
60.0
 42
60.0
 43
60.0
 50
270.0
  0
TEXT
  8
3
  40
90
  5
80ED
  62
0
  72
0
  71
0
 10
4755.07
 20
3348.60
 30
0.000000
  1
φ630
  0
POINT
  5
80B8
  8
DEFPOINTS
  6
CONTINUOUS
 62
     0
 10
4751.1357333021642
 20
3809.2807702202531
 30
0.0
  0
POINT
  5
80B9
  8
DEFPOINTS
  6
CONTINUOUS
 62
     0
 10
4751.1357333021642
 20
3179.280770220254
 30
0.0
  0
POINT
  5
80BA
  8
DEFPOINTS
  6
CONTINUOUS
 62
     0
 10
5010.069179302166
 20
3179.280770220254
 30
0.0
  0
ENDBLK
  5
7EF9
  8
0
  0
BLOCK
  8
0
  2
*D12
 70
     1
 10
0.0
 20
0.0
 30
0.0
  3
*D12
  1

  0
LINE
  5
80BB
  8
3
  6
CONTINUOUS
 62
     0
 10
4193.6357333021642
 20
3969.2807702202531
 30
0.0
 11
4193.6357333021642
 21
4082.9925992202539
 31
0.0
  0
LINE
  5
80BC
  8
3
  6
CONTINUOUS
 62
     0
 10
4668.6357333021633
 20
3969.2807702202531
 30
0.0
 11
4668.6357333021633
 21
4082.9925992202539
 31
0.0
  0
LINE
  5
80BD
  8
3
  6
CONTINUOUS
 62
     0
 10
4253.6357333021633
 20
4052.9925992202539
 30
0.0
 11
4608.6357333021642
 21
4052.9925992202539
 31
0.0
  0
INSERT
  5
80BE
  8
3
  6
CONTINUOUS
 62
     0
  2
_OPEN
 10
4193.6357333021642
 20
4052.9925992202539
 30
0.0
 41
60.0
 42
60.0
 43
60.0
 50
180.0
  0
INSERT
  5
80BF
  8
3
  6
CONTINUOUS
 62
     0
  2
_OPEN
 10
4668.6357333021633
 20
4052.9925992202539
 30
0.0
 41
60.0
 42
60.0
 43
60.0
  0
TEXT
  8
3
  40
90
  5
80EE
  62
0
  72
0
  71
0
 10
4251.14
 20
3968.69
 30
0.000000
  1
475
  0
POINT
  5
80C1
  8
DEFPOINTS
  6
CONTINUOUS
 62
     0
 10
4193.6357333021642
 20
3954.280770220254
 30
0.0
  0
POINT
  5
80C2
  8
DEFPOINTS
  6
CONTINUOUS
 62
     0
 10
4668.6357333021633
 20
3954.280770220254
 30
0.0
  0
POINT
  5
80C3
  8
DEFPOINTS
  6
CONTINUOUS
 62
     0
 10
4668.6357333021633
 20
4052.9925992202539
 30
0.0
  0
ENDBLK
  5
7E1B
  8
0
  0
BLOCK
  8
0
  2
*D13
 70
     1
 10
0.0
 20
0.0
 30
0.0
  3
*D13
  1

  0
LINE
  5
80C4
  8
3
  6
CONTINUOUS
 62
     0
 10
3951.1357333021642
 20
3699.2807702202531
 30
0.0
 11
3951.1357333021642
 21
4308.3749975010796
 31
0.0
  0
LINE
  5
80C5
  8
3
  6
CONTINUOUS
 62
     0
 10
4431.1357333021642
 20
4211.14334981293
 30
0.0
 11
4431.1357333021642
 21
4308.3749975010796
 31
0.0
  0
LINE
  5
80C6
  8
3
  6
CONTINUOUS
 62
     0
 10
4011.1357333021642
 20
4278.3749975010815
 30
0.0
 11
4371.1357333021642
 21
4278.3749975010815
 31
0.0
  0
INSERT
  5
80C7
  8
3
  6
CONTINUOUS
 62
     0
  2
_OPEN
 10
3951.1357333021642
 20
4278.3749975010815
 30
0.0
 41
60.0
 42
60.0
 43
60.0
 50
180.0
  0
INSERT
  5
80C8
  8
3
  6
CONTINUOUS
 62
     0
  2
_OPEN
 10
4431.1357333021642
 20
4278.3749975010815
 30
0.0
 41
60.0
 42
60.0
 43
60.0
  0
TEXT
  8
3
  40
90
  5
80EF
  62
0
  72
0
  71
0
 10
3989.71
 20
4269.07
 30
0.000000
  1
MAX
  0
TEXT
  8
3
  40
90
  5
80F0
  62
0
  72
0
  71
0
 10
3989.71
 20
4152.07
 30
0.000000
  1
550
  0
POINT
  5
80CA
  8
DEFPOINTS
  6
CONTINUOUS
 62
     0
 10
3951.1357333021642
 20
3684.2807702202531
 30
0.0
  0
POINT
  5
80CB
  8
DEFPOINTS
  6
CONTINUOUS
 62
     0
 10
4431.1357333021642
 20
4196.14334981293
 30
0.0
  0
POINT
  5
80CC
  8
DEFPOINTS
  6
CONTINUOUS
 62
     0
 10
4431.1357333021642
 20
4278.3749975010815
 30
0.0
  0
ENDBLK
  5
7F8D
  8
0
  0
BLOCK
  8
0
  2
*D14
 70
     1
 10
0.0
 20
0.0
 30
0.0
  3
*D14
  1

  0
LINE
  5
7F32
  8
0
  6
BYBLOCK
 62
     0
 10
4431.1357333021642
 20
4221.8410815187272
 30
0.0
 11
4431.1357333021642
 21
4308.3749975010796
 31
0.0
  0
LINE
  5
7F33
  8
0
  6
BYBLOCK
 62
     0
 10
4751.1357333021642
 20
3864.280770220254
 30
0.0
 11
4751.1357333021642
 21
4308.3749975010796
 31
0.0
  0
LINE
  5
7F34
  8
0
  6
BYBLOCK
 62
     0
 10
4491.1357333021642
 20
4278.3749975010815
 30
0.0
 11
4691.1357333021633
 21
4278.3749975010815
 31
0.0
  0
TEXT
  5
7F35
  8
3
 62
     0
 10
4479.9803646964911
 20
4306.2604472691164
 30
0.0
 40
90.0
  1
320
  0
INSERT
  5
7F36
  8
0
  6
BYBLOCK
 62
     0
  2
_OPEN
 10
4431.1357333021642
 20
4278.3749975010815
 30
0.0
 41
60.0
 42
60.0
 43
60.0
 50
180.0
  0
INSERT
  5
7F37
  8
0
  6
BYBLOCK
 62
     0
  2
_OPEN
 10
4751.1357333021642
 20
4278.3749975010815
 30
0.0
 41
60.0
 42
60.0
 43
60.0
  0
POINT
  5
7F38
  8
DEFPOINTS
  6
BYBLOCK
 62
     0
 10
4431.1357333021642
 20
4206.8410815187272
 30
0.0
  0
POINT
  5
7F39
  8
DEFPOINTS
  6
BYBLOCK
 62
     0
 10
4751.1357333021642
 20
3849.2807702202531
 30
0.0
  0
POINT
  5
7F3A
  8
DEFPOINTS
  6
BYBLOCK
 62
     0
 10
4751.1357333021642
 20
4278.3749975010815
 30
0.0
  0
ENDBLK
  5
7F3B
  8
0
  0
BLOCK
  8
0
  2
*D15
 70
     1
 10
0.0
 20
0.0
 30
0.0
  3
*D15
  1

  0
LINE
  5
7ECF
  8
0
  6
BYBLOCK
 62
     0
 10
4031.1357333021629
 20
2699.2807702202531
 30
0.0
 11
4031.1357333021629
 21
2493.0261730147672
 31
0.0
  0
LINE
  5
7ED0
  8
0
  6
BYBLOCK
 62
     0
 10
4431.1357333021642
 20
2661.5138722202541
 30
0.0
 11
4431.1357333021642
 21
2493.0261730147672
 31
0.0
  0
LINE
  5
7ED1
  8
0
  6
BYBLOCK
 62
     0
 10
4091.1357333021642
 20
2523.0261730147672
 30
0.0
 11
4371.1357333021642
 21
2523.0261730147672
 31
0.0
  0
TEXT
  5
7ED2
  8
3
 62
     0
 10
4121.3104312110991
 20
2541.1348877027699
 30
0.0
 40
90.0
  1
400
  0
INSERT
  5
7ED3
  8
0
  6
BYBLOCK
 62
     0
  2
_OPEN
 10
4031.1357333021629
 20
2523.0261730147672
 30
0.0
 41
60.0
 42
60.0
 43
60.0
 50
180.0
  0
INSERT
  5
7ED4
  8
0
  6
BYBLOCK
 62
     0
  2
_OPEN
 10
4431.1357333021642
 20
2523.0261730147672
 30
0.0
 41
60.0
 42
60.0
 43
60.0
  0
POINT
  5
7ED5
  8
DEFPOINTS
  6
BYBLOCK
 62
     0
 10
4031.1357333021629
 20
2714.2807702202531
 30
0.0
  0
POINT
  5
7ED6
  8
DEFPOINTS
  6
BYBLOCK
 62
     0
 10
4431.1357333021642
 20
2676.5138722202528
 30
0.0
  0
POINT
  5
7ED7
  8
DEFPOINTS
  6
BYBLOCK
 62
     0
 10
4431.1357333021642
 20
2523.0261730147672
 30
0.0
  0
ENDBLK
  5
7ED8
  8
0
  0
BLOCK
  8
0
  2
*D16
 70
     1
 10
0.0
 20
0.0
 30
0.0
  3
*D16
  1

  0
LINE
  5
7EDA
  8
0
  6
BYBLOCK
 62
     0
 10
4431.1357333021642
 20
2661.5138722202541
 30
0.0
 11
4431.1357333021642
 21
2493.0261730147672
 31
0.0
  0
LINE
  5
7EDB
  8
0
  6
BYBLOCK
 62
     0
 10
4721.1357333021651
 20
2699.2807702202531
 30
0.0
 11
4721.1357333021651
 21
2493.0261730147672
 31
0.0
  0
LINE
  5
7EDC
  8
0
  6
BYBLOCK
 62
     0
 10
4491.1357333021642
 20
2523.0261730147672
 30
0.0
 11
4661.1357333021642
 21
2523.0261730147672
 31
0.0
  0
TEXT
  5
7EDD
  8
3
 62
     0
 10
4458.5672639564036
 20
2557.1814729836001
 30
0.0
 40
90.0
  1
290
  0
INSERT
  5
7EDE
  8
0
  6
BYBLOCK
 62
     0
  2
_OPEN
 10
4431.1357333021642
 20
2523.0261730147672
 30
0.0
 41
60.0
 42
60.0
 43
60.0
 50
180.0
  0
INSERT
  5
7EDF
  8
0
  6
BYBLOCK
 62
     0
  2
_OPEN
 10
4721.1357333021651
 20
2523.0261730147672
 30
0.0
 41
60.0
 42
60.0
 43
60.0
  0
POINT
  5
7EE0
  8
DEFPOINTS
  6
BYBLOCK
 62
     0
 10
4431.1357333021642
 20
2676.5138722202528
 30
0.0
  0
POINT
  5
7EE1
  8
DEFPOINTS
  6
BYBLOCK
 62
     0
 10
4721.1357333021651
 20
2714.2807702202531
 30
0.0
  0
POINT
  5
7EE2
  8
DEFPOINTS
  6
BYBLOCK
 62
     0
 10
4721.1357333021651
 20
2523.0261730147672
 30
0.0
  0
ENDBLK
  5
7EE3
  8
0
  0
BLOCK
  8
0
  2
*D17
 70
     1
 10
0.0
 20
0.0
 30
0.0
  3
*D17
  1

  0
LINE
  5
80CD
  8
3
 62
     0
 10
2734.6532090452311
 20
2814.2807702202531
 30
0.0
 11
3081.7211690452309
 21
2814.2807702202531
 31
0.0
  0
LINE
  5
80CE
  8
3
 62
     0
 10
2734.6532090452311
 20
2714.2807702202531
 30
0.0
 11
3081.7211690452309
 21
2714.2807702202531
 31
0.0
  0
LINE
  5
80CF
  8
3
 62
     0
 10
3051.7211690452309
 20
2874.280770220254
 30
0.0
 11
3051.7211690452309
 21
2934.2807702202531
 31
0.0
  0
LINE
  5
80D0
  8
3
 62
     0
 10
3051.7211690452309
 20
2654.2807702202531
 30
0.0
 11
3051.7211690452309
 21
2319.995055934538
 31
0.0
  0
LINE
  5
80D1
  8
3
 62
     0
 10
3051.7211690452309
 20
2814.2807702202531
 30
0.0
 11
3051.7211690452309
 21
2714.2807702202531
 31
0.0
  0
INSERT
  5
80D2
  8
3
 62
     0
  2
_DOT
 10
3051.7211690452309
 20
2814.2807702202531
 30
0.0
 41
60.0
 42
60.0
 43
60.0
 50
270.0
  0
INSERT
  5
80D3
  8
3
 62
     0
  2
_OPEN
 10
3051.7211690452309
 20
2714.2807702202531
 30
0.0
 41
60.0
 42
60.0
 43
60.0
 50
90.0
  0
TEXT
  8
3
  40
90
  5
80F1
  62
0
  72
0
  71
0
 10
2796.72
 20
2297.84
 30
0.000000
  1
100
  0
POINT
  5
80D5
  8
DEFPOINTS
 62
     0
 10
2719.6532090452311
 20
2814.2807702202531
 30
0.0
  0
POINT
  5
80D6
  8
DEFPOINTS
 62
     0
 10
2719.6532090452311
 20
2714.2807702202531
 30
0.0
  0
POINT
  5
80D7
  8
DEFPOINTS
 62
     0
 10
3051.7211690452309
 20
2714.2807702202531
 30
0.0
  0
ENDBLK
  5
7F64
  8
0
  0
BLOCK
  8
0
  2
_DOT
 70
     0
 10
0.0
 20
0.0
 30
0.0
  3
_DOT
  1

  0
LINE
  5
7F71
  8
0
  6
BYBLOCK
 62
     0
 10
0.0
 20
0.0
 30
0.0
 11
-1.0
 21
-0.0000000000000284
 31
0.0
  0
POLYLINE
  5
7F72
  8
0
  6
BYBLOCK
 62
     0
 66
     1
 10
0.0
 20
0.0
 30
0.0
 70
     1
 40
0.1666666666666666
 41
0.1666666666666666
  0
VERTEX
  5
80D8
  8
0
  6
BYBLOCK
 62
     0
 10
-0.0833333333333286
 20
-0.0000000000000284
 30
0.0
 42
1.0
  0
VERTEX
  5
80D9
  8
0
  6
BYBLOCK
 62
     0
 10
0.0833333333333286
 20
-0.0000000000000284
 30
0.0
 42
1.0
  0
SEQEND
  5
80DA
  8
0
  6
BYBLOCK
 62
     0
  0
ENDBLK
  5
7D3B
  8
0
  0
BLOCK
  8
0
  2
*D19
 70
     1
 10
0.0
 20
0.0
 30
0.0
  3
*D19
  1

  0
LINE
  5
7F66
  8
0
  6
BYBLOCK
 62
     0
 10
2734.6532090452311
 20
2814.2807702202531
 30
0.0
 11
3081.7211690452309
 21
2814.2807702202531
 31
0.0
  0
LINE
  5
7F67
  8
0
  6
BYBLOCK
 62
     0
 10
3051.7211690452309
 20
2974.280770220254
 30
0.0
 11
3051.7211690452309
 21
3034.2807702202531
 31
0.0
  0
LINE
  5
7F68
  8
0
  6
BYBLOCK
 62
     0
 10
3051.7211690452309
 20
2754.2807702202531
 30
0.0
 11
3051.7211690452309
 21
2694.2807702202531
 31
0.0
  0
TEXT
  5
7F69
  8
3
 62
     0
 10
3216.7211690452309
 20
2757.1379130773962
 30
0.0
 40
90.0
  1
100
 50
90.0
  0
LINE
  5
7F6A
  8
0
  6
BYBLOCK
 62
     0
 10
3051.7211690452309
 20
2914.2807702202531
 30
0.0
 11
3051.7211690452309
 21
2814.2807702202531
 31
0.0
  0
INSERT
  5
7F6B
  8
0
  6
BYBLOCK
 62
     0
  2
_OPEN
 10
3051.7211690452309
 20
2914.2807702202531
 30
0.0
 41
60.0
 42
60.0
 43
60.0
 50
270.0
  0
INSERT
  5
7F6C
  8
0
  6
BYBLOCK
 62
     0
  2
_DOT
 10
3051.7211690452309
 20
2814.2807702202531
 30
0.0
 41
60.0
 42
60.0
 43
60.0
 50
90.0
  0
POINT
  5
7F6D
  8
DEFPOINTS
  6
BYBLOCK
 62
     0
 10
2719.6532090452311
 20
2914.2807702202531
 30
0.0
  0
POINT
  5
7F6E
  8
DEFPOINTS
  6
BYBLOCK
 62
     0
 10
2719.6532090452311
 20
2814.2807702202531
 30
0.0
  0
POINT
  5
7F6F
  8
DEFPOINTS
  6
BYBLOCK
 62
     0
 10
3051.7211690452309
 20
2814.2807702202531
 30
0.0
  0
ENDBLK
  5
7F70
  8
0
  0
BLOCK
  8
0
  2
*D20
 70
     1
 10
0.0
 20
0.0
 30
0.0
  3
*D20
  1

  0
LINE
  5
80DB
  8
3
 62
     0
 10
2773.3521300452298
 20
3524.2807702202531
 30
0.0
 11
2773.3521300452298
 21
4514.9820848176942
 31
0.0
  0
LINE
  5
80DC
  8
3
 62
     0
 10
1319.6532090452311
 20
3029.2807702202531
 30
0.0
 11
1319.6532090452311
 21
4514.9820848176942
 31
0.0
  0
LINE
  5
80DD
  8
3
 62
     0
 10
2713.3521300452298
 20
4484.9820848176951
 30
0.0
 11
1379.6532090452311
 21
4484.9820848176951
 31
0.0
  0
INSERT
  5
80DE
  8
3
 62
     0
  2
_OPEN
 10
2773.3521300452298
 20
4484.9820848176951
 30
0.0
 41
60.0
 42
60.0
 43
60.0
  0
INSERT
  5
80DF
  8
3
 62
     0
  2
_OPEN
 10
1319.6532090452311
 20
4484.9820848176951
 30
0.0
 41
60.0
 42
60.0
 43
60.0
 50
180.0
  0
TEXT
  8
3
  40
90
  5
80F2
  62
0
  72
0
  71
0
 10
1808.65
 20
4400.68
 30
0.000000
  1
1454
  0
POINT
  5
80E1
  8
DEFPOINTS
 62
     0
 10
2773.3521300452298
 20
3509.2807702202531
 30
0.0
  0
POINT
  5
80E2
  8
DEFPOINTS
 62
     0
 10
1319.6532090452311
 20
3014.2807702202531
 30
0.0
  0
POINT
  5
80E3
  8
DEFPOINTS
 62
     0
 10
1319.6532090452311
 20
4484.9820848176951
 30
0.0
  0
ENDBLK
  5
7F81
  8
0
  0
ENDSEC
  0
SECTION
  2
ENTITIES
  0
LINE
  5
7A70
  8
1
  6
CONTINUOUS
 10
3951.1357333021642
 20
3021.2807702202531
 30
0.0
 11
4111.1357333021642
 21
3021.2807702202531
 31
0.0
  0
LINE
  5
7A71
  8
1
  6
CONTINUOUS
 10
4193.6357333021642
 20
3172.280770220254
 30
0.0
 11
4071.1357333021642
 21
3172.280770220254
 31
0.0
  0
LINE
  5
7A72
  8
1
  6
CONTINUOUS
 10
4193.6357333021642
 20
3210.2807702202531
 30
0.0
 11
4071.1357333021642
 21
3210.2807702202531
 31
0.0
  0
LINE
  5
7A73
  8
1
  6
CONTINUOUS
 10
4193.6357333021642
 20
3475.2807702202531
 30
0.0
 11
4071.1357333021642
 21
3475.2807702202531
 31
0.0
  0
LINE
  5
7A74
  8
1
  6
CONTINUOUS
 10
4193.6357333021642
 20
3513.2807702202531
 30
0.0
 11
4071.1357333021642
 21
3513.2807702202531
 31
0.0
  0
LINE
  5
7A75
  8
1
  6
CONTINUOUS
 10
3951.1357333021642
 20
3684.2807702202531
 30
0.0
 11
4111.1357333021642
 21
3684.2807702202531
 31
0.0
  0
LINE
  5
7A76
  8
1
  6
CONTINUOUS
 10
4721.1357333021651
 20
3014.2807702202531
 30
0.0
 11
4031.1357333021629
 21
3014.2807702202531
 31
0.0
  0
LINE
  5
7A77
  8
1
  6
CONTINUOUS
 10
4721.1357333021651
 20
2914.2807702202531
 30
0.0
 11
4031.1357333021629
 21
2914.2807702202531
 31
0.0
  0
LINE
  5
7A78
  8
1
  6
CONTINUOUS
 10
4721.1357333021651
 20
2814.2807702202531
 30
0.0
 11
4031.1357333021629
 21
2814.2807702202531
 31
0.0
  0
LINE
  5
7A79
  8
1
  6
CONTINUOUS
 10
4721.1357333021651
 20
2714.2807702202531
 30
0.0
 11
4031.1357333021629
 21
2714.2807702202531
 31
0.0
  0
LINE
  5
7A7A
  8
1
  6
CONTINUOUS
 10
1549.6532090452311
 20
3030.4807702202538
 30
0.0
 11
2381.0532090452298
 21
3314.4807702202538
 31
0.0
  0
LINE
  5
7A7B
  8
1
  6
CONTINUOUS
 10
1517.253209045231
 20
3125.0807702202542
 30
0.0
 11
2348.753209045231
 21
3409.1807702202541
 31
0.0
  0
LINE
  5
7A7C
  8
1
  6
CONTINUOUS
 10
1432.4532090452301
 20
3349.4807702202538
 30
0.0
 11
2250.1532090452311
 21
3671.1807702202541
 31
0.0
  0
LINE
  5
7A7D
  8
1
  6
CONTINUOUS
 10
1469.05320904523
 20
3256.4807702202538
 30
0.0
 11
2286.753209045231
 21
3578.0807702202528
 31
0.0
  0
LINE
  5
7A7E
  8
1
  6
CONTINUOUS
 10
2333.6532090452311
 20
3954.280770220254
 30
0.0
 11
1599.6532090452311
 21
3954.280770220254
 31
0.0
  0
LINE
  5
7A7F
  8
1
  6
CONTINUOUS
 10
2719.6532090452311
 20
2914.2807702202531
 30
0.0
 11
1319.6532090452311
 21
2914.2807702202531
 31
0.0
  0
ARC
  5
7A80
  8
1
  6
CONTINUOUS
 10
2272.6532090452301
 20
3541.2807702202531
 30
0.0
 40
596.89999999999998
 50
184.49999999999989
 51
270.0
  0
LINE
  5
7A81
  8
1
  6
CONTINUOUS
 10
2291.6532090452311
 20
3914.2807702202531
 30
0.0
 11
1641.6532090452311
 21
3914.2807702202531
 31
0.0
  0
LINE
  5
7A82
  8
1
  6
CONTINUOUS
 10
2719.6532090452311
 20
3014.2807702202531
 30
0.0
 11
1319.6532090452311
 21
3014.2807702202531
 31
0.0
  0
CIRCLE
  5
7A83
  8
1
  6
CONTINUOUS
 10
2319.6532090452311
 20
3494.2807702202531
 30
0.0
 40
315.0
  0
CIRCLE
  5
7A84
  8
1
  6
CONTINUOUS
 10
2319.6532090452311
 20
3494.2807702202531
 30
0.0
 40
355.0
  0
LINE
  5
7A85
  8
1
  6
CONTINUOUS
 10
2719.6532090452311
 20
2814.2807702202531
 30
0.0
 11
1319.6532090452311
 21
2814.2807702202531
 31
0.0
  0
LINE
  5
7A86
  8
1
  6
CONTINUOUS
 10
2719.6532090452311
 20
2714.2807702202531
 30
0.0
 11
1319.6532090452311
 21
2714.2807702202531
 31
0.0
  0
LINE
  5
7A87
  8
1
  6
CONTINUOUS
 10
1641.6532090452311
 20
3954.280770220254
 30
0.0
 11
1677.6532090452311
 21
3494.2807702202531
 31
0.0
  0
LINE
  5
7A88
  8
1
  6
CONTINUOUS
 10
1669.6532090452311
 20
3014.2807702202531
 30
0.0
 11
1659.6532090452311
 21
3059.2807702202531
 31
0.0
  0
ARC
  5
7A89
  8
1
  6
CONTINUOUS
 10
1494.6532090452311
 20
3191.2807702202531
 30
0.0
 40
142.0
 50
324.60000000000002
 51
215.39999999999989
  0
CIRCLE
  5
7A8A
  8
1
  6
CONTINUOUS
 10
1494.6532090452311
 20
3191.2807702202531
 30
0.0
 40
70.0
  0
ARC
  5
7A8B
  8
1
  6
CONTINUOUS
 10
1494.6532090452311
 20
3191.2807702202531
 30
0.0
 40
170.0
 50
111.4999999999999
 51
288.89999999999992
  0
LINE
  5
7A8C
  8
2
  6
CENTER
 10
1494.6532090452311
 20
3121.2807702202531
 30
0.0
 11
1494.6532090452311
 21
3261.2807702202531
 31
0.0
  0
LINE
  5
7A8D
  8
1
  6
CONTINUOUS
 10
1659.6532090452311
 20
3059.2807702202531
 30
0.0
 11
1329.6532090452311
 21
3059.2807702202531
 31
0.0
  0
LINE
  5
7A8E
  8
2
  6
CENTER
 10
1424.6532090452311
 20
3191.2807702202531
 30
0.0
 11
1564.6532090452311
 21
3191.2807702202531
 31
0.0
  0
LINE
  5
7A8F
  8
1
  6
CONTINUOUS
 10
1319.6532090452311
 20
3014.2807702202531
 30
0.0
 11
1319.6532090452311
 21
2914.2807702202531
 31
0.0
  0
LINE
  5
7A90
  8
1
  6
CONTINUOUS
 10
1364.6532090452311
 20
3074.2807702202531
 30
0.0
 11
1378.9532090452301
 21
3109.0807702202542
 31
0.0
  0
LINE
  5
7A91
  8
1
  6
CONTINUOUS
 10
1364.6532090452311
 20
3059.2807702202531
 30
0.0
 11
1364.6532090452311
 21
3074.2807702202531
 31
0.0
  0
LINE
  5
7A92
  8
1
  6
CONTINUOUS
 10
1329.6532090452311
 20
3059.2807702202531
 30
0.0
 11
1319.6532090452311
 21
3014.2807702202531
 31
0.0
  0
LINE
  5
7A93
  8
1
  6
CONTINUOUS
 10
1319.6532090452311
 20
2814.2807702202531
 30
0.0
 11
1319.6532090452311
 21
2714.2807702202531
 31
0.0
  0
LINE
  5
7A94
  8
1
  6
CONTINUOUS
 10
1624.6532090452311
 20
3059.2807702202531
 30
0.0
 11
1624.6532090452311
 21
3074.2807702202531
 31
0.0
  0
LINE
  5
7A95
  8
1
  6
CONTINUOUS
 10
1624.6532090452311
 20
3074.2807702202531
 30
0.0
 11
1610.3532090452311
 21
3109.0807702202542
 31
0.0
  0
LINE
  5
7A97
  8
1
  6
CONTINUOUS
 10
2291.6532090452311
 20
3867.2807702202531
 30
0.0
 11
2291.6532090452311
 21
3954.280770220254
 31
0.0
  0
ARC
  5
7A98
  8
1
  6
CONTINUOUS
 10
2357.6532090452311
 20
3456.2807702202531
 30
0.0
 40
417.39999999999992
 50
6.0
 51
90.0
  0
ARC
  5
7A99
  8
1
  6
CONTINUOUS
 10
2272.6532090452301
 20
3447.2807702202531
 30
0.0
 40
502.89999999999992
 50
270.0
 51
6.0
  0
ARC
  5
7A9A
  8
1
  6
CONTINUOUS
 10
2357.6532090452311
 20
3532.2807702202531
 30
0.0
 40
341.39999999999992
 50
90.0
 51
101.09999999999989
  0
CIRCLE
  5
7A9B
  8
1
  6
CONTINUOUS
 10
2319.6532090452311
 20
3494.2807702202531
 30
0.0
 40
90.0
  0
ARC
  5
7A9C
  8
1
  6
CONTINUOUS
 10
2319.6532090452311
 20
3494.2807702202531
 30
0.0
 40
190.0
 50
288.89999999999992
 51
111.4999999999999
  0
LINE
  5
7A9D
  8
2
  6
CENTER
 10
4814.5156053021637
 20
3494.2807702202531
 30
0.0
 11
3878.354741219649
 21
3494.2807702202531
 31
0.0
  0
LINE
  5
7A9E
  8
2
  6
CENTER
 10
2319.6532090452311
 20
2574.2642862202538
 30
0.0
 11
2319.6532090452311
 21
4081.4769552202538
 31
0.0
  0
LINE
  5
7A9F
  8
1
  6
CONTINUOUS
 10
2719.6532090452311
 20
3014.2807702202531
 30
0.0
 11
2719.6532090452311
 21
2914.2807702202531
 31
0.0
  0
LINE
  5
7AA0
  8
1
  6
CONTINUOUS
 10
2719.6532090452311
 20
2814.2807702202531
 30
0.0
 11
2719.6532090452311
 21
2714.2807702202531
 31
0.0
  0
LINE
  5
7AA1
  8
1
  6
CONTINUOUS
 10
3991.1357333021642
 20
3261.2807702202531
 30
0.0
 11
3991.1357333021642
 21
3121.2807702202531
 31
0.0
  0
LINE
  5
7AA2
  8
1
  6
CONTINUOUS
 10
4071.1357333021642
 20
3261.2807702202531
 30
0.0
 11
4071.1357333021642
 21
3121.2807702202531
 31
0.0
  0
LINE
  5
7AA3
  8
1
  6
CONTINUOUS
 10
3951.1357333021642
 20
3684.2807702202531
 30
0.0
 11
3951.1357333021642
 21
3021.2807702202531
 31
0.0
  0
LINE
  5
7AA7
  8
1
  6
CONTINUOUS
 10
3991.1357333021642
 20
3121.2807702202531
 30
0.0
 11
4071.1357333021642
 21
3121.2807702202531
 31
0.0
  0
LINE
  5
7AA8
  8
1
  6
CONTINUOUS
 10
4031.1357333021629
 20
3014.2807702202531
 30
0.0
 11
4031.1357333021629
 21
2914.2807702202531
 31
0.0
  0
POINT
  5
7AA9
  8
1
  6
CONTINUOUS
 10
4031.1357333021629
 20
2814.2807702202531
 30
0.0
  0
LINE
  5
7AAA
  8
1
  6
CONTINUOUS
 10
4031.1357333021629
 20
2814.2807702202531
 30
0.0
 11
4031.1357333021629
 21
2714.2807702202531
 31
0.0
  0
LINE
  5
7AAB
  8
1
  6
CONTINUOUS
 10
4071.1357333021642
 20
3584.2807702202531
 30
0.0
 11
4071.1357333021642
 21
3404.2807702202531
 31
0.0
  0
LINE
  5
7AAC
  8
1
  6
CONTINUOUS
 10
3991.1357333021642
 20
3584.2807702202531
 30
0.0
 11
3991.1357333021642
 21
3404.2807702202531
 31
0.0
  0
LINE
  5
7AAD
  8
1
  6
CONTINUOUS
 10
3991.1357333021642
 20
3404.2807702202531
 30
0.0
 11
4071.1357333021642
 21
3404.2807702202531
 31
0.0
  0
LINE
  5
7AAE
  8
1
  6
CONTINUOUS
 10
3991.1357333021642
 20
3584.2807702202531
 30
0.0
 11
4071.1357333021642
 21
3584.2807702202531
 31
0.0
  0
LINE
  5
7AAF
  8
1
  6
CONTINUOUS
 10
3991.1357333021642
 20
3261.2807702202531
 30
0.0
 11
4071.1357333021642
 21
3261.2807702202531
 31
0.0
  0
LINE
  5
7AB0
  8
1
  6
CONTINUOUS
 10
2229.6532090452311
 20
5459.2566881217863
 30
0.0
 11
1564.6532090452311
 21
5459.2566881217863
 31
0.0
  0
LINE
  5
7AB1
  8
1
  6
CONTINUOUS
 10
2291.6532090452311
 20
6096.7566881217863
 30
0.0
 11
1641.6532090452311
 21
5621.7566881217854
 31
0.0
  0
LINE
  5
7AB2
  8
1
  6
CONTINUOUS
 10
1641.6532090452311
 20
6096.7566881217863
 30
0.0
 11
2291.6532090452311
 21
5621.7566881217854
 31
0.0
  0
LINE
  5
7AB3
  8
1
  6
CONTINUOUS
 10
2775.5532090452298
 20
6096.7566881217863
 30
0.0
 11
1641.6532090452311
 21
6096.7566881217863
 31
0.0
  0
LINE
  5
7AB4
  8
1
  6
CONTINUOUS
 10
2775.5532090452298
 20
5621.7566881217854
 30
0.0
 11
1641.6532090452311
 21
5621.7566881217854
 31
0.0
  0
LINE
  5
7AB5
  8
1
  6
CONTINUOUS
 10
2509.6532090452311
 20
5379.2566881217854
 30
0.0
 11
1324.6532090452311
 21
5379.2566881217854
 31
0.0
  0
LINE
  5
7AB6
  8
1
  6
CONTINUOUS
 10
2509.6532090452311
 20
5539.2566881217854
 30
0.0
 11
1324.6532090452311
 21
5539.2566881217854
 31
0.0
  0
LINE
  5
7AB7
  8
1
  6
CONTINUOUS
 10
2674.6532090452311
 20
6179.2566881217854
 30
0.0
 11
1964.6532090452311
 21
6179.2566881217854
 31
0.0
  0
LINE
  5
7AB8
  8
1
  6
CONTINUOUS
 10
2004.6532090452311
 20
6149.2566881217854
 30
0.0
 11
1319.6532090452311
 21
6149.2566881217854
 31
0.0
  0
LINE
  5
7AB9
  8
1
  6
CONTINUOUS
 10
1636.6532090452299
 20
5591.8566881217857
 30
0.0
 11
1636.6532090452299
 21
5991.8566881217848
 31
0.0
  0
LINE
  5
7ABA
  8
1
  6
CONTINUOUS
 10
1352.6532090452311
 20
5591.8566881217857
 30
0.0
 11
1352.6532090452311
 21
5991.8566881217848
 31
0.0
  0
LINE
  5
7ABB
  8
1
  6
CONTINUOUS
 10
1319.6532090452311
 20
6149.2566881217854
 30
0.0
 11
1319.6532090452311
 21
5459.2566881217863
 31
0.0
  0
LINE
  5
7ABC
  8
1
  6
CONTINUOUS
 10
1641.6532090452311
 20
5621.7566881217854
 30
0.0
 11
1641.6532090452311
 21
6096.7566881217863
 31
0.0
  0
LINE
  5
7ABD
  8
1
  6
CONTINUOUS
 10
1352.6532090452311
 20
5591.8566881217857
 30
0.0
 11
1636.6532090452299
 21
5591.8566881217857
 31
0.0
  0
LINE
  5
7ABE
  8
1
  6
CONTINUOUS
 10
1424.6532090452311
 20
5499.2566881217863
 30
0.0
 11
1564.6532090452311
 21
5499.2566881217863
 31
0.0
  0
LINE
  5
7ABF
  8
1
  6
CONTINUOUS
 10
1424.6532090452311
 20
5419.2566881217863
 30
0.0
 11
1564.6532090452311
 21
5419.2566881217863
 31
0.0
  0
LINE
  5
7AC0
  8
1
  6
CONTINUOUS
 10
1424.6532090452311
 20
5459.2566881217863
 30
0.0
 11
1319.6532090452311
 21
5459.2566881217863
 31
0.0
  0
LINE
  5
7AC1
  8
1
  6
CONTINUOUS
 10
1324.6532090452311
 20
5379.2566881217854
 30
0.0
 11
1324.6532090452311
 21
5539.2566881217854
 31
0.0
  0
LINE
  5
7AC2
  8
1
  6
CONTINUOUS
 10
1424.6532090452311
 20
5419.2566881217863
 30
0.0
 11
1424.6532090452311
 21
5499.2566881217863
 31
0.0
  0
LINE
  5
7AC3
  8
1
  6
CONTINUOUS
 10
1475.6532090452311
 20
5499.2566881217863
 30
0.0
 11
1475.6532090452311
 21
5591.8566881217857
 31
0.0
  0
LINE
  5
7AC4
  8
1
  6
CONTINUOUS
 10
1513.6532090452311
 20
5499.2566881217863
 30
0.0
 11
1513.6532090452311
 21
5591.8566881217857
 31
0.0
  0
LINE
  5
7AC5
  8
1
  6
CONTINUOUS
 10
1564.6532090452311
 20
5419.2566881217863
 30
0.0
 11
1564.6532090452311
 21
5499.2566881217863
 31
0.0
  0
LINE
  5
7AC6
  8
1
  6
CONTINUOUS
 10
1352.6532090452311
 20
5991.8566881217848
 30
0.0
 11
1636.6532090452299
 21
5991.8566881217848
 31
0.0
  0
LINE
  5
7AC7
  8
1
  6
CONTINUOUS
 10
2004.6532090452311
 20
6179.2566881217854
 30
0.0
 11
2004.6532090452311
 21
6096.7566881217863
 31
0.0
  0
LINE
  5
7AC8
  8
1
  6
CONTINUOUS
 10
2719.6532090452311
 20
5459.2566881217863
 30
0.0
 11
2409.6532090452311
 21
5459.2566881217863
 31
0.0
  0
LINE
  5
7AC9
  8
1
  6
CONTINUOUS
 10
2291.6532090452311
 20
5621.7566881217854
 30
0.0
 11
2291.6532090452311
 21
6096.7566881217863
 31
0.0
  0
LINE
  5
7ACA
  8
1
  6
CONTINUOUS
 10
2229.6532090452311
 20
5419.2566881217863
 30
0.0
 11
2409.6532090452311
 21
5419.2566881217863
 31
0.0
  0
LINE
  5
7ACB
  8
1
  6
CONTINUOUS
 10
2229.6532090452311
 20
5499.2566881217863
 30
0.0
 11
2409.6532090452311
 21
5499.2566881217863
 31
0.0
  0
LINE
  5
7ACC
  8
1
  6
CONTINUOUS
 10
2229.6532090452311
 20
5419.2566881217863
 30
0.0
 11
2229.6532090452311
 21
5499.2566881217863
 31
0.0
  0
LINE
  5
7ACD
  8
1
  6
CONTINUOUS
 10
2338.6532090452311
 20
5499.2566881217863
 30
0.0
 11
2338.6532090452311
 21
5621.7566881217854
 31
0.0
  0
LINE
  5
7ACE
  8
1
  6
CONTINUOUS
 10
2300.6532090452301
 20
5499.2566881217863
 30
0.0
 11
2300.6532090452301
 21
5621.7566881217854
 31
0.0
  0
LINE
  5
7ACF
  8
1
  6
CONTINUOUS
 10
2509.6532090452311
 20
5379.2566881217854
 30
0.0
 11
2509.6532090452311
 21
5539.2566881217854
 31
0.0
  0
LINE
  5
7AD0
  8
1
  6
CONTINUOUS
 10
2409.6532090452311
 20
5419.2566881217863
 30
0.0
 11
2409.6532090452311
 21
5499.2566881217863
 31
0.0
  0
LINE
  5
7AD1
  8
1
  6
CONTINUOUS
 10
2775.5532090452298
 20
5621.7566881217854
 30
0.0
 11
2775.5532090452298
 21
6096.7566881217863
 31
0.0
  0
LINE
  5
7AD2
  8
1
  6
CONTINUOUS
 10
2719.6532090452311
 20
5621.7566881217854
 30
0.0
 11
2719.6532090452311
 21
5459.2566881217863
 31
0.0
  0
LINE
  5
7AD3
  8
1
  6
CONTINUOUS
 10
2719.6532090452311
 20
6149.2566881217854
 30
0.0
 11
2719.6532090452311
 21
6096.7566881217863
 31
0.0
  0
LINE
  5
7AD4
  8
1
  6
CONTINUOUS
 10
2719.6532090452311
 20
6149.2566881217854
 30
0.0
 11
2634.6532090452311
 21
6149.2566881217854
 31
0.0
  0
LINE
  5
7AD5
  8
1
  6
CONTINUOUS
 10
2634.6532090452311
 20
6179.2566881217854
 30
0.0
 11
2634.6532090452311
 21
6096.7566881217863
 31
0.0
  0
LINE
  5
7AD6
  8
1
  6
CONTINUOUS
 10
4193.6357333021642
 20
3954.280770220254
 30
0.0
 11
4193.6357333021642
 21
3014.2807702202531
 31
0.0
  0
LINE
  5
7AD7
  8
1
  6
CONTINUOUS
 10
4668.6357333021633
 20
3954.280770220254
 30
0.0
 11
4668.6357333021633
 21
3014.2807702202531
 31
0.0
  0
LINE
  5
7AD8
  8
1
  6
CONTINUOUS
 10
4111.1357333021642
 20
3684.2807702202531
 30
0.0
 11
4111.1357333021642
 21
3021.2807702202531
 31
0.0
  0
LINE
  5
7AD9
  8
1
  6
CONTINUOUS
 10
4751.1357333021642
 20
3849.2807702202531
 30
0.0
 11
4751.1357333021642
 21
3139.2807702202531
 31
0.0
  0
LINE
  5
7ADA
  8
1
  6
CONTINUOUS
 10
4721.1357333021651
 20
3014.2807702202531
 30
0.0
 11
4721.1357333021651
 21
2914.2807702202531
 31
0.0
  0
LINE
  5
7ADB
  8
1
  6
CONTINUOUS
 10
4668.6357333021633
 20
3179.280770220254
 30
0.0
 11
4751.1357333021642
 21
3179.280770220254
 31
0.0
  0
LINE
  5
7ADC
  8
1
  6
CONTINUOUS
 10
4721.1357333021651
 20
2814.2807702202531
 30
0.0
 11
4721.1357333021651
 21
2714.2807702202531
 31
0.0
  0
LINE
  5
7ADD
  8
1
  6
CONTINUOUS
 10
4668.6357333021633
 20
3809.2807702202531
 30
0.0
 11
4751.1357333021642
 21
3809.2807702202531
 31
0.0
  0
LINE
  5
7ADE
  8
1
  6
CONTINUOUS
 10
4193.6357333021642
 20
3914.2807702202531
 30
0.0
 11
4668.6357333021633
 21
3914.2807702202531
 31
0.0
  0
LINE
  5
7ADF
  8
1
  6
CONTINUOUS
 10
4153.6357333021642
 20
3954.280770220254
 30
0.0
 11
4708.6357333021642
 21
3954.280770220254
 31
0.0
  0
DIMENSION
  5
7AF3
  8
3
  6
CONTINUOUS
  2
*D1
 10
2319.6532090452311
 20
2516.0084622202539
 30
0.0
 11
1814.8303020452311
 21
2516.0084622202539
 31
0.0
 70
   128
 13
1319.6532090452311
 23
2714.2807702202531
 33
0.0
 14
2319.6532090452311
 24
2688.561656220254
 34
0.0
1001
ACAD
1000
DSTYLE
1002
{
1070
   287
1070
     3
1070
   287
1070
     3
1070
    40
1040
30.0
1070
   143
1040
0.039
1070
   172
1070
     1
1070
   271
1070
     0
1070
   279
1070
     0
1070
   288
1070
     1
1002
}
  0
DIMENSION
  5
7B01
  8
3
  6
CONTINUOUS
  2
*D2
 10
2719.6532090452311
 20
2515.4672312202538
 30
0.0
 11
2518.6208387582001
 21
2586.1348877027699
 31
0.0
 70
   128
 13
2319.6532090452311
 23
2688.561656220254
 33
0.0
 14
2719.6532090452311
 24
2714.2807702202531
 34
0.0
1001
ACAD
1000
DSTYLE
1002
{
1070
   288
1070
     1
1070
   172
1070
     1
1070
    40
1040
30.0
1070
   271
1070
     0
1070
   143
1040
0.039
1002
}
  0
DIMENSION
  5
7B30
  8
3
  6
CONTINUOUS
  2
*D3
 10
2291.6532090452311
 20
4112.0823392202528
 30
0.0
 11
1970.055016045231
 21
4112.0823392202528
 31
0.0
 70
   128
 13
1641.6532090452311
 23
3954.280770220254
 33
0.0
 14
2291.6532090452311
 24
3954.280770220254
 34
0.0
1001
ACAD
1000
DSTYLE
1002
{
1070
   287
1070
     3
1070
   287
1070
     3
1070
    40
1040
30.0
1070
   143
1040
0.039
1070
   172
1070
     1
1070
   271
1070
     0
1070
   279
1070
     0
1070
   288
1070
     1
1002
}
  0
DIMENSION
  5
7B3D
  8
3
  6
CONTINUOUS
  2
*D4
 10
2319.6532090452311
 20
4302.5779722202542
 30
0.0
 11
1970.055016045231
 21
4302.5779722202542
 31
0.0
 70
   128
 13
1641.6532090452311
 23
3954.280770220254
 33
0.0
 14
2319.6532090452311
 24
3871.5593572202538
 34
0.0
1001
ACAD
1000
DSTYLE
1002
{
1070
   287
1070
     3
1070
   287
1070
     3
1070
    40
1040
30.0
1070
   143
1040
0.039
1070
   172
1070
     1
1070
   271
1070
     0
1070
   279
1070
     0
1070
   288
1070
     1
1002
}
  0
DIMENSION
  5
7B4B
  8
3
  6
CONTINUOUS
  2
*D5
 10
2773.3521300452298
 20
4302.5779722202542
 30
0.0
 11
2527.5103519023728
 21
4302.5779722202542
 31
0.0
 70
   128
 13
2319.6532090452311
 23
3871.5593572202538
 33
0.0
 14
2773.3521300452298
 24
3494.2807702202531
 34
0.0
1001
ACAD
1000
DSTYLE
1002
{
1070
   287
1070
     3
1070
   287
1070
     3
1070
    40
1040
30.0
1070
   143
1040
0.039
1070
   172
1070
     1
1070
   271
1070
     0
1070
   279
1070
     0
1070
   288
1070
     1
1002
}
  0
DIMENSION
  5
7B70
  8
3
  6
CONTINUOUS
  2
*D6
 10
3051.7211690452309
 20
3494.2807702202531
 30
0.0
 11
3051.7211690452309
 21
3748.5664845059682
 31
0.0
 70
   128
 13
2333.6532090452311
 23
3954.280770220254
 33
0.0
 14
2773.3521300452298
 24
3494.2807702202531
 34
0.0
 50
90.0
1001
ACAD
1000
DSTYLE
1002
{
1070
   287
1070
     3
1070
   287
1070
     3
1070
    40
1040
30.0
1070
   143
1040
0.039
1070
   172
1070
     1
1070
   271
1070
     0
1070
   279
1070
     0
1070
   288
1070
     1
1002
}
  0
DIMENSION
  5
7B7C
  8
3
  2
*D7
 10
3051.7211690452309
 20
2914.2807702202531
 30
0.0
 11
2976.7211690452309
 21
3204.280770220254
 31
0.0
 70
     0
 13
2773.3521300452298
 23
3494.2807702202531
 33
0.0
 14
2719.6532090452311
 24
2914.2807702202531
 34
0.0
 50
90.0
1001
ACAD
1000
DSTYLE
1002
{
1070
   287
1070
     3
1070
   287
1070
     3
1070
    40
1040
30.0
1070
   143
1040
0.039
1070
   172
1070
     1
1070
   271
1070
     0
1070
   279
1070
     0
1070
   288
1070
     1
1002
}
  0
DIMENSION
  5
7BB3
  8
3
  6
CONTINUOUS
  2
*D8
 10
3264.13395404523
 20
2714.2807702202531
 30
0.0
 11
3264.13395404523
 21
3408.8873662202541
 31
0.0
 70
   128
 13
2333.6532090452311
 23
3954.280770220254
 33
0.0
 14
2719.6532090452311
 24
2714.2807702202531
 34
0.0
 50
90.0
1001
ACAD
1000
DSTYLE
1002
{
1070
   287
1070
     3
1070
   287
1070
     3
1070
    40
1040
30.0
1070
   143
1040
0.039
1070
   172
1070
     1
1070
   271
1070
     0
1070
   279
1070
     0
1070
   288
1070
     1
1002
}
  0
DIMENSION
  5
7BC0
  8
3
  6
CONTINUOUS
  2
*D9
 10
2719.6532090452311
 20
5043.1209511217849
 30
0.0
 11
2013.626913045231
 21
5043.1209511217849
 31
0.0
 70
   128
 13
1319.6532090452311
 23
5459.2566881217863
 33
0.0
 14
2719.6532090452311
 24
5459.2566881217863
 34
0.0
1001
ACAD
1000
DSTYLE
1002
{
1070
   287
1070
     3
1070
   287
1070
     3
1070
    40
1040
30.0
1070
   143
1040
0.039
1070
   172
1070
     1
1070
   271
1070
     0
1070
   279
1070
     0
1070
   288
1070
     1
1002
}
  0
DIMENSION
  5
7BCD
  8
3
  6
CONTINUOUS
  2
*D10
 10
3048.458345045231
 20
5459.2566881217863
 30
0.0
 11
3048.4583450452301
 21
5827.6863661217858
 31
0.0
 70
   128
 13
2719.6532090452311
 23
6149.2566881217854
 33
0.0
 14
2719.6532090452311
 24
5459.2566881217863
 34
0.0
 50
90.0
1001
ACAD
1000
DSTYLE
1002
{
1070
   287
1070
     3
1070
   287
1070
     3
1070
    40
1040
30.0
1070
   143
1040
0.039
1070
   172
1070
     1
1070
   271
1070
     0
1070
   279
1070
     0
1070
   288
1070
     1
1002
}
  0
LINE
  5
7BCE
  8
2
  6
CENTER
 10
2906.2687830452301
 20
5859.2566881217854
 30
0.0
 11
1575.1851530452309
 21
5859.2566881217854
 31
0.0
  0
LINE
  5
7BCF
  8
2
  6
CENTER
 10
2886.0853700452308
 20
3494.2807702202531
 30
0.0
 11
1663.2193200452309
 21
3494.2807702202531
 31
0.0
  0
DIMENSION
  5
7BDC
  8
3
  6
CONTINUOUS
  2
*D11
 10
5010.069179302166
 20
3179.280770220254
 30
0.0
 11
5010.0691793021651
 21
3507.8968642202531
 31
0.0
 70
   128
 13
4751.1357333021642
 23
3809.2807702202531
 33
0.0
 14
4751.1357333021642
 24
3179.280770220254
 34
0.0
 50
90.0
1001
ACAD
1000
DSTYLE
1002
{
1070
   287
1070
     3
1070
   287
1070
     3
1070
     3
1000
φ<>
1070
    40
1040
30.0
1070
   143
1040
0.039
1070
   172
1070
     1
1070
   271
1070
     0
1070
   279
1070
     0
1070
   288
1070
     1
1002
}
  0
DIMENSION
  5
7BEC
  8
3
  6
CONTINUOUS
  2
*D12
 10
4668.6357333021633
 20
4052.9925992202539
 30
0.0
 11
4431.1357333021642
 21
4052.9925992202539
 31
0.0
 70
   128
 13
4193.6357333021642
 23
3954.280770220254
 33
0.0
 14
4668.6357333021633
 24
3954.280770220254
 34
0.0
1001
ACAD
1000
DSTYLE
1002
{
1070
   287
1070
     3
1070
   287
1070
     3
1070
    40
1040
30.0
1070
   143
1040
0.039
1070
   172
1070
     1
1070
   271
1070
     0
1070
   279
1070
     0
1070
   288
1070
     1
1002
}
  0
DIMENSION
  5
7BF9
  8
3
  6
CONTINUOUS
  2
*D13
 10
4431.1357333021642
 20
4278.3749975010815
 30
0.0
 11
4169.7071618735918
 21
4278.3749975010815
 31
0.0
 70
   128
  1
MAX\P550
 13
3951.1357333021642
 23
3684.2807702202531
 33
0.0
 14
4431.1357333021642
 24
4196.14334981293
 34
0.0
1001
ACAD
1000
DSTYLE
1002
{
1070
   287
1070
     3
1070
   287
1070
     3
1070
    40
1040
30.0
1070
   143
1040
0.039
1070
   172
1070
     1
1070
   271
1070
     0
1070
   279
1070
     0
1070
   288
1070
     1
1002
}
  0
DIMENSION
  5
7C07
  8
3
  6
CONTINUOUS
  2
*D14
 10
4751.1357333021642
 20
4278.3749975010815
 30
0.0
 11
4595.6946504107764
 21
4351.2604472691164
 31
0.0
 70
   128
 13
4431.1357333021642
 23
4206.8410815187272
 33
0.0
 14
4751.1357333021642
 24
3849.2807702202531
 34
0.0
1001
ACAD
1000
DSTYLE
1002
{
1070
   288
1070
     1
1070
   172
1070
     1
1070
    40
1040
30.0
1070
   271
1070
     0
1070
   143
1040
0.039
1002
}
  0
DIMENSION
  5
7C2D
  8
3
  6
CONTINUOUS
  2
*D15
 10
4431.1357333021642
 20
2523.0261730147672
 30
0.0
 11
4237.0247169253853
 21
2586.1348877027699
 31
0.0
 70
   128
 13
4031.1357333021629
 23
2714.2807702202531
 33
0.0
 14
4431.1357333021642
 24
2676.5138722202528
 34
0.0
1001
ACAD
1000
DSTYLE
1002
{
1070
   288
1070
     1
1070
   172
1070
     1
1070
    40
1040
30.0
1070
   271
1070
     0
1070
   143
1040
0.039
1002
}
  0
DIMENSION
  5
7C3B
  8
3
  6
CONTINUOUS
  2
*D16
 10
4721.1357333021651
 20
2523.0261730147672
 30
0.0
 11
4574.2815496706889
 21
2602.1814729836001
 31
0.0
 70
   128
 13
4431.1357333021642
 23
2676.5138722202528
 33
0.0
 14
4721.1357333021651
 24
2714.2807702202531
 34
0.0
1001
ACAD
1000
DSTYLE
1002
{
1070
   288
1070
     1
1070
   172
1070
     1
1070
    40
1040
30.0
1070
   271
1070
     0
1070
   143
1040
0.039
1002
}
  0
LINE
  5
7C5E
  8
2
  6
CENTER
 10
2319.6532090452311
 20
5242.9374501217862
 30
0.0
 11
2319.6532090452311
 21
6188.6636711217852
 31
0.0
  0
LINE
  5
7C5F
  8
4
  6
CONTINUOUS
 10
5550.0
 20
1500.0
 30
0.0
 11
5550.0
 21
900.0
 31
0.0
  0
LINE
  5
7C60
  8
4
  6
CONTINUOUS
 10
3450.0
 20
1500.0
 30
0.0
 11
3450.0
 21
900.0
 31
0.0
  0
LINE
  5
7C61
  8
4
  6
CONTINUOUS
 10
1950.0
 20
1500.0
 30
0.0
 11
1950.0
 21
900.0
 31
0.0
  0
LINE
  5
7C64
  8
4
  6
CONTINUOUS
 10
1950.0
 20
900.0
 30
0.0
 11
5550.0
 21
900.0
 31
0.0
  0
LINE
  5
7C65
  8
4
  6
CONTINUOUS
 10
1950.0
 20
1200.0
 30
0.0
 11
5550.0
 21
1200.0
 31
0.0
  0
TEXT
  5
7C66
  8
4
  6
CONTINUOUS
 10
2065.50624225
 20
1294.6290779999999
 30
0.0
 40
150.0
  1
機器名称
  0
TEXT
  5
7C67
  8
4
  6
CONTINUOUS
 10
2058.7743179999989
 20
964.93547024999998
 30
0.0
 40
150.0
  1
機器型番
  0
TEXT
  5
7C68
  8
4
  6
CONTINUOUS
 10
3533.0362365000001
 20
1267.715306249999
 30
0.0
 40
120.0
  1
ミツヤリミットロードファン
  0
TEXT
  5
7C69
  8
4
  6
CONTINUOUS
 10
3559.9634872500001
 20
951.4787527499999
 30
0.0
 40
150.0
  1
LLE#4-4
  0
TEXT
  5
7C6B
  8
4
  6
CONTINUOUS
 10
2225.9696752499999
 20
7150.2865245000012
 30
0.0
 40
162.0
  1
床置防振ベット
  0
TEXT
  5
7C6C
  8
4
  6
CONTINUOUS
 10
948.50278049999986
 20
7601.6429287499996
 30
0.0
 40
171.42857175
  1
ベルト駆動式片吸込両持排煙ファン
  0
LINE
  5
7C6D
  8
4
  6
CONTINUOUS
 10
750.0
 20
7408.2262627500004
 30
0.0
 11
5550.0
 21
7408.2262627500004
 31
0.0
  0
LINE
  5
7C6E
  8
4
  6
CONTINUOUS
 10
750.0
 20
8008.2262627500004
 30
0.0
 11
5550.0
 21
8008.2262627500004
 31
0.0
  0
LINE
  5
7C6F
  8
4
  6
CONTINUOUS
 10
1950.0
 20
1500.0
 30
0.0
 11
5550.0
 21
1500.0
 31
0.0
  0
LINE
  5
7C70
  8
4
  6
CONTINUOUS
 10
750.0
 20
8008.2262627500004
 30
0.0
 11
750.0
 21
7408.2262627500004
 31
0.0
  0
TEXT
  5
7C71
  8
4
  6
CONTINUOUS
 10
918.39317849999998
 20
7146.9584324999987
 30
0.0
 40
162.0
  1
右回転上向
  0
TEXT
  5
7C72
  8
4
  6
CONTINUOUS
 10
4406.9086777499988
 20
8118.1832445
 30
0.0
 40
168.0
  1
No.
  0
TEXT
  5
7C73
  8
4
  6
CONTINUOUS
 10
3933.8881875000002
 20
7150.2865245000012
 30
0.0
 40
162.0
  1
縮尺：1/30
  0
LINE
  5
7C74
  8
4
  6
CONTINUOUS
 10
5550.0
 20
8008.2262627500004
 30
0.0
 11
5550.0
 21
7408.2262627500004
 31
0.0
  0
LINE
  5
7C76
  8
4
  6
CONTINUOUS
 10
4321.8522667500001
 20
8043.79074975
 30
0.0
 11
4321.8522667500001
 21
8359.9567845000001
 31
0.0
  0
LINE
  5
7C77
  8
4
  6
CONTINUOUS
 10
4321.8522667500001
 20
8359.9567845000001
 30
0.0
 11
5550.0
 21
8359.9567845000001
 31
0.0
  0
LINE
  5
7C78
  8
4
  6
CONTINUOUS
 10
5550.0
 20
8359.9567845000001
 30
0.0
 11
5550.0
 21
8043.79074975
 31
0.0
  0
LINE
  5
7C79
  8
4
  6
CONTINUOUS
 10
5550.0
 20
8043.79074975
 30
0.0
 11
4321.8522667500001
 21
8043.79074975
 31
0.0
  0
LINE
  5
7C83
  8
2
  6
CENTER
 10
4431.1357333021642
 20
4061.3740982202539
 30
0.0
 11
4431.1357333021642
 21
2676.5138722202528
 31
0.0
  0
LINE
  5
7C9A
  8
1
  6
CONTINUOUS
 10
2719.6532090452311
 20
2814.2807702202531
 30
0.0
 11
1319.6532090452311
 21
2814.2807702202531
 31
0.0
  0
DIMENSION
  5
7CE6
  8
3
  2
*D17
 10
3051.7211690452309
 20
2714.2807702202531
 30
0.0
 11
2976.7211690452309
 21
2457.1379130773962
 31
0.0
 70
     0
 13
2719.6532090452311
 23
2814.2807702202531
 33
0.0
 14
2719.6532090452311
 24
2714.2807702202531
 34
0.0
 50
90.0
1001
ACAD
1000
DSTYLE
1002
{
1070
   287
1070
     3
1070
   287
1070
     3
1070
    40
1040
30.0
1070
   143
1040
0.039
1070
   172
1070
     1
1070
   271
1070
     0
1070
   279
1070
     0
1070
   288
1070
     1
1070
     6
1000
DOT
1002
}
  0
LINE
  5
7D65
  8
3
 10
2737.1532090452311
 20
2814.2807702202531
 30
0.0
 11
3086.7211690452309
 21
2814.2807702202531
 31
0.0
  0
POINT
  5
7D6E
  8
DEFPOINTS
  6
BYBLOCK
 62
     0
 10
2719.6532090452311
 20
2914.2807702202531
 30
0.0
  0
POINT
  5
7D6F
  8
DEFPOINTS
  6
BYBLOCK
 62
     0
 10
2719.6532090452311
 20
2814.2807702202531
 30
0.0
  0
LINE
  5
7D71
  8
1
  6
CONTINUOUS
 10
4721.1357333021651
 20
2814.2807702202531
 30
0.0
 11
4031.1357333021629
 21
2814.2807702202531
 31
0.0
  0
DIMENSION
  5
7F4B
  8
3
  2
*D19
 10
3051.7211690452309
 20
2814.2807702202531
 30
0.0
 11
3171.7211690452309
 21
2864.2807702202531
 31
0.0
 70
     0
 13
2719.6532090452311
 23
2914.2807702202531
 33
0.0
 14
2719.6532090452311
 24
2814.2807702202531
 34
0.0
 50
90.0
1001
ACAD
1000
DSTYLE
1002
{
1070
   288
1070
     1
1070
   172
1070
     1
1070
    75
1070
     1
1070
    40
1040
30.0
1070
   271
1070
     0
1070
     7
1000
_DOT
1070
   143
1040
0.039
1002
}
  0
DIMENSION
  5
7F82
  8
3
  2
*D20
 10
1319.6532090452311
 20
4484.9820848176951
 30
0.0
 11
1988.6458547993491
 21
4484.9820848176951
 31
0.0
 70
   128
 13
2773.3521300452298
 23
3509.2807702202531
 33
0.0
 14
1319.6532090452311
 24
3014.2807702202531
 34
0.0
1001
ACAD
1000
DSTYLE
1002
{
1070
   287
1070
     3
1070
   287
1070
     3
1070
    40
1040
30.0
1070
   143
1040
0.039
1070
   172
1070
     1
1070
   271
1070
     0
1070
   279
1070
     0
1070
   288
1070
     1
1002
}
  0
ENDSEC
  0
EOF
