  0
SECTION
  2
HEADER
  9
$ACADVER
  1
AC1009
  9
$INSBASE
 10
0.0
 20
0.0
 30
0.0
  9
$EXTMIN
 10
750.0
 20
900.0
 30
0.0
  9
$EXTMAX
 10
5550.0
 20
8359.9567845000001
 30
0.0
  9
$LIMMIN
 10
0.0
 20
0.0
  9
$LIMMAX
 10
297.0
 20
210.0
  9
$ORTHOMODE
 70
     1
  9
$REGENMODE
 70
     1
  9
$FILLMODE
 70
     0
  9
$QTEXTMODE
 70
     0
  9
$MIRRTEXT
 70
     1
  9
$DRAGMODE
 70
     2
  9
$LTSCALE
 40
100.0
  9
$OSMODE
 70
   545
  9
$ATTMODE
 70
     1
  9
$TEXTSIZE
 40
180.0
  9
$TRACEWID
 40
0.05
  9
$TEXTSTYLE
  7
STANDARD
  9
$CLAYER
  8
3
  9
$CELTYPE
  6
BYLAYER
  9
$CECOLOR
 62
   256
  9
$DIMSCALE
 40
30.0
  9
$DIMASZ
 40
2.0
  9
$DIMEXO
 40
0.5
  9
$DIMDLI
 40
10.0
  9
$DIMRND
 40
0.0
  9
$DIMDLE
 40
0.0
  9
$DIMEXE
 40
1.0
  9
$DIMTP
 40
1.0
  9
$DIMTM
 40
1.0
  9
$DIMTXT
 40
3.0
  9
$DIMCEN
 40
0.0
  9
$DIMTSZ
 40
0.0
  9
$DIMTOL
 70
     0
  9
$DIMLIM
 70
     0
  9
$DIMTIH
 70
     0
  9
$DIMTOH
 70
     0
  9
$DIMSE1
 70
     0
  9
$DIMSE2
 70
     0
  9
$DIMTAD
 70
     1
  9
$DIMZIN
 70
     8
  9
$DIMBLK
  1

  9
$DIMASO
 70
     1
  9
$DIMSHO
 70
     1
  9
$DIMPOST
  1

  9
$DIMAPOST
  1

  9
$DIMALT
 70
     0
  9
$DIMALTD
 70
     2
  9
$DIMALTF
 40
0.039
  9
$DIMLFAC
 40
1.0
  9
$DIMTOFL
 70
     1
  9
$DIMTVP
 40
0.0
  9
$DIMTIX
 70
     0
  9
$DIMSOXD
 70
     0
  9
$DIMSAH
 70
     1
  9
$DIMBLK1
  1
OPEN
  9
$DIMBLK2
  1
OPEN
  9
$DIMSTYLE
  2
IGA
  9
$DIMCLRD
 70
     0
  9
$DIMCLRE
 70
     0
  9
$DIMCLRT
 70
     0
  9
$DIMTFAC
 40
10.0
  9
$DIMGAP
 40
1.0
  9
$LUNITS
 70
     2
  9
$LUPREC
 70
     3
  9
$SKETCHINC
 40
0.1
  9
$FILLETRAD
 40
50.0
  9
$AUNITS
 70
     0
  9
$AUPREC
 70
     0
  9
$MENU
  1
acad
  9
$ELEVATION
 40
0.0
  9
$PELEVATION
 40
0.0
  9
$THICKNESS
 40
0.0
  9
$LIMCHECK
 70
     0
  9
$BLIPMODE
 70
     0
  9
$CHAMFERA
 40
0.5
  9
$CHAMFERB
 40
0.5
  9
$SKPOLY
 70
     0
  9
$TDCREATE
 40
2450757.3536413191
  9
$TDUPDATE
 40
2455009.6133407401
  9
$TDINDWG
 40
0.017684375
  9
$TDUSRTIMER
 40
0.017684375
  9
$USRTIMER
 70
     1
  9
$ANGBASE
 50
0.0
  9
$ANGDIR
 70
     0
  9
$PDMODE
 70
     0
  9
$PDSIZE
 40
0.0
  9
$PLINEWID
 40
0.0
  9
$COORDS
 70
     2
  9
$SPLFRAME
 70
     0
  9
$SPLINETYPE
 70
     6
  9
$SPLINESEGS
 70
     8
  9
$ATTDIA
 70
     0
  9
$ATTREQ
 70
     1
  9
$HANDLING
 70
 22529
  9
$HANDSEED
  5
8331
  9
$SURFTAB1
 70
     6
  9
$SURFTAB2
 70
     6
  9
$SURFTYPE
 70
     6
  9
$SURFU
 70
     6
  9
$SURFV
 70
     6
  9
$UCSNAME
  2

  9
$UCSORG
 10
0.0
 20
0.0
 30
0.0
  9
$UCSXDIR
 10
1.0
 20
0.0
 30
0.0
  9
$UCSYDIR
 10
0.0
 20
1.0
 30
0.0
  9
$PUCSNAME
  2

  9
$PUCSORG
 10
0.0
 20
0.0
 30
0.0
  9
$PUCSXDIR
 10
1.0
 20
0.0
 30
0.0
  9
$PUCSYDIR
 10
0.0
 20
1.0
 30
0.0
  9
$USERI1
 70
     0
  9
$USERI2
 70
     0
  9
$USERI3
 70
     0
  9
$USERI4
 70
     0
  9
$USERI5
 70
     0
  9
$USERR1
 40
0.0
  9
$USERR2
 40
0.0
  9
$USERR3
 40
0.0
  9
$USERR4
 40
0.0
  9
$USERR5
 40
0.0
  9
$WORLDVIEW
 70
     1
  9
$SHADEDGE
 70
     3
  9
$SHADEDIF
 70
    70
  9
$TILEMODE
 70
     1
  9
$MAXACTVP
 70
    16
  9
$PLIMCHECK
 70
     0
  9
$PEXTMIN
 10
1.0000000000000000E+020
 20
1.0000000000000000E+020
 30
1.0000000000000000E+020
  9
$PEXTMAX
 10
-1.0000000000000000E+020
 20
-1.0000000000000000E+020
 30
-1.0000000000000000E+020
  9
$PLIMMIN
 10
0.0
 20
0.0
  9
$PLIMMAX
 10
12.0
 20
9.0
  9
$UNITMODE
 70
     0
  9
$VISRETAIN
 70
     0
  9
$PLINEGEN
 70
     0
  9
$PSLTSCALE
 70
     1
  0
ENDSEC
  0
SECTION
  2
TABLES
  0
TABLE
  2
VPORT
 70
     2
  0
VPORT
  2
*ACTIVE
 70
     0
 10
0.0
 20
0.0
 11
1.0
 21
1.0
 12
5472.6830179954231
 22
3831.0578566327022
 13
0.0
 23
0.0
 14
10.0
 24
10.0
 15
10.0
 25
10.0
 16
0.0
 26
0.0
 36
1.0
 17
0.0
 27
0.0
 37
0.0
 40
9929.265372574846
 41
1.6307901907356941
 42
50.0
 43
0.0
 44
0.0
 50
0.0
 51
0.0
 71
     0
 72
   100
 73
     1
 74
     0
 75
     0
 76
     0
 77
     0
 78
     0
  0
ENDTAB
  0
TABLE
  2
LTYPE
 70
     2
  0
LTYPE
  2
CONTINUOUS
 70
     0
  3
Solid line
 72
    65
 73
     0
 40
0.0
  0
LTYPE
  2
CENTER
 70
     0
  3
____ _ ____ _ ____ _ ____ _ ____ _ ____ _ ____ 
 72
    65
 73
     4
 40
2.0
 49
1.25
 49
-0.25
 49
0.25
 49
-0.25
  0
ENDTAB
  0
TABLE
  2
LAYER
 70
     6
  0
LAYER
  2
0
 70
     0
 62
     7
  6
CONTINUOUS
  0
LAYER
  2
3
 70
     0
 62
     2
  6
CONTINUOUS
  0
LAYER
  2
2
 70
     0
 62
     3
  6
CENTER
  0
LAYER
  2
1
 70
     0
 62
     4
  6
CONTINUOUS
  0
LAYER
  2
4
 70
     0
 62
     7
  6
CONTINUOUS
  0
LAYER
  2
DEFPOINTS
 70
     0
 62
     7
  6
CONTINUOUS
  0
ENDTAB
  0
TABLE
  2
STYLE
 70
     1
  0
STYLE
  2
STANDARD
 70
     0
 40
0.0
 41
1.0
 50
0.0
 71
     0
 42
180.0
  3
simplex.shx
  4
extfont.shx
  0
ENDTAB
  0
TABLE
  2
VIEW
 70
     0
  0
ENDTAB
  0
TABLE
  2
UCS
 70
     0
  0
ENDTAB
  0
TABLE
  2
APPID
 70
     1
  0
APPID
  2
ACAD
 70
     0
  0
ENDTAB
  0
TABLE
  2
DIMSTYLE
 70
     1
  0
DIMSTYLE
  2
IGA
 70
     0
  3

  4

  5

  6
OPEN
  7
OPEN
 40
2.0
 41
2.0
 42
0.5
 43
10.0
 44
1.0
 45
0.0
 46
0.0
 47
1.0
 48
1.0
140
3.0
141
0.0
142
0.0
143
0.03937
144
1.0
145
0.0
146
10.0
147
1.0
 71
     0
 72
     0
 73
     0
 74
     0
 75
     0
 76
     0
 77
     1
 78
     8
170
     0
171
     2
172
     0
173
     1
174
     0
175
     0
176
     0
177
     0
178
     0
  0
ENDTAB
  0
ENDSEC
  0
SECTION
  2
BLOCKS
  0
BLOCK
  8
0
  2
$MODEL_SPACE
 70
     0
 10
0.0
 20
0.0
 30
0.0
  3
$MODEL_SPACE
  1

  0
ENDBLK
  5
1B
  8
0
  0
BLOCK
 67
     1
  8
0
  2
$PAPER_SPACE
 70
     0
 10
0.0
 20
0.0
 30
0.0
  3
$PAPER_SPACE
  1

  0
ENDBLK
  5
18
 67
     1
  8
0
  0
BLOCK
  8
0
  2
_OPEN
 70
     0
 10
0.0
 20
0.0
 30
0.0
  3
_OPEN
  1

  0
LINE
  5
7ADC
  8
0
  6
BYBLOCK
 62
     0
 10
-1.0
 20
0.166667
 30
0.0
 11
0.0
 21
0.0
 31
0.0
  0
LINE
  5
7ADD
  8
0
  6
BYBLOCK
 62
     0
 10
0.0
 20
0.0
 30
0.0
 11
-1.0
 21
-0.166667
 31
0.0
  0
LINE
  5
7ADE
  8
0
  6
BYBLOCK
 62
     0
 10
0.0
 20
0.0
 30
0.0
 11
-1.0
 21
0.0
 31
0.0
  0
ENDBLK
  5
7ADF
  8
0
  0
BLOCK
  8
0
  2
*D1
 70
     1
 10
0.0
 20
0.0
 30
0.0
  3
*D1
  1

  0
LINE
  5
816D
  8
3
  6
CONTINUOUS
 62
     0
 10
2971.7679148804091
 20
2866.7268680340849
 30
0.0
 11
2971.7679148804091
 21
2649.0379347542762
 31
0.0
  0
LINE
  5
816E
  8
3
  6
CONTINUOUS
 62
     0
 10
2571.7679148804091
 20
2873.8156870340849
 30
0.0
 11
2571.7679148804091
 21
2649.0379347542762
 31
0.0
  0
LINE
  5
816F
  8
3
  6
CONTINUOUS
 62
     0
 10
3031.7679148804091
 20
2679.0379347542762
 30
0.0
 11
3091.7679148804091
 21
2679.0379347542762
 31
0.0
  0
LINE
  5
8170
  8
3
  6
CONTINUOUS
 62
     0
 10
2511.7679148804091
 20
2679.0379347542762
 30
0.0
 11
2451.7679148804091
 21
2679.0379347542762
 31
0.0
  0
TEXT
  5
8171
  8
3
 62
     0
 10
2656.0536291661228
 20
2698.790483660166
 30
0.0
 40
90.0
  1
400
  0
LINE
  5
8172
  8
3
  6
CONTINUOUS
 62
     0
 10
2971.7679148804091
 20
2679.0379347542762
 30
0.0
 11
2571.7679148804091
 21
2679.0379347542762
 31
0.0
  0
INSERT
  5
8173
  8
3
  6
CONTINUOUS
 62
     0
  2
_OPEN
 10
2971.7679148804091
 20
2679.0379347542762
 30
0.0
 41
60.0
 42
60.0
 43
60.0
 50
180.0
  0
INSERT
  5
8174
  8
3
  6
CONTINUOUS
 62
     0
  2
_OPEN
 10
2571.7679148804091
 20
2679.0379347542762
 30
0.0
 41
60.0
 42
60.0
 43
60.0
  0
POINT
  5
8175
  8
DEFPOINTS
  6
CONTINUOUS
 62
     0
 10
2971.7679148804091
 20
2881.7268680340849
 30
0.0
  0
POINT
  5
8176
  8
DEFPOINTS
  6
CONTINUOUS
 62
     0
 10
2571.7679148804091
 20
2888.8156870340849
 30
0.0
  0
POINT
  5
8177
  8
DEFPOINTS
  6
CONTINUOUS
 62
     0
 10
2571.7679148804091
 20
2679.0379347542762
 30
0.0
  0
ENDBLK
  5
7EDC
  8
0
  0
BLOCK
  8
0
  2
*D2
 70
     1
 10
0.0
 20
0.0
 30
0.0
  3
*D2
  1

  0
LINE
  5
829F
  8
3
  6
CONTINUOUS
 62
     0
 10
2571.7679148804091
 20
2873.8156870340849
 30
0.0
 11
2571.7679148804091
 21
2649.0379347542762
 31
0.0
  0
LINE
  5
82A0
  8
3
  6
CONTINUOUS
 62
     0
 10
1571.76791488041
 20
2866.7268680340849
 30
0.0
 11
1571.76791488041
 21
2649.0379347542762
 31
0.0
  0
LINE
  5
82A1
  8
3
  6
CONTINUOUS
 62
     0
 10
2511.7679148804091
 20
2679.0379347542762
 30
0.0
 11
1631.7679148804109
 21
2679.0379347542762
 31
0.0
  0
INSERT
  5
82A2
  8
3
  6
CONTINUOUS
 62
     0
  2
_OPEN
 10
2571.7679148804091
 20
2679.0379347542762
 30
0.0
 41
60.0
 42
60.0
 43
60.0
  0
INSERT
  5
82A3
  8
3
  6
CONTINUOUS
 62
     0
  2
_OPEN
 10
1571.76791488041
 20
2679.0379347542762
 30
0.0
 41
60.0
 42
60.0
 43
60.0
 50
180.0
  0
TEXT
  8
3
  40
90
  5
8322
  62
0
  72
0
  71
0
 10
1891.77
 20
2594.74
 30
0.000000
  1
1000
  0
POINT
  5
82A5
  8
DEFPOINTS
  6
CONTINUOUS
 62
     0
 10
2571.7679148804091
 20
2888.8156870340849
 30
0.0
  0
POINT
  5
82A6
  8
DEFPOINTS
  6
CONTINUOUS
 62
     0
 10
1571.76791488041
 20
2881.7268680340849
 30
0.0
  0
POINT
  5
82A7
  8
DEFPOINTS
  6
CONTINUOUS
 62
     0
 10
1571.76791488041
 20
2679.0379347542762
 30
0.0
  0
ENDBLK
  5
7ED1
  8
0
  0
BLOCK
  8
0
  2
*D3
 70
     1
 10
0.0
 20
0.0
 30
0.0
  3
*D3
  1

  0
LINE
  5
82A8
  8
3
  6
CONTINUOUS
 62
     0
 10
3046.7679148804091
 20
4264.7268680340849
 30
0.0
 11
3265.9909508804099
 21
4264.7268680340849
 31
0.0
  0
LINE
  5
82A9
  8
3
  6
CONTINUOUS
 62
     0
 10
3046.7679148804091
 20
3614.7268680340858
 30
0.0
 11
3265.9909508804099
 21
3614.7268680340849
 31
0.0
  0
LINE
  5
82AA
  8
3
  6
CONTINUOUS
 62
     0
 10
3235.9909508804099
 20
4204.7268680340849
 30
0.0
 11
3235.9909508804099
 21
3674.7268680340849
 31
0.0
  0
INSERT
  5
82AB
  8
3
  6
CONTINUOUS
 62
     0
  2
_OPEN
 10
3235.9909508804099
 20
4264.7268680340849
 30
0.0
 41
60.0
 42
60.0
 43
60.0
 50
90.0
  0
INSERT
  5
82AC
  8
3
  6
CONTINUOUS
 62
     0
  2
_OPEN
 10
3235.9909508804099
 20
3614.7268680340849
 30
0.0
 41
60.0
 42
60.0
 43
60.0
 50
270.0
  0
TEXT
  8
3
  40
90
  5
8323
  62
0
  72
0
  71
0
 10
2980.99
 20
3805.57
 30
0.000000
  1
650
  0
POINT
  5
82AE
  8
DEFPOINTS
  6
CONTINUOUS
 62
     0
 10
3031.7679148804091
 20
4264.7268680340849
 30
0.0
  0
POINT
  5
82AF
  8
DEFPOINTS
  6
CONTINUOUS
 62
     0
 10
3031.7679148804091
 20
3614.7268680340858
 30
0.0
  0
POINT
  5
82B0
  8
DEFPOINTS
  6
CONTINUOUS
 62
     0
 10
3235.9909508804099
 20
3614.7268680340849
 30
0.0
  0
ENDBLK
  5
7E4B
  8
0
  0
BLOCK
  8
0
  2
*D4
 70
     1
 10
0.0
 20
0.0
 30
0.0
  3
*D4
  1

  0
LINE
  5
82B1
  8
3
  6
CONTINUOUS
 62
     0
 10
3046.7679148804091
 20
4264.7268680340849
 30
0.0
 11
3459.5504738804111
 21
4264.7268680340849
 31
0.0
  0
LINE
  5
82B2
  8
3
  6
CONTINUOUS
 62
     0
 10
2964.0465018804089
 20
3586.7268680340858
 30
0.0
 11
3459.5504738804111
 21
3586.7268680340858
 31
0.0
  0
LINE
  5
82B3
  8
3
  6
CONTINUOUS
 62
     0
 10
3429.5504738804102
 20
4204.7268680340849
 30
0.0
 11
3429.5504738804102
 21
3646.7268680340849
 31
0.0
  0
INSERT
  5
82B4
  8
3
  6
CONTINUOUS
 62
     0
  2
_OPEN
 10
3429.5504738804102
 20
4264.7268680340849
 30
0.0
 41
60.0
 42
60.0
 43
60.0
 50
90.0
  0
INSERT
  5
82B5
  8
3
  6
CONTINUOUS
 62
     0
  2
_OPEN
 10
3429.5504738804102
 20
3586.7268680340858
 30
0.0
 41
60.0
 42
60.0
 43
60.0
 50
270.0
  0
TEXT
  8
3
  40
90
  5
8324
  62
0
  72
0
  71
0
 10
3174.55
 20
3790.22
 30
0.000000
  1
678
  0
POINT
  5
82B7
  8
DEFPOINTS
  6
CONTINUOUS
 62
     0
 10
3031.7679148804091
 20
4264.7268680340849
 30
0.0
  0
POINT
  5
82B8
  8
DEFPOINTS
  6
CONTINUOUS
 62
     0
 10
2949.0465018804098
 20
3586.7268680340858
 30
0.0
  0
POINT
  5
82B9
  8
DEFPOINTS
  6
CONTINUOUS
 62
     0
 10
3429.5504738804102
 20
3586.7268680340858
 30
0.0
  0
ENDBLK
  5
7E40
  8
0
  0
BLOCK
  8
0
  2
*D5
 70
     1
 10
0.0
 20
0.0
 30
0.0
  3
*D5
  1

  0
LINE
  5
82BA
  8
3
 62
     0
 10
2964.0465018804089
 20
3586.7268680340858
 30
0.0
 11
3459.5504738804102
 21
3586.7268680340858
 31
0.0
  0
LINE
  5
82BB
  8
3
 62
     0
 10
2986.7679148804091
 20
3081.7268680340858
 30
0.0
 11
3459.5504738804102
 21
3081.7268680340849
 31
0.0
  0
LINE
  5
82BC
  8
3
 62
     0
 10
3429.5504738804102
 20
3526.7268680340849
 30
0.0
 11
3429.5504738804102
 21
3141.7268680340849
 31
0.0
  0
INSERT
  5
82BD
  8
3
 62
     0
  2
_OPEN
 10
3429.5504738804102
 20
3586.7268680340858
 30
0.0
 41
60.0
 42
60.0
 43
60.0
 50
90.0
  0
INSERT
  5
82BE
  8
3
 62
     0
  2
_OPEN
 10
3429.5504738804102
 20
3081.7268680340849
 30
0.0
 41
60.0
 42
60.0
 43
60.0
 50
270.0
  0
TEXT
  8
3
  40
90
  5
8325
  62
0
  72
0
  71
0
 10
3174.55
 20
3174.93
 30
0.000000
  1
505
  0
POINT
  5
82C0
  8
DEFPOINTS
 62
     0
 10
2949.0465018804098
 20
3586.7268680340858
 30
0.0
  0
POINT
  5
82C1
  8
DEFPOINTS
 62
     0
 10
2971.7679148804091
 20
3081.7268680340858
 30
0.0
  0
POINT
  5
82C2
  8
DEFPOINTS
 62
     0
 10
3429.5504738804102
 20
3081.7268680340849
 30
0.0
  0
ENDBLK
  5
7E35
  8
0
  0
BLOCK
  8
0
  2
*D6
 70
     1
 10
0.0
 20
0.0
 30
0.0
  3
*D6
  1

  0
LINE
  5
82C3
  8
3
  6
CONTINUOUS
 62
     0
 10
3046.7679148804091
 20
4306.7268680340849
 30
0.0
 11
3704.0443814026012
 21
4306.7268680340849
 31
0.0
  0
LINE
  5
82C4
  8
3
  6
CONTINUOUS
 62
     0
 10
2986.7679148804091
 20
2881.7268680340849
 30
0.0
 11
3704.0443814025998
 21
2881.7268680340849
 31
0.0
  0
LINE
  5
82C5
  8
3
  6
CONTINUOUS
 62
     0
 10
3674.0443814026012
 20
4246.7268680340858
 30
0.0
 11
3674.0443814025998
 21
2941.7268680340849
 31
0.0
  0
INSERT
  5
82C6
  8
3
  6
CONTINUOUS
 62
     0
  2
_OPEN
 10
3674.0443814026012
 20
4306.7268680340849
 30
0.0
 41
60.0
 42
60.0
 43
60.0
 50
90.0
  0
INSERT
  5
82C7
  8
3
  6
CONTINUOUS
 62
     0
  2
_OPEN
 10
3674.0443814025998
 20
2881.7268680340849
 30
0.0
 41
60.0
 42
60.0
 43
60.0
 50
270.0
  0
TEXT
  8
3
  40
90
  5
8326
  62
0
  72
0
  71
0
 10
3419.04
 20
3472.75
 30
0.000000
  1
1425
  0
POINT
  5
82C9
  8
DEFPOINTS
  6
CONTINUOUS
 62
     0
 10
3031.7679148804091
 20
4306.7268680340849
 30
0.0
  0
POINT
  5
82CA
  8
DEFPOINTS
  6
CONTINUOUS
 62
     0
 10
2971.7679148804091
 20
2881.7268680340849
 30
0.0
  0
POINT
  5
82CB
  8
DEFPOINTS
  6
CONTINUOUS
 62
     0
 10
3674.0443814025998
 20
2881.7268680340849
 30
0.0
  0
ENDBLK
  5
7E2A
  8
0
  0
BLOCK
  8
0
  2
*D7
 70
     1
 10
0.0
 20
0.0
 30
0.0
  3
*D7
  1

  0
LINE
  5
82CC
  8
3
  6
CONTINUOUS
 62
     0
 10
3031.7679148804091
 20
4321.7268680340858
 30
0.0
 11
3031.7679148804091
 21
4446.8101280340852
 31
0.0
  0
LINE
  5
82CD
  8
3
  6
CONTINUOUS
 62
     0
 10
2571.7679148804091
 20
4243.7268680340858
 30
0.0
 11
2571.7679148804091
 21
4446.8101280340852
 31
0.0
  0
LINE
  5
82CE
  8
3
  6
CONTINUOUS
 62
     0
 10
2971.7679148804091
 20
4416.8101280340852
 30
0.0
 11
2631.7679148804091
 21
4416.8101280340852
 31
0.0
  0
INSERT
  5
82CF
  8
3
  6
CONTINUOUS
 62
     0
  2
_OPEN
 10
3031.7679148804091
 20
4416.8101280340852
 30
0.0
 41
60.0
 42
60.0
 43
60.0
  0
INSERT
  5
82D0
  8
3
  6
CONTINUOUS
 62
     0
  2
_OPEN
 10
2571.7679148804091
 20
4416.8101280340852
 30
0.0
 41
60.0
 42
60.0
 43
60.0
 50
180.0
  0
TEXT
  8
3
  40
90
  5
8327
  62
0
  72
0
  71
0
 10
2646.05
 20
4332.51
 30
0.000000
  1
460
  0
POINT
  5
82D2
  8
DEFPOINTS
  6
CONTINUOUS
 62
     0
 10
3031.7679148804091
 20
4306.7268680340849
 30
0.0
  0
POINT
  5
82D3
  8
DEFPOINTS
  6
CONTINUOUS
 62
     0
 10
2571.7679148804091
 20
4228.7268680340858
 30
0.0
  0
POINT
  5
82D4
  8
DEFPOINTS
  6
CONTINUOUS
 62
     0
 10
2571.7679148804091
 20
4416.8101280340852
 30
0.0
  0
ENDBLK
  5
7E1F
  8
0
  0
BLOCK
  8
0
  2
*D8
 70
     1
 10
0.0
 20
0.0
 30
0.0
  3
*D8
  1

  0
LINE
  5
82D5
  8
3
  6
CONTINUOUS
 62
     0
 10
2571.7679148804091
 20
4243.7268680340858
 30
0.0
 11
2571.7679148804091
 21
4446.8101280340852
 31
0.0
  0
LINE
  5
82D6
  8
3
  6
CONTINUOUS
 62
     0
 10
2024.068992880409
 20
3601.7268680340849
 30
0.0
 11
2024.068992880409
 21
4446.8101280340852
 31
0.0
  0
LINE
  5
82D7
  8
3
  6
CONTINUOUS
 62
     0
 10
2511.7679148804091
 20
4416.8101280340852
 30
0.0
 11
2084.068992880409
 21
4416.8101280340852
 31
0.0
  0
INSERT
  5
82D8
  8
3
  6
CONTINUOUS
 62
     0
  2
_OPEN
 10
2571.7679148804091
 20
4416.8101280340852
 30
0.0
 41
60.0
 42
60.0
 43
60.0
  0
INSERT
  5
82D9
  8
3
  6
CONTINUOUS
 62
     0
  2
_OPEN
 10
2024.068992880409
 20
4416.8101280340852
 30
0.0
 41
60.0
 42
60.0
 43
60.0
 50
180.0
  0
TEXT
  8
3
  40
90
  5
8328
  62
0
  72
0
  71
0
 10
2117.92
 20
4332.51
 30
0.000000
  1
548
  0
POINT
  5
82DB
  8
DEFPOINTS
  6
CONTINUOUS
 62
     0
 10
2571.7679148804091
 20
4228.7268680340858
 30
0.0
  0
POINT
  5
82DC
  8
DEFPOINTS
  6
CONTINUOUS
 62
     0
 10
2024.068992880409
 20
3586.7268680340858
 30
0.0
  0
POINT
  5
82DD
  8
DEFPOINTS
  6
CONTINUOUS
 62
     0
 10
2024.068992880409
 20
4416.8101280340852
 30
0.0
  0
ENDBLK
  5
7E14
  8
0
  0
BLOCK
  8
0
  2
*D9
 70
     1
 10
0.0
 20
0.0
 30
0.0
  3
*D9
  1

  0
LINE
  5
82DE
  8
3
  6
CONTINUOUS
 62
     0
 10
2971.7679148804091
 20
5620.6686564210577
 30
0.0
 11
2971.7679148804091
 21
5281.134299421059
 31
0.0
  0
LINE
  5
82DF
  8
3
  6
CONTINUOUS
 62
     0
 10
1571.76791488041
 20
5620.6686564210577
 30
0.0
 11
1571.76791488041
 21
5281.134299421059
 31
0.0
  0
LINE
  5
82E0
  8
3
  6
CONTINUOUS
 62
     0
 10
2911.7679148804082
 20
5311.134299421059
 30
0.0
 11
1631.7679148804109
 21
5311.134299421059
 31
0.0
  0
INSERT
  5
82E1
  8
3
  6
CONTINUOUS
 62
     0
  2
_OPEN
 10
2971.7679148804091
 20
5311.134299421059
 30
0.0
 41
60.0
 42
60.0
 43
60.0
  0
INSERT
  5
82E2
  8
3
  6
CONTINUOUS
 62
     0
  2
_OPEN
 10
1571.76791488041
 20
5311.134299421059
 30
0.0
 41
60.0
 42
60.0
 43
60.0
 50
180.0
  0
TEXT
  8
3
  40
90
  5
8329
  62
0
  72
0
  71
0
 10
2097.71
 20
5226.83
 30
0.000000
  1
1400
  0
POINT
  5
82E4
  8
DEFPOINTS
  6
CONTINUOUS
 62
     0
 10
2971.7679148804091
 20
5635.6686564210568
 30
0.0
  0
POINT
  5
82E5
  8
DEFPOINTS
  6
CONTINUOUS
 62
     0
 10
1571.76791488041
 20
5635.6686564210568
 30
0.0
  0
POINT
  5
82E6
  8
DEFPOINTS
  6
CONTINUOUS
 62
     0
 10
1571.76791488041
 20
5311.134299421059
 30
0.0
  0
ENDBLK
  5
7E09
  8
0
  0
BLOCK
  8
0
  2
*D10
 70
     1
 10
0.0
 20
0.0
 30
0.0
  3
*D10
  1

  0
LINE
  5
82E7
  8
3
  6
CONTINUOUS
 62
     0
 10
1556.7679148804109
 20
6325.6686564210577
 30
0.0
 11
1239.3677058804101
 21
6325.6686564210577
 31
0.0
  0
LINE
  5
82E8
  8
3
  6
CONTINUOUS
 62
     0
 10
1556.7679148804109
 20
5635.6686564210568
 30
0.0
 11
1239.3677058804101
 21
5635.6686564210568
 31
0.0
  0
LINE
  5
82E9
  8
3
  6
CONTINUOUS
 62
     0
 10
1269.3677058804101
 20
6265.6686564210577
 30
0.0
 11
1269.3677058804101
 21
5695.6686564210577
 31
0.0
  0
INSERT
  5
82EA
  8
3
  6
CONTINUOUS
 62
     0
  2
_OPEN
 10
1269.3677058804101
 20
6325.6686564210577
 30
0.0
 41
60.0
 42
60.0
 43
60.0
 50
90.0
  0
INSERT
  5
82EB
  8
3
  6
CONTINUOUS
 62
     0
  2
_OPEN
 10
1269.3677058804101
 20
5635.6686564210568
 30
0.0
 41
60.0
 42
60.0
 43
60.0
 50
270.0
  0
TEXT
  8
3
  40
90
  5
832A
  62
0
  72
0
  71
0
 10
1014.37
 20
5804.88
 30
0.000000
  1
690
  0
POINT
  5
82ED
  8
DEFPOINTS
  6
CONTINUOUS
 62
     0
 10
1571.76791488041
 20
6325.6686564210577
 30
0.0
  0
POINT
  5
82EE
  8
DEFPOINTS
  6
CONTINUOUS
 62
     0
 10
1571.76791488041
 20
5635.6686564210568
 30
0.0
  0
POINT
  5
82EF
  8
DEFPOINTS
  6
CONTINUOUS
 62
     0
 10
1269.3677058804101
 20
5635.6686564210568
 30
0.0
  0
ENDBLK
  5
7DFE
  8
0
  0
BLOCK
  8
0
  2
*D11
 70
     1
 10
0.0
 20
0.0
 30
0.0
  3
*D11
  1

  0
LINE
  5
7EDE
  8
0
  6
BYBLOCK
 62
     0
 10
4141.7422865660683
 20
2866.7268680340849
 30
0.0
 11
4141.7422865660683
 21
2651.9946279181208
 31
0.0
  0
LINE
  5
7EDF
  8
0
  6
BYBLOCK
 62
     0
 10
4541.7422865660683
 20
2841.2254100340851
 30
0.0
 11
4541.7422865660683
 21
2651.9946279181208
 31
0.0
  0
LINE
  5
7EE0
  8
0
  6
BYBLOCK
 62
     0
 10
4201.7422865660683
 20
2681.9946279181208
 30
0.0
 11
4481.7422865660683
 21
2681.9946279181208
 31
0.0
  0
TEXT
  5
7EE1
  8
3
 62
     0
 10
4226.0280008517821
 20
2705.2396061764848
 30
0.0
 40
90.0
  1
400
  0
INSERT
  5
7EE2
  8
0
  6
BYBLOCK
 62
     0
  2
_OPEN
 10
4141.7422865660683
 20
2681.9946279181208
 30
0.0
 41
60.0
 42
60.0
 43
60.0
 50
180.0
  0
INSERT
  5
7EE3
  8
0
  6
BYBLOCK
 62
     0
  2
_OPEN
 10
4541.7422865660683
 20
2681.9946279181208
 30
0.0
 41
60.0
 42
60.0
 43
60.0
  0
POINT
  5
7EE4
  8
DEFPOINTS
  6
BYBLOCK
 62
     0
 10
4141.7422865660683
 20
2881.7268680340849
 30
0.0
  0
POINT
  5
7EE5
  8
DEFPOINTS
  6
BYBLOCK
 62
     0
 10
4541.7422865660683
 20
2856.2254100340851
 30
0.0
  0
POINT
  5
7EE6
  8
DEFPOINTS
  6
BYBLOCK
 62
     0
 10
4541.7422865660683
 20
2681.9946279181208
 30
0.0
  0
ENDBLK
  5
7EE7
  8
0
  0
BLOCK
  8
0
  2
*D12
 70
     1
 10
0.0
 20
0.0
 30
0.0
  3
*D12
  1

  0
LINE
  5
7EE9
  8
0
  6
BYBLOCK
 62
     0
 10
4541.7422865660683
 20
2841.2254100340851
 30
0.0
 11
4541.7422865660683
 21
2651.9946279181208
 31
0.0
  0
LINE
  5
7EEA
  8
0
  6
BYBLOCK
 62
     0
 10
4831.7422865660683
 20
2866.7268680340849
 30
0.0
 11
4831.7422865660683
 21
2651.9946279181208
 31
0.0
  0
LINE
  5
7EEB
  8
0
  6
BYBLOCK
 62
     0
 10
4601.7422865660683
 20
2681.9946279181208
 30
0.0
 11
4771.7422865660692
 21
2681.9946279181208
 31
0.0
  0
TEXT
  5
7EEC
  8
3
 62
     0
 10
4575.0572340841936
 20
2718.1378020976481
 30
0.0
 40
90.0
  1
290
  0
INSERT
  5
7EED
  8
0
  6
BYBLOCK
 62
     0
  2
_OPEN
 10
4541.7422865660683
 20
2681.9946279181208
 30
0.0
 41
60.0
 42
60.0
 43
60.0
 50
180.0
  0
INSERT
  5
7EEE
  8
0
  6
BYBLOCK
 62
     0
  2
_OPEN
 10
4831.7422865660683
 20
2681.9946279181208
 30
0.0
 41
60.0
 42
60.0
 43
60.0
  0
POINT
  5
7EEF
  8
DEFPOINTS
  6
BYBLOCK
 62
     0
 10
4541.7422865660683
 20
2856.2254100340851
 30
0.0
  0
POINT
  5
7EF0
  8
DEFPOINTS
  6
BYBLOCK
 62
     0
 10
4831.7422865660683
 20
2881.7268680340849
 30
0.0
  0
POINT
  5
7EF1
  8
DEFPOINTS
  6
BYBLOCK
 62
     0
 10
4831.7422865660683
 20
2681.9946279181208
 30
0.0
  0
ENDBLK
  5
7EF2
  8
0
  0
BLOCK
  8
0
  2
*D13
 70
     1
 10
0.0
 20
0.0
 30
0.0
  3
*D13
  1

  0
LINE
  5
82F0
  8
3
  6
CONTINUOUS
 62
     0
 10
4876.7422865660683
 20
3901.7268680340849
 30
0.0
 11
5108.037247079229
 21
3901.7268680340849
 31
0.0
  0
LINE
  5
82F1
  8
3
  6
CONTINUOUS
 62
     0
 10
4876.7422865660683
 20
3271.7268680340858
 30
0.0
 11
5108.037247079229
 21
3271.7268680340858
 31
0.0
  0
LINE
  5
82F2
  8
3
  6
CONTINUOUS
 62
     0
 10
5078.0372470792299
 20
3841.7268680340858
 30
0.0
 11
5078.0372470792299
 21
3331.7268680340858
 31
0.0
  0
INSERT
  5
82F3
  8
3
  6
CONTINUOUS
 62
     0
  2
_OPEN
 10
5078.0372470792299
 20
3901.7268680340849
 30
0.0
 41
60.0
 42
60.0
 43
60.0
 50
90.0
  0
INSERT
  5
82F4
  8
3
  6
CONTINUOUS
 62
     0
  2
_OPEN
 10
5078.0372470792299
 20
3271.7268680340858
 30
0.0
 41
60.0
 42
60.0
 43
60.0
 50
270.0
  0
TEXT
  8
3
  40
90
  5
832B
  62
0
  72
0
  71
0
 10
4823.04
 20
3409.98
 30
0.000000
  1
φ630
  0
POINT
  5
82F6
  8
DEFPOINTS
  6
CONTINUOUS
 62
     0
 10
4861.7422865660692
 20
3901.7268680340849
 30
0.0
  0
POINT
  5
82F7
  8
DEFPOINTS
  6
CONTINUOUS
 62
     0
 10
4861.7422865660692
 20
3271.7268680340858
 30
0.0
  0
POINT
  5
82F8
  8
DEFPOINTS
  6
CONTINUOUS
 62
     0
 10
5078.0372470792299
 20
3271.7268680340858
 30
0.0
  0
ENDBLK
  5
7EC6
  8
0
  0
BLOCK
  8
0
  2
*D14
 70
     1
 10
0.0
 20
0.0
 30
0.0
  3
*D14
  1

  0
LINE
  5
82F9
  8
3
  6
CONTINUOUS
 62
     0
 10
4304.2422865660683
 20
4279.7268680340849
 30
0.0
 11
4304.2422865660683
 21
4385.427836034085
 31
0.0
  0
LINE
  5
82FA
  8
3
  6
CONTINUOUS
 62
     0
 10
4779.2422865660683
 20
4279.7268680340849
 30
0.0
 11
4779.2422865660683
 21
4385.427836034085
 31
0.0
  0
LINE
  5
82FB
  8
3
  6
CONTINUOUS
 62
     0
 10
4364.2422865660683
 20
4355.427836034085
 30
0.0
 11
4719.2422865660683
 21
4355.427836034085
 31
0.0
  0
INSERT
  5
82FC
  8
3
  6
CONTINUOUS
 62
     0
  2
_OPEN
 10
4304.2422865660683
 20
4355.427836034085
 30
0.0
 41
60.0
 42
60.0
 43
60.0
 50
180.0
  0
INSERT
  5
82FD
  8
3
  6
CONTINUOUS
 62
     0
  2
_OPEN
 10
4779.2422865660683
 20
4355.427836034085
 30
0.0
 41
60.0
 42
60.0
 43
60.0
  0
TEXT
  8
3
  40
90
  5
832C
  62
0
  72
0
  71
0
 10
4361.74
 20
4271.13
 30
0.000000
  1
475
  0
POINT
  5
82FF
  8
DEFPOINTS
  6
CONTINUOUS
 62
     0
 10
4304.2422865660683
 20
4264.7268680340849
 30
0.0
  0
POINT
  5
8300
  8
DEFPOINTS
  6
CONTINUOUS
 62
     0
 10
4779.2422865660683
 20
4264.7268680340849
 30
0.0
  0
POINT
  5
8301
  8
DEFPOINTS
  6
CONTINUOUS
 62
     0
 10
4779.2422865660683
 20
4355.427836034085
 30
0.0
  0
ENDBLK
  5
7DCF
  8
0
  0
BLOCK
  8
0
  2
*D15
 70
     1
 10
0.0
 20
0.0
 30
0.0
  3
*D15
  1

  0
LINE
  5
8302
  8
3
  6
CONTINUOUS
 62
     0
 10
4061.7422865660678
 20
3791.7268680340858
 30
0.0
 11
4061.7422865660678
 21
4604.0268670340847
 31
0.0
  0
LINE
  5
8303
  8
3
  6
CONTINUOUS
 62
     0
 10
4541.7422865660683
 20
4509.0157688952559
 30
0.0
 11
4541.7422865660683
 21
4604.0268670340847
 31
0.0
  0
LINE
  5
8304
  8
3
  6
CONTINUOUS
 62
     0
 10
4121.7422865660683
 20
4574.0268670340856
 30
0.0
 11
4481.7422865660683
 21
4574.0268670340856
 31
0.0
  0
INSERT
  5
8305
  8
3
  6
CONTINUOUS
 62
     0
  2
_OPEN
 10
4061.7422865660678
 20
4574.0268670340856
 30
0.0
 41
60.0
 42
60.0
 43
60.0
 50
180.0
  0
INSERT
  5
8306
  8
3
  6
CONTINUOUS
 62
     0
  2
_OPEN
 10
4541.7422865660683
 20
4574.0268670340856
 30
0.0
 41
60.0
 42
60.0
 43
60.0
  0
TEXT
  8
3
  40
90
  5
832D
  62
0
  72
0
  71
0
 10
4100.31
 20
4564.73
 30
0.000000
  1
MAX
  0
TEXT
  8
3
  40
90
  5
832E
  62
0
  72
0
  71
0
 10
4100.31
 20
4447.73
 30
0.000000
  1
550
  0
POINT
  5
8308
  8
DEFPOINTS
  6
CONTINUOUS
 62
     0
 10
4061.7422865660678
 20
3776.7268680340849
 30
0.0
  0
POINT
  5
8309
  8
DEFPOINTS
  6
CONTINUOUS
 62
     0
 10
4541.7422865660683
 20
4494.0157688952559
 30
0.0
  0
POINT
  5
830A
  8
DEFPOINTS
  6
CONTINUOUS
 62
     0
 10
4541.7422865660683
 20
4574.0268670340856
 30
0.0
  0
ENDBLK
  5
7F1E
  8
0
  0
BLOCK
  8
0
  2
*D16
 70
     1
 10
0.0
 20
0.0
 30
0.0
  3
*D16
  1

  0
LINE
  5
7EFF
  8
0
  6
BYBLOCK
 62
     0
 10
4541.7422865660683
 20
4509.0157688952559
 30
0.0
 11
4541.7422865660683
 21
4604.3680150340851
 31
0.0
  0
LINE
  5
7F00
  8
0
  6
BYBLOCK
 62
     0
 10
4861.7422865660692
 20
3956.7268680340858
 30
0.0
 11
4861.7422865660692
 21
4604.3680150340851
 31
0.0
  0
LINE
  5
7F01
  8
0
  6
BYBLOCK
 62
     0
 10
4601.7422865660683
 20
4574.3680150340842
 30
0.0
 11
4801.7422865660683
 21
4574.3680150340842
 31
0.0
  0
TEXT
  5
7F02
  8
3
 62
     0
 10
4590.5504099063082
 20
4597.7394362483392
 30
0.0
 40
90.0
  1
320
  0
INSERT
  5
7F03
  8
0
  6
BYBLOCK
 62
     0
  2
_OPEN
 10
4541.7422865660683
 20
4574.3680150340842
 30
0.0
 41
60.0
 42
60.0
 43
60.0
 50
180.0
  0
INSERT
  5
7F04
  8
0
  6
BYBLOCK
 62
     0
  2
_OPEN
 10
4861.7422865660692
 20
4574.3680150340842
 30
0.0
 41
60.0
 42
60.0
 43
60.0
  0
POINT
  5
7F05
  8
DEFPOINTS
  6
BYBLOCK
 62
     0
 10
4541.7422865660683
 20
4494.0157688952559
 30
0.0
  0
POINT
  5
7F06
  8
DEFPOINTS
  6
BYBLOCK
 62
     0
 10
4861.7422865660692
 20
3941.7268680340858
 30
0.0
  0
POINT
  5
7F07
  8
DEFPOINTS
  6
BYBLOCK
 62
     0
 10
4861.7422865660692
 20
4574.3680150340842
 30
0.0
  0
ENDBLK
  5
7F08
  8
0
  0
BLOCK
  8
0
  2
*D17
 70
     1
 10
0.0
 20
0.0
 30
0.0
  3
*D17
  1

  0
LINE
  5
830B
  8
3
 62
     0
 10
2986.7679148804091
 20
2981.7268680340849
 30
0.0
 11
3459.5504738804102
 21
2981.7268680340849
 31
0.0
  0
LINE
  5
830C
  8
3
 62
     0
 10
2986.7679148804091
 20
2881.7268680340849
 30
0.0
 11
3459.5504738804102
 21
2881.7268680340849
 31
0.0
  0
LINE
  5
830D
  8
3
 62
     0
 10
3429.5504738804102
 20
3041.7268680340849
 30
0.0
 11
3429.5504738804102
 21
3101.7268680340849
 31
0.0
  0
LINE
  5
830E
  8
3
 62
     0
 10
3429.5504738804102
 20
2821.7268680340849
 30
0.0
 11
3429.5504738804102
 21
2487.4411537483702
 31
0.0
  0
LINE
  5
830F
  8
3
 62
     0
 10
3429.5504738804102
 20
2981.7268680340849
 30
0.0
 11
3429.5504738804102
 21
2881.7268680340849
 31
0.0
  0
INSERT
  5
8310
  8
3
 62
     0
  2
_DOT
 10
3429.5504738804102
 20
2981.7268680340849
 30
0.0
 41
60.0
 42
60.0
 43
60.0
 50
270.0
  0
INSERT
  5
8311
  8
3
 62
     0
  2
_OPEN
 10
3429.5504738804102
 20
2881.7268680340849
 30
0.0
 41
60.0
 42
60.0
 43
60.0
 50
90.0
  0
TEXT
  8
3
  40
90
  5
832F
  62
0
  72
0
  71
0
 10
3174.55
 20
2465.28
 30
0.000000
  1
100
  0
POINT
  5
8313
  8
DEFPOINTS
 62
     0
 10
2971.7679148804091
 20
2981.7268680340849
 30
0.0
  0
POINT
  5
8314
  8
DEFPOINTS
 62
     0
 10
2971.7679148804091
 20
2881.7268680340849
 30
0.0
  0
POINT
  5
8315
  8
DEFPOINTS
 62
     0
 10
3429.5504738804102
 20
2881.7268680340849
 30
0.0
  0
ENDBLK
  5
7F5F
  8
0
  0
BLOCK
  8
0
  2
_DOT
 70
     0
 10
0.0
 20
0.0
 30
0.0
  3
_DOT
  1

  0
LINE
  5
7F60
  8
0
  6
BYBLOCK
 62
     0
 10
0.0
 20
0.0
 30
0.0
 11
-1.0
 21
-0.0000000000000284
 31
0.0
  0
POLYLINE
  5
7F61
  8
0
  6
BYBLOCK
 62
     0
 66
     1
 10
0.0
 20
0.0
 30
0.0
 70
     1
 40
0.1666666666666666
 41
0.1666666666666666
  0
VERTEX
  5
8316
  8
0
  6
BYBLOCK
 62
     0
 10
-0.0833333333333286
 20
-0.0000000000000284
 30
0.0
 42
1.0
  0
VERTEX
  5
8317
  8
0
  6
BYBLOCK
 62
     0
 10
0.0833333333333286
 20
-0.0000000000000284
 30
0.0
 42
1.0
  0
SEQEND
  5
8318
  8
0
  6
BYBLOCK
 62
     0
  0
ENDBLK
  5
7CFB
  8
0
  0
BLOCK
  8
0
  2
*D19
 70
     1
 10
0.0
 20
0.0
 30
0.0
  3
*D19
  1

  0
LINE
  5
81C9
  8
3
 62
     0
 10
2986.7679148804091
 20
2981.7268680340849
 30
0.0
 11
3459.5504738804102
 21
2981.7268680340849
 31
0.0
  0
LINE
  5
81CA
  8
3
 62
     0
 10
3429.5504738804102
 20
3141.7268680340849
 30
0.0
 11
3429.5504738804102
 21
3201.7268680340849
 31
0.0
  0
LINE
  5
81CB
  8
3
 62
     0
 10
3429.5504738804102
 20
2921.7268680340849
 30
0.0
 11
3429.5504738804102
 21
2861.7268680340849
 31
0.0
  0
TEXT
  5
81CC
  8
3
 62
     0
 10
3684.5504738804088
 20
2924.5840108912289
 30
0.0
 40
90.0
  1
100
 50
90.0
  0
LINE
  5
81CD
  8
3
 62
     0
 10
3429.5504738804102
 20
3081.7268680340849
 30
0.0
 11
3429.5504738804102
 21
2981.7268680340849
 31
0.0
  0
INSERT
  5
81CE
  8
3
 62
     0
  2
_OPEN
 10
3429.5504738804102
 20
3081.7268680340849
 30
0.0
 41
60.0
 42
60.0
 43
60.0
 50
270.0
  0
INSERT
  5
81CF
  8
3
 62
     0
  2
_DOT
 10
3429.5504738804102
 20
2981.7268680340849
 30
0.0
 41
60.0
 42
60.0
 43
60.0
 50
90.0
  0
POINT
  5
81D0
  8
DEFPOINTS
 62
     0
 10
2971.7679148804091
 20
3081.7268680340858
 30
0.0
  0
POINT
  5
81D1
  8
DEFPOINTS
 62
     0
 10
2971.7679148804091
 20
2981.7268680340849
 30
0.0
  0
POINT
  5
81D2
  8
DEFPOINTS
 62
     0
 10
3429.5504738804102
 20
2981.7268680340849
 30
0.0
  0
ENDBLK
  5
7F52
  8
0
  0
BLOCK
  8
0
  2
*D20
 70
     1
 10
0.0
 20
0.0
 30
0.0
  3
*D20
  1

  0
LINE
  5
8319
  8
3
 62
     0
 10
3031.7679148804091
 20
4336.7268680340858
 30
0.0
 11
3031.7679148804091
 21
4624.6828185493341
 31
0.0
  0
LINE
  5
831A
  8
3
 62
     0
 10
1571.76791488041
 20
3196.7268680340849
 30
0.0
 11
1571.76791488041
 21
4624.6828185493341
 31
0.0
  0
LINE
  5
831B
  8
3
 62
     0
 10
2971.7679148804091
 20
4594.6828185493341
 30
0.0
 11
1631.7679148804109
 21
4594.6828185493341
 31
0.0
  0
INSERT
  5
831C
  8
3
 62
     0
  2
_OPEN
 10
3031.7679148804091
 20
4594.6828185493341
 30
0.0
 41
60.0
 42
60.0
 43
60.0
  0
INSERT
  5
831D
  8
3
 62
     0
  2
_OPEN
 10
1571.76791488041
 20
4594.6828185493341
 30
0.0
 41
60.0
 42
60.0
 43
60.0
 50
180.0
  0
TEXT
  8
3
  40
90
  5
8330
  62
0
  72
0
  71
0
 10
2056.83
 20
4510.38
 30
0.000000
  1
1460
  0
POINT
  5
831F
  8
DEFPOINTS
 62
     0
 10
3031.7679148804091
 20
4321.7268680340858
 30
0.0
  0
POINT
  5
8320
  8
DEFPOINTS
 62
     0
 10
1571.76791488041
 20
3181.7268680340858
 30
0.0
  0
POINT
  5
8321
  8
DEFPOINTS
 62
     0
 10
1571.76791488041
 20
4594.6828185493341
 30
0.0
  0
ENDBLK
  5
7F70
  8
0
  0
ENDSEC
  0
SECTION
  2
ENTITIES
  0
LINE
  5
7A6D
  8
1
  6
CONTINUOUS
 10
2971.7679148804091
 20
2981.7268680340849
 30
0.0
 11
1571.76791488041
 21
2981.7268680340849
 31
0.0
  0
LINE
  5
7A6E
  8
1
  6
CONTINUOUS
 10
2971.7679148804091
 20
2881.7268680340849
 30
0.0
 11
1571.76791488041
 21
2881.7268680340849
 31
0.0
  0
LINE
  5
7A6F
  8
1
  6
CONTINUOUS
 10
2971.7679148804091
 20
3081.7268680340858
 30
0.0
 11
1571.76791488041
 21
3081.7268680340858
 31
0.0
  0
ARC
  5
7A70
  8
1
  6
CONTINUOUS
 10
2618.7679148804091
 20
3633.7268680340849
 30
0.0
 40
596.89999999999998
 50
94.500000000000014
 51
180.0
  0
ARC
  5
7A71
  8
1
  6
CONTINUOUS
 10
2524.7679148804091
 20
3633.7268680340849
 30
0.0
 40
502.89999999999992
 50
180.0
 51
276.0
  0
LINE
  5
7A72
  8
1
  6
CONTINUOUS
 10
2971.7679148804091
 20
3181.7268680340858
 30
0.0
 11
1571.76791488041
 21
3181.7268680340858
 31
0.0
  0
LINE
  5
7A73
  8
1
  6
CONTINUOUS
 10
3031.7679148804091
 20
6273.1686564210577
 30
0.0
 11
2021.867914880409
 21
6273.1686564210577
 31
0.0
  0
LINE
  5
7A74
  8
1
  6
CONTINUOUS
 10
3031.7679148804091
 20
5798.1686564210577
 30
0.0
 11
2021.867914880409
 21
5798.1686564210577
 31
0.0
  0
LINE
  5
7A75
  8
1
  6
CONTINUOUS
 10
2761.7679148804091
 20
5555.6686564210577
 30
0.0
 11
1546.76791488041
 21
5555.6686564210577
 31
0.0
  0
LINE
  5
7A76
  8
1
  6
CONTINUOUS
 10
2761.7679148804091
 20
5715.6686564210577
 30
0.0
 11
1546.76791488041
 21
5715.6686564210577
 31
0.0
  0
LINE
  5
7A77
  8
1
  6
CONTINUOUS
 10
2256.7679148804091
 20
6325.6686564210577
 30
0.0
 11
1571.76791488041
 21
6325.6686564210577
 31
0.0
  0
LINE
  5
7A78
  8
1
  6
CONTINUOUS
 10
2481.7679148804091
 20
5635.6686564210568
 30
0.0
 11
1816.7679148804091
 21
5635.6686564210568
 31
0.0
  0
LINE
  5
7A79
  8
1
  6
CONTINUOUS
 10
1726.5679148804099
 20
3425.8268680340848
 30
0.0
 11
2545.7679148804091
 21
3672.9268680340851
 31
0.0
  0
LINE
  5
7A7A
  8
1
  6
CONTINUOUS
 10
1697.6679148804101
 20
3521.5268680340851
 30
0.0
 11
2516.867914880409
 21
3768.626868034085
 31
0.0
  0
LINE
  5
7A7B
  8
1
  6
CONTINUOUS
 10
1763.867914880409
 20
3290.9268680340861
 30
0.0
 11
2593.6679148804101
 21
3499.5268680340841
 31
0.0
  0
LINE
  5
7A7C
  8
1
  6
CONTINUOUS
 10
1788.1679148804101
 20
3193.9268680340851
 30
0.0
 11
2618.0679148804102
 21
3402.5268680340851
 31
0.0
  0
LINE
  5
7A7D
  8
1
  6
CONTINUOUS
 10
2944.6679148804101
 20
3614.7268680340858
 30
0.0
 11
3031.7679148804091
 21
3614.7268680340858
 31
0.0
  0
LINE
  5
7A7E
  8
1
  6
CONTINUOUS
 10
3031.7679148804091
 20
4264.7268680340849
 30
0.0
 11
2571.7679148804091
 21
4228.7268680340858
 31
0.0
  0
ARC
  5
7A7F
  8
1
  6
CONTINUOUS
 10
2533.7679148804091
 20
3548.7268680340858
 30
0.0
 40
417.39999999999992
 50
276.0
 51
0.000000000000007
  0
LINE
  5
7A80
  8
1
  6
CONTINUOUS
 10
3031.7679148804091
 20
3572.7268680340849
 30
0.0
 11
3031.7679148804091
 21
4306.7268680340849
 31
0.0
  0
LINE
  5
7A81
  8
1
  6
CONTINUOUS
 10
2991.7679148804091
 20
3614.7268680340858
 30
0.0
 11
2991.7679148804091
 21
4264.7268680340849
 31
0.0
  0
CIRCLE
  5
7A82
  8
1
  6
CONTINUOUS
 10
2571.7679148804091
 20
3586.7268680340858
 30
0.0
 40
315.0
  0
CIRCLE
  5
7A83
  8
1
  6
CONTINUOUS
 10
2571.7679148804091
 20
3586.7268680340858
 30
0.0
 40
355.0
  0
CIRCLE
  5
7A84
  8
1
  6
CONTINUOUS
 10
2571.7679148804091
 20
3586.7268680340858
 30
0.0
 40
90.0
  0
ARC
  5
7A85
  8
1
  6
CONTINUOUS
 10
2571.7679148804091
 20
3586.7268680340858
 30
0.0
 40
190.0
 50
284.09999999999991
 51
106.8
  0
LINE
  5
7A86
  8
2
  6
CENTER
 10
4931.9086735660667
 20
3586.7268680340858
 30
0.0
 11
3967.8724515660688
 21
3586.7268680340858
 31
0.0
  0
LINE
  5
7A87
  8
1
  6
CONTINUOUS
 10
2971.7679148804091
 20
2981.7268680340849
 30
0.0
 11
2971.7679148804091
 21
2881.7268680340849
 31
0.0
  0
LINE
  5
7A88
  8
1
  6
CONTINUOUS
 10
2971.7679148804091
 20
3181.7268680340858
 30
0.0
 11
2971.7679148804091
 21
3081.7268680340858
 31
0.0
  0
ARC
  5
7A89
  8
1
  6
CONTINUOUS
 10
2609.7679148804091
 20
3548.7268680340858
 30
0.0
 40
341.39999999999992
 50
0.000000000000007
 51
11.1
  0
LINE
  5
7A8A
  8
2
  6
CENTER
 10
2571.7679148804091
 20
2888.8156870340849
 30
0.0
 11
2571.7679148804091
 21
4271.5976690340849
 31
0.0
  0
LINE
  5
7A8B
  8
1
  6
CONTINUOUS
 10
3031.7679148804091
 20
5758.1686564210577
 30
0.0
 11
3031.7679148804091
 21
6313.1686564210577
 31
0.0
  0
LINE
  5
7A8C
  8
1
  6
CONTINUOUS
 10
2481.7679148804091
 20
5595.6686564210568
 30
0.0
 11
2661.7679148804082
 21
5595.6686564210568
 31
0.0
  0
LINE
  5
7A8D
  8
1
  6
CONTINUOUS
 10
2481.7679148804091
 20
5675.6686564210568
 30
0.0
 11
2661.7679148804082
 21
5675.6686564210568
 31
0.0
  0
LINE
  5
7A8E
  8
1
  6
CONTINUOUS
 10
2926.7679148804091
 20
6355.6686564210577
 30
0.0
 11
2216.7679148804091
 21
6355.6686564210577
 31
0.0
  0
LINE
  5
7A8F
  8
1
  6
CONTINUOUS
 10
2991.7679148804091
 20
5798.1686564210577
 30
0.0
 11
2991.7679148804091
 21
6273.1686564210577
 31
0.0
  0
LINE
  5
7A90
  8
1
  6
CONTINUOUS
 10
2971.7679148804091
 20
5635.6686564210568
 30
0.0
 11
2661.7679148804082
 21
5635.6686564210568
 31
0.0
  0
LINE
  5
7A91
  8
1
  6
CONTINUOUS
 10
2971.7679148804091
 20
5798.1686564210577
 30
0.0
 11
2971.7679148804091
 21
5635.6686564210568
 31
0.0
  0
LINE
  5
7A92
  8
1
  6
CONTINUOUS
 10
2761.7679148804091
 20
5555.6686564210577
 30
0.0
 11
2761.7679148804091
 21
5715.6686564210577
 31
0.0
  0
LINE
  5
7A93
  8
1
  6
CONTINUOUS
 10
2661.7679148804082
 20
5595.6686564210568
 30
0.0
 11
2661.7679148804082
 21
5675.6686564210568
 31
0.0
  0
LINE
  5
7A94
  8
1
  6
CONTINUOUS
 10
2590.7679148804091
 20
5675.6686564210568
 30
0.0
 11
2590.7679148804091
 21
5798.1686564210577
 31
0.0
  0
LINE
  5
7A95
  8
1
  6
CONTINUOUS
 10
2971.7679148804091
 20
6325.6686564210577
 30
0.0
 11
2971.7679148804091
 21
6273.1686564210577
 31
0.0
  0
LINE
  5
7A96
  8
1
  6
CONTINUOUS
 10
2971.7679148804091
 20
6325.6686564210577
 30
0.0
 11
2886.7679148804082
 21
6325.6686564210577
 31
0.0
  0
LINE
  5
7A97
  8
1
  6
CONTINUOUS
 10
2886.7679148804082
 20
6355.6686564210577
 30
0.0
 11
2886.7679148804082
 21
6273.1686564210577
 31
0.0
  0
LINE
  5
7A98
  8
1
  6
CONTINUOUS
 10
2481.7679148804091
 20
5595.6686564210568
 30
0.0
 11
2481.7679148804091
 21
5675.6686564210568
 31
0.0
  0
LINE
  5
7A99
  8
1
  6
CONTINUOUS
 10
2552.7679148804082
 20
5675.6686564210568
 30
0.0
 11
2552.7679148804082
 21
5798.1686564210577
 31
0.0
  0
LINE
  5
7A9A
  8
1
  6
CONTINUOUS
 10
2256.7679148804091
 20
6355.6686564210577
 30
0.0
 11
2256.7679148804091
 21
6273.1686564210577
 31
0.0
  0
ARC
  5
7A9B
  8
1
  6
CONTINUOUS
 10
1746.7679148804091
 20
3358.7268680340849
 30
0.0
 40
142.0
 50
324.60000000000002
 51
215.39999999999989
  0
LINE
  5
7A9C
  8
1
  6
CONTINUOUS
 10
1911.7679148804079
 20
3226.7268680340849
 30
0.0
 11
1581.76791488041
 21
3226.7268680340849
 31
0.0
  0
ARC
  5
7A9D
  8
1
  6
CONTINUOUS
 10
1746.7679148804091
 20
3358.7268680340849
 30
0.0
 40
170.0
 50
106.8
 51
284.09999999999991
  0
CIRCLE
  5
7A9E
  8
1
  6
CONTINUOUS
 10
1746.7679148804091
 20
3358.7268680340849
 30
0.0
 40
70.0
  0
LINE
  5
7A9F
  8
2
  6
CENTER
 10
1746.7679148804091
 20
3288.7268680340849
 30
0.0
 11
1746.7679148804091
 21
3428.7268680340858
 31
0.0
  0
LINE
  5
7AA0
  8
1
  6
CONTINUOUS
 10
1876.7679148804091
 20
3241.7268680340858
 30
0.0
 11
1862.46791488041
 21
3276.5268680340851
 31
0.0
  0
LINE
  5
7AA1
  8
1
  6
CONTINUOUS
 10
1876.7679148804091
 20
3226.7268680340849
 30
0.0
 11
1876.7679148804091
 21
3241.7268680340858
 31
0.0
  0
LINE
  5
7AA2
  8
1
  6
CONTINUOUS
 10
1921.7679148804091
 20
3181.7268680340858
 30
0.0
 11
1911.7679148804079
 21
3226.7268680340849
 31
0.0
  0
LINE
  5
7AA3
  8
2
  6
CENTER
 10
1676.7679148804091
 20
3358.7268680340849
 30
0.0
 11
1816.7679148804091
 21
3358.7268680340849
 31
0.0
  0
LINE
  5
7AA4
  8
1
  6
CONTINUOUS
 10
1571.76791488041
 20
2981.7268680340849
 30
0.0
 11
1571.76791488041
 21
2881.7268680340849
 31
0.0
  0
LINE
  5
7AA5
  8
1
  6
CONTINUOUS
 10
1571.76791488041
 20
3181.7268680340858
 30
0.0
 11
1571.76791488041
 21
3081.7268680340858
 31
0.0
  0
LINE
  5
7AA6
  8
1
  6
CONTINUOUS
 10
1616.76791488041
 20
3241.7268680340858
 30
0.0
 11
1631.0679148804099
 21
3276.5268680340851
 31
0.0
  0
LINE
  5
7AA7
  8
1
  6
CONTINUOUS
 10
1616.76791488041
 20
3226.7268680340849
 30
0.0
 11
1616.76791488041
 21
3241.7268680340858
 31
0.0
  0
LINE
  5
7AA8
  8
1
  6
CONTINUOUS
 10
1581.76791488041
 20
3226.7268680340849
 30
0.0
 11
1571.76791488041
 21
3181.7268680340858
 31
0.0
  0
LINE
  5
7AA9
  8
1
  6
CONTINUOUS
 10
1604.7679148804109
 20
5768.268656421058
 30
0.0
 11
1888.7679148804091
 21
5768.268656421058
 31
0.0
  0
LINE
  5
7AAA
  8
1
  6
CONTINUOUS
 10
1604.7679148804109
 20
6168.2686564210589
 30
0.0
 11
1888.7679148804091
 21
6168.2686564210589
 31
0.0
  0
LINE
  5
7AAB
  8
1
  6
CONTINUOUS
 10
1676.7679148804091
 20
5635.6686564210568
 30
0.0
 11
1571.76791488041
 21
5635.6686564210568
 31
0.0
  0
LINE
  5
7AAC
  8
1
  6
CONTINUOUS
 10
1888.7679148804091
 20
5768.268656421058
 30
0.0
 11
1888.7679148804091
 21
6168.2686564210589
 31
0.0
  0
LINE
  5
7AAD
  8
1
  6
CONTINUOUS
 10
2021.867914880409
 20
5798.1686564210577
 30
0.0
 11
2021.867914880409
 21
6273.1686564210577
 31
0.0
  0
LINE
  5
7AAE
  8
1
  6
CONTINUOUS
 10
1727.7679148804079
 20
5675.6686564210568
 30
0.0
 11
1727.7679148804079
 21
5768.268656421058
 31
0.0
  0
LINE
  5
7AAF
  8
1
  6
CONTINUOUS
 10
1765.7679148804091
 20
5675.6686564210568
 30
0.0
 11
1765.7679148804091
 21
5768.268656421058
 31
0.0
  0
LINE
  5
7AB0
  8
1
  6
CONTINUOUS
 10
1676.7679148804091
 20
5675.6686564210568
 30
0.0
 11
1816.7679148804091
 21
5675.6686564210568
 31
0.0
  0
LINE
  5
7AB1
  8
1
  6
CONTINUOUS
 10
1676.7679148804091
 20
5595.6686564210568
 30
0.0
 11
1816.7679148804091
 21
5595.6686564210568
 31
0.0
  0
LINE
  5
7AB2
  8
1
  6
CONTINUOUS
 10
1676.7679148804091
 20
5595.6686564210568
 30
0.0
 11
1676.7679148804091
 21
5675.6686564210568
 31
0.0
  0
LINE
  5
7AB3
  8
1
  6
CONTINUOUS
 10
1816.7679148804091
 20
5595.6686564210568
 30
0.0
 11
1816.7679148804091
 21
5675.6686564210568
 31
0.0
  0
LINE
  5
7AB4
  8
1
  6
CONTINUOUS
 10
1604.7679148804109
 20
5768.268656421058
 30
0.0
 11
1604.7679148804109
 21
6168.2686564210589
 31
0.0
  0
LINE
  5
7AB5
  8
1
  6
CONTINUOUS
 10
1571.76791488041
 20
6325.6686564210577
 30
0.0
 11
1571.76791488041
 21
5635.6686564210568
 31
0.0
  0
LINE
  5
7AB6
  8
1
  6
CONTINUOUS
 10
1546.76791488041
 20
5555.6686564210577
 30
0.0
 11
1546.76791488041
 21
5715.6686564210577
 31
0.0
  0
LINE
  5
7AB7
  8
1
  6
CONTINUOUS
 10
4304.2422865660683
 20
3614.7268680340858
 30
0.0
 11
4779.2422865660683
 21
4264.7268680340849
 31
0.0
  0
LINE
  5
7AB8
  8
1
  6
CONTINUOUS
 10
4304.2422865660683
 20
4264.7268680340849
 30
0.0
 11
4779.2422865660683
 21
3614.7268680340858
 31
0.0
  0
LINE
  5
7AB9
  8
1
  6
CONTINUOUS
 10
4304.2422865660683
 20
3614.7268680340858
 30
0.0
 11
4779.2422865660683
 21
3614.7268680340858
 31
0.0
  0
LINE
  5
7ABA
  8
1
  6
CONTINUOUS
 10
4304.2422865660683
 20
4264.7268680340849
 30
0.0
 11
4779.2422865660683
 21
4264.7268680340849
 31
0.0
  0
LINE
  5
7ABB
  8
1
  6
CONTINUOUS
 10
4831.7422865660683
 20
3081.7268680340858
 30
0.0
 11
4141.7422865660683
 21
3081.7268680340858
 31
0.0
  0
LINE
  5
7ABC
  8
1
  6
CONTINUOUS
 10
4831.7422865660683
 20
3181.7268680340858
 30
0.0
 11
4141.7422865660683
 21
3181.7268680340858
 31
0.0
  0
LINE
  5
7ABD
  8
1
  6
CONTINUOUS
 10
4831.7422865660683
 20
2881.7268680340849
 30
0.0
 11
4141.7422865660683
 21
2881.7268680340849
 31
0.0
  0
LINE
  5
7ABE
  8
1
  6
CONTINUOUS
 10
4831.7422865660683
 20
2981.7268680340849
 30
0.0
 11
4141.7422865660683
 21
2981.7268680340849
 31
0.0
  0
LINE
  5
7ABF
  8
1
  6
CONTINUOUS
 10
4304.2422865660683
 20
4264.7268680340849
 30
0.0
 11
4304.2422865660683
 21
3181.7268680340858
 31
0.0
  0
LINE
  5
7AC0
  8
1
  6
CONTINUOUS
 10
4101.7422865660683
 20
3288.7268680340849
 30
0.0
 11
4181.7422865660683
 21
3288.7268680340849
 31
0.0
  0
LINE
  5
7AC1
  8
1
  6
CONTINUOUS
 10
4101.7422865660683
 20
3428.7268680340858
 30
0.0
 11
4181.7422865660683
 21
3428.7268680340858
 31
0.0
  0
LINE
  5
7AC2
  8
1
  6
CONTINUOUS
 10
4101.7422865660683
 20
3496.7268680340858
 30
0.0
 11
4181.7422865660683
 21
3496.7268680340858
 31
0.0
  0
LINE
  5
7AC3
  8
1
  6
CONTINUOUS
 10
4101.7422865660683
 20
3676.7268680340849
 30
0.0
 11
4181.7422865660683
 21
3676.7268680340849
 31
0.0
  0
LINE
  5
7AC4
  8
1
  6
CONTINUOUS
 10
4061.7422865660678
 20
3776.7268680340849
 30
0.0
 11
4221.7422865660683
 21
3776.7268680340849
 31
0.0
  0
LINE
  5
7AC5
  8
1
  6
CONTINUOUS
 10
4061.7422865660678
 20
3188.7268680340858
 30
0.0
 11
4221.7422865660683
 21
3188.7268680340858
 31
0.0
  0
LINE
  5
7AC6
  8
1
  6
CONTINUOUS
 10
4101.7422865660683
 20
3428.7268680340858
 30
0.0
 11
4101.7422865660683
 21
3288.7268680340849
 31
0.0
  0
LINE
  5
7AC7
  8
1
  6
CONTINUOUS
 10
4061.7422865660678
 20
3776.7268680340849
 30
0.0
 11
4061.7422865660678
 21
3188.7268680340858
 31
0.0
  0
LINE
  5
7AC8
  8
1
  6
CONTINUOUS
 10
4101.7422865660683
 20
3676.7268680340849
 30
0.0
 11
4101.7422865660683
 21
3496.7268680340858
 31
0.0
  0
LINE
  5
7AC9
  8
1
  6
CONTINUOUS
 10
4181.7422865660683
 20
3428.7268680340858
 30
0.0
 11
4181.7422865660683
 21
3288.7268680340849
 31
0.0
  0
LINE
  5
7ACA
  8
1
  6
CONTINUOUS
 10
4221.7422865660683
 20
3776.7268680340849
 30
0.0
 11
4221.7422865660683
 21
3188.7268680340858
 31
0.0
  0
LINE
  5
7ACB
  8
1
  6
CONTINUOUS
 10
4304.2422865660683
 20
3377.7268680340858
 30
0.0
 11
4181.7422865660683
 21
3377.7268680340858
 31
0.0
  0
LINE
  5
7ACC
  8
1
  6
CONTINUOUS
 10
4304.2422865660683
 20
3339.7268680340858
 30
0.0
 11
4181.7422865660683
 21
3339.7268680340858
 31
0.0
  0
LINE
  5
7ACD
  8
1
  6
CONTINUOUS
 10
4141.7422865660683
 20
3181.7268680340858
 30
0.0
 11
4141.7422865660683
 21
3081.7268680340858
 31
0.0
  0
LINE
  5
7ACE
  8
1
  6
CONTINUOUS
 10
4141.7422865660683
 20
2981.7268680340849
 30
0.0
 11
4141.7422865660683
 21
2881.7268680340849
 31
0.0
  0
POINT
  5
7ACF
  8
1
  6
CONTINUOUS
 10
4141.7422865660683
 20
3081.7268680340858
 30
0.0
  0
POINT
  5
7AD0
  8
1
  6
CONTINUOUS
 10
4141.7422865660683
 20
2981.7268680340849
 30
0.0
  0
LINE
  5
7AD1
  8
1
  6
CONTINUOUS
 10
4304.2422865660683
 20
3567.7268680340849
 30
0.0
 11
4181.7422865660683
 21
3567.7268680340849
 31
0.0
  0
LINE
  5
7AD2
  8
1
  6
CONTINUOUS
 10
4304.2422865660683
 20
3605.7268680340858
 30
0.0
 11
4181.7422865660683
 21
3605.7268680340858
 31
0.0
  0
LINE
  5
7AD3
  8
1
  6
CONTINUOUS
 10
4181.7422865660683
 20
3676.7268680340849
 30
0.0
 11
4181.7422865660683
 21
3496.7268680340858
 31
0.0
  0
LINE
  5
7AD4
  8
1
  6
CONTINUOUS
 10
4779.2422865660683
 20
4264.7268680340849
 30
0.0
 11
4779.2422865660683
 21
3181.7268680340858
 31
0.0
  0
LINE
  5
7AD5
  8
1
  6
CONTINUOUS
 10
4861.7422865660692
 20
3941.7268680340858
 30
0.0
 11
4861.7422865660692
 21
3231.7268680340858
 31
0.0
  0
LINE
  5
7AD6
  8
1
  6
CONTINUOUS
 10
4779.2422865660683
 20
3271.7268680340858
 30
0.0
 11
4861.7422865660692
 21
3271.7268680340858
 31
0.0
  0
LINE
  5
7AD7
  8
1
  6
CONTINUOUS
 10
4831.7422865660683
 20
3181.7268680340858
 30
0.0
 11
4831.7422865660683
 21
3081.7268680340858
 31
0.0
  0
LINE
  5
7AD8
  8
1
  6
CONTINUOUS
 10
4831.7422865660683
 20
2981.7268680340849
 30
0.0
 11
4831.7422865660683
 21
2881.7268680340849
 31
0.0
  0
LINE
  5
7AD9
  8
1
  6
CONTINUOUS
 10
4779.2422865660683
 20
3901.7268680340849
 30
0.0
 11
4861.7422865660692
 21
3901.7268680340849
 31
0.0
  0
DIMENSION
  5
7AEF
  8
3
  6
CONTINUOUS
  2
*D1
 10
2571.7679148804091
 20
2679.0379347542762
 30
0.0
 11
2771.7679148804091
 21
2743.790483660166
 31
0.0
 70
   128
 13
2971.7679148804091
 23
2881.7268680340849
 33
0.0
 14
2571.7679148804091
 24
2888.8156870340849
 34
0.0
 50
180.0
1001
ACAD
1000
DSTYLE
1002
{
1070
   288
1070
     1
1070
   172
1070
     1
1070
    40
1040
30.0
1070
   271
1070
     0
1070
   143
1040
0.039
1002
}
  0
DIMENSION
  5
7AFB
  8
3
  6
CONTINUOUS
  2
*D2
 10
1571.76791488041
 20
2679.0379347542762
 30
0.0
 11
2071.76791488041
 21
2754.0379347542762
 31
0.0
 70
     0
 13
2571.7679148804091
 23
2888.8156870340849
 33
0.0
 14
1571.76791488041
 24
2881.7268680340849
 34
0.0
 50
180.0
1001
ACAD
1000
DSTYLE
1002
{
1070
   287
1070
     3
1070
   287
1070
     3
1070
   287
1070
     3
1070
    40
1040
30.0
1070
   143
1040
0.039
1070
   172
1070
     1
1070
   271
1070
     0
1070
   279
1070
     0
1070
   288
1070
     1
1002
}
  0
DIMENSION
  5
7B08
  8
3
  6
CONTINUOUS
  2
*D3
 10
3235.9909508804099
 20
3614.7268680340849
 30
0.0
 11
3235.9909508804099
 21
3964.871436034085
 31
0.0
 70
   128
 13
3031.7679148804091
 23
4264.7268680340849
 33
0.0
 14
3031.7679148804091
 24
3614.7268680340858
 34
0.0
 50
90.0
1001
ACAD
1000
DSTYLE
1002
{
1070
   287
1070
     3
1070
   287
1070
     3
1070
   287
1070
     3
1070
    40
1040
30.0
1070
   143
1040
0.039
1070
   172
1070
     1
1070
   271
1070
     0
1070
   279
1070
     0
1070
   288
1070
     1
1002
}
  0
DIMENSION
  5
7B15
  8
3
  6
CONTINUOUS
  2
*D4
 10
3429.5504738804102
 20
3586.7268680340858
 30
0.0
 11
3429.5504738804102
 21
3949.5201480340838
 31
0.0
 70
   128
 13
3031.7679148804091
 23
4264.7268680340849
 33
0.0
 14
2949.0465018804098
 24
3586.7268680340858
 34
0.0
 50
90.0
1001
ACAD
1000
DSTYLE
1002
{
1070
   287
1070
     3
1070
   287
1070
     3
1070
   287
1070
     3
1070
    40
1040
30.0
1070
   143
1040
0.039
1070
   172
1070
     1
1070
   271
1070
     0
1070
   279
1070
     0
1070
   288
1070
     1
1002
}
  0
DIMENSION
  5
7B21
  8
3
  2
*D5
 10
3429.5504738804102
 20
3081.7268680340849
 30
0.0
 11
3354.5504738804088
 21
3334.2268680340858
 31
0.0
 70
     0
 13
2949.0465018804098
 23
3586.7268680340858
 33
0.0
 14
2971.7679148804091
 24
3081.7268680340858
 34
0.0
 50
90.0
1001
ACAD
1000
DSTYLE
1002
{
1070
   287
1070
     3
1070
   287
1070
     3
1070
   287
1070
     3
1070
    40
1040
30.0
1070
   143
1040
0.039
1070
   172
1070
     1
1070
   271
1070
     0
1070
   279
1070
     0
1070
   288
1070
     1
1002
}
  0
DIMENSION
  5
7B58
  8
3
  6
CONTINUOUS
  2
*D6
 10
3674.0443814025998
 20
2881.7268680340849
 30
0.0
 11
3674.0443814025998
 21
3632.0473623126381
 31
0.0
 70
   128
 13
3031.7679148804091
 23
4306.7268680340849
 33
0.0
 14
2971.7679148804091
 24
2881.7268680340849
 34
0.0
 50
90.0
1001
ACAD
1000
DSTYLE
1002
{
1070
   287
1070
     3
1070
   287
1070
     3
1070
   287
1070
     3
1070
    40
1040
30.0
1070
   143
1040
0.039
1070
   172
1070
     1
1070
   271
1070
     0
1070
   279
1070
     0
1070
   288
1070
     1
1002
}
  0
DIMENSION
  5
7B67
  8
3
  6
CONTINUOUS
  2
*D7
 10
2571.7679148804091
 20
4416.8101280340852
 30
0.0
 11
2826.0536291661228
 21
4416.8101280340852
 31
0.0
 70
   128
 13
3031.7679148804091
 23
4306.7268680340849
 33
0.0
 14
2571.7679148804091
 24
4228.7268680340858
 34
0.0
 50
180.0
1001
ACAD
1000
DSTYLE
1002
{
1070
   287
1070
     3
1070
   287
1070
     3
1070
   287
1070
     3
1070
    40
1040
30.0
1070
   143
1040
0.039
1070
   172
1070
     1
1070
   271
1070
     0
1070
   279
1070
     0
1070
   288
1070
     1
1002
}
  0
DIMENSION
  5
7B73
  8
3
  6
CONTINUOUS
  2
*D8
 10
2024.068992880409
 20
4416.8101280340852
 30
0.0
 11
2297.9184538804088
 21
4491.8101280340852
 31
0.0
 70
     0
 13
2571.7679148804091
 23
4228.7268680340858
 33
0.0
 14
2024.068992880409
 24
3586.7268680340858
 34
0.0
 50
180.0
1001
ACAD
1000
DSTYLE
1002
{
1070
   287
1070
     3
1070
   287
1070
     3
1070
   287
1070
     3
1070
    40
1040
30.0
1070
   143
1040
0.039
1070
   172
1070
     1
1070
   271
1070
     0
1070
   279
1070
     0
1070
   288
1070
     1
1002
}
  0
DIMENSION
  5
7B80
  8
3
  6
CONTINUOUS
  2
*D9
 10
1571.76791488041
 20
5311.134299421059
 30
0.0
 11
2277.7149188804101
 21
5311.134299421059
 31
0.0
 70
   128
 13
2971.7679148804091
 23
5635.6686564210568
 33
0.0
 14
1571.76791488041
 24
5635.6686564210568
 34
0.0
 50
180.0
1001
ACAD
1000
DSTYLE
1002
{
1070
   287
1070
     3
1070
   287
1070
     3
1070
   287
1070
     3
1070
    40
1040
30.0
1070
   143
1040
0.039
1070
   172
1070
     1
1070
   271
1070
     0
1070
   279
1070
     0
1070
   288
1070
     1
1002
}
  0
DIMENSION
  5
7B8D
  8
3
  6
CONTINUOUS
  2
*D10
 10
1269.3677058804101
 20
5635.6686564210568
 30
0.0
 11
1269.3677058804089
 21
5964.1777094210584
 31
0.0
 70
   128
 13
1571.76791488041
 23
6325.6686564210577
 33
0.0
 14
1571.76791488041
 24
5635.6686564210568
 34
0.0
 50
90.0
1001
ACAD
1000
DSTYLE
1002
{
1070
   287
1070
     3
1070
   287
1070
     3
1070
   287
1070
     3
1070
    40
1040
30.0
1070
   143
1040
0.039
1070
   172
1070
     1
1070
   271
1070
     0
1070
   279
1070
     0
1070
   288
1070
     1
1002
}
  0
LINE
  5
7B8E
  8
2
  6
CENTER
 10
1981.9270608804111
 20
6035.6686564210577
 30
0.0
 11
3189.6009988804112
 21
6035.6686564210577
 31
0.0
  0
LINE
  5
7B8F
  8
2
  6
CENTER
 10
2571.7679148804091
 20
5488.9153254210596
 30
0.0
 11
2571.7679148804091
 21
6442.3651174210581
 31
0.0
  0
LINE
  5
7B90
  8
2
  6
CENTER
 10
4541.7422865660683
 20
4365.2326730340847
 30
0.0
 11
4541.7422865660683
 21
2856.2254100340851
 31
0.0
  0
DIMENSION
  5
7B9F
  8
3
  6
CONTINUOUS
  2
*D11
 10
4541.7422865660683
 20
2681.9946279181208
 30
0.0
 11
4341.7422865660683
 21
2750.2396061764848
 31
0.0
 70
   128
 13
4141.7422865660683
 23
2881.7268680340849
 33
0.0
 14
4541.7422865660683
 24
2856.2254100340851
 34
0.0
1001
ACAD
1000
DSTYLE
1002
{
1070
   288
1070
     1
1070
   172
1070
     1
1070
    40
1040
30.0
1070
   271
1070
     0
1070
   143
1040
0.039
1002
}
  0
DIMENSION
  5
7BAD
  8
3
  6
CONTINUOUS
  2
*D12
 10
4831.7422865660683
 20
2681.9946279181208
 30
0.0
 11
4690.7715197984799
 21
2763.1378020976481
 31
0.0
 70
   128
 13
4541.7422865660683
 23
2856.2254100340851
 33
0.0
 14
4831.7422865660683
 24
2881.7268680340849
 34
0.0
1001
ACAD
1000
DSTYLE
1002
{
1070
   288
1070
     1
1070
   172
1070
     1
1070
    40
1040
30.0
1070
   271
1070
     0
1070
   143
1040
0.039
1002
}
  0
DIMENSION
  5
7BDC
  8
3
  6
CONTINUOUS
  2
*D13
 10
5078.0372470792299
 20
3271.7268680340858
 30
0.0
 11
5078.0372470792281
 21
3569.2755628407981
 31
0.0
 70
   128
 13
4861.7422865660692
 23
3901.7268680340849
 33
0.0
 14
4861.7422865660692
 24
3271.7268680340858
 34
0.0
 50
90.0
1001
ACAD
1000
DSTYLE
1002
{
1070
   287
1070
     3
1070
   287
1070
     3
1070
   287
1070
     3
1070
     3
1000
φ<>
1070
    40
1040
30.0
1070
   143
1040
0.039
1070
   172
1070
     1
1070
   271
1070
     0
1070
   279
1070
     0
1070
   288
1070
     1
1002
}
  0
DIMENSION
  5
7BEB
  8
3
  6
CONTINUOUS
  2
*D14
 10
4779.2422865660683
 20
4355.427836034085
 30
0.0
 11
4541.7422865660683
 21
4355.427836034085
 31
0.0
 70
   128
 13
4304.2422865660683
 23
4264.7268680340849
 33
0.0
 14
4779.2422865660683
 24
4264.7268680340849
 34
0.0
1001
ACAD
1000
DSTYLE
1002
{
1070
   287
1070
     3
1070
   287
1070
     3
1070
   287
1070
     3
1070
    40
1040
30.0
1070
   143
1040
0.039
1070
   172
1070
     1
1070
   271
1070
     0
1070
   279
1070
     0
1070
   288
1070
     1
1002
}
  0
DIMENSION
  5
7BF8
  8
3
  6
CONTINUOUS
  2
*D15
 10
4541.7422865660683
 20
4574.0268670340856
 30
0.0
 11
4280.3137151374967
 21
4574.0268670340856
 31
0.0
 70
   128
  1
MAX\P550
 13
4061.7422865660678
 23
3776.7268680340849
 33
0.0
 14
4541.7422865660683
 24
4494.0157688952559
 34
0.0
1001
ACAD
1000
DSTYLE
1002
{
1070
   287
1070
     3
1070
   287
1070
     3
1070
   287
1070
     3
1070
    40
1040
30.0
1070
   143
1040
0.039
1070
   172
1070
     1
1070
   271
1070
     0
1070
   279
1070
     0
1070
   288
1070
     1
1002
}
  0
DIMENSION
  5
7C06
  8
3
  6
CONTINUOUS
  2
*D16
 10
4861.7422865660692
 20
4574.3680150340842
 30
0.0
 11
4706.2646956205936
 21
4642.7394362483392
 31
0.0
 70
   128
 13
4541.7422865660683
 23
4494.0157688952559
 33
0.0
 14
4861.7422865660692
 24
3941.7268680340858
 34
0.0
1001
ACAD
1000
DSTYLE
1002
{
1070
   288
1070
     1
1070
   172
1070
     1
1070
    40
1040
30.0
1070
   271
1070
     0
1070
   143
1040
0.039
1002
}
  0
LINE
  5
7C07
  8
2
  6
CENTER
 10
1756.3318278804099
 20
3586.7268680340858
 30
0.0
 11
2984.3670818804089
 21
3586.7268680340858
 31
0.0
  0
LINE
  5
7C08
  8
4
  6
CONTINUOUS
 10
5550.0
 20
1500.0
 30
0.0
 11
5550.0
 21
900.0
 31
0.0
  0
LINE
  5
7C09
  8
4
  6
CONTINUOUS
 10
3450.0
 20
1500.0
 30
0.0
 11
3450.0
 21
900.0
 31
0.0
  0
LINE
  5
7C0A
  8
4
  6
CONTINUOUS
 10
1950.0
 20
1500.0
 30
0.0
 11
1950.0
 21
900.0
 31
0.0
  0
LINE
  5
7C0D
  8
4
  6
CONTINUOUS
 10
1950.0
 20
900.0
 30
0.0
 11
5550.0
 21
900.0
 31
0.0
  0
LINE
  5
7C0E
  8
4
  6
CONTINUOUS
 10
1950.0
 20
1200.0
 30
0.0
 11
5550.0
 21
1200.0
 31
0.0
  0
TEXT
  5
7C0F
  8
4
  6
CONTINUOUS
 10
2065.50624225
 20
1294.6290779999999
 30
0.0
 40
150.0
  1
機器名称
  0
TEXT
  5
7C10
  8
4
  6
CONTINUOUS
 10
2058.7743179999989
 20
964.93547024999998
 30
0.0
 40
150.0
  1
機器型番
  0
TEXT
  5
7C11
  8
4
  6
CONTINUOUS
 10
3533.0362365000001
 20
1267.715306249999
 30
0.0
 40
120.0
  1
ミツヤリミットロードファン
  0
TEXT
  5
7C12
  8
4
  6
CONTINUOUS
 10
3559.9634872500001
 20
951.4787527499999
 30
0.0
 40
150.0
  1
LLE#4-4
  0
TEXT
  5
7C14
  8
4
  6
CONTINUOUS
 10
2193.4105005000001
 20
7150.2865245000012
 30
0.0
 40
162.0
  1
床置防振ベット
  0
TEXT
  5
7C15
  8
4
  6
CONTINUOUS
 10
948.50278049999986
 20
7601.6429287499996
 30
0.0
 40
171.42857175
  1
ベルト駆動式片吸込両持排煙ファン
  0
LINE
  5
7C16
  8
4
  6
CONTINUOUS
 10
750.0
 20
7408.2262627500004
 30
0.0
 11
5550.0
 21
7408.2262627500004
 31
0.0
  0
LINE
  5
7C17
  8
4
  6
CONTINUOUS
 10
750.0
 20
8008.2262627500004
 30
0.0
 11
5550.0
 21
8008.2262627500004
 31
0.0
  0
LINE
  5
7C18
  8
4
  6
CONTINUOUS
 10
1950.0
 20
1500.0
 30
0.0
 11
5550.0
 21
1500.0
 31
0.0
  0
LINE
  5
7C19
  8
4
  6
CONTINUOUS
 10
750.0
 20
8008.2262627500004
 30
0.0
 11
750.0
 21
7408.2262627500004
 31
0.0
  0
TEXT
  5
7C1A
  8
4
  6
CONTINUOUS
 10
885.83400375000008
 20
7146.9584324999987
 30
0.0
 40
162.0
  1
右回転右横向
  0
TEXT
  5
7C1B
  8
4
  6
CONTINUOUS
 10
4406.9086777499988
 20
8118.1832445
 30
0.0
 40
168.0
  1
No.
  0
TEXT
  5
7C1C
  8
4
  6
CONTINUOUS
 10
3933.8881875000002
 20
7150.2865245000012
 30
0.0
 40
162.0
  1
縮尺：1/30
  0
LINE
  5
7C1D
  8
4
  6
CONTINUOUS
 10
5550.0
 20
8008.2262627500004
 30
0.0
 11
5550.0
 21
7408.2262627500004
 31
0.0
  0
LINE
  5
7C1F
  8
4
  6
CONTINUOUS
 10
4321.8522667500001
 20
8043.79074975
 30
0.0
 11
4321.8522667500001
 21
8359.9567845000001
 31
0.0
  0
LINE
  5
7C20
  8
4
  6
CONTINUOUS
 10
4321.8522667500001
 20
8359.9567845000001
 30
0.0
 11
5550.0
 21
8359.9567845000001
 31
0.0
  0
LINE
  5
7C21
  8
4
  6
CONTINUOUS
 10
5550.0
 20
8359.9567845000001
 30
0.0
 11
5550.0
 21
8043.79074975
 31
0.0
  0
LINE
  5
7C22
  8
4
  6
CONTINUOUS
 10
5550.0
 20
8043.79074975
 30
0.0
 11
4321.8522667500001
 21
8043.79074975
 31
0.0
  0
LINE
  5
7C57
  8
1
  6
CONTINUOUS
 10
2971.7679148804091
 20
2981.7268680340849
 30
0.0
 11
1571.76791488041
 21
2981.7268680340849
 31
0.0
  0
DIMENSION
  5
7CA5
  8
3
  2
*D17
 10
3429.5504738804102
 20
2881.7268680340849
 30
0.0
 11
3354.5504738804102
 21
2624.5840108912289
 31
0.0
 70
     0
 13
2971.7679148804091
 23
2981.7268680340849
 33
0.0
 14
2971.7679148804091
 24
2881.7268680340849
 34
0.0
 50
90.0
1001
ACAD
1000
DSTYLE
1002
{
1070
   287
1070
     3
1070
   287
1070
     3
1070
   287
1070
     3
1070
    40
1040
30.0
1070
   143
1040
0.039
1070
   172
1070
     1
1070
   271
1070
     0
1070
   279
1070
     0
1070
   288
1070
     1
1070
     6
1000
DOT
1002
}
  0
LINE
  5
7D17
  8
3
 10
2989.2679148804091
 20
2981.7268680340849
 30
0.0
 11
3464.5504738804102
 21
2981.7268680340849
 31
0.0
  0
LINE
  5
7D18
  8
3
 10
3429.5504738804102
 20
3151.7268680340849
 30
0.0
 11
3429.5504738804102
 21
3221.7268680340849
 31
0.0
  0
POINT
  5
7D20
  8
DEFPOINTS
  6
BYBLOCK
 62
     0
 10
2971.7679148804091
 20
3081.7268680340858
 30
0.0
  0
POINT
  5
7D21
  8
DEFPOINTS
  6
BYBLOCK
 62
     0
 10
2971.7679148804091
 20
2981.7268680340849
 30
0.0
  0
LINE
  5
7D39
  8
1
  6
CONTINUOUS
 10
4831.7422865660683
 20
2981.7268680340849
 30
0.0
 11
4141.7422865660683
 21
2981.7268680340849
 31
0.0
  0
DIMENSION
  5
7F2E
  8
3
  2
*D19
 10
3429.5504738804102
 20
2981.7268680340849
 30
0.0
 11
3639.5504738804102
 21
3031.7268680340858
 31
0.0
 70
     0
 13
2971.7679148804091
 23
3081.7268680340858
 33
0.0
 14
2971.7679148804091
 24
2981.7268680340849
 34
0.0
 50
90.0
1001
ACAD
1000
DSTYLE
1002
{
1070
   288
1070
     1
1070
   172
1070
     1
1070
    75
1070
     1
1070
    40
1040
30.0
1070
   271
1070
     0
1070
     7
1000
_DOT
1070
   143
1040
0.039
1002
}
  0
DIMENSION
  5
7F71
  8
3
  2
*D20
 10
1571.76791488041
 20
4594.6828185493341
 30
0.0
 11
2236.8336098396212
 21
4594.6828185493341
 31
0.0
 70
   128
 13
3031.7679148804091
 23
4321.7268680340858
 33
0.0
 14
1571.76791488041
 24
3181.7268680340858
 34
0.0
 50
180.0
1001
ACAD
1000
DSTYLE
1002
{
1070
   287
1070
     3
1070
   287
1070
     3
1070
   287
1070
     3
1070
    40
1040
30.0
1070
   143
1040
0.039
1070
   172
1070
     1
1070
   271
1070
     0
1070
   279
1070
     0
1070
   288
1070
     1
1002
}
  0
ENDSEC
  0
EOF
