  0
SECTION
  2
HEADER
  9
$ACADVER
  1
AC1009
  9
$INSBASE
 10
0.0
 20
0.0
 30
0.0
  9
$EXTMIN
 10
750.0
 20
900.0
 30
0.0
  9
$EXTMAX
 10
5550.0
 20
8359.9567845000001
 30
0.0
  9
$LIMMIN
 10
0.0
 20
0.0
  9
$LIMMAX
 10
297.0
 20
210.0
  9
$ORTHOMODE
 70
     0
  9
$REGENMODE
 70
     1
  9
$FILLMODE
 70
     0
  9
$QTEXTMODE
 70
     0
  9
$MIRRTEXT
 70
     1
  9
$DRAGMODE
 70
     2
  9
$LTSCALE
 40
100.0
  9
$OSMODE
 70
    37
  9
$ATTMODE
 70
     1
  9
$TEXTSIZE
 40
180.0
  9
$TRACEWID
 40
0.05
  9
$TEXTSTYLE
  7
STANDARD
  9
$CLAYER
  8
3
  9
$CELTYPE
  6
BYLAYER
  9
$CECOLOR
 62
   256
  9
$DIMSCALE
 40
30.0
  9
$DIMASZ
 40
2.0
  9
$DIMEXO
 40
0.5
  9
$DIMDLI
 40
10.0
  9
$DIMRND
 40
0.0
  9
$DIMDLE
 40
0.0
  9
$DIMEXE
 40
1.0
  9
$DIMTP
 40
1.0
  9
$DIMTM
 40
1.0
  9
$DIMTXT
 40
3.0
  9
$DIMCEN
 40
0.0
  9
$DIMTSZ
 40
0.0
  9
$DIMTOL
 70
     0
  9
$DIMLIM
 70
     0
  9
$DIMTIH
 70
     0
  9
$DIMTOH
 70
     0
  9
$DIMSE1
 70
     0
  9
$DIMSE2
 70
     0
  9
$DIMTAD
 70
     1
  9
$DIMZIN
 70
     8
  9
$DIMBLK
  1

  9
$DIMASO
 70
     1
  9
$DIMSHO
 70
     1
  9
$DIMPOST
  1

  9
$DIMAPOST
  1

  9
$DIMALT
 70
     0
  9
$DIMALTD
 70
     2
  9
$DIMALTF
 40
0.039
  9
$DIMLFAC
 40
1.0
  9
$DIMTOFL
 70
     1
  9
$DIMTVP
 40
0.0
  9
$DIMTIX
 70
     0
  9
$DIMSOXD
 70
     0
  9
$DIMSAH
 70
     1
  9
$DIMBLK1
  1
OPEN
  9
$DIMBLK2
  1
OPEN
  9
$DIMSTYLE
  2
IGA
  9
$DIMCLRD
 70
     0
  9
$DIMCLRE
 70
     0
  9
$DIMCLRT
 70
     0
  9
$DIMTFAC
 40
10.0
  9
$DIMGAP
 40
1.0
  9
$LUNITS
 70
     2
  9
$LUPREC
 70
     3
  9
$SKETCHINC
 40
0.1
  9
$FILLETRAD
 40
50.0
  9
$AUNITS
 70
     0
  9
$AUPREC
 70
     0
  9
$MENU
  1
acad
  9
$ELEVATION
 40
0.0
  9
$PELEVATION
 40
0.0
  9
$THICKNESS
 40
0.0
  9
$LIMCHECK
 70
     0
  9
$BLIPMODE
 70
     0
  9
$CHAMFERA
 40
0.5
  9
$CHAMFERB
 40
0.5
  9
$SKPOLY
 70
     0
  9
$TDCREATE
 40
2450757.4563614582
  9
$TDUPDATE
 40
2454953.6836532401
  9
$TDINDWG
 40
0.0097838889
  9
$TDUSRTIMER
 40
0.0097838889
  9
$USRTIMER
 70
     1
  9
$ANGBASE
 50
0.0
  9
$ANGDIR
 70
     0
  9
$PDMODE
 70
     0
  9
$PDSIZE
 40
0.0
  9
$PLINEWID
 40
0.0
  9
$COORDS
 70
     1
  9
$SPLFRAME
 70
     0
  9
$SPLINETYPE
 70
     6
  9
$SPLINESEGS
 70
     8
  9
$ATTDIA
 70
     0
  9
$ATTREQ
 70
     1
  9
$HANDLING
 70
 10241
  9
$HANDSEED
  5
8189
  9
$SURFTAB1
 70
     6
  9
$SURFTAB2
 70
     6
  9
$SURFTYPE
 70
     6
  9
$SURFU
 70
     6
  9
$SURFV
 70
     6
  9
$UCSNAME
  2

  9
$UCSORG
 10
0.0
 20
0.0
 30
0.0
  9
$UCSXDIR
 10
1.0
 20
0.0
 30
0.0
  9
$UCSYDIR
 10
0.0
 20
1.0
 30
0.0
  9
$PUCSNAME
  2

  9
$PUCSORG
 10
0.0
 20
0.0
 30
0.0
  9
$PUCSXDIR
 10
1.0
 20
0.0
 30
0.0
  9
$PUCSYDIR
 10
0.0
 20
1.0
 30
0.0
  9
$USERI1
 70
     0
  9
$USERI2
 70
     0
  9
$USERI3
 70
     0
  9
$USERI4
 70
     0
  9
$USERI5
 70
     0
  9
$USERR1
 40
0.0
  9
$USERR2
 40
0.0
  9
$USERR3
 40
0.0
  9
$USERR4
 40
0.0
  9
$USERR5
 40
0.0
  9
$WORLDVIEW
 70
     1
  9
$SHADEDGE
 70
     3
  9
$SHADEDIF
 70
    70
  9
$TILEMODE
 70
     1
  9
$MAXACTVP
 70
    16
  9
$PLIMCHECK
 70
     0
  9
$PEXTMIN
 10
1.0000000000000000E+020
 20
1.0000000000000000E+020
 30
1.0000000000000000E+020
  9
$PEXTMAX
 10
-1.0000000000000000E+020
 20
-1.0000000000000000E+020
 30
-1.0000000000000000E+020
  9
$PLIMMIN
 10
0.0
 20
0.0
  9
$PLIMMAX
 10
12.0
 20
9.0
  9
$UNITMODE
 70
     0
  9
$VISRETAIN
 70
     0
  9
$PLINEGEN
 70
     0
  9
$PSLTSCALE
 70
     1
  0
ENDSEC
  0
SECTION
  2
TABLES
  0
TABLE
  2
VPORT
 70
     2
  0
VPORT
  2
*ACTIVE
 70
     0
 10
0.0
 20
0.0
 11
1.0
 21
1.0
 12
11966.375044370399
 22
3898.0513191834639
 13
0.0
 23
0.0
 14
10.0
 24
10.0
 15
10.0
 25
10.0
 16
0.0
 26
0.0
 36
1.0
 17
0.0
 27
0.0
 37
0.0
 40
9700.3135091290806
 41
3.1666666666666661
 42
50.0
 43
0.0
 44
0.0
 50
0.0
 51
0.0
 71
     0
 72
   100
 73
     1
 74
     0
 75
     0
 76
     0
 77
     0
 78
     0
  0
ENDTAB
  0
TABLE
  2
LTYPE
 70
     2
  0
LTYPE
  2
CONTINUOUS
 70
     0
  3
Solid line
 72
    65
 73
     0
 40
0.0
  0
LTYPE
  2
CENTER
 70
     0
  3
____ _ ____ _ ____ _ ____ _ ____ _ ____ _ ____ 
 72
    65
 73
     4
 40
2.0
 49
1.25
 49
-0.25
 49
0.25
 49
-0.25
  0
ENDTAB
  0
TABLE
  2
LAYER
 70
     6
  0
LAYER
  2
0
 70
     0
 62
     7
  6
CONTINUOUS
  0
LAYER
  2
3
 70
     0
 62
     2
  6
CONTINUOUS
  0
LAYER
  2
2
 70
     0
 62
     3
  6
CENTER
  0
LAYER
  2
1
 70
     0
 62
     4
  6
CONTINUOUS
  0
LAYER
  2
4
 70
     0
 62
     7
  6
CONTINUOUS
  0
LAYER
  2
DEFPOINTS
 70
     0
 62
     7
  6
CONTINUOUS
  0
ENDTAB
  0
TABLE
  2
STYLE
 70
     1
  0
STYLE
  2
STANDARD
 70
     0
 40
0.0
 41
1.0
 50
0.0
 71
     0
 42
180.0
  3
simplex.shx
  4
extfont.shx
  0
ENDTAB
  0
TABLE
  2
VIEW
 70
     0
  0
ENDTAB
  0
TABLE
  2
UCS
 70
     0
  0
ENDTAB
  0
TABLE
  2
APPID
 70
     1
  0
APPID
  2
ACAD
 70
     0
  0
ENDTAB
  0
TABLE
  2
DIMSTYLE
 70
     1
  0
DIMSTYLE
  2
IGA
 70
     0
  3

  4

  5

  6
OPEN
  7
OPEN
 40
2.0
 41
2.0
 42
0.5
 43
10.0
 44
1.0
 45
0.0
 46
0.0
 47
1.0
 48
1.0
140
3.0
141
0.0
142
0.0
143
0.03937
144
1.0
145
0.0
146
10.0
147
1.0
 71
     0
 72
     0
 73
     0
 74
     0
 75
     0
 76
     0
 77
     1
 78
     8
170
     0
171
     2
172
     0
173
     1
174
     0
175
     0
176
     0
177
     0
178
     0
  0
ENDTAB
  0
ENDSEC
  0
SECTION
  2
BLOCKS
  0
BLOCK
  8
0
  2
$MODEL_SPACE
 70
     0
 10
0.0
 20
0.0
 30
0.0
  3
$MODEL_SPACE
  1

  0
ENDBLK
  5
1B
  8
0
  0
BLOCK
 67
     1
  8
0
  2
$PAPER_SPACE
 70
     0
 10
0.0
 20
0.0
 30
0.0
  3
$PAPER_SPACE
  1

  0
ENDBLK
  5
18
 67
     1
  8
0
  0
BLOCK
  8
0
  2
_OPEN
 70
     0
 10
0.0
 20
0.0
 30
0.0
  3
_OPEN
  1

  0
LINE
  5
7AE2
  8
0
  6
BYBLOCK
 62
     0
 10
-1.0
 20
0.166667
 30
0.0
 11
0.0
 21
0.0
 31
0.0
  0
LINE
  5
7AE3
  8
0
  6
BYBLOCK
 62
     0
 10
0.0
 20
0.0
 30
0.0
 11
-1.0
 21
-0.166667
 31
0.0
  0
LINE
  5
7AE4
  8
0
  6
BYBLOCK
 62
     0
 10
0.0
 20
0.0
 30
0.0
 11
-1.0
 21
0.0
 31
0.0
  0
ENDBLK
  5
7AE5
  8
0
  0
BLOCK
  8
0
  2
*D1
 70
     1
 10
0.0
 20
0.0
 30
0.0
  3
*D1
  1

  0
LINE
  5
80EB
  8
3
  6
CONTINUOUS
 62
     0
 10
1251.342265351275
 20
2607.1786786126841
 30
0.0
 11
1251.342265351275
 21
2399.602906612683
 31
0.0
  0
LINE
  5
80EC
  8
3
  6
CONTINUOUS
 62
     0
 10
2251.3422653512748
 20
2569.4468816126841
 30
0.0
 11
2251.3422653512748
 21
2399.602906612683
 31
0.0
  0
LINE
  5
80ED
  8
3
  6
CONTINUOUS
 62
     0
 10
1311.342265351275
 20
2429.602906612683
 30
0.0
 11
2191.3422653512748
 21
2429.602906612683
 31
0.0
  0
INSERT
  5
80EE
  8
3
  6
CONTINUOUS
 62
     0
  2
_OPEN
 10
1251.342265351275
 20
2429.602906612683
 30
0.0
 41
60.0
 42
60.0
 43
60.0
 50
180.0
  0
INSERT
  5
80EF
  8
3
  6
CONTINUOUS
 62
     0
  2
_OPEN
 10
2251.3422653512748
 20
2429.602906612683
 30
0.0
 41
60.0
 42
60.0
 43
60.0
  0
TEXT
  8
3
  40
90
  5
8179
  62
0
  72
0
  71
0
 10
1589.51
 20
2345.30
 30
0.000000
  1
1000
  0
POINT
  5
80F1
  8
DEFPOINTS
  6
CONTINUOUS
 62
     0
 10
1251.342265351275
 20
2622.1786786126841
 30
0.0
  0
POINT
  5
80F2
  8
DEFPOINTS
  6
CONTINUOUS
 62
     0
 10
2251.3422653512748
 20
2584.4468816126841
 30
0.0
  0
POINT
  5
80F3
  8
DEFPOINTS
  6
CONTINUOUS
 62
     0
 10
2251.3422653512748
 20
2429.602906612683
 30
0.0
  0
ENDBLK
  5
7E4F
  8
0
  0
BLOCK
  8
0
  2
*D2
 70
     1
 10
0.0
 20
0.0
 30
0.0
  3
*D2
  1

  0
LINE
  5
7E7D
  8
0
  6
BYBLOCK
 62
     0
 10
2251.3422653512748
 20
2569.4468816126841
 30
0.0
 11
2251.3422653512748
 21
2394.9626316126828
 31
0.0
  0
LINE
  5
7E7E
  8
0
  6
BYBLOCK
 62
     0
 10
2651.3422653512748
 20
2607.1786786126841
 30
0.0
 11
2651.3422653512748
 21
2394.9626316126828
 31
0.0
  0
LINE
  5
7E7F
  8
0
  6
BYBLOCK
 62
     0
 10
2311.3422653512748
 20
2424.9626316126828
 30
0.0
 11
2591.3422653512748
 21
2424.9626316126828
 31
0.0
  0
TEXT
  5
7E80
  8
3
 62
     0
 10
2349.5700202220291
 20
2447.7364270606081
 30
0.0
 40
90.0
  1
400
  0
INSERT
  5
7E81
  8
0
  6
BYBLOCK
 62
     0
  2
_OPEN
 10
2251.3422653512748
 20
2424.9626316126828
 30
0.0
 41
60.0
 42
60.0
 43
60.0
 50
180.0
  0
INSERT
  5
7E82
  8
0
  6
BYBLOCK
 62
     0
  2
_OPEN
 10
2651.3422653512748
 20
2424.9626316126828
 30
0.0
 41
60.0
 42
60.0
 43
60.0
  0
POINT
  5
7E83
  8
DEFPOINTS
  6
BYBLOCK
 62
     0
 10
2251.3422653512748
 20
2584.4468816126841
 30
0.0
  0
POINT
  5
7E84
  8
DEFPOINTS
  6
BYBLOCK
 62
     0
 10
2651.3422653512748
 20
2622.1786786126841
 30
0.0
  0
POINT
  5
7E85
  8
DEFPOINTS
  6
BYBLOCK
 62
     0
 10
2651.3422653512748
 20
2424.9626316126828
 30
0.0
  0
ENDBLK
  5
7E86
  8
0
  0
BLOCK
  8
0
  2
*D3
 70
     1
 10
0.0
 20
0.0
 30
0.0
  3
*D3
  1

  0
LINE
  5
80F4
  8
3
  6
CONTINUOUS
 62
     0
 10
2726.3422653512748
 20
3594.1786786126841
 30
0.0
 11
2983.5980393512768
 21
3594.1786786126841
 31
0.0
  0
LINE
  5
80F5
  8
3
  6
CONTINUOUS
 62
     0
 10
2726.3422653512748
 20
2944.1786786126841
 30
0.0
 11
2983.5980393512768
 21
2944.1786786126841
 31
0.0
  0
LINE
  5
80F6
  8
3
  6
CONTINUOUS
 62
     0
 10
2953.5980393512768
 20
3534.1786786126841
 30
0.0
 11
2953.5980393512768
 21
3004.1786786126841
 31
0.0
  0
INSERT
  5
80F7
  8
3
  6
CONTINUOUS
 62
     0
  2
_OPEN
 10
2953.5980393512768
 20
3594.1786786126841
 30
0.0
 41
60.0
 42
60.0
 43
60.0
 50
90.0
  0
INSERT
  5
80F8
  8
3
  6
CONTINUOUS
 62
     0
  2
_OPEN
 10
2953.5980393512768
 20
2944.1786786126841
 30
0.0
 41
60.0
 42
60.0
 43
60.0
 50
270.0
  0
TEXT
  8
3
  40
90
  5
817A
  62
0
  72
0
  71
0
 10
2698.60
 20
3138.03
 30
0.000000
  1
650
  0
POINT
  5
80FA
  8
DEFPOINTS
  6
CONTINUOUS
 62
     0
 10
2711.3422653512748
 20
3594.1786786126841
 30
0.0
  0
POINT
  5
80FB
  8
DEFPOINTS
  6
CONTINUOUS
 62
     0
 10
2711.3422653512748
 20
2944.1786786126841
 30
0.0
  0
POINT
  5
80FC
  8
DEFPOINTS
  6
CONTINUOUS
 62
     0
 10
2953.5980393512768
 20
2944.1786786126841
 30
0.0
  0
ENDBLK
  5
7E37
  8
0
  0
BLOCK
  8
0
  2
*D4
 70
     1
 10
0.0
 20
0.0
 30
0.0
  3
*D4
  1

  0
LINE
  5
80FD
  8
3
  6
CONTINUOUS
 62
     0
 10
2643.6208533512759
 20
3622.1786786126841
 30
0.0
 11
3220.4151553512761
 21
3622.1786786126831
 31
0.0
  0
LINE
  5
80FE
  8
3
  6
CONTINUOUS
 62
     0
 10
2726.3422653512748
 20
2944.1786786126841
 30
0.0
 11
3220.4151553512752
 21
2944.1786786126831
 31
0.0
  0
LINE
  5
80FF
  8
3
  6
CONTINUOUS
 62
     0
 10
3190.4151553512761
 20
3562.1786786126841
 30
0.0
 11
3190.4151553512761
 21
3004.1786786126831
 31
0.0
  0
INSERT
  5
8100
  8
3
  6
CONTINUOUS
 62
     0
  2
_OPEN
 10
3190.4151553512761
 20
3622.1786786126831
 30
0.0
 41
60.0
 42
60.0
 43
60.0
 50
90.0
  0
INSERT
  5
8101
  8
3
  6
CONTINUOUS
 62
     0
  2
_OPEN
 10
3190.4151553512761
 20
2944.1786786126831
 30
0.0
 41
60.0
 42
60.0
 43
60.0
 50
270.0
  0
TEXT
  8
3
  40
90
  5
817B
  62
0
  72
0
  71
0
 10
2935.42
 20
3138.03
 30
0.000000
  1
678
  0
POINT
  5
8103
  8
DEFPOINTS
  6
CONTINUOUS
 62
     0
 10
2628.6208533512759
 20
3622.1786786126841
 30
0.0
  0
POINT
  5
8104
  8
DEFPOINTS
  6
CONTINUOUS
 62
     0
 10
2711.3422653512748
 20
2944.1786786126841
 30
0.0
  0
POINT
  5
8105
  8
DEFPOINTS
  6
CONTINUOUS
 62
     0
 10
3190.4151553512761
 20
2944.1786786126831
 30
0.0
  0
ENDBLK
  5
7E2C
  8
0
  0
BLOCK
  8
0
  2
*D5
 70
     1
 10
0.0
 20
0.0
 30
0.0
  3
*D5
  1

  0
LINE
  5
8106
  8
3
  6
CONTINUOUS
 62
     0
 10
2266.3422653512748
 20
4075.8775996126842
 30
0.0
 11
3429.3714393512769
 21
4075.8775996126842
 31
0.0
  0
LINE
  5
8107
  8
3
  6
CONTINUOUS
 62
     0
 10
2643.6208533512759
 20
3622.1786786126841
 30
0.0
 11
3429.3714393512769
 21
3622.1786786126831
 31
0.0
  0
LINE
  5
8108
  8
3
  6
CONTINUOUS
 62
     0
 10
3399.3714393512769
 20
4135.8775996126824
 30
0.0
 11
3399.3714393512769
 21
4195.8775996126833
 31
0.0
  0
LINE
  5
8109
  8
3
  6
CONTINUOUS
 62
     0
 10
3399.3714393512769
 20
3562.1786786126841
 30
0.0
 11
3399.3714393512769
 21
3502.1786786126841
 31
0.0
  0
LINE
  5
810A
  8
3
  6
CONTINUOUS
 62
     0
 10
3399.3714393512769
 20
4075.8775996126842
 30
0.0
 11
3399.3714393512769
 21
3622.1786786126831
 31
0.0
  0
INSERT
  5
810B
  8
3
  6
CONTINUOUS
 62
     0
  2
_OPEN
 10
3399.3714393512769
 20
4075.8775996126842
 30
0.0
 41
60.0
 42
60.0
 43
60.0
 50
270.0
  0
INSERT
  5
810C
  8
3
  6
CONTINUOUS
 62
     0
  2
_OPEN
 10
3399.3714393512769
 20
3622.1786786126831
 30
0.0
 41
60.0
 42
60.0
 43
60.0
 50
90.0
  0
TEXT
  8
3
  40
90
  5
817C
  62
0
  72
0
  71
0
 10
3144.37
 20
3670.74
 30
0.000000
  1
454
  0
POINT
  5
810E
  8
DEFPOINTS
  6
CONTINUOUS
 62
     0
 10
2251.3422653512748
 20
4075.8775996126842
 30
0.0
  0
POINT
  5
810F
  8
DEFPOINTS
  6
CONTINUOUS
 62
     0
 10
2628.6208533512759
 20
3622.1786786126841
 30
0.0
  0
POINT
  5
8110
  8
DEFPOINTS
  6
CONTINUOUS
 62
     0
 10
3399.3714393512769
 20
3622.1786786126831
 30
0.0
  0
ENDBLK
  5
7E21
  8
0
  0
BLOCK
  8
0
  2
*D6
 70
     1
 10
0.0
 20
0.0
 30
0.0
  3
*D6
  1

  0
LINE
  5
8111
  8
3
 62
     0
 10
2643.6208533512759
 20
3622.1786786126841
 30
0.0
 11
3429.3714393512769
 21
3622.1786786126831
 31
0.0
  0
LINE
  5
8112
  8
3
 62
     0
 10
2666.3422653512748
 20
2822.1786786126841
 30
0.0
 11
3429.371439351276
 21
2822.1786786126831
 31
0.0
  0
LINE
  5
8113
  8
3
 62
     0
 10
3399.3714393512769
 20
3562.1786786126841
 30
0.0
 11
3399.3714393512769
 21
2882.1786786126831
 31
0.0
  0
INSERT
  5
8114
  8
3
 62
     0
  2
_OPEN
 10
3399.3714393512769
 20
3622.1786786126831
 30
0.0
 41
60.0
 42
60.0
 43
60.0
 50
90.0
  0
INSERT
  5
8115
  8
3
 62
     0
  2
_OPEN
 10
3399.3714393512769
 20
2822.1786786126831
 30
0.0
 41
60.0
 42
60.0
 43
60.0
 50
270.0
  0
TEXT
  8
3
  40
90
  5
817D
  62
0
  72
0
  71
0
 10
3144.37
 20
3062.88
 30
0.000000
  1
800
  0
POINT
  5
8117
  8
DEFPOINTS
 62
     0
 10
2628.6208533512759
 20
3622.1786786126841
 30
0.0
  0
POINT
  5
8118
  8
DEFPOINTS
 62
     0
 10
2651.3422653512748
 20
2822.1786786126841
 30
0.0
  0
POINT
  5
8119
  8
DEFPOINTS
 62
     0
 10
3399.3714393512769
 20
2822.1786786126831
 30
0.0
  0
ENDBLK
  5
7E16
  8
0
  0
BLOCK
  8
0
  2
*D7
 70
     1
 10
0.0
 20
0.0
 30
0.0
  3
*D7
  1

  0
LINE
  5
811A
  8
3
  6
CONTINUOUS
 62
     0
 10
2266.3422653512748
 20
4075.8775996126842
 30
0.0
 11
3694.0494263512769
 21
4075.8775996126842
 31
0.0
  0
LINE
  5
811B
  8
3
  6
CONTINUOUS
 62
     0
 10
2666.3422653512748
 20
2622.1786786126841
 30
0.0
 11
3694.049426351276
 21
2622.1786786126841
 31
0.0
  0
LINE
  5
811C
  8
3
  6
CONTINUOUS
 62
     0
 10
3664.049426351276
 20
4015.8775996126842
 30
0.0
 11
3664.049426351276
 21
2682.1786786126831
 31
0.0
  0
INSERT
  5
811D
  8
3
  6
CONTINUOUS
 62
     0
  2
_OPEN
 10
3664.049426351276
 20
4075.8775996126842
 30
0.0
 41
60.0
 42
60.0
 43
60.0
 50
90.0
  0
INSERT
  5
811E
  8
3
  6
CONTINUOUS
 62
     0
  2
_OPEN
 10
3664.049426351276
 20
2622.1786786126841
 30
0.0
 41
60.0
 42
60.0
 43
60.0
 50
270.0
  0
TEXT
  8
3
  40
90
  5
817E
  62
0
  72
0
  71
0
 10
3409.05
 20
3263.32
 30
0.000000
  1
1454
  0
POINT
  5
8120
  8
DEFPOINTS
  6
CONTINUOUS
 62
     0
 10
2251.3422653512748
 20
4075.8775996126842
 30
0.0
  0
POINT
  5
8121
  8
DEFPOINTS
  6
CONTINUOUS
 62
     0
 10
2651.3422653512748
 20
2622.1786786126841
 30
0.0
  0
POINT
  5
8122
  8
DEFPOINTS
  6
CONTINUOUS
 62
     0
 10
3664.049426351276
 20
2622.1786786126841
 30
0.0
  0
ENDBLK
  5
7E0B
  8
0
  0
BLOCK
  8
0
  2
*D8
 70
     1
 10
0.0
 20
0.0
 30
0.0
  3
*D8
  1

  0
LINE
  5
8123
  8
3
  6
CONTINUOUS
 62
     0
 10
1703.6433443512749
 20
3637.1786786126841
 30
0.0
 11
1703.6433443512749
 21
4214.5505356126841
 31
0.0
  0
LINE
  5
8124
  8
3
  6
CONTINUOUS
 62
     0
 10
2251.3422653512748
 20
4090.8775996126842
 30
0.0
 11
2251.3422653512748
 21
4214.5505356126841
 31
0.0
  0
LINE
  5
8125
  8
3
  6
CONTINUOUS
 62
     0
 10
1763.643344351276
 20
4184.5505356126841
 30
0.0
 11
2191.3422653512748
 21
4184.5505356126841
 31
0.0
  0
INSERT
  5
8126
  8
3
  6
CONTINUOUS
 62
     0
  2
_OPEN
 10
1703.6433443512749
 20
4184.5505356126841
 30
0.0
 41
60.0
 42
60.0
 43
60.0
 50
180.0
  0
INSERT
  5
8127
  8
3
  6
CONTINUOUS
 62
     0
  2
_OPEN
 10
2251.3422653512748
 20
4184.5505356126841
 30
0.0
 41
60.0
 42
60.0
 43
60.0
  0
TEXT
  8
3
  40
90
  5
817F
  62
0
  72
0
  71
0
 10
1831.34
 20
4100.25
 30
0.000000
  1
548
  0
POINT
  5
8129
  8
DEFPOINTS
  6
CONTINUOUS
 62
     0
 10
1703.6433443512749
 20
3622.1786786126841
 30
0.0
  0
POINT
  5
812A
  8
DEFPOINTS
  6
CONTINUOUS
 62
     0
 10
2251.3422653512748
 20
4075.8775996126842
 30
0.0
  0
POINT
  5
812B
  8
DEFPOINTS
  6
CONTINUOUS
 62
     0
 10
2251.3422653512748
 20
4184.5505356126841
 30
0.0
  0
ENDBLK
  5
7E00
  8
0
  0
BLOCK
  8
0
  2
*D9
 70
     1
 10
0.0
 20
0.0
 30
0.0
  3
*D9
  1

  0
LINE
  5
812C
  8
3
  6
CONTINUOUS
 62
     0
 10
2251.3422653512748
 20
4090.8775996126842
 30
0.0
 11
2251.3422653512748
 21
4214.5505356126841
 31
0.0
  0
LINE
  5
812D
  8
3
  6
CONTINUOUS
 62
     0
 10
2711.3422653512748
 20
3651.1786786126841
 30
0.0
 11
2711.3422653512748
 21
4214.5505356126841
 31
0.0
  0
LINE
  5
812E
  8
3
  6
CONTINUOUS
 62
     0
 10
2311.3422653512748
 20
4184.5505356126841
 30
0.0
 11
2651.3422653512748
 21
4184.5505356126841
 31
0.0
  0
INSERT
  5
812F
  8
3
  6
CONTINUOUS
 62
     0
  2
_OPEN
 10
2251.3422653512748
 20
4184.5505356126841
 30
0.0
 41
60.0
 42
60.0
 43
60.0
 50
180.0
  0
INSERT
  5
8130
  8
3
  6
CONTINUOUS
 62
     0
  2
_OPEN
 10
2711.3422653512748
 20
4184.5505356126841
 30
0.0
 41
60.0
 42
60.0
 43
60.0
  0
TEXT
  8
3
  40
90
  5
8180
  62
0
  72
0
  71
0
 10
2277.06
 20
4100.25
 30
0.000000
  1
460
  0
POINT
  5
8132
  8
DEFPOINTS
  6
CONTINUOUS
 62
     0
 10
2251.3422653512748
 20
4075.8775996126842
 30
0.0
  0
POINT
  5
8133
  8
DEFPOINTS
  6
CONTINUOUS
 62
     0
 10
2711.3422653512748
 20
3636.1786786126841
 30
0.0
  0
POINT
  5
8134
  8
DEFPOINTS
  6
CONTINUOUS
 62
     0
 10
2711.3422653512748
 20
4184.5505356126841
 30
0.0
  0
ENDBLK
  5
7DF5
  8
0
  0
BLOCK
  8
0
  2
*D10
 70
     1
 10
0.0
 20
0.0
 30
0.0
  3
*D10
  1

  0
LINE
  5
8135
  8
3
  6
CONTINUOUS
 62
     0
 10
1251.342265351275
 20
5438.8865384391656
 30
0.0
 11
1251.342265351275
 21
5073.049629439166
 31
0.0
  0
LINE
  5
8136
  8
3
  6
CONTINUOUS
 62
     0
 10
2651.3422653512748
 20
5438.8865384391656
 30
0.0
 11
2651.3422653512748
 21
5073.049629439166
 31
0.0
  0
LINE
  5
8137
  8
3
  6
CONTINUOUS
 62
     0
 10
1311.342265351275
 20
5103.049629439166
 30
0.0
 11
2591.3422653512748
 21
5103.049629439166
 31
0.0
  0
INSERT
  5
8138
  8
3
  6
CONTINUOUS
 62
     0
  2
_OPEN
 10
1251.342265351275
 20
5103.049629439166
 30
0.0
 41
60.0
 42
60.0
 43
60.0
 50
180.0
  0
INSERT
  5
8139
  8
3
  6
CONTINUOUS
 62
     0
  2
_OPEN
 10
2651.3422653512748
 20
5103.049629439166
 30
0.0
 41
60.0
 42
60.0
 43
60.0
  0
TEXT
  8
3
  40
90
  5
8181
  62
0
  72
0
  71
0
 10
1682.38
 20
5018.75
 30
0.000000
  1
1400
  0
POINT
  5
813B
  8
DEFPOINTS
  6
CONTINUOUS
 62
     0
 10
1251.342265351275
 20
5453.8865384391647
 30
0.0
  0
POINT
  5
813C
  8
DEFPOINTS
  6
CONTINUOUS
 62
     0
 10
2651.3422653512748
 20
5453.8865384391647
 30
0.0
  0
POINT
  5
813D
  8
DEFPOINTS
  6
CONTINUOUS
 62
     0
 10
2651.3422653512748
 20
5103.049629439166
 30
0.0
  0
ENDBLK
  5
7DEA
  8
0
  0
BLOCK
  8
0
  2
*D11
 70
     1
 10
0.0
 20
0.0
 30
0.0
  3
*D11
  1

  0
LINE
  5
813E
  8
3
  6
CONTINUOUS
 62
     0
 10
2666.3422653512748
 20
6143.8865384391675
 30
0.0
 11
3043.963177351276
 21
6143.8865384391675
 31
0.0
  0
LINE
  5
813F
  8
3
  6
CONTINUOUS
 62
     0
 10
2666.3422653512748
 20
5453.8865384391647
 30
0.0
 11
3043.963177351276
 21
5453.8865384391647
 31
0.0
  0
LINE
  5
8140
  8
3
  6
CONTINUOUS
 62
     0
 10
3013.963177351276
 20
6083.8865384391656
 30
0.0
 11
3013.963177351276
 21
5513.8865384391656
 31
0.0
  0
INSERT
  5
8141
  8
3
  6
CONTINUOUS
 62
     0
  2
_OPEN
 10
3013.963177351276
 20
6143.8865384391675
 30
0.0
 41
60.0
 42
60.0
 43
60.0
 50
90.0
  0
INSERT
  5
8142
  8
3
  6
CONTINUOUS
 62
     0
  2
_OPEN
 10
3013.963177351276
 20
5453.8865384391647
 30
0.0
 41
60.0
 42
60.0
 43
60.0
 50
270.0
  0
TEXT
  8
3
  40
90
  5
8182
  62
0
  72
0
  71
0
 10
2758.96
 20
5649.07
 30
0.000000
  1
690
  0
POINT
  5
8144
  8
DEFPOINTS
  6
CONTINUOUS
 62
     0
 10
2651.3422653512748
 20
6143.8865384391675
 30
0.0
  0
POINT
  5
8145
  8
DEFPOINTS
  6
CONTINUOUS
 62
     0
 10
2651.3422653512748
 20
5453.8865384391647
 30
0.0
  0
POINT
  5
8146
  8
DEFPOINTS
  6
CONTINUOUS
 62
     0
 10
3013.963177351276
 20
5453.8865384391647
 30
0.0
  0
ENDBLK
  5
7DDF
  8
0
  0
BLOCK
  8
0
  2
*D12
 70
     1
 10
0.0
 20
0.0
 30
0.0
  3
*D12
  1

  0
LINE
  5
7E88
  8
0
  6
BYBLOCK
 62
     0
 10
4437.9282239566064
 20
2607.1786786126841
 30
0.0
 11
4437.9282239566064
 21
2402.001736785558
 31
0.0
  0
LINE
  5
7E89
  8
0
  6
BYBLOCK
 62
     0
 10
4837.9282239566046
 20
2582.1314786126841
 30
0.0
 11
4837.9282239566046
 21
2402.001736785558
 31
0.0
  0
LINE
  5
7E8A
  8
0
  6
BYBLOCK
 62
     0
 10
4497.9282239566046
 20
2432.001736785558
 30
0.0
 11
4777.9282239566064
 21
2432.001736785558
 31
0.0
  0
TEXT
  5
7E8B
  8
3
 62
     0
 10
4537.6361649211731
 20
2460.596782589902
 30
0.0
 40
90.0
  1
400
  0
INSERT
  5
7E8C
  8
0
  6
BYBLOCK
 62
     0
  2
_OPEN
 10
4437.9282239566064
 20
2432.001736785558
 30
0.0
 41
60.0
 42
60.0
 43
60.0
 50
180.0
  0
INSERT
  5
7E8D
  8
0
  6
BYBLOCK
 62
     0
  2
_OPEN
 10
4837.9282239566046
 20
2432.001736785558
 30
0.0
 41
60.0
 42
60.0
 43
60.0
  0
POINT
  5
7E8E
  8
DEFPOINTS
  6
BYBLOCK
 62
     0
 10
4437.9282239566064
 20
2622.1786786126841
 30
0.0
  0
POINT
  5
7E8F
  8
DEFPOINTS
  6
BYBLOCK
 62
     0
 10
4837.9282239566046
 20
2597.1314786126841
 30
0.0
  0
POINT
  5
7E90
  8
DEFPOINTS
  6
BYBLOCK
 62
     0
 10
4837.9282239566046
 20
2432.001736785558
 30
0.0
  0
ENDBLK
  5
7E91
  8
0
  0
BLOCK
  8
0
  2
*D13
 70
     1
 10
0.0
 20
0.0
 30
0.0
  3
*D13
  1

  0
LINE
  5
7E93
  8
0
  6
BYBLOCK
 62
     0
 10
4837.9282239566046
 20
2582.1314786126841
 30
0.0
 11
4837.9282239566046
 21
2402.001736785558
 31
0.0
  0
LINE
  5
7E94
  8
0
  6
BYBLOCK
 62
     0
 10
5127.9282239566046
 20
2607.1786786126841
 30
0.0
 11
5127.9282239566046
 21
2402.001736785558
 31
0.0
  0
LINE
  5
7E95
  8
0
  6
BYBLOCK
 62
     0
 10
4897.9282239566046
 20
2432.001736785558
 30
0.0
 11
5067.9282239566064
 21
2432.001736785558
 31
0.0
  0
TEXT
  5
7E96
  8
3
 62
     0
 10
4878.7170627060304
 20
2473.4571381191959
 30
0.0
 40
90.0
  1
290
  0
INSERT
  5
7E97
  8
0
  6
BYBLOCK
 62
     0
  2
_OPEN
 10
4837.9282239566046
 20
2432.001736785558
 30
0.0
 41
60.0
 42
60.0
 43
60.0
 50
180.0
  0
INSERT
  5
7E98
  8
0
  6
BYBLOCK
 62
     0
  2
_OPEN
 10
5127.9282239566046
 20
2432.001736785558
 30
0.0
 41
60.0
 42
60.0
 43
60.0
  0
POINT
  5
7E99
  8
DEFPOINTS
  6
BYBLOCK
 62
     0
 10
4837.9282239566046
 20
2597.1314786126841
 30
0.0
  0
POINT
  5
7E9A
  8
DEFPOINTS
  6
BYBLOCK
 62
     0
 10
5127.9282239566046
 20
2622.1786786126841
 30
0.0
  0
POINT
  5
7E9B
  8
DEFPOINTS
  6
BYBLOCK
 62
     0
 10
5127.9282239566046
 20
2432.001736785558
 30
0.0
  0
ENDBLK
  5
7E9C
  8
0
  0
BLOCK
  8
0
  2
*D14
 70
     1
 10
0.0
 20
0.0
 30
0.0
  3
*D14
  1

  0
LINE
  5
8147
  8
3
  6
CONTINUOUS
 62
     0
 10
4600.4282239566064
 20
4093.0786786126828
 30
0.0
 11
4600.4282239566064
 21
4265.1493106126836
 31
0.0
  0
LINE
  5
8148
  8
3
  6
CONTINUOUS
 62
     0
 10
5075.4282239566064
 20
4093.0786786126828
 30
0.0
 11
5075.4282239566064
 21
4265.1493106126836
 31
0.0
  0
LINE
  5
8149
  8
3
  6
CONTINUOUS
 62
     0
 10
4660.4282239566046
 20
4235.1493106126827
 30
0.0
 11
5015.4282239566064
 21
4235.1493106126827
 31
0.0
  0
INSERT
  5
814A
  8
3
  6
CONTINUOUS
 62
     0
  2
_OPEN
 10
4600.4282239566064
 20
4235.1493106126827
 30
0.0
 41
60.0
 42
60.0
 43
60.0
 50
180.0
  0
INSERT
  5
814B
  8
3
  6
CONTINUOUS
 62
     0
  2
_OPEN
 10
5075.4282239566064
 20
4235.1493106126827
 30
0.0
 41
60.0
 42
60.0
 43
60.0
  0
TEXT
  8
3
  40
90
  5
8183
  62
0
  72
0
  71
0
 10
4657.93
 20
4150.85
 30
0.000000
  1
475
  0
POINT
  5
814D
  8
DEFPOINTS
  6
CONTINUOUS
 62
     0
 10
4600.4282239566064
 20
4078.0786786126828
 30
0.0
  0
POINT
  5
814E
  8
DEFPOINTS
  6
CONTINUOUS
 62
     0
 10
5075.4282239566064
 20
4078.0786786126828
 30
0.0
  0
POINT
  5
814F
  8
DEFPOINTS
  6
CONTINUOUS
 62
     0
 10
5075.4282239566064
 20
4235.1493106126827
 30
0.0
  0
ENDBLK
  5
7DBB
  8
0
  0
BLOCK
  8
0
  2
*D15
 70
     1
 10
0.0
 20
0.0
 30
0.0
  3
*D15
  1

  0
LINE
  5
8150
  8
3
  6
CONTINUOUS
 62
     0
 10
4357.9282239566046
 20
3827.1786786126841
 30
0.0
 11
4357.9282239566046
 21
4485.6221048439002
 31
0.0
  0
LINE
  5
8151
  8
3
  6
CONTINUOUS
 62
     0
 10
4837.9282239566046
 20
4392.0406568802682
 30
0.0
 11
4837.9282239566046
 21
4485.6221048439002
 31
0.0
  0
LINE
  5
8152
  8
3
  6
CONTINUOUS
 62
     0
 10
4417.9282239566064
 20
4455.6221048439011
 30
0.0
 11
4777.9282239566064
 21
4455.6221048439011
 31
0.0
  0
INSERT
  5
8153
  8
3
  6
CONTINUOUS
 62
     0
  2
_OPEN
 10
4357.9282239566046
 20
4455.6221048439011
 30
0.0
 41
60.0
 42
60.0
 43
60.0
 50
180.0
  0
INSERT
  5
8154
  8
3
  6
CONTINUOUS
 62
     0
  2
_OPEN
 10
4837.9282239566046
 20
4455.6221048439011
 30
0.0
 41
60.0
 42
60.0
 43
60.0
  0
TEXT
  8
3
  40
90
  5
8184
  62
0
  72
0
  71
0
 10
4396.50
 20
4446.32
 30
0.000000
  1
MAX
  0
TEXT
  8
3
  40
90
  5
8185
  62
0
  72
0
  71
0
 10
4396.50
 20
4329.32
 30
0.000000
  1
550
  0
POINT
  5
8156
  8
DEFPOINTS
  6
CONTINUOUS
 62
     0
 10
4357.9282239566046
 20
3812.1786786126841
 30
0.0
  0
POINT
  5
8157
  8
DEFPOINTS
  6
CONTINUOUS
 62
     0
 10
4837.9282239566046
 20
4377.0406568802682
 30
0.0
  0
POINT
  5
8158
  8
DEFPOINTS
  6
CONTINUOUS
 62
     0
 10
4837.9282239566046
 20
4455.6221048439011
 30
0.0
  0
ENDBLK
  5
7F52
  8
0
  0
BLOCK
  8
0
  2
*D16
 70
     1
 10
0.0
 20
0.0
 30
0.0
  3
*D16
  1

  0
LINE
  5
7EE0
  8
0
  6
BYBLOCK
 62
     0
 10
4837.9282239566046
 20
4397.1345973417301
 30
0.0
 11
4837.9282239566046
 21
4485.6221048439002
 31
0.0
  0
LINE
  5
7EE1
  8
0
  6
BYBLOCK
 62
     0
 10
5157.9282239566064
 20
3992.1786786126841
 30
0.0
 11
5157.9282239566064
 21
4485.6221048439002
 31
0.0
  0
LINE
  5
7EE2
  8
0
  6
BYBLOCK
 62
     0
 10
4897.9282239566046
 20
4455.6221048439011
 30
0.0
 11
5097.9282239566046
 21
4455.6221048439011
 31
0.0
  0
TEXT
  5
7EE3
  8
3
 62
     0
 10
4878.7170627060304
 20
4487.690098175106
 30
0.0
 40
90.0
  1
320
  0
INSERT
  5
7EE4
  8
0
  6
BYBLOCK
 62
     0
  2
_OPEN
 10
4837.9282239566046
 20
4455.6221048439011
 30
0.0
 41
60.0
 42
60.0
 43
60.0
 50
180.0
  0
INSERT
  5
7EE5
  8
0
  6
BYBLOCK
 62
     0
  2
_OPEN
 10
5157.9282239566064
 20
4455.6221048439011
 30
0.0
 41
60.0
 42
60.0
 43
60.0
  0
POINT
  5
7EE6
  8
DEFPOINTS
  6
BYBLOCK
 62
     0
 10
4837.9282239566046
 20
4382.1345973417301
 30
0.0
  0
POINT
  5
7EE7
  8
DEFPOINTS
  6
BYBLOCK
 62
     0
 10
5157.9282239566064
 20
3977.1786786126841
 30
0.0
  0
POINT
  5
7EE8
  8
DEFPOINTS
  6
BYBLOCK
 62
     0
 10
5157.9282239566064
 20
4455.6221048439011
 30
0.0
  0
ENDBLK
  5
7EE9
  8
0
  0
BLOCK
  8
0
  2
*D17
 70
     1
 10
0.0
 20
0.0
 30
0.0
  3
*D17
  1

  0
LINE
  5
8159
  8
3
  6
CONTINUOUS
 62
     0
 10
5172.9282239566046
 20
3937.1786786126841
 30
0.0
 11
5458.1577629566063
 21
3937.1786786126841
 31
0.0
  0
LINE
  5
815A
  8
3
  6
CONTINUOUS
 62
     0
 10
5172.9282239566046
 20
3307.1786786126841
 30
0.0
 11
5458.1577629566063
 21
3307.1786786126841
 31
0.0
  0
LINE
  5
815B
  8
3
  6
CONTINUOUS
 62
     0
 10
5428.1577629566063
 20
3877.1786786126841
 30
0.0
 11
5428.1577629566063
 21
3367.1786786126841
 31
0.0
  0
INSERT
  5
815C
  8
3
  6
CONTINUOUS
 62
     0
  2
_OPEN
 10
5428.1577629566063
 20
3937.1786786126841
 30
0.0
 41
60.0
 42
60.0
 43
60.0
 50
90.0
  0
INSERT
  5
815D
  8
3
  6
CONTINUOUS
 62
     0
  2
_OPEN
 10
5428.1577629566063
 20
3307.1786786126841
 30
0.0
 41
60.0
 42
60.0
 43
60.0
 50
270.0
  0
TEXT
  8
3
  40
90
  5
8186
  62
0
  72
0
  71
0
 10
5173.16
 20
3473.07
 30
0.000000
  1
φ630
  0
POINT
  5
815F
  8
DEFPOINTS
  6
CONTINUOUS
 62
     0
 10
5157.9282239566064
 20
3937.1786786126841
 30
0.0
  0
POINT
  5
8160
  8
DEFPOINTS
  6
CONTINUOUS
 62
     0
 10
5157.9282239566064
 20
3307.1786786126841
 30
0.0
  0
POINT
  5
8161
  8
DEFPOINTS
  6
CONTINUOUS
 62
     0
 10
5428.1577629566063
 20
3307.1786786126841
 30
0.0
  0
ENDBLK
  5
7EB2
  8
0
  0
BLOCK
  8
0
  2
*D18
 70
     1
 10
0.0
 20
0.0
 30
0.0
  3
*D18
  1

  0
LINE
  5
8162
  8
3
 62
     0
 10
2666.3422653512748
 20
2722.1786786126841
 30
0.0
 11
3429.371439351276
 21
2722.1786786126831
 31
0.0
  0
LINE
  5
8163
  8
3
 62
     0
 10
2666.3422653512748
 20
2622.1786786126841
 30
0.0
 11
3429.371439351276
 21
2622.1786786126841
 31
0.0
  0
LINE
  5
8164
  8
3
 62
     0
 10
3399.3714393512769
 20
2782.1786786126831
 30
0.0
 11
3399.3714393512769
 21
2842.1786786126831
 31
0.0
  0
LINE
  5
8165
  8
3
 62
     0
 10
3399.3714393512769
 20
2562.1786786126831
 30
0.0
 11
3399.3714393512769
 21
2227.892964326968
 31
0.0
  0
LINE
  5
8166
  8
3
 62
     0
 10
3399.3714393512769
 20
2722.1786786126831
 30
0.0
 11
3399.3714393512769
 21
2622.1786786126841
 31
0.0
  0
INSERT
  5
8167
  8
3
 62
     0
  2
_DOT
 10
3399.3714393512769
 20
2722.1786786126831
 30
0.0
 41
60.0
 42
60.0
 43
60.0
 50
270.0
  0
INSERT
  5
8168
  8
3
 62
     0
  2
_OPEN
 10
3399.3714393512769
 20
2622.1786786126841
 30
0.0
 41
60.0
 42
60.0
 43
60.0
 50
90.0
  0
TEXT
  8
3
  40
90
  5
8187
  62
0
  72
0
  71
0
 10
3144.37
 20
2205.74
 30
0.000000
  1
100
  0
POINT
  5
816A
  8
DEFPOINTS
 62
     0
 10
2651.3422653512748
 20
2722.1786786126841
 30
0.0
  0
POINT
  5
816B
  8
DEFPOINTS
 62
     0
 10
2651.3422653512748
 20
2622.1786786126841
 30
0.0
  0
POINT
  5
816C
  8
DEFPOINTS
 62
     0
 10
3399.3714393512769
 20
2622.1786786126841
 30
0.0
  0
ENDBLK
  5
7F35
  8
0
  0
BLOCK
  8
0
  2
_DOT
 70
     0
 10
0.0
 20
0.0
 30
0.0
  3
_DOT
  1

  0
LINE
  5
7F36
  8
0
  6
BYBLOCK
 62
     0
 10
0.0
 20
0.0
 30
0.0
 11
-1.0
 21
-0.0000000000000284
 31
0.0
  0
POLYLINE
  5
7F37
  8
0
  6
BYBLOCK
 62
     0
 66
     1
 10
0.0
 20
0.0
 30
0.0
 70
     1
 40
0.1666666666666666
 41
0.1666666666666666
  0
VERTEX
  5
816D
  8
0
  6
BYBLOCK
 62
     0
 10
-0.0833333333333286
 20
-0.0000000000000284
 30
0.0
 42
1.0
  0
VERTEX
  5
816E
  8
0
  6
BYBLOCK
 62
     0
 10
0.0833333333333286
 20
-0.0000000000000284
 30
0.0
 42
1.0
  0
SEQEND
  5
816F
  8
0
  6
BYBLOCK
 62
     0
  0
ENDBLK
  5
7CFD
  8
0
  0
BLOCK
  8
0
  2
*D20
 70
     1
 10
0.0
 20
0.0
 30
0.0
  3
*D20
  1

  0
LINE
  5
7F1E
  8
0
  6
BYBLOCK
 62
     0
 10
2666.3422653512748
 20
2722.1786786126841
 30
0.0
 11
3429.371439351276
 21
2722.1786786126841
 31
0.0
  0
LINE
  5
7F1F
  8
0
  6
BYBLOCK
 62
     0
 10
3399.3714393512769
 20
2882.1786786126831
 30
0.0
 11
3399.3714393512769
 21
2942.1786786126841
 31
0.0
  0
LINE
  5
7F20
  8
0
  6
BYBLOCK
 62
     0
 10
3399.3714393512769
 20
2662.1786786126841
 30
0.0
 11
3399.3714393512769
 21
2602.1786786126841
 31
0.0
  0
TEXT
  5
7F21
  8
3
 62
     0
 10
3564.371439351276
 20
2665.0358214698272
 30
0.0
 40
90.0
  1
100
 50
90.0
  0
LINE
  5
7F22
  8
0
  6
BYBLOCK
 62
     0
 10
3399.3714393512769
 20
2822.1786786126841
 30
0.0
 11
3399.3714393512769
 21
2722.1786786126841
 31
0.0
  0
INSERT
  5
7F23
  8
0
  6
BYBLOCK
 62
     0
  2
_OPEN
 10
3399.3714393512769
 20
2822.1786786126841
 30
0.0
 41
60.0
 42
60.0
 43
60.0
 50
270.0
  0
INSERT
  5
7F24
  8
0
  6
BYBLOCK
 62
     0
  2
_DOT
 10
3399.3714393512769
 20
2722.1786786126841
 30
0.0
 41
60.0
 42
60.0
 43
60.0
 50
90.0
  0
POINT
  5
7F25
  8
DEFPOINTS
  6
BYBLOCK
 62
     0
 10
2651.3422653512748
 20
2822.1786786126841
 30
0.0
  0
POINT
  5
7F26
  8
DEFPOINTS
  6
BYBLOCK
 62
     0
 10
2651.3422653512748
 20
2722.1786786126841
 30
0.0
  0
POINT
  5
7F27
  8
DEFPOINTS
  6
BYBLOCK
 62
     0
 10
3399.3714393512769
 20
2722.1786786126841
 30
0.0
  0
ENDBLK
  5
7F28
  8
0
  0
BLOCK
  8
0
  2
*D21
 70
     1
 10
0.0
 20
0.0
 30
0.0
  3
*D21
  1

  0
LINE
  5
8170
  8
3
 62
     0
 10
2711.3422653512748
 20
3666.1786786126841
 30
0.0
 11
2711.3422653512748
 21
4406.778591495714
 31
0.0
  0
LINE
  5
8171
  8
3
 62
     0
 10
1251.342265351275
 20
2937.1786786126841
 30
0.0
 11
1251.342265351275
 21
4406.778591495714
 31
0.0
  0
LINE
  5
8172
  8
3
 62
     0
 10
2651.3422653512748
 20
4376.7785914957149
 30
0.0
 11
1311.342265351275
 21
4376.7785914957149
 31
0.0
  0
INSERT
  5
8173
  8
3
 62
     0
  2
_OPEN
 10
2711.3422653512748
 20
4376.7785914957149
 30
0.0
 41
60.0
 42
60.0
 43
60.0
  0
INSERT
  5
8174
  8
3
 62
     0
  2
_OPEN
 10
1251.342265351275
 20
4376.7785914957149
 30
0.0
 41
60.0
 42
60.0
 43
60.0
 50
180.0
  0
TEXT
  8
3
  40
90
  5
8188
  62
0
  72
0
  71
0
 10
1731.83
 20
4292.48
 30
0.000000
  1
1460
  0
POINT
  5
8176
  8
DEFPOINTS
 62
     0
 10
2711.3422653512748
 20
3651.1786786126841
 30
0.0
  0
POINT
  5
8177
  8
DEFPOINTS
 62
     0
 10
1251.342265351275
 20
2922.1786786126841
 30
0.0
  0
POINT
  5
8178
  8
DEFPOINTS
 62
     0
 10
1251.342265351275
 20
4376.7785914957149
 30
0.0
  0
ENDBLK
  5
7F46
  8
0
  0
ENDSEC
  0
SECTION
  2
ENTITIES
  0
LINE
  5
7A70
  8
1
  6
CONTINUOUS
 10
4600.4282239566064
 20
3594.1786786126841
 30
0.0
 11
5075.4282239566064
 21
3594.1786786126841
 31
0.0
  0
LINE
  5
7A71
  8
1
  6
CONTINUOUS
 10
5127.9282239566046
 20
2922.1786786126841
 30
0.0
 11
4437.9282239566064
 21
2922.1786786126841
 31
0.0
  0
LINE
  5
7A72
  8
1
  6
CONTINUOUS
 10
5127.9282239566046
 20
2822.1786786126841
 30
0.0
 11
4437.9282239566064
 21
2822.1786786126841
 31
0.0
  0
LINE
  5
7A73
  8
1
  6
CONTINUOUS
 10
4600.4282239566064
 20
4078.0786786126828
 30
0.0
 11
5075.4282239566064
 21
4078.0786786126828
 31
0.0
  0
LINE
  5
7A74
  8
1
  6
CONTINUOUS
 10
4600.4282239566064
 20
2944.1786786126841
 30
0.0
 11
5075.4282239566064
 21
2944.1786786126841
 31
0.0
  0
LINE
  5
7A75
  8
1
  6
CONTINUOUS
 10
4600.4282239566064
 20
3594.1786786126841
 30
0.0
 11
5075.4282239566064
 21
2944.1786786126841
 31
0.0
  0
LINE
  5
7A76
  8
1
  6
CONTINUOUS
 10
4600.4282239566064
 20
2944.1786786126841
 30
0.0
 11
5075.4282239566064
 21
3594.1786786126841
 31
0.0
  0
LINE
  5
7A77
  8
1
  6
CONTINUOUS
 10
5127.9282239566046
 20
2722.1786786126841
 30
0.0
 11
4437.9282239566064
 21
2722.1786786126841
 31
0.0
  0
LINE
  5
7A78
  8
1
  6
CONTINUOUS
 10
5127.9282239566046
 20
2622.1786786126841
 30
0.0
 11
4437.9282239566064
 21
2622.1786786126841
 31
0.0
  0
LINE
  5
7A79
  8
1
  6
CONTINUOUS
 10
2651.3422653512748
 20
2822.1786786126841
 30
0.0
 11
1251.342265351275
 21
2822.1786786126841
 31
0.0
  0
LINE
  5
7A7A
  8
1
  6
CONTINUOUS
 10
2711.3422653512748
 20
2944.1786786126841
 30
0.0
 11
2251.3422653512748
 21
2980.1786786126841
 31
0.0
  0
ARC
  5
7A7B
  8
1
  6
CONTINUOUS
 10
2213.3422653512748
 20
3660.1786786126841
 30
0.0
 40
417.39999999999992
 50
0.0
 51
84.0
  0
LINE
  5
7A7C
  8
1
  6
CONTINUOUS
 10
2651.3422653512748
 20
2922.1786786126841
 30
0.0
 11
1251.342265351275
 21
2922.1786786126841
 31
0.0
  0
CIRCLE
  5
7A7D
  8
1
  6
CONTINUOUS
 10
2251.3422653512748
 20
3622.1786786126841
 30
0.0
 40
355.0
  0
LINE
  5
7A7E
  8
1
  6
CONTINUOUS
 10
2651.3422653512748
 20
2722.1786786126841
 30
0.0
 11
1251.342265351275
 21
2722.1786786126841
 31
0.0
  0
LINE
  5
7A7F
  8
1
  6
CONTINUOUS
 10
2651.3422653512748
 20
2622.1786786126841
 30
0.0
 11
1251.342265351275
 21
2622.1786786126841
 31
0.0
  0
LINE
  5
7A80
  8
1
  6
CONTINUOUS
 10
1514.442265351275
 20
2953.778678612684
 30
0.0
 11
2349.7422653512749
 21
3459.6786786126841
 31
0.0
  0
LINE
  5
7A81
  8
1
  6
CONTINUOUS
 10
1462.642265351275
 20
3039.378678612683
 30
0.0
 11
2297.9422653512752
 21
3545.2786786126831
 31
0.0
  0
LINE
  5
7A82
  8
1
  6
CONTINUOUS
 10
1332.442265351275
 20
3240.8786786126839
 30
0.0
 11
2146.3422653512748
 21
3780.5786786126841
 31
0.0
  0
LINE
  5
7A83
  8
1
  6
CONTINUOUS
 10
1387.642265351275
 20
3157.5786786126828
 30
0.0
 11
2201.642265351275
 21
3697.1786786126841
 31
0.0
  0
ARC
  5
7A84
  8
1
  6
CONTINUOUS
 10
2298.3422653512748
 20
3575.1786786126841
 30
0.0
 40
596.89999999999998
 50
180.0
 51
265.5
  0
ARC
  5
7A85
  8
1
  6
CONTINUOUS
 10
2204.3422653512748
 20
3575.1786786126841
 30
0.0
 40
502.89999999999992
 50
84.0
 51
180.0
  0
ARC
  5
7A86
  8
1
  6
CONTINUOUS
 10
1426.342265351275
 20
3099.1786786126841
 30
0.0
 40
170.0
 50
123.5
 51
301.19999999999999
  0
ARC
  5
7A87
  8
1
  6
CONTINUOUS
 10
1426.342265351275
 20
3099.1786786126841
 30
0.0
 40
142.0
 50
324.60000000000002
 51
215.39999999999989
  0
CIRCLE
  5
7A88
  8
1
  6
CONTINUOUS
 10
1426.342265351275
 20
3099.1786786126841
 30
0.0
 40
70.0
  0
LINE
  5
7A89
  8
2
  6
CENTER
 10
1426.342265351275
 20
3029.1786786126841
 30
0.0
 11
1426.342265351275
 21
3169.1786786126841
 31
0.0
  0
LINE
  5
7A8A
  8
1
  6
CONTINUOUS
 10
1591.342265351275
 20
2967.1786786126841
 30
0.0
 11
1261.342265351275
 21
2967.1786786126841
 31
0.0
  0
LINE
  5
7A8B
  8
2
  6
CENTER
 10
1356.342265351275
 20
3099.1786786126841
 30
0.0
 11
1496.342265351275
 21
3099.1786786126841
 31
0.0
  0
LINE
  5
7A8C
  8
1
  6
CONTINUOUS
 10
1251.342265351275
 20
2922.1786786126841
 30
0.0
 11
1251.342265351275
 21
2822.1786786126841
 31
0.0
  0
LINE
  5
7A8D
  8
1
  6
CONTINUOUS
 10
1296.342265351275
 20
2982.1786786126831
 30
0.0
 11
1310.642265351275
 21
3016.9786786126838
 31
0.0
  0
LINE
  5
7A8E
  8
1
  6
CONTINUOUS
 10
1296.342265351275
 20
2967.1786786126841
 30
0.0
 11
1296.342265351275
 21
2982.1786786126831
 31
0.0
  0
LINE
  5
7A8F
  8
1
  6
CONTINUOUS
 10
1261.342265351275
 20
2967.1786786126841
 30
0.0
 11
1251.342265351275
 21
2922.1786786126841
 31
0.0
  0
LINE
  5
7A90
  8
1
  6
CONTINUOUS
 10
1251.342265351275
 20
2722.1786786126841
 30
0.0
 11
1251.342265351275
 21
2622.1786786126841
 31
0.0
  0
LINE
  5
7A91
  8
1
  6
CONTINUOUS
 10
1556.342265351275
 20
2967.1786786126841
 30
0.0
 11
1556.342265351275
 21
2982.1786786126831
 31
0.0
  0
LINE
  5
7A92
  8
1
  6
CONTINUOUS
 10
1556.342265351275
 20
2982.1786786126831
 30
0.0
 11
1542.042265351276
 21
3016.9786786126838
 31
0.0
  0
LINE
  5
7A93
  8
1
  6
CONTINUOUS
 10
1601.342265351275
 20
2922.1786786126841
 30
0.0
 11
1591.342265351275
 21
2967.1786786126841
 31
0.0
  0
CIRCLE
  5
7A94
  8
1
  6
CONTINUOUS
 10
2251.3422653512748
 20
3622.1786786126841
 30
0.0
 40
315.0
  0
ARC
  5
7A95
  8
1
  6
CONTINUOUS
 10
2251.3422653512748
 20
3622.1786786126841
 30
0.0
 40
190.0
 50
301.19999999999999
 51
123.5
  0
CIRCLE
  5
7A96
  8
1
  6
CONTINUOUS
 10
2251.3422653512748
 20
3622.1786786126841
 30
0.0
 40
90.0
  0
LINE
  5
7A97
  8
2
  6
CENTER
 10
1655.2037283512759
 20
3622.1786786126841
 30
0.0
 11
2881.0463813512761
 21
3622.1786786126841
 31
0.0
  0
LINE
  5
7A98
  8
2
  6
CENTER
 10
2251.3422653512748
 20
6248.4200494391662
 30
0.0
 11
2251.3422653512748
 21
5278.4572574391659
 31
0.0
  0
LINE
  5
7A99
  8
1
  6
CONTINUOUS
 10
2711.3422653512748
 20
3636.1786786126841
 30
0.0
 11
2711.3422653512748
 21
2902.1786786126841
 31
0.0
  0
LINE
  5
7A9A
  8
1
  6
CONTINUOUS
 10
2671.3422653512748
 20
3594.1786786126841
 30
0.0
 11
2671.3422653512748
 21
2944.1786786126841
 31
0.0
  0
LINE
  5
7A9B
  8
1
  6
CONTINUOUS
 10
2651.3422653512748
 20
2922.1786786126841
 30
0.0
 11
2651.3422653512748
 21
2822.1786786126841
 31
0.0
  0
LINE
  5
7A9C
  8
1
  6
CONTINUOUS
 10
2651.3422653512748
 20
2722.1786786126841
 30
0.0
 11
2651.3422653512748
 21
2622.1786786126841
 31
0.0
  0
LINE
  5
7A9D
  8
1
  6
CONTINUOUS
 10
2624.2422653512749
 20
3594.1786786126841
 30
0.0
 11
2711.3422653512748
 21
3594.1786786126841
 31
0.0
  0
ARC
  5
7A9E
  8
1
  6
CONTINUOUS
 10
2289.3422653512748
 20
3660.1786786126841
 30
0.0
 40
341.39999999999992
 50
348.89999999999992
 51
0.0
  0
LINE
  5
7A9F
  8
1
  6
CONTINUOUS
 10
4600.4282239566064
 20
4078.0786786126828
 30
0.0
 11
4600.4282239566064
 21
2922.1786786126841
 31
0.0
  0
LINE
  5
7AA0
  8
1
  6
CONTINUOUS
 10
4600.4282239566064
 20
3641.1786786126841
 30
0.0
 11
4477.9282239566046
 21
3641.1786786126841
 31
0.0
  0
LINE
  5
7AA1
  8
1
  6
CONTINUOUS
 10
4600.4282239566064
 20
3603.1786786126841
 30
0.0
 11
4477.9282239566046
 21
3603.1786786126841
 31
0.0
  0
LINE
  5
7AA2
  8
1
  6
CONTINUOUS
 10
4600.4282239566064
 20
3080.1786786126841
 30
0.0
 11
4477.9282239566046
 21
3080.1786786126841
 31
0.0
  0
LINE
  5
7AA3
  8
1
  6
CONTINUOUS
 10
4600.4282239566064
 20
3118.1786786126841
 30
0.0
 11
4477.9282239566046
 21
3118.1786786126841
 31
0.0
  0
LINE
  5
7AA4
  8
1
  6
CONTINUOUS
 10
4357.9282239566046
 20
3812.1786786126841
 30
0.0
 11
4357.9282239566046
 21
2929.1786786126841
 31
0.0
  0
LINE
  5
7AA5
  8
1
  6
CONTINUOUS
 10
4517.9282239566046
 20
3812.1786786126841
 30
0.0
 11
4517.9282239566046
 21
2929.1786786126841
 31
0.0
  0
LINE
  5
7AA6
  8
1
  6
CONTINUOUS
 10
4397.9282239566046
 20
3169.1786786126841
 30
0.0
 11
4397.9282239566046
 21
3029.1786786126841
 31
0.0
  0
LINE
  5
7AA7
  8
1
  6
CONTINUOUS
 10
4477.9282239566046
 20
3169.1786786126841
 30
0.0
 11
4477.9282239566046
 21
3029.1786786126841
 31
0.0
  0
LINE
  5
7AAB
  8
1
  6
CONTINUOUS
 10
4437.9282239566064
 20
2922.1786786126841
 30
0.0
 11
4437.9282239566064
 21
2822.1786786126841
 31
0.0
  0
LINE
  5
7AAC
  8
1
  6
CONTINUOUS
 10
4357.9282239566046
 20
2929.1786786126841
 30
0.0
 11
4517.9282239566046
 21
2929.1786786126841
 31
0.0
  0
LINE
  5
7AAD
  8
1
  6
CONTINUOUS
 10
4397.9282239566046
 20
3029.1786786126841
 30
0.0
 11
4477.9282239566046
 21
3029.1786786126841
 31
0.0
  0
POINT
  5
7AAE
  8
1
  6
CONTINUOUS
 10
4437.9282239566064
 20
2722.1786786126841
 30
0.0
  0
LINE
  5
7AAF
  8
1
  6
CONTINUOUS
 10
4437.9282239566064
 20
2722.1786786126841
 30
0.0
 11
4437.9282239566064
 21
2622.1786786126841
 31
0.0
  0
LINE
  5
7AB0
  8
1
  6
CONTINUOUS
 10
4357.9282239566046
 20
3812.1786786126841
 30
0.0
 11
4517.9282239566046
 21
3812.1786786126841
 31
0.0
  0
LINE
  5
7AB1
  8
1
  6
CONTINUOUS
 10
4397.9282239566046
 20
3712.1786786126841
 30
0.0
 11
4477.9282239566046
 21
3712.1786786126841
 31
0.0
  0
LINE
  5
7AB2
  8
1
  6
CONTINUOUS
 10
4397.9282239566046
 20
3532.1786786126841
 30
0.0
 11
4477.9282239566046
 21
3532.1786786126841
 31
0.0
  0
LINE
  5
7AB3
  8
1
  6
CONTINUOUS
 10
4397.9282239566046
 20
3169.1786786126841
 30
0.0
 11
4477.9282239566046
 21
3169.1786786126841
 31
0.0
  0
LINE
  5
7AB4
  8
1
  6
CONTINUOUS
 10
4397.9282239566046
 20
3712.1786786126841
 30
0.0
 11
4397.9282239566046
 21
3532.1786786126841
 31
0.0
  0
LINE
  5
7AB5
  8
1
  6
CONTINUOUS
 10
4477.9282239566046
 20
3712.1786786126841
 30
0.0
 11
4477.9282239566046
 21
3532.1786786126841
 31
0.0
  0
LINE
  5
7AB6
  8
1
  6
CONTINUOUS
 10
2651.3422653512748
 20
5453.8865384391647
 30
0.0
 11
2341.3422653512748
 21
5453.8865384391647
 31
0.0
  0
LINE
  5
7AB7
  8
1
  6
CONTINUOUS
 10
2651.3422653512748
 20
6143.8865384391675
 30
0.0
 11
2566.3422653512748
 21
6143.8865384391675
 31
0.0
  0
LINE
  5
7AB8
  8
1
  6
CONTINUOUS
 10
2711.3422653512748
 20
6091.3865384391656
 30
0.0
 11
1701.442265351275
 21
6091.3865384391656
 31
0.0
  0
LINE
  5
7AB9
  8
1
  6
CONTINUOUS
 10
2711.3422653512748
 20
5616.3865384391675
 30
0.0
 11
1701.442265351275
 21
5616.3865384391675
 31
0.0
  0
LINE
  5
7ABA
  8
1
  6
CONTINUOUS
 10
2606.3422653512748
 20
6173.8865384391656
 30
0.0
 11
1896.342265351275
 21
6173.8865384391656
 31
0.0
  0
LINE
  5
7ABB
  8
1
  6
CONTINUOUS
 10
2161.3422653512748
 20
5453.8865384391647
 30
0.0
 11
1496.342265351275
 21
5453.8865384391647
 31
0.0
  0
LINE
  5
7ABC
  8
1
  6
CONTINUOUS
 10
1936.342265351275
 20
6143.8865384391675
 30
0.0
 11
1251.342265351275
 21
6143.8865384391675
 31
0.0
  0
LINE
  5
7ABD
  8
1
  6
CONTINUOUS
 10
2441.3422653512748
 20
5373.8865384391647
 30
0.0
 11
1226.342265351275
 21
5373.8865384391647
 31
0.0
  0
LINE
  5
7ABE
  8
1
  6
CONTINUOUS
 10
2441.3422653512748
 20
5533.8865384391656
 30
0.0
 11
1226.342265351275
 21
5533.8865384391656
 31
0.0
  0
LINE
  5
7ABF
  8
1
  6
CONTINUOUS
 10
1568.342265351275
 20
5586.486538439166
 30
0.0
 11
1568.342265351275
 21
5986.486538439166
 31
0.0
  0
LINE
  5
7AC0
  8
1
  6
CONTINUOUS
 10
1284.342265351275
 20
5586.486538439166
 30
0.0
 11
1284.342265351275
 21
5986.486538439166
 31
0.0
  0
LINE
  5
7AC1
  8
1
  6
CONTINUOUS
 10
1251.342265351275
 20
6143.8865384391675
 30
0.0
 11
1251.342265351275
 21
5453.8865384391647
 31
0.0
  0
LINE
  5
7AC2
  8
1
  6
CONTINUOUS
 10
1284.342265351275
 20
5586.486538439166
 30
0.0
 11
1568.342265351275
 21
5586.486538439166
 31
0.0
  0
LINE
  5
7AC3
  8
1
  6
CONTINUOUS
 10
1356.342265351275
 20
5493.8865384391647
 30
0.0
 11
1496.342265351275
 21
5493.8865384391647
 31
0.0
  0
LINE
  5
7AC4
  8
1
  6
CONTINUOUS
 10
1356.342265351275
 20
5413.8865384391647
 30
0.0
 11
1496.342265351275
 21
5413.8865384391647
 31
0.0
  0
LINE
  5
7AC5
  8
1
  6
CONTINUOUS
 10
1356.342265351275
 20
5453.8865384391647
 30
0.0
 11
1251.342265351275
 21
5453.8865384391647
 31
0.0
  0
LINE
  5
7AC6
  8
1
  6
CONTINUOUS
 10
1407.342265351275
 20
5493.8865384391647
 30
0.0
 11
1407.342265351275
 21
5586.486538439166
 31
0.0
  0
LINE
  5
7AC7
  8
1
  6
CONTINUOUS
 10
1226.342265351275
 20
5373.8865384391647
 30
0.0
 11
1226.342265351275
 21
5533.8865384391656
 31
0.0
  0
LINE
  5
7AC8
  8
1
  6
CONTINUOUS
 10
1356.342265351275
 20
5413.8865384391647
 30
0.0
 11
1356.342265351275
 21
5493.8865384391647
 31
0.0
  0
LINE
  5
7AC9
  8
1
  6
CONTINUOUS
 10
1445.342265351275
 20
5493.8865384391647
 30
0.0
 11
1445.342265351275
 21
5586.486538439166
 31
0.0
  0
LINE
  5
7ACA
  8
1
  6
CONTINUOUS
 10
1496.342265351275
 20
5413.8865384391647
 30
0.0
 11
1496.342265351275
 21
5493.8865384391647
 31
0.0
  0
LINE
  5
7ACB
  8
1
  6
CONTINUOUS
 10
1284.342265351275
 20
5986.486538439166
 30
0.0
 11
1568.342265351275
 21
5986.486538439166
 31
0.0
  0
LINE
  5
7ACC
  8
1
  6
CONTINUOUS
 10
1701.442265351275
 20
5616.3865384391675
 30
0.0
 11
1701.442265351275
 21
6091.3865384391656
 31
0.0
  0
LINE
  5
7ACD
  8
1
  6
CONTINUOUS
 10
1936.342265351275
 20
6173.8865384391656
 30
0.0
 11
1936.342265351275
 21
6091.3865384391656
 31
0.0
  0
LINE
  5
7ACE
  8
1
  6
CONTINUOUS
 10
2161.3422653512748
 20
5413.8865384391647
 30
0.0
 11
2341.3422653512748
 21
5413.8865384391647
 31
0.0
  0
LINE
  5
7ACF
  8
1
  6
CONTINUOUS
 10
2161.3422653512748
 20
5493.8865384391647
 30
0.0
 11
2341.3422653512748
 21
5493.8865384391647
 31
0.0
  0
LINE
  5
7AD0
  8
1
  6
CONTINUOUS
 10
2161.3422653512748
 20
5413.8865384391647
 30
0.0
 11
2161.3422653512748
 21
5493.8865384391647
 31
0.0
  0
LINE
  5
7AD1
  8
1
  6
CONTINUOUS
 10
2270.3422653512748
 20
5493.8865384391647
 30
0.0
 11
2270.3422653512748
 21
5616.3865384391675
 31
0.0
  0
LINE
  5
7AD2
  8
1
  6
CONTINUOUS
 10
2232.3422653512748
 20
5493.8865384391647
 30
0.0
 11
2232.3422653512748
 21
5616.3865384391675
 31
0.0
  0
LINE
  5
7AD3
  8
1
  6
CONTINUOUS
 10
2441.3422653512748
 20
5373.8865384391647
 30
0.0
 11
2441.3422653512748
 21
5533.8865384391656
 31
0.0
  0
LINE
  5
7AD4
  8
1
  6
CONTINUOUS
 10
2341.3422653512748
 20
5413.8865384391647
 30
0.0
 11
2341.3422653512748
 21
5493.8865384391647
 31
0.0
  0
LINE
  5
7AD5
  8
1
  6
CONTINUOUS
 10
2566.3422653512748
 20
6173.8865384391656
 30
0.0
 11
2566.3422653512748
 21
6091.3865384391656
 31
0.0
  0
LINE
  5
7AD6
  8
1
  6
CONTINUOUS
 10
2671.3422653512748
 20
5616.3865384391675
 30
0.0
 11
2671.3422653512748
 21
6091.3865384391656
 31
0.0
  0
LINE
  5
7AD7
  8
1
  6
CONTINUOUS
 10
2711.3422653512748
 20
5576.3865384391656
 30
0.0
 11
2711.3422653512748
 21
6131.3865384391675
 31
0.0
  0
LINE
  5
7AD8
  8
1
  6
CONTINUOUS
 10
2651.3422653512748
 20
5616.3865384391675
 30
0.0
 11
2651.3422653512748
 21
5453.8865384391647
 31
0.0
  0
LINE
  5
7AD9
  8
1
  6
CONTINUOUS
 10
2651.3422653512748
 20
6143.8865384391675
 30
0.0
 11
2651.3422653512748
 21
6091.3865384391656
 31
0.0
  0
LINE
  5
7ADA
  8
1
  6
CONTINUOUS
 10
5075.4282239566064
 20
4078.0786786126828
 30
0.0
 11
5075.4282239566064
 21
2922.1786786126841
 31
0.0
  0
LINE
  5
7ADB
  8
1
  6
CONTINUOUS
 10
5157.9282239566064
 20
3977.1786786126841
 30
0.0
 11
5157.9282239566064
 21
3267.1786786126841
 31
0.0
  0
LINE
  5
7ADC
  8
1
  6
CONTINUOUS
 10
5127.9282239566046
 20
2922.1786786126841
 30
0.0
 11
5127.9282239566046
 21
2822.1786786126841
 31
0.0
  0
LINE
  5
7ADD
  8
1
  6
CONTINUOUS
 10
5127.9282239566046
 20
2722.1786786126841
 30
0.0
 11
5127.9282239566046
 21
2622.1786786126841
 31
0.0
  0
LINE
  5
7ADE
  8
1
  6
CONTINUOUS
 10
5075.4282239566064
 20
3307.1786786126841
 30
0.0
 11
5157.9282239566064
 21
3307.1786786126841
 31
0.0
  0
LINE
  5
7ADF
  8
1
  6
CONTINUOUS
 10
5075.4282239566064
 20
3937.1786786126841
 30
0.0
 11
5157.9282239566064
 21
3937.1786786126841
 31
0.0
  0
DIMENSION
  5
7AF3
  8
3
  6
CONTINUOUS
  2
*D1
 10
2251.3422653512748
 20
2429.602906612683
 30
0.0
 11
1769.5124063512751
 21
2429.602906612683
 31
0.0
 70
   128
 13
1251.342265351275
 23
2622.1786786126841
 33
0.0
 14
2251.3422653512748
 24
2584.4468816126841
 34
0.0
1001
ACAD
1000
DSTYLE
1002
{
1070
   287
1070
     3
1070
   287
1070
     3
1070
    40
1040
30.0
1070
   143
1040
0.039
1070
   172
1070
     1
1070
   271
1070
     0
1070
   279
1070
     0
1070
   288
1070
     1
1002
}
  0
DIMENSION
  5
7B01
  8
3
  6
CONTINUOUS
  2
*D2
 10
2651.3422653512748
 20
2424.9626316126828
 30
0.0
 11
2465.284305936314
 21
2492.7364270606081
 31
0.0
 70
   128
 13
2251.3422653512748
 23
2584.4468816126841
 33
0.0
 14
2651.3422653512748
 24
2622.1786786126841
 34
0.0
1001
ACAD
1000
DSTYLE
1002
{
1070
   288
1070
     1
1070
   172
1070
     1
1070
    40
1040
30.0
1070
   271
1070
     0
1070
   143
1040
0.039
1002
}
  0
DIMENSION
  5
7B31
  8
3
  6
CONTINUOUS
  2
*D3
 10
2953.5980393512768
 20
2944.1786786126841
 30
0.0
 11
2953.5980393512759
 21
3297.3347036126829
 31
0.0
 70
   128
 13
2711.3422653512748
 23
3594.1786786126841
 33
0.0
 14
2711.3422653512748
 24
2944.1786786126841
 34
0.0
 50
90.0
1001
ACAD
1000
DSTYLE
1002
{
1070
   287
1070
     3
1070
   287
1070
     3
1070
    40
1040
30.0
1070
   143
1040
0.039
1070
   172
1070
     1
1070
   271
1070
     0
1070
   279
1070
     0
1070
   288
1070
     1
1002
}
  0
DIMENSION
  5
7B3E
  8
3
  6
CONTINUOUS
  2
*D4
 10
3190.4151553512761
 20
2944.1786786126831
 30
0.0
 11
3190.4151553512761
 21
3297.3347036126829
 31
0.0
 70
   128
 13
2628.6208533512759
 23
3622.1786786126841
 33
0.0
 14
2711.3422653512748
 24
2944.1786786126841
 34
0.0
 50
90.0
1001
ACAD
1000
DSTYLE
1002
{
1070
   287
1070
     3
1070
   287
1070
     3
1070
    40
1040
30.0
1070
   143
1040
0.039
1070
   172
1070
     1
1070
   271
1070
     0
1070
   279
1070
     0
1070
   288
1070
     1
1002
}
  0
DIMENSION
  5
7B4D
  8
3
  6
CONTINUOUS
  2
*D5
 10
3399.3714393512769
 20
3622.1786786126831
 30
0.0
 11
3399.3714393512769
 21
3830.0358214698272
 31
0.0
 70
   128
 13
2251.3422653512748
 23
4075.8775996126842
 33
0.0
 14
2628.6208533512759
 24
3622.1786786126841
 34
0.0
 50
90.0
1001
ACAD
1000
DSTYLE
1002
{
1070
   287
1070
     3
1070
   287
1070
     3
1070
    40
1040
30.0
1070
   143
1040
0.039
1070
   172
1070
     1
1070
   271
1070
     0
1070
   279
1070
     0
1070
   288
1070
     1
1002
}
  0
DIMENSION
  5
7B59
  8
3
  2
*D6
 10
3399.3714393512769
 20
2822.1786786126831
 30
0.0
 11
3324.371439351276
 21
3222.178678612685
 31
0.0
 70
     0
 13
2628.6208533512759
 23
3622.1786786126841
 33
0.0
 14
2651.3422653512748
 24
2822.1786786126841
 34
0.0
 50
90.0
1001
ACAD
1000
DSTYLE
1002
{
1070
   287
1070
     3
1070
   287
1070
     3
1070
    40
1040
30.0
1070
   143
1040
0.039
1070
   172
1070
     1
1070
   271
1070
     0
1070
   279
1070
     0
1070
   288
1070
     1
1002
}
  0
DIMENSION
  5
7B90
  8
3
  6
CONTINUOUS
  2
*D7
 10
3664.049426351276
 20
2622.1786786126841
 30
0.0
 11
3664.0494263512751
 21
3422.6221886126832
 31
0.0
 70
   128
 13
2251.3422653512748
 23
4075.8775996126842
 33
0.0
 14
2651.3422653512748
 24
2622.1786786126841
 34
0.0
 50
90.0
1001
ACAD
1000
DSTYLE
1002
{
1070
   287
1070
     3
1070
   287
1070
     3
1070
    40
1040
30.0
1070
   143
1040
0.039
1070
   172
1070
     1
1070
   271
1070
     0
1070
   279
1070
     0
1070
   288
1070
     1
1002
}
  0
DIMENSION
  5
7B9D
  8
3
  6
CONTINUOUS
  2
*D8
 10
2251.3422653512748
 20
4184.5505356126841
 30
0.0
 11
2011.342265351275
 21
4184.5505356126841
 31
0.0
 70
   128
 13
1703.6433443512749
 23
3622.1786786126841
 33
0.0
 14
2251.3422653512748
 24
4075.8775996126842
 34
0.0
1001
ACAD
1000
DSTYLE
1002
{
1070
   287
1070
     3
1070
   287
1070
     3
1070
    40
1040
30.0
1070
   143
1040
0.039
1070
   172
1070
     1
1070
   271
1070
     0
1070
   279
1070
     0
1070
   288
1070
     1
1002
}
  0
DIMENSION
  5
7BAB
  8
3
  6
CONTINUOUS
  2
*D9
 10
2711.3422653512748
 20
4184.5505356126841
 30
0.0
 11
2457.0565510655611
 21
4184.5505356126841
 31
0.0
 70
   128
 13
2251.3422653512748
 23
4075.8775996126842
 33
0.0
 14
2711.3422653512748
 24
3636.1786786126841
 34
0.0
1001
ACAD
1000
DSTYLE
1002
{
1070
   287
1070
     3
1070
   287
1070
     3
1070
    40
1040
30.0
1070
   143
1040
0.039
1070
   172
1070
     1
1070
   271
1070
     0
1070
   279
1070
     0
1070
   288
1070
     1
1002
}
  0
DIMENSION
  5
7BCE
  8
3
  6
CONTINUOUS
  2
*D10
 10
2651.3422653512748
 20
5103.049629439166
 30
0.0
 11
1862.3818633512749
 21
5103.049629439166
 31
0.0
 70
   128
 13
1251.342265351275
 23
5453.8865384391647
 33
0.0
 14
2651.3422653512748
 24
5453.8865384391647
 34
0.0
1001
ACAD
1000
DSTYLE
1002
{
1070
   287
1070
     3
1070
   287
1070
     3
1070
    40
1040
30.0
1070
   143
1040
0.039
1070
   172
1070
     1
1070
   271
1070
     0
1070
   279
1070
     0
1070
   288
1070
     1
1002
}
  0
DIMENSION
  5
7BDB
  8
3
  6
CONTINUOUS
  2
*D11
 10
3013.963177351276
 20
5453.8865384391647
 30
0.0
 11
3013.9631773512751
 21
5808.3717374391654
 31
0.0
 70
   128
 13
2651.3422653512748
 23
6143.8865384391675
 33
0.0
 14
2651.3422653512748
 24
5453.8865384391647
 34
0.0
 50
90.0
1001
ACAD
1000
DSTYLE
1002
{
1070
   287
1070
     3
1070
   287
1070
     3
1070
    40
1040
30.0
1070
   143
1040
0.039
1070
   172
1070
     1
1070
   271
1070
     0
1070
   279
1070
     0
1070
   288
1070
     1
1002
}
  0
LINE
  5
7BDC
  8
2
  6
CENTER
 10
1529.633759351276
 20
5853.8865384391675
 30
0.0
 11
2775.3249073512761
 21
5853.8865384391675
 31
0.0
  0
LINE
  5
7BDD
  8
2
  6
CENTER
 10
2251.3422653512748
 20
4122.3725276126834
 30
0.0
 11
2251.3422653512748
 21
2584.4468816126841
 31
0.0
  0
LINE
  5
7BDE
  8
2
  6
CENTER
 10
4837.9282239566046
 20
4259.9927476126841
 30
0.0
 11
4837.9282239566046
 21
2597.1314786126841
 31
0.0
  0
DIMENSION
  5
7BED
  8
3
  6
CONTINUOUS
  2
*D12
 10
4837.9282239566046
 20
2432.001736785558
 30
0.0
 11
4653.3504506354584
 21
2505.596782589902
 31
0.0
 70
   128
 13
4437.9282239566064
 23
2622.1786786126841
 33
0.0
 14
4837.9282239566046
 24
2597.1314786126841
 34
0.0
1001
ACAD
1000
DSTYLE
1002
{
1070
   288
1070
     1
1070
   172
1070
     1
1070
    40
1040
30.0
1070
   271
1070
     0
1070
   143
1040
0.039
1002
}
  0
DIMENSION
  5
7BFB
  8
3
  6
CONTINUOUS
  2
*D13
 10
5127.9282239566046
 20
2432.001736785558
 30
0.0
 11
4994.4313484203158
 21
2518.4571381191959
 31
0.0
 70
   128
 13
4837.9282239566046
 23
2597.1314786126841
 33
0.0
 14
5127.9282239566046
 24
2622.1786786126841
 34
0.0
1001
ACAD
1000
DSTYLE
1002
{
1070
   288
1070
     1
1070
   172
1070
     1
1070
    40
1040
30.0
1070
   271
1070
     0
1070
   143
1040
0.039
1002
}
  0
DIMENSION
  5
7C20
  8
3
  6
CONTINUOUS
  2
*D14
 10
5075.4282239566064
 20
4235.1493106126827
 30
0.0
 11
4837.9282239566046
 21
4235.1493106126827
 31
0.0
 70
   128
 13
4600.4282239566064
 23
4078.0786786126828
 33
0.0
 14
5075.4282239566064
 24
4078.0786786126828
 34
0.0
1001
ACAD
1000
DSTYLE
1002
{
1070
   287
1070
     3
1070
   287
1070
     3
1070
    40
1040
30.0
1070
   143
1040
0.039
1070
   172
1070
     1
1070
   271
1070
     0
1070
   279
1070
     0
1070
   288
1070
     1
1002
}
  0
DIMENSION
  5
7C2D
  8
3
  6
CONTINUOUS
  2
*D15
 10
4837.9282239566046
 20
4455.6221048439011
 30
0.0
 11
4576.4996525280339
 21
4455.6221048439011
 31
0.0
 70
   128
  1
MAX\P550
 13
4357.9282239566046
 23
3812.1786786126841
 33
0.0
 14
4837.9282239566046
 24
4377.0406568802682
 34
0.0
1001
ACAD
1000
DSTYLE
1002
{
1070
   287
1070
     3
1070
   287
1070
     3
1070
    40
1040
30.0
1070
   143
1040
0.039
1070
   172
1070
     1
1070
   271
1070
     0
1070
   279
1070
     0
1070
   288
1070
     1
1002
}
  0
DIMENSION
  5
7C3C
  8
3
  6
CONTINUOUS
  2
*D16
 10
5157.9282239566064
 20
4455.6221048439011
 30
0.0
 11
4994.4313484203158
 21
4532.690098175105
 31
0.0
 70
   128
 13
4837.9282239566046
 23
4382.1345973417301
 33
0.0
 14
5157.9282239566064
 24
3977.1786786126841
 34
0.0
1001
ACAD
1000
DSTYLE
1002
{
1070
   288
1070
     1
1070
   172
1070
     1
1070
    40
1040
30.0
1070
   271
1070
     0
1070
   143
1040
0.039
1002
}
  0
DIMENSION
  5
7C5F
  8
3
  6
CONTINUOUS
  2
*D17
 10
5428.1577629566063
 20
3307.1786786126841
 30
0.0
 11
5428.1577629566063
 21
3632.3747546126829
 31
0.0
 70
   128
 13
5157.9282239566064
 23
3937.1786786126841
 33
0.0
 14
5157.9282239566064
 24
3307.1786786126841
 34
0.0
 50
90.0
1001
ACAD
1000
DSTYLE
1002
{
1070
   287
1070
     3
1070
   287
1070
     3
1070
     3
1000
φ<>
1070
    40
1040
30.0
1070
   143
1040
0.039
1070
   172
1070
     1
1070
   271
1070
     0
1070
   279
1070
     0
1070
   288
1070
     1
1002
}
  0
LINE
  5
7C60
  8
2
  6
CENTER
 10
4193.3678429566053
 20
3622.1786786126841
 30
0.0
 11
5217.5838649566058
 21
3622.1786786126841
 31
0.0
  0
LINE
  5
7C61
  8
4
  6
CONTINUOUS
 10
5550.0
 20
1500.0
 30
0.0
 11
5550.0
 21
900.0
 31
0.0
  0
LINE
  5
7C62
  8
4
  6
CONTINUOUS
 10
3450.0
 20
1500.0
 30
0.0
 11
3450.0
 21
900.0
 31
0.0
  0
LINE
  5
7C63
  8
4
  6
CONTINUOUS
 10
1950.0
 20
1500.0
 30
0.0
 11
1950.0
 21
900.0
 31
0.0
  0
LINE
  5
7C66
  8
4
  6
CONTINUOUS
 10
1950.0
 20
900.0
 30
0.0
 11
5550.0
 21
900.0
 31
0.0
  0
LINE
  5
7C67
  8
4
  6
CONTINUOUS
 10
1950.0
 20
1200.0
 30
0.0
 11
5550.0
 21
1200.0
 31
0.0
  0
TEXT
  5
7C68
  8
4
  6
CONTINUOUS
 10
2065.50624225
 20
1294.6290779999999
 30
0.0
 40
150.0
  1
機器名称
  0
TEXT
  5
7C69
  8
4
  6
CONTINUOUS
 10
2058.7743179999989
 20
964.93547024999998
 30
0.0
 40
150.0
  1
機器型番
  0
TEXT
  5
7C6A
  8
4
  6
CONTINUOUS
 10
3533.0362365000001
 20
1267.715306249999
 30
0.0
 40
120.0
  1
ミツヤリミットロードファン
  0
TEXT
  5
7C6B
  8
4
  6
CONTINUOUS
 10
3559.9634872500001
 20
951.4787527499999
 30
0.0
 40
150.0
  1
LLE#4-4
  0
TEXT
  5
7C6D
  8
4
  6
CONTINUOUS
 10
2453.8838985000002
 20
7150.2865245000012
 30
0.0
 40
162.0
  1
床置防振ベット
  0
TEXT
  5
7C6E
  8
4
  6
CONTINUOUS
 10
948.50278049999986
 20
7601.6429287499996
 30
0.0
 40
171.42857175
  1
ベルト駆動式片吸込両持排煙ファン
  0
LINE
  5
7C6F
  8
4
  6
CONTINUOUS
 10
750.0
 20
7408.2262627500004
 30
0.0
 11
5550.0
 21
7408.2262627500004
 31
0.0
  0
LINE
  5
7C70
  8
4
  6
CONTINUOUS
 10
750.0
 20
8008.2262627500004
 30
0.0
 11
5550.0
 21
8008.2262627500004
 31
0.0
  0
LINE
  5
7C71
  8
4
  6
CONTINUOUS
 10
1950.0
 20
1500.0
 30
0.0
 11
5550.0
 21
1500.0
 31
0.0
  0
LINE
  5
7C72
  8
4
  6
CONTINUOUS
 10
750.0
 20
8008.2262627500004
 30
0.0
 11
750.0
 21
7408.2262627500004
 31
0.0
  0
TEXT
  5
7C73
  8
4
  6
CONTINUOUS
 10
1146.3074017499989
 20
7146.9584324999987
 30
0.0
 40
162.0
  1
左回転右横向
  0
TEXT
  5
7C74
  8
4
  6
CONTINUOUS
 10
4406.9086777499988
 20
8118.1832445
 30
0.0
 40
168.0
  1
No.
  0
TEXT
  5
7C75
  8
4
  6
CONTINUOUS
 10
3933.8881875000002
 20
7150.2865245000012
 30
0.0
 40
162.0
  1
縮尺：1/30
  0
LINE
  5
7C76
  8
4
  6
CONTINUOUS
 10
5550.0
 20
8008.2262627500004
 30
0.0
 11
5550.0
 21
7408.2262627500004
 31
0.0
  0
LINE
  5
7C78
  8
4
  6
CONTINUOUS
 10
4321.8522667500001
 20
8043.79074975
 30
0.0
 11
4321.8522667500001
 21
8359.9567845000001
 31
0.0
  0
LINE
  5
7C79
  8
4
  6
CONTINUOUS
 10
4321.8522667500001
 20
8359.9567845000001
 30
0.0
 11
5550.0
 21
8359.9567845000001
 31
0.0
  0
LINE
  5
7C7A
  8
4
  6
CONTINUOUS
 10
5550.0
 20
8359.9567845000001
 30
0.0
 11
5550.0
 21
8043.79074975
 31
0.0
  0
LINE
  5
7C7B
  8
4
  6
CONTINUOUS
 10
5550.0
 20
8043.79074975
 30
0.0
 11
4321.8522667500001
 21
8043.79074975
 31
0.0
  0
LINE
  5
7C9C
  8
1
  6
CONTINUOUS
 10
2651.3422653512748
 20
2722.1786786126841
 30
0.0
 11
1251.342265351275
 21
2722.1786786126841
 31
0.0
  0
DIMENSION
  5
7CE8
  8
3
  2
*D18
 10
3399.3714393512769
 20
2622.1786786126841
 30
0.0
 11
3324.371439351276
 21
2365.0358214698272
 31
0.0
 70
     0
 13
2651.3422653512748
 23
2722.1786786126841
 33
0.0
 14
2651.3422653512748
 24
2622.1786786126841
 34
0.0
 50
90.0
1001
ACAD
1000
DSTYLE
1002
{
1070
   287
1070
     3
1070
   287
1070
     3
1070
    40
1040
30.0
1070
   143
1040
0.039
1070
   172
1070
     1
1070
   271
1070
     0
1070
   279
1070
     0
1070
   288
1070
     1
1070
     6
1000
DOT
1002
}
  0
LINE
  5
7D19
  8
3
 10
2668.8422653512748
 20
2722.1786786126841
 30
0.0
 11
3434.371439351276
 21
2722.1786786126841
 31
0.0
  0
POINT
  5
7D22
  8
DEFPOINTS
  6
BYBLOCK
 62
     0
 10
2651.3422653512748
 20
2822.1786786126841
 30
0.0
  0
POINT
  5
7D23
  8
DEFPOINTS
  6
BYBLOCK
 62
     0
 10
2651.3422653512748
 20
2722.1786786126841
 30
0.0
  0
LINE
  5
7D25
  8
1
  6
CONTINUOUS
 10
5127.9282239566046
 20
2722.1786786126841
 30
0.0
 11
4437.9282239566064
 21
2722.1786786126841
 31
0.0
  0
DIMENSION
  5
7F04
  8
3
  2
*D20
 10
3399.3714393512769
 20
2722.1786786126841
 30
0.0
 11
3519.371439351276
 21
2772.1786786126841
 31
0.0
 70
     0
 13
2651.3422653512748
 23
2822.1786786126841
 33
0.0
 14
2651.3422653512748
 24
2722.1786786126841
 34
0.0
 50
90.0
1001
ACAD
1000
DSTYLE
1002
{
1070
   288
1070
     1
1070
   172
1070
     1
1070
    75
1070
     1
1070
    40
1040
30.0
1070
   271
1070
     0
1070
     7
1000
_DOT
1070
   143
1040
0.039
1002
}
  0
DIMENSION
  5
7F47
  8
3
  2
*D21
 10
1251.342265351275
 20
4376.7785914957149
 30
0.0
 11
1911.8322694167689
 21
4376.7785914957149
 31
0.0
 70
   128
 13
2711.3422653512748
 23
3651.1786786126841
 33
0.0
 14
1251.342265351275
 24
2922.1786786126841
 34
0.0
1001
ACAD
1000
DSTYLE
1002
{
1070
   287
1070
     3
1070
   287
1070
     3
1070
    40
1040
30.0
1070
   143
1040
0.039
1070
   172
1070
     1
1070
   271
1070
     0
1070
   279
1070
     0
1070
   288
1070
     1
1002
}
  0
ENDSEC
  0
EOF
