  0
SECTION
  2
HEADER
  9
$ACADVER
  1
AC1009
  9
$INSBASE
 10
0.0
 20
0.0
 30
0.0
  9
$EXTMIN
 10
750.0
 20
900.0
 30
0.0
  9
$EXTMAX
 10
5550.0
 20
8359.9567845000001
 30
0.0
  9
$LIMMIN
 10
0.0
 20
0.0
  9
$LIMMAX
 10
297.0
 20
210.0
  9
$ORTHOMODE
 70
     0
  9
$REGENMODE
 70
     1
  9
$FILLMODE
 70
     0
  9
$QTEXTMODE
 70
     0
  9
$MIRRTEXT
 70
     1
  9
$DRAGMODE
 70
     2
  9
$LTSCALE
 40
100.0
  9
$OSMODE
 70
    37
  9
$ATTMODE
 70
     1
  9
$TEXTSIZE
 40
180.0
  9
$TRACEWID
 40
0.05
  9
$TEXTSTYLE
  7
STANDARD
  9
$CLAYER
  8
3
  9
$CELTYPE
  6
BYLAYER
  9
$CECOLOR
 62
   256
  9
$DIMSCALE
 40
30.0
  9
$DIMASZ
 40
2.0
  9
$DIMEXO
 40
0.5
  9
$DIMDLI
 40
10.0
  9
$DIMRND
 40
0.0
  9
$DIMDLE
 40
0.0
  9
$DIMEXE
 40
1.0
  9
$DIMTP
 40
1.0
  9
$DIMTM
 40
1.0
  9
$DIMTXT
 40
3.0
  9
$DIMCEN
 40
0.0
  9
$DIMTSZ
 40
0.0
  9
$DIMTOL
 70
     0
  9
$DIMLIM
 70
     0
  9
$DIMTIH
 70
     0
  9
$DIMTOH
 70
     0
  9
$DIMSE1
 70
     0
  9
$DIMSE2
 70
     0
  9
$DIMTAD
 70
     1
  9
$DIMZIN
 70
     8
  9
$DIMBLK
  1

  9
$DIMASO
 70
     1
  9
$DIMSHO
 70
     1
  9
$DIMPOST
  1

  9
$DIMAPOST
  1

  9
$DIMALT
 70
     0
  9
$DIMALTD
 70
     2
  9
$DIMALTF
 40
0.039
  9
$DIMLFAC
 40
1.0
  9
$DIMTOFL
 70
     1
  9
$DIMTVP
 40
0.0
  9
$DIMTIX
 70
     0
  9
$DIMSOXD
 70
     0
  9
$DIMSAH
 70
     1
  9
$DIMBLK1
  1
OPEN
  9
$DIMBLK2
  1
OPEN
  9
$DIMSTYLE
  2
IGA
  9
$DIMCLRD
 70
     0
  9
$DIMCLRE
 70
     0
  9
$DIMCLRT
 70
     0
  9
$DIMTFAC
 40
10.0
  9
$DIMGAP
 40
1.0
  9
$LUNITS
 70
     2
  9
$LUPREC
 70
     3
  9
$SKETCHINC
 40
0.1
  9
$FILLETRAD
 40
50.0
  9
$AUNITS
 70
     0
  9
$AUPREC
 70
     0
  9
$MENU
  1
acad
  9
$ELEVATION
 40
0.0
  9
$PELEVATION
 40
0.0
  9
$THICKNESS
 40
0.0
  9
$LIMCHECK
 70
     0
  9
$BLIPMODE
 70
     0
  9
$CHAMFERA
 40
0.5
  9
$CHAMFERB
 40
0.5
  9
$SKPOLY
 70
     0
  9
$TDCREATE
 40
2450757.3912270828
  9
$TDUPDATE
 40
2454953.6836036919
  9
$TDINDWG
 40
0.0077434375
  9
$TDUSRTIMER
 40
0.0077434375
  9
$USRTIMER
 70
     1
  9
$ANGBASE
 50
0.0
  9
$ANGDIR
 70
     0
  9
$PDMODE
 70
     0
  9
$PDSIZE
 40
0.0
  9
$PLINEWID
 40
0.0
  9
$COORDS
 70
     1
  9
$SPLFRAME
 70
     0
  9
$SPLINETYPE
 70
     6
  9
$SPLINESEGS
 70
     8
  9
$ATTDIA
 70
     0
  9
$ATTREQ
 70
     1
  9
$HANDLING
 70
 10241
  9
$HANDSEED
  5
809A
  9
$SURFTAB1
 70
     6
  9
$SURFTAB2
 70
     6
  9
$SURFTYPE
 70
     6
  9
$SURFU
 70
     6
  9
$SURFV
 70
     6
  9
$UCSNAME
  2

  9
$UCSORG
 10
0.0
 20
0.0
 30
0.0
  9
$UCSXDIR
 10
1.0
 20
0.0
 30
0.0
  9
$UCSYDIR
 10
0.0
 20
1.0
 30
0.0
  9
$PUCSNAME
  2

  9
$PUCSORG
 10
0.0
 20
0.0
 30
0.0
  9
$PUCSXDIR
 10
1.0
 20
0.0
 30
0.0
  9
$PUCSYDIR
 10
0.0
 20
1.0
 30
0.0
  9
$USERI1
 70
     0
  9
$USERI2
 70
     0
  9
$USERI3
 70
     0
  9
$USERI4
 70
     0
  9
$USERI5
 70
     0
  9
$USERR1
 40
0.0
  9
$USERR2
 40
0.0
  9
$USERR3
 40
0.0
  9
$USERR4
 40
0.0
  9
$USERR5
 40
0.0
  9
$WORLDVIEW
 70
     1
  9
$SHADEDGE
 70
     3
  9
$SHADEDIF
 70
    70
  9
$TILEMODE
 70
     1
  9
$MAXACTVP
 70
    16
  9
$PLIMCHECK
 70
     0
  9
$PEXTMIN
 10
1.0000000000000000E+020
 20
1.0000000000000000E+020
 30
1.0000000000000000E+020
  9
$PEXTMAX
 10
-1.0000000000000000E+020
 20
-1.0000000000000000E+020
 30
-1.0000000000000000E+020
  9
$PLIMMIN
 10
0.0
 20
0.0
  9
$PLIMMAX
 10
12.0
 20
9.0
  9
$UNITMODE
 70
     0
  9
$VISRETAIN
 70
     0
  9
$PLINEGEN
 70
     0
  9
$PSLTSCALE
 70
     1
  0
ENDSEC
  0
SECTION
  2
TABLES
  0
TABLE
  2
VPORT
 70
     2
  0
VPORT
  2
*ACTIVE
 70
     0
 10
0.0
 20
0.0
 11
1.0
 21
1.0
 12
15397.518885929479
 22
3736.8637461497301
 13
0.0
 23
0.0
 14
10.0
 24
10.0
 15
10.0
 25
10.0
 16
0.0
 26
0.0
 36
1.0
 17
0.0
 27
0.0
 37
0.0
 40
13375.29240669317
 41
3.1666666666666661
 42
50.0
 43
0.0
 44
0.0
 50
0.0
 51
0.0
 71
     0
 72
   100
 73
     1
 74
     0
 75
     0
 76
     0
 77
     0
 78
     0
  0
ENDTAB
  0
TABLE
  2
LTYPE
 70
     2
  0
LTYPE
  2
CONTINUOUS
 70
     0
  3
Solid line
 72
    65
 73
     0
 40
0.0
  0
LTYPE
  2
CENTER
 70
     0
  3
____ _ ____ _ ____ _ ____ _ ____ _ ____ _ ____ 
 72
    65
 73
     4
 40
2.0
 49
1.25
 49
-0.25
 49
0.25
 49
-0.25
  0
ENDTAB
  0
TABLE
  2
LAYER
 70
     6
  0
LAYER
  2
0
 70
     0
 62
     7
  6
CONTINUOUS
  0
LAYER
  2
3
 70
     0
 62
     2
  6
CONTINUOUS
  0
LAYER
  2
2
 70
     0
 62
     3
  6
CENTER
  0
LAYER
  2
1
 70
     0
 62
     4
  6
CONTINUOUS
  0
LAYER
  2
4
 70
     0
 62
     7
  6
CONTINUOUS
  0
LAYER
  2
DEFPOINTS
 70
     0
 62
     7
  6
CONTINUOUS
  0
ENDTAB
  0
TABLE
  2
STYLE
 70
     1
  0
STYLE
  2
STANDARD
 70
     0
 40
0.0
 41
1.0
 50
0.0
 71
     0
 42
180.0
  3
simplex.shx
  4
extfont.shx
  0
ENDTAB
  0
TABLE
  2
VIEW
 70
     0
  0
ENDTAB
  0
TABLE
  2
UCS
 70
     0
  0
ENDTAB
  0
TABLE
  2
APPID
 70
     1
  0
APPID
  2
ACAD
 70
     0
  0
ENDTAB
  0
TABLE
  2
DIMSTYLE
 70
     1
  0
DIMSTYLE
  2
IGA
 70
     0
  3

  4

  5

  6
OPEN
  7
OPEN
 40
2.0
 41
2.0
 42
0.5
 43
10.0
 44
1.0
 45
0.0
 46
0.0
 47
1.0
 48
1.0
140
3.0
141
0.0
142
0.0
143
0.03937
144
1.0
145
0.0
146
10.0
147
1.0
 71
     0
 72
     0
 73
     0
 74
     0
 75
     0
 76
     0
 77
     1
 78
     8
170
     0
171
     2
172
     0
173
     1
174
     0
175
     0
176
     0
177
     0
178
     0
  0
ENDTAB
  0
ENDSEC
  0
SECTION
  2
BLOCKS
  0
BLOCK
  8
0
  2
$MODEL_SPACE
 70
     0
 10
0.0
 20
0.0
 30
0.0
  3
$MODEL_SPACE
  1

  0
ENDBLK
  5
1B
  8
0
  0
BLOCK
 67
     1
  8
0
  2
$PAPER_SPACE
 70
     0
 10
0.0
 20
0.0
 30
0.0
  3
$PAPER_SPACE
  1

  0
ENDBLK
  5
18
 67
     1
  8
0
  0
BLOCK
  8
0
  2
_OPEN
 70
     0
 10
0.0
 20
0.0
 30
0.0
  3
_OPEN
  1

  0
LINE
  5
7AE2
  8
0
  6
BYBLOCK
 62
     0
 10
-1.0
 20
0.166667
 30
0.0
 11
0.0
 21
0.0
 31
0.0
  0
LINE
  5
7AE3
  8
0
  6
BYBLOCK
 62
     0
 10
0.0
 20
0.0
 30
0.0
 11
-1.0
 21
-0.166667
 31
0.0
  0
LINE
  5
7AE4
  8
0
  6
BYBLOCK
 62
     0
 10
0.0
 20
0.0
 30
0.0
 11
-1.0
 21
0.0
 31
0.0
  0
ENDBLK
  5
7AE5
  8
0
  0
BLOCK
  8
0
  2
*D1
 70
     1
 10
0.0
 20
0.0
 30
0.0
  3
*D1
  1

  0
LINE
  5
7EA1
  8
0
  6
BYBLOCK
 62
     0
 10
1229.3251097432219
 20
2897.3524888481088
 30
0.0
 11
1229.3251097432219
 21
2684.8208592693809
 31
0.0
  0
LINE
  5
7EA2
  8
0
  6
BYBLOCK
 62
     0
 10
1629.3251097432219
 20
2889.2175738481092
 30
0.0
 11
1629.3251097432219
 21
2684.8208592693809
 31
0.0
  0
LINE
  5
7EA3
  8
0
  6
BYBLOCK
 62
     0
 10
1289.3251097432219
 20
2714.82085926938
 30
0.0
 11
1569.3251097432219
 21
2714.82085926938
 31
0.0
  0
TEXT
  5
7EA4
  8
3
 62
     0
 10
1313.6108240289359
 20
2747.7057342564799
 30
0.0
 40
90.0
  1
400
  0
INSERT
  5
7EA5
  8
0
  6
BYBLOCK
 62
     0
  2
_OPEN
 10
1229.3251097432219
 20
2714.82085926938
 30
0.0
 41
60.0
 42
60.0
 43
60.0
 50
180.0
  0
INSERT
  5
7EA6
  8
0
  6
BYBLOCK
 62
     0
  2
_OPEN
 10
1629.3251097432219
 20
2714.82085926938
 30
0.0
 41
60.0
 42
60.0
 43
60.0
  0
POINT
  5
7EA7
  8
DEFPOINTS
  6
BYBLOCK
 62
     0
 10
1229.3251097432219
 20
2912.3524888481088
 30
0.0
  0
POINT
  5
7EA8
  8
DEFPOINTS
  6
BYBLOCK
 62
     0
 10
1629.3251097432219
 20
2904.2175738481092
 30
0.0
  0
POINT
  5
7EA9
  8
DEFPOINTS
  6
BYBLOCK
 62
     0
 10
1629.3251097432219
 20
2714.82085926938
 30
0.0
  0
ENDBLK
  5
7EAA
  8
0
  0
BLOCK
  8
0
  2
*D2
 70
     1
 10
0.0
 20
0.0
 30
0.0
  3
*D2
  1

  0
LINE
  5
8008
  8
3
  6
CONTINUOUS
 62
     0
 10
1629.3251097432219
 20
2889.2175738481092
 30
0.0
 11
1629.3251097432219
 21
2684.8208592693809
 31
0.0
  0
LINE
  5
8009
  8
3
  6
CONTINUOUS
 62
     0
 10
2629.3251097432221
 20
2897.3524888481088
 30
0.0
 11
2629.3251097432221
 21
2684.8208592693809
 31
0.0
  0
LINE
  5
800A
  8
3
  6
CONTINUOUS
 62
     0
 10
1689.325109743221
 20
2714.82085926938
 30
0.0
 11
2569.3251097432221
 21
2714.82085926938
 31
0.0
  0
INSERT
  5
800B
  8
3
  6
CONTINUOUS
 62
     0
  2
_OPEN
 10
1629.3251097432219
 20
2714.82085926938
 30
0.0
 41
60.0
 42
60.0
 43
60.0
 50
180.0
  0
INSERT
  5
800C
  8
3
  6
CONTINUOUS
 62
     0
  2
_OPEN
 10
2629.3251097432221
 20
2714.82085926938
 30
0.0
 41
60.0
 42
60.0
 43
60.0
  0
TEXT
  8
3
  40
90
  5
808B
  62
0
  72
0
  71
0
 10
1949.33
 20
2630.52
 30
0.000000
  1
1000
  0
POINT
  5
800E
  8
DEFPOINTS
  6
CONTINUOUS
 62
     0
 10
1629.3251097432219
 20
2904.2175738481092
 30
0.0
  0
POINT
  5
800F
  8
DEFPOINTS
  6
CONTINUOUS
 62
     0
 10
2629.3251097432221
 20
2912.3524888481088
 30
0.0
  0
POINT
  5
8010
  8
DEFPOINTS
  6
CONTINUOUS
 62
     0
 10
2629.3251097432221
 20
2714.82085926938
 30
0.0
  0
ENDBLK
  5
7E66
  8
0
  0
BLOCK
  8
0
  2
*D3
 70
     1
 10
0.0
 20
0.0
 30
0.0
  3
*D3
  1

  0
LINE
  5
8011
  8
3
  6
CONTINUOUS
 62
     0
 10
2364.3251097432221
 20
4152.3524888481088
 30
0.0
 11
2945.8611577432221
 21
4152.3524888481088
 31
0.0
  0
LINE
  5
8012
  8
3
  6
CONTINUOUS
 62
     0
 10
2286.3718397432222
 20
3692.3524888481088
 30
0.0
 11
2945.8611577432221
 21
3692.3524888481088
 31
0.0
  0
LINE
  5
8013
  8
3
  6
CONTINUOUS
 62
     0
 10
2915.8611577432221
 20
4092.3524888481088
 30
0.0
 11
2915.8611577432221
 21
3752.3524888481088
 31
0.0
  0
INSERT
  5
8014
  8
3
  6
CONTINUOUS
 62
     0
  2
_OPEN
 10
2915.8611577432221
 20
4152.3524888481088
 30
0.0
 41
60.0
 42
60.0
 43
60.0
 50
90.0
  0
INSERT
  5
8015
  8
3
  6
CONTINUOUS
 62
     0
  2
_OPEN
 10
2915.8611577432221
 20
3692.3524888481088
 30
0.0
 41
60.0
 42
60.0
 43
60.0
 50
270.0
  0
TEXT
  8
3
  40
90
  5
808C
  62
0
  72
0
  71
0
 10
2660.86
 20
3787.34
 30
0.000000
  1
460
  0
POINT
  5
8017
  8
DEFPOINTS
  6
CONTINUOUS
 62
     0
 10
2349.3251097432221
 20
4152.3524888481088
 30
0.0
  0
POINT
  5
8018
  8
DEFPOINTS
  6
CONTINUOUS
 62
     0
 10
2271.3718397432222
 20
3692.3524888481088
 30
0.0
  0
POINT
  5
8019
  8
DEFPOINTS
  6
CONTINUOUS
 62
     0
 10
2915.8611577432221
 20
3692.3524888481088
 30
0.0
  0
ENDBLK
  5
7E5B
  8
0
  0
BLOCK
  8
0
  2
*D4
 70
     1
 10
0.0
 20
0.0
 30
0.0
  3
*D4
  1

  0
LINE
  5
801A
  8
3
 62
     0
 10
2286.3718397432222
 20
3692.3524888481088
 30
0.0
 11
2945.8611577432221
 21
3692.3524888481088
 31
0.0
  0
LINE
  5
801B
  8
3
 62
     0
 10
2644.3251097432221
 20
3112.3524888481088
 30
0.0
 11
2945.8611577432221
 21
3112.3524888481088
 31
0.0
  0
LINE
  5
801C
  8
3
 62
     0
 10
2915.8611577432221
 20
3632.3524888481088
 30
0.0
 11
2915.8611577432221
 21
3172.3524888481088
 31
0.0
  0
INSERT
  5
801D
  8
3
 62
     0
  2
_OPEN
 10
2915.8611577432221
 20
3692.3524888481088
 30
0.0
 41
60.0
 42
60.0
 43
60.0
 50
90.0
  0
INSERT
  5
801E
  8
3
 62
     0
  2
_OPEN
 10
2915.8611577432221
 20
3112.3524888481088
 30
0.0
 41
60.0
 42
60.0
 43
60.0
 50
270.0
  0
TEXT
  8
3
  40
90
  5
808D
  62
0
  72
0
  71
0
 10
2660.86
 20
3243.05
 30
0.000000
  1
580
  0
POINT
  5
8020
  8
DEFPOINTS
 62
     0
 10
2271.3718397432222
 20
3692.3524888481088
 30
0.0
  0
POINT
  5
8021
  8
DEFPOINTS
 62
     0
 10
2629.3251097432221
 20
3112.3524888481088
 30
0.0
  0
POINT
  5
8022
  8
DEFPOINTS
 62
     0
 10
2915.8611577432221
 20
3112.3524888481088
 30
0.0
  0
ENDBLK
  5
7E50
  8
0
  0
BLOCK
  8
0
  2
*D5
 70
     1
 10
0.0
 20
0.0
 30
0.0
  3
*D5
  1

  0
LINE
  5
8023
  8
3
  6
CONTINUOUS
 62
     0
 10
2364.3251097432221
 20
4152.3524888481088
 30
0.0
 11
3208.9813095416039
 21
4152.3524888481088
 31
0.0
  0
LINE
  5
8024
  8
3
  6
CONTINUOUS
 62
     0
 10
2644.3251097432221
 20
2912.3524888481088
 30
0.0
 11
3208.981309541603
 21
2912.3524888481079
 31
0.0
  0
LINE
  5
8025
  8
3
  6
CONTINUOUS
 62
     0
 10
3178.9813095416039
 20
4092.3524888481088
 30
0.0
 11
3178.981309541603
 21
2972.3524888481088
 31
0.0
  0
INSERT
  5
8026
  8
3
  6
CONTINUOUS
 62
     0
  2
_OPEN
 10
3178.9813095416039
 20
4152.3524888481088
 30
0.0
 41
60.0
 42
60.0
 43
60.0
 50
90.0
  0
INSERT
  5
8027
  8
3
  6
CONTINUOUS
 62
     0
  2
_OPEN
 10
3178.981309541603
 20
2912.3524888481079
 30
0.0
 41
60.0
 42
60.0
 43
60.0
 50
270.0
  0
TEXT
  8
3
  40
90
  5
808E
  62
0
  72
0
  71
0
 10
2923.98
 20
3412.60
 30
0.000000
  1
1240
  0
POINT
  5
8029
  8
DEFPOINTS
  6
CONTINUOUS
 62
     0
 10
2349.3251097432221
 20
4152.3524888481088
 30
0.0
  0
POINT
  5
802A
  8
DEFPOINTS
  6
CONTINUOUS
 62
     0
 10
2629.3251097432221
 20
2912.3524888481088
 30
0.0
  0
POINT
  5
802B
  8
DEFPOINTS
  6
CONTINUOUS
 62
     0
 10
3178.981309541603
 20
2912.3524888481079
 30
0.0
  0
ENDBLK
  5
7E45
  8
0
  0
BLOCK
  8
0
  2
*D6
 70
     1
 10
0.0
 20
0.0
 30
0.0
  3
*D6
  1

  0
LINE
  5
802C
  8
3
  6
CONTINUOUS
 62
     0
 10
2307.3251097432221
 20
4167.3524888481079
 30
0.0
 11
2307.3251097432221
 21
4329.4489428481093
 31
0.0
  0
LINE
  5
802D
  8
3
  6
CONTINUOUS
 62
     0
 10
1657.3251097432219
 20
4167.3524888481079
 30
0.0
 11
1657.3251097432219
 21
4329.4489428481093
 31
0.0
  0
LINE
  5
802E
  8
3
  6
CONTINUOUS
 62
     0
 10
2247.3251097432221
 20
4299.4489428481093
 30
0.0
 11
1717.3251097432219
 21
4299.4489428481093
 31
0.0
  0
INSERT
  5
802F
  8
3
  6
CONTINUOUS
 62
     0
  2
_OPEN
 10
2307.3251097432221
 20
4299.4489428481093
 30
0.0
 41
60.0
 42
60.0
 43
60.0
  0
INSERT
  5
8030
  8
3
  6
CONTINUOUS
 62
     0
  2
_OPEN
 10
1657.3251097432219
 20
4299.4489428481093
 30
0.0
 41
60.0
 42
60.0
 43
60.0
 50
180.0
  0
TEXT
  8
3
  40
90
  5
808F
  62
0
  72
0
  71
0
 10
1797.29
 20
4215.15
 30
0.000000
  1
650
  0
POINT
  5
8032
  8
DEFPOINTS
  6
CONTINUOUS
 62
     0
 10
2307.3251097432221
 20
4152.3524888481088
 30
0.0
  0
POINT
  5
8033
  8
DEFPOINTS
  6
CONTINUOUS
 62
     0
 10
1657.3251097432219
 20
4152.3524888481088
 30
0.0
  0
POINT
  5
8034
  8
DEFPOINTS
  6
CONTINUOUS
 62
     0
 10
1657.3251097432219
 20
4299.4489428481093
 30
0.0
  0
ENDBLK
  5
7E3A
  8
0
  0
BLOCK
  8
0
  2
*D7
 70
     1
 10
0.0
 20
0.0
 30
0.0
  3
*D7
  1

  0
LINE
  5
8035
  8
3
  6
CONTINUOUS
 62
     0
 10
2307.3251097432221
 20
4167.3524888481079
 30
0.0
 11
2307.3251097432221
 21
4505.5003798481093
 31
0.0
  0
LINE
  5
8036
  8
3
  6
CONTINUOUS
 62
     0
 10
1629.3251097432219
 20
4084.6310768481089
 30
0.0
 11
1629.3251097432219
 21
4505.5003798481093
 31
0.0
  0
LINE
  5
8037
  8
3
  6
CONTINUOUS
 62
     0
 10
2247.3251097432221
 20
4475.5003798481084
 30
0.0
 11
1689.325109743221
 21
4475.5003798481084
 31
0.0
  0
INSERT
  5
8038
  8
3
  6
CONTINUOUS
 62
     0
  2
_OPEN
 10
2307.3251097432221
 20
4475.5003798481084
 30
0.0
 41
60.0
 42
60.0
 43
60.0
  0
INSERT
  5
8039
  8
3
  6
CONTINUOUS
 62
     0
  2
_OPEN
 10
1629.3251097432219
 20
4475.5003798481084
 30
0.0
 41
60.0
 42
60.0
 43
60.0
 50
180.0
  0
TEXT
  8
3
  40
90
  5
8090
  62
0
  72
0
  71
0
 10
1797.29
 20
4391.20
 30
0.000000
  1
678
  0
POINT
  5
803B
  8
DEFPOINTS
  6
CONTINUOUS
 62
     0
 10
2307.3251097432221
 20
4152.3524888481088
 30
0.0
  0
POINT
  5
803C
  8
DEFPOINTS
  6
CONTINUOUS
 62
     0
 10
1629.3251097432219
 20
4069.6310768481089
 30
0.0
  0
POINT
  5
803D
  8
DEFPOINTS
  6
CONTINUOUS
 62
     0
 10
1629.3251097432219
 20
4475.5003798481084
 30
0.0
  0
ENDBLK
  5
7E2F
  8
0
  0
BLOCK
  8
0
  2
*D8
 70
     1
 10
0.0
 20
0.0
 30
0.0
  3
*D8
  1

  0
LINE
  5
803E
  8
3
  6
CONTINUOUS
 62
     0
 10
1629.3251097432219
 20
4084.6310768481089
 30
0.0
 11
1629.3251097432219
 21
4502.4649988481087
 31
0.0
  0
LINE
  5
803F
  8
3
  6
CONTINUOUS
 62
     0
 10
1175.626188743222
 20
3707.3524888481079
 30
0.0
 11
1175.626188743222
 21
4502.4649988481087
 31
0.0
  0
LINE
  5
8040
  8
3
  6
CONTINUOUS
 62
     0
 10
1569.3251097432219
 20
4472.4649988481087
 30
0.0
 11
1235.626188743222
 21
4472.4649988481087
 31
0.0
  0
INSERT
  5
8041
  8
3
  6
CONTINUOUS
 62
     0
  2
_OPEN
 10
1629.3251097432219
 20
4472.4649988481087
 30
0.0
 41
60.0
 42
60.0
 43
60.0
  0
INSERT
  5
8042
  8
3
  6
CONTINUOUS
 62
     0
  2
_OPEN
 10
1175.626188743222
 20
4472.4649988481087
 30
0.0
 41
60.0
 42
60.0
 43
60.0
 50
180.0
  0
TEXT
  8
3
  40
90
  5
8091
  62
0
  72
0
  71
0
 10
1203.48
 20
4388.16
 30
0.000000
  1
454
  0
POINT
  5
8044
  8
DEFPOINTS
  6
CONTINUOUS
 62
     0
 10
1629.3251097432219
 20
4069.6310768481089
 30
0.0
  0
POINT
  5
8045
  8
DEFPOINTS
  6
CONTINUOUS
 62
     0
 10
1175.626188743222
 20
3692.3524888481088
 30
0.0
  0
POINT
  5
8046
  8
DEFPOINTS
  6
CONTINUOUS
 62
     0
 10
1175.626188743222
 20
4472.4649988481087
 30
0.0
  0
ENDBLK
  5
7E24
  8
0
  0
BLOCK
  8
0
  2
*D9
 70
     1
 10
0.0
 20
0.0
 30
0.0
  3
*D9
  1

  0
LINE
  5
8047
  8
3
  6
CONTINUOUS
 62
     0
 10
1229.3251097432219
 20
5745.79372349611
 30
0.0
 11
1229.3251097432219
 21
5319.0219084961118
 31
0.0
  0
LINE
  5
8048
  8
3
  6
CONTINUOUS
 62
     0
 10
2629.3251097432221
 20
5745.79372349611
 30
0.0
 11
2629.3251097432221
 21
5319.0219084961118
 31
0.0
  0
LINE
  5
8049
  8
3
  6
CONTINUOUS
 62
     0
 10
1289.3251097432219
 20
5349.0219084961118
 30
0.0
 11
2569.3251097432221
 21
5349.0219084961118
 31
0.0
  0
INSERT
  5
804A
  8
3
  6
CONTINUOUS
 62
     0
  2
_OPEN
 10
1229.3251097432219
 20
5349.0219084961118
 30
0.0
 41
60.0
 42
60.0
 43
60.0
 50
180.0
  0
INSERT
  5
804B
  8
3
  6
CONTINUOUS
 62
     0
  2
_OPEN
 10
2629.3251097432221
 20
5349.0219084961118
 30
0.0
 41
60.0
 42
60.0
 43
60.0
  0
TEXT
  8
3
  40
90
  5
8092
  62
0
  72
0
  71
0
 10
1687.94
 20
5264.72
 30
0.000000
  1
1400
  0
POINT
  5
804D
  8
DEFPOINTS
  6
CONTINUOUS
 62
     0
 10
1229.3251097432219
 20
5760.7937234961109
 30
0.0
  0
POINT
  5
804E
  8
DEFPOINTS
  6
CONTINUOUS
 62
     0
 10
2629.3251097432221
 20
5760.7937234961109
 30
0.0
  0
POINT
  5
804F
  8
DEFPOINTS
  6
CONTINUOUS
 62
     0
 10
2629.3251097432221
 20
5349.0219084961118
 30
0.0
  0
ENDBLK
  5
7E19
  8
0
  0
BLOCK
  8
0
  2
*D10
 70
     1
 10
0.0
 20
0.0
 30
0.0
  3
*D10
  1

  0
LINE
  5
8050
  8
3
  6
CONTINUOUS
 62
     0
 10
2644.3251097432221
 20
6450.7937234961109
 30
0.0
 11
2976.235770743222
 21
6450.7937234961109
 31
0.0
  0
LINE
  5
8051
  8
3
  6
CONTINUOUS
 62
     0
 10
2644.3251097432221
 20
5760.7937234961109
 30
0.0
 11
2976.235770743222
 21
5760.7937234961109
 31
0.0
  0
LINE
  5
8052
  8
3
  6
CONTINUOUS
 62
     0
 10
2946.2357707432229
 20
6390.7937234961109
 30
0.0
 11
2946.2357707432229
 21
5820.7937234961109
 31
0.0
  0
INSERT
  5
8053
  8
3
  6
CONTINUOUS
 62
     0
  2
_OPEN
 10
2946.2357707432229
 20
6450.7937234961109
 30
0.0
 41
60.0
 42
60.0
 43
60.0
 50
90.0
  0
INSERT
  5
8054
  8
3
  6
CONTINUOUS
 62
     0
  2
_OPEN
 10
2946.2357707432229
 20
5760.7937234961109
 30
0.0
 41
60.0
 42
60.0
 43
60.0
 50
270.0
  0
TEXT
  8
3
  40
90
  5
8093
  62
0
  72
0
  71
0
 10
2691.24
 20
5940.67
 30
0.000000
  1
690
  0
POINT
  5
8056
  8
DEFPOINTS
  6
CONTINUOUS
 62
     0
 10
2629.3251097432221
 20
6450.7937234961109
 30
0.0
  0
POINT
  5
8057
  8
DEFPOINTS
  6
CONTINUOUS
 62
     0
 10
2629.3251097432221
 20
5760.7937234961109
 30
0.0
  0
POINT
  5
8058
  8
DEFPOINTS
  6
CONTINUOUS
 62
     0
 10
2946.2357707432229
 20
5760.7937234961109
 30
0.0
  0
ENDBLK
  5
7E0E
  8
0
  0
BLOCK
  8
0
  2
*D11
 70
     1
 10
0.0
 20
0.0
 30
0.0
  3
*D11
  1

  0
LINE
  5
7EAC
  8
0
  6
BYBLOCK
 62
     0
 10
3915.448630325151
 20
2897.3524888481088
 30
0.0
 11
3915.448630325151
 21
2674.2451407886219
 31
0.0
  0
LINE
  5
7EAD
  8
0
  6
BYBLOCK
 62
     0
 10
4315.4486303251506
 20
2863.438908848108
 30
0.0
 11
4315.4486303251506
 21
2674.2451407886219
 31
0.0
  0
LINE
  5
7EAE
  8
0
  6
BYBLOCK
 62
     0
 10
3975.4486303251501
 20
2704.245140788621
 30
0.0
 11
4255.4486303251497
 21
2704.245140788621
 31
0.0
  0
TEXT
  5
7EAF
  8
3
 62
     0
 10
3999.7343446108648
 20
2727.2378392825922
 30
0.0
 40
90.0
  1
400
  0
INSERT
  5
7EB0
  8
0
  6
BYBLOCK
 62
     0
  2
_OPEN
 10
3915.448630325151
 20
2704.245140788621
 30
0.0
 41
60.0
 42
60.0
 43
60.0
 50
180.0
  0
INSERT
  5
7EB1
  8
0
  6
BYBLOCK
 62
     0
  2
_OPEN
 10
4315.4486303251506
 20
2704.245140788621
 30
0.0
 41
60.0
 42
60.0
 43
60.0
  0
POINT
  5
7EB2
  8
DEFPOINTS
  6
BYBLOCK
 62
     0
 10
3915.448630325151
 20
2912.3524888481088
 30
0.0
  0
POINT
  5
7EB3
  8
DEFPOINTS
  6
BYBLOCK
 62
     0
 10
4315.4486303251506
 20
2878.438908848108
 30
0.0
  0
POINT
  5
7EB4
  8
DEFPOINTS
  6
BYBLOCK
 62
     0
 10
4315.4486303251506
 20
2704.245140788621
 30
0.0
  0
ENDBLK
  5
7EB5
  8
0
  0
BLOCK
  8
0
  2
*D12
 70
     1
 10
0.0
 20
0.0
 30
0.0
  3
*D12
  1

  0
LINE
  5
7EB7
  8
0
  6
BYBLOCK
 62
     0
 10
4315.4486303251506
 20
2863.438908848108
 30
0.0
 11
4315.4486303251506
 21
2674.2451407886219
 31
0.0
  0
LINE
  5
7EB8
  8
0
  6
BYBLOCK
 62
     0
 10
4605.4486303251506
 20
2897.3524888481088
 30
0.0
 11
4605.4486303251506
 21
2674.2451407886219
 31
0.0
  0
LINE
  5
7EB9
  8
0
  6
BYBLOCK
 62
     0
 10
4375.4486303251497
 20
2704.245140788621
 30
0.0
 11
4545.4486303251497
 21
2704.245140788621
 31
0.0
  0
TEXT
  5
7EBA
  8
3
 62
     0
 10
4354.2247610589293
 20
2747.7057342564799
 30
0.0
 40
90.0
  1
290
  0
INSERT
  5
7EBB
  8
0
  6
BYBLOCK
 62
     0
  2
_OPEN
 10
4315.4486303251506
 20
2704.245140788621
 30
0.0
 41
60.0
 42
60.0
 43
60.0
 50
180.0
  0
INSERT
  5
7EBC
  8
0
  6
BYBLOCK
 62
     0
  2
_OPEN
 10
4605.4486303251506
 20
2704.245140788621
 30
0.0
 41
60.0
 42
60.0
 43
60.0
  0
POINT
  5
7EBD
  8
DEFPOINTS
  6
BYBLOCK
 62
     0
 10
4315.4486303251506
 20
2878.438908848108
 30
0.0
  0
POINT
  5
7EBE
  8
DEFPOINTS
  6
BYBLOCK
 62
     0
 10
4605.4486303251506
 20
2912.3524888481088
 30
0.0
  0
POINT
  5
7EBF
  8
DEFPOINTS
  6
BYBLOCK
 62
     0
 10
4605.4486303251506
 20
2704.245140788621
 30
0.0
  0
ENDBLK
  5
7EC0
  8
0
  0
BLOCK
  8
0
  2
*D13
 70
     1
 10
0.0
 20
0.0
 30
0.0
  3
*D13
  1

  0
LINE
  5
8059
  8
3
  6
CONTINUOUS
 62
     0
 10
4650.4486303251497
 20
4007.3524888481079
 30
0.0
 11
4925.1815163251513
 21
4007.3524888481079
 31
0.0
  0
LINE
  5
805A
  8
3
  6
CONTINUOUS
 62
     0
 10
4650.4486303251497
 20
3377.3524888481088
 30
0.0
 11
4925.1815163251513
 21
3377.3524888481088
 31
0.0
  0
LINE
  5
805B
  8
3
  6
CONTINUOUS
 62
     0
 10
4895.1815163251522
 20
3947.3524888481088
 30
0.0
 11
4895.1815163251522
 21
3437.3524888481079
 31
0.0
  0
INSERT
  5
805C
  8
3
  6
CONTINUOUS
 62
     0
  2
_OPEN
 10
4895.1815163251522
 20
4007.3524888481079
 30
0.0
 41
60.0
 42
60.0
 43
60.0
 50
90.0
  0
INSERT
  5
805D
  8
3
  6
CONTINUOUS
 62
     0
  2
_OPEN
 10
4895.1815163251522
 20
3377.3524888481088
 30
0.0
 41
60.0
 42
60.0
 43
60.0
 50
270.0
  0
TEXT
  8
3
  40
90
  5
8094
  62
0
  72
0
  71
0
 10
4640.18
 20
3509.42
 30
0.000000
  1
φ630
  0
POINT
  5
805F
  8
DEFPOINTS
  6
CONTINUOUS
 62
     0
 10
4635.4486303251497
 20
4007.3524888481079
 30
0.0
  0
POINT
  5
8060
  8
DEFPOINTS
  6
CONTINUOUS
 62
     0
 10
4635.4486303251497
 20
3377.3524888481088
 30
0.0
  0
POINT
  5
8061
  8
DEFPOINTS
  6
CONTINUOUS
 62
     0
 10
4895.1815163251522
 20
3377.3524888481088
 30
0.0
  0
ENDBLK
  5
7ED6
  8
0
  0
BLOCK
  8
0
  2
*D14
 70
     1
 10
0.0
 20
0.0
 30
0.0
  3
*D14
  1

  0
LINE
  5
8062
  8
3
  6
CONTINUOUS
 62
     0
 10
4077.948630325151
 20
4167.3524888481079
 30
0.0
 11
4077.948630325151
 21
4324.0015078481092
 31
0.0
  0
LINE
  5
8063
  8
3
  6
CONTINUOUS
 62
     0
 10
4552.9486303251497
 20
4167.3524888481079
 30
0.0
 11
4552.9486303251497
 21
4324.0015078481092
 31
0.0
  0
LINE
  5
8064
  8
3
  6
CONTINUOUS
 62
     0
 10
4137.9486303251497
 20
4294.0015078481092
 30
0.0
 11
4492.9486303251506
 21
4294.0015078481092
 31
0.0
  0
INSERT
  5
8065
  8
3
  6
CONTINUOUS
 62
     0
  2
_OPEN
 10
4077.948630325151
 20
4294.0015078481092
 30
0.0
 41
60.0
 42
60.0
 43
60.0
 50
180.0
  0
INSERT
  5
8066
  8
3
  6
CONTINUOUS
 62
     0
  2
_OPEN
 10
4552.9486303251497
 20
4294.0015078481092
 30
0.0
 41
60.0
 42
60.0
 43
60.0
  0
TEXT
  8
3
  40
90
  5
8095
  62
0
  72
0
  71
0
 10
4135.45
 20
4209.70
 30
0.000000
  1
475
  0
POINT
  5
8068
  8
DEFPOINTS
  6
CONTINUOUS
 62
     0
 10
4077.948630325151
 20
4152.3524888481088
 30
0.0
  0
POINT
  5
8069
  8
DEFPOINTS
  6
CONTINUOUS
 62
     0
 10
4552.9486303251497
 20
4152.3524888481088
 30
0.0
  0
POINT
  5
806A
  8
DEFPOINTS
  6
CONTINUOUS
 62
     0
 10
4552.9486303251497
 20
4294.0015078481092
 30
0.0
  0
ENDBLK
  5
7DDF
  8
0
  0
BLOCK
  8
0
  2
*D15
 70
     1
 10
0.0
 20
0.0
 30
0.0
  3
*D15
  1

  0
LINE
  5
806B
  8
3
  6
CONTINUOUS
 62
     0
 10
3835.4486303251501
 20
3897.3524888481079
 30
0.0
 11
3835.4486303251501
 21
4548.6188458481101
 31
0.0
  0
LINE
  5
806C
  8
3
  6
CONTINUOUS
 62
     0
 10
4315.4486303251506
 20
4586.5871888481088
 30
0.0
 11
4315.4486303251506
 21
4488.6188458481092
 31
0.0
  0
LINE
  5
806D
  8
3
  6
CONTINUOUS
 62
     0
 10
3895.4486303251501
 20
4518.6188458481083
 30
0.0
 11
4255.4486303251497
 21
4518.6188458481083
 31
0.0
  0
INSERT
  5
806E
  8
3
  6
CONTINUOUS
 62
     0
  2
_OPEN
 10
3835.4486303251501
 20
4518.6188458481083
 30
0.0
 41
60.0
 42
60.0
 43
60.0
 50
180.0
  0
INSERT
  5
806F
  8
3
  6
CONTINUOUS
 62
     0
  2
_OPEN
 10
4315.4486303251506
 20
4518.6188458481083
 30
0.0
 41
60.0
 42
60.0
 43
60.0
  0
TEXT
  8
3
  40
90
  5
8096
  62
0
  72
0
  71
0
 10
3874.02
 20
4509.32
 30
0.000000
  1
MAX
  0
TEXT
  8
3
  40
90
  5
8097
  62
0
  72
0
  71
0
 10
3874.02
 20
4392.32
 30
0.000000
  1
550
  0
POINT
  5
8071
  8
DEFPOINTS
  6
CONTINUOUS
 62
     0
 10
3835.4486303251501
 20
3882.3524888481088
 30
0.0
  0
POINT
  5
8072
  8
DEFPOINTS
  6
CONTINUOUS
 62
     0
 10
4315.4486303251506
 20
4601.5871888481088
 30
0.0
  0
POINT
  5
8073
  8
DEFPOINTS
  6
CONTINUOUS
 62
     0
 10
4315.4486303251506
 20
4518.6188458481083
 30
0.0
  0
ENDBLK
  5
7EE1
  8
0
  0
BLOCK
  8
0
  2
*D16
 70
     1
 10
0.0
 20
0.0
 30
0.0
  3
*D16
  1

  0
LINE
  5
7EC2
  8
0
  6
BYBLOCK
 62
     0
 10
4315.4486303251506
 20
4586.5871888481088
 30
0.0
 11
4315.4486303251506
 21
4488.6188458481092
 31
0.0
  0
LINE
  5
7EC3
  8
0
  6
BYBLOCK
 62
     0
 10
4635.4486303251497
 20
4062.3524888481079
 30
0.0
 11
4635.4486303251497
 21
4548.6188458481101
 31
0.0
  0
LINE
  5
7EC4
  8
0
  6
BYBLOCK
 62
     0
 10
4375.4486303251497
 20
4518.6188458481083
 30
0.0
 11
4575.4486303251497
 21
4518.6188458481083
 31
0.0
  0
TEXT
  5
7EC5
  8
3
 62
     0
 10
4367.8813098878063
 20
4562.5253541975608
 30
0.0
 40
90.0
  1
320
  0
INSERT
  5
7EC6
  8
0
  6
BYBLOCK
 62
     0
  2
_OPEN
 10
4315.4486303251506
 20
4518.6188458481083
 30
0.0
 41
60.0
 42
60.0
 43
60.0
 50
180.0
  0
INSERT
  5
7EC7
  8
0
  6
BYBLOCK
 62
     0
  2
_OPEN
 10
4635.4486303251497
 20
4518.6188458481083
 30
0.0
 41
60.0
 42
60.0
 43
60.0
  0
POINT
  5
7EC8
  8
DEFPOINTS
  6
BYBLOCK
 62
     0
 10
4315.4486303251506
 20
4601.5871888481088
 30
0.0
  0
POINT
  5
7EC9
  8
DEFPOINTS
  6
BYBLOCK
 62
     0
 10
4635.4486303251497
 20
4047.3524888481079
 30
0.0
  0
POINT
  5
7ECA
  8
DEFPOINTS
  6
BYBLOCK
 62
     0
 10
4635.4486303251497
 20
4518.6188458481083
 30
0.0
  0
ENDBLK
  5
7ECB
  8
0
  0
BLOCK
  8
0
  2
*D17
 70
     1
 10
0.0
 20
0.0
 30
0.0
  3
*D17
  1

  0
LINE
  5
8074
  8
3
 62
     0
 10
2644.3251097432221
 20
3012.3524888481088
 30
0.0
 11
2945.8611577432221
 21
3012.3524888481088
 31
0.0
  0
LINE
  5
8075
  8
3
 62
     0
 10
2644.3251097432221
 20
2912.3524888481088
 30
0.0
 11
2945.8611577432221
 21
2912.3524888481088
 31
0.0
  0
LINE
  5
8076
  8
3
 62
     0
 10
2915.8611577432221
 20
3072.3524888481088
 30
0.0
 11
2915.8611577432221
 21
3132.3524888481088
 31
0.0
  0
LINE
  5
8077
  8
3
 62
     0
 10
2915.8611577432221
 20
2852.3524888481088
 30
0.0
 11
2915.8611577432221
 21
2518.066774562395
 31
0.0
  0
LINE
  5
8078
  8
3
 62
     0
 10
2915.8611577432221
 20
3012.3524888481088
 30
0.0
 11
2915.8611577432221
 21
2912.3524888481088
 31
0.0
  0
INSERT
  5
8079
  8
3
 62
     0
  2
_DOT
 10
2915.8611577432221
 20
3012.3524888481088
 30
0.0
 41
60.0
 42
60.0
 43
60.0
 50
270.0
  0
INSERT
  5
807A
  8
3
 62
     0
  2
_OPEN
 10
2915.8611577432221
 20
2912.3524888481088
 30
0.0
 41
60.0
 42
60.0
 43
60.0
 50
90.0
  0
TEXT
  8
3
  40
90
  5
8098
  62
0
  72
0
  71
0
 10
2660.86
 20
2495.91
 30
0.000000
  1
100
  0
POINT
  5
807C
  8
DEFPOINTS
 62
     0
 10
2629.3251097432221
 20
3012.3524888481088
 30
0.0
  0
POINT
  5
807D
  8
DEFPOINTS
 62
     0
 10
2629.3251097432221
 20
2912.3524888481088
 30
0.0
  0
POINT
  5
807E
  8
DEFPOINTS
 62
     0
 10
2915.8611577432221
 20
2912.3524888481088
 30
0.0
  0
ENDBLK
  5
7F2F
  8
0
  0
BLOCK
  8
0
  2
_DOT
 70
     0
 10
0.0
 20
0.0
 30
0.0
  3
_DOT
  1

  0
LINE
  5
7F30
  8
0
  6
BYBLOCK
 62
     0
 10
0.0
 20
0.0
 30
0.0
 11
-1.0
 21
-0.0000000000000284
 31
0.0
  0
POLYLINE
  5
7F31
  8
0
  6
BYBLOCK
 62
     0
 66
     1
 10
0.0
 20
0.0
 30
0.0
 70
     1
 40
0.1666666666666666
 41
0.1666666666666666
  0
VERTEX
  5
8088
  8
0
  6
BYBLOCK
 62
     0
 10
-0.0833333333333286
 20
-0.0000000000000284
 30
0.0
 42
1.0
  0
VERTEX
  5
8089
  8
0
  6
BYBLOCK
 62
     0
 10
0.0833333333333286
 20
-0.0000000000000284
 30
0.0
 42
1.0
  0
SEQEND
  5
808A
  8
0
  6
BYBLOCK
 62
     0
  0
ENDBLK
  5
7D05
  8
0
  0
BLOCK
  8
0
  2
*D19
 70
     1
 10
0.0
 20
0.0
 30
0.0
  3
*D19
  1

  0
LINE
  5
807F
  8
3
 62
     0
 10
1175.626188743222
 20
3722.3524888481079
 30
0.0
 11
1175.626188743222
 21
4692.2138551844027
 31
0.0
  0
LINE
  5
8080
  8
3
 62
     0
 10
2629.3251097432221
 20
3227.3524888481088
 30
0.0
 11
2629.3251097432221
 21
4692.2138551844027
 31
0.0
  0
LINE
  5
8081
  8
3
 62
     0
 10
1235.626188743222
 20
4662.2138551844027
 30
0.0
 11
2569.3251097432221
 21
4662.2138551844027
 31
0.0
  0
INSERT
  5
8082
  8
3
 62
     0
  2
_OPEN
 10
1175.626188743222
 20
4662.2138551844027
 30
0.0
 41
60.0
 42
60.0
 43
60.0
 50
180.0
  0
INSERT
  5
8083
  8
3
 62
     0
  2
_OPEN
 10
2629.3251097432221
 20
4662.2138551844027
 30
0.0
 41
60.0
 42
60.0
 43
60.0
  0
TEXT
  8
3
  40
90
  5
8099
  62
0
  72
0
  71
0
 10
1806.72
 20
4577.91
 30
0.000000
  1
1454
  0
POINT
  5
8085
  8
DEFPOINTS
 62
     0
 10
1175.626188743222
 20
3707.3524888481079
 30
0.0
  0
POINT
  5
8086
  8
DEFPOINTS
 62
     0
 10
2629.3251097432221
 20
3212.3524888481079
 30
0.0
  0
POINT
  5
8087
  8
DEFPOINTS
 62
     0
 10
2629.3251097432221
 20
4662.2138551844027
 30
0.0
  0
ENDBLK
  5
7EED
  8
0
  0
BLOCK
  8
0
  2
*D20
 70
     1
 10
0.0
 20
0.0
 30
0.0
  3
*D20
  1

  0
LINE
  5
7F18
  8
0
  6
BYBLOCK
 62
     0
 10
2644.3251097432221
 20
3012.3524888481088
 30
0.0
 11
2945.8611577432221
 21
3012.3524888481088
 31
0.0
  0
LINE
  5
7F19
  8
0
  6
BYBLOCK
 62
     0
 10
2915.8611577432221
 20
3172.3524888481088
 30
0.0
 11
2915.8611577432221
 21
3232.3524888481088
 31
0.0
  0
LINE
  5
7F1A
  8
0
  6
BYBLOCK
 62
     0
 10
2915.8611577432221
 20
2952.3524888481088
 30
0.0
 11
2915.8611577432221
 21
2892.3524888481088
 31
0.0
  0
TEXT
  5
7F1B
  8
3
 62
     0
 10
3080.8611577432221
 20
2955.209631705251
 30
0.0
 40
90.0
  1
100
 50
90.0
  0
LINE
  5
7F1C
  8
0
  6
BYBLOCK
 62
     0
 10
2915.8611577432221
 20
3112.3524888481088
 30
0.0
 11
2915.8611577432221
 21
3012.3524888481088
 31
0.0
  0
INSERT
  5
7F1D
  8
0
  6
BYBLOCK
 62
     0
  2
_OPEN
 10
2915.8611577432221
 20
3112.3524888481088
 30
0.0
 41
60.0
 42
60.0
 43
60.0
 50
270.0
  0
INSERT
  5
7F1E
  8
0
  6
BYBLOCK
 62
     0
  2
_DOT
 10
2915.8611577432221
 20
3012.3524888481088
 30
0.0
 41
60.0
 42
60.0
 43
60.0
 50
90.0
  0
POINT
  5
7F1F
  8
DEFPOINTS
  6
BYBLOCK
 62
     0
 10
2629.3251097432221
 20
3112.3524888481088
 30
0.0
  0
POINT
  5
7F20
  8
DEFPOINTS
  6
BYBLOCK
 62
     0
 10
2629.3251097432221
 20
3012.3524888481088
 30
0.0
  0
POINT
  5
7F21
  8
DEFPOINTS
  6
BYBLOCK
 62
     0
 10
2915.8611577432221
 20
3012.3524888481088
 30
0.0
  0
ENDBLK
  5
7F22
  8
0
  0
ENDSEC
  0
SECTION
  2
ENTITIES
  0
LINE
  5
7A70
  8
1
  6
CONTINUOUS
 10
1229.3251097432219
 20
2912.3524888481088
 30
0.0
 11
2629.3251097432221
 21
2912.3524888481088
 31
0.0
  0
LINE
  5
7A71
  8
1
  6
CONTINUOUS
 10
1229.3251097432219
 20
3012.3524888481088
 30
0.0
 11
2629.3251097432221
 21
3012.3524888481088
 31
0.0
  0
ARC
  5
7A72
  8
1
  6
CONTINUOUS
 10
2454.3251097432221
 20
3389.3524888481088
 30
0.0
 40
170.0
 50
251.09999999999999
 51
68.5
  0
LINE
  5
7A73
  8
1
  6
CONTINUOUS
 10
1439.3251097432219
 20
5840.7937234961109
 30
0.0
 11
2624.3251097432221
 21
5840.7937234961109
 31
0.0
  0
LINE
  5
7A74
  8
1
  6
CONTINUOUS
 10
1439.3251097432219
 20
5680.7937234961109
 30
0.0
 11
2624.3251097432221
 21
5680.7937234961109
 31
0.0
  0
LINE
  5
7A75
  8
1
  6
CONTINUOUS
 10
2289.3251097432221
 20
3257.3524888481088
 30
0.0
 11
2619.3251097432221
 21
3257.3524888481088
 31
0.0
  0
LINE
  5
7A76
  8
1
  6
CONTINUOUS
 10
1229.3251097432219
 20
3212.3524888481079
 30
0.0
 11
2629.3251097432221
 21
3212.3524888481079
 31
0.0
  0
LINE
  5
7A77
  8
1
  6
CONTINUOUS
 10
1229.3251097432219
 20
3112.3524888481088
 30
0.0
 11
2629.3251097432221
 21
3112.3524888481088
 31
0.0
  0
LINE
  5
7A78
  8
1
  6
CONTINUOUS
 10
1944.3251097432219
 20
6450.7937234961109
 30
0.0
 11
2629.3251097432221
 21
6450.7937234961109
 31
0.0
  0
LINE
  5
7A79
  8
1
  6
CONTINUOUS
 10
2524.3251097432221
 20
5760.7937234961109
 30
0.0
 11
2629.3251097432221
 21
5760.7937234961109
 31
0.0
  0
LINE
  5
7A7A
  8
2
  6
CENTER
 10
1125.929624743223
 20
3692.3524888481088
 30
0.0
 11
2358.1723127432228
 21
3692.3524888481088
 31
0.0
  0
ARC
  5
7A7B
  8
1
  6
CONTINUOUS
 10
1629.3251097432219
 20
3692.3524888481088
 30
0.0
 40
190.0
 50
68.5
 51
251.09999999999999
  0
CIRCLE
  5
7A7C
  8
1
  6
CONTINUOUS
 10
1629.3251097432219
 20
3692.3524888481088
 30
0.0
 40
90.0
  0
CIRCLE
  5
7A7D
  8
1
  6
CONTINUOUS
 10
1629.3251097432219
 20
3692.3524888481088
 30
0.0
 40
355.0
  0
CIRCLE
  5
7A7E
  8
1
  6
CONTINUOUS
 10
1629.3251097432219
 20
3692.3524888481088
 30
0.0
 40
315.0
  0
LINE
  5
7A7F
  8
1
  6
CONTINUOUS
 10
1657.3251097432219
 20
4112.3524888481088
 30
0.0
 11
2307.3251097432221
 21
4112.3524888481088
 31
0.0
  0
ARC
  5
7A80
  8
1
  6
CONTINUOUS
 10
1676.3251097432219
 20
3739.3524888481079
 30
0.0
 40
596.89999999999998
 50
270.0
 51
355.5
  0
LINE
  5
7A81
  8
1
  6
CONTINUOUS
 10
1615.3251097432219
 20
4152.3524888481088
 30
0.0
 11
2349.3251097432221
 21
4152.3524888481088
 31
0.0
  0
LINE
  5
7A82
  8
1
  6
CONTINUOUS
 10
2479.925109743222
 20
3454.5524888481091
 30
0.0
 11
1662.2251097432211
 21
3776.152488848109
 31
0.0
  0
LINE
  5
7A83
  8
1
  6
CONTINUOUS
 10
2516.5251097432229
 20
3547.5524888481091
 30
0.0
 11
1698.8251097432219
 21
3869.2524888481089
 31
0.0
  0
LINE
  5
7A84
  8
1
  6
CONTINUOUS
 10
2431.7251097432222
 20
3323.1524888481081
 30
0.0
 11
1600.2251097432211
 21
3607.2524888481089
 31
0.0
  0
LINE
  5
7A85
  8
1
  6
CONTINUOUS
 10
2399.3251097432221
 20
3228.5524888481082
 30
0.0
 11
1567.925109743222
 21
3512.5524888481091
 31
0.0
  0
ARC
  5
7A86
  8
1
  6
CONTINUOUS
 10
1591.3251097432219
 20
3654.3524888481079
 30
0.0
 40
417.39999999999992
 50
90.0
 51
174.0
  0
LINE
  5
7A87
  8
1
  6
CONTINUOUS
 10
1657.3251097432219
 20
4065.3524888481079
 30
0.0
 11
1657.3251097432219
 21
4152.3524888481088
 31
0.0
  0
ARC
  5
7A88
  8
1
  6
CONTINUOUS
 10
1676.3251097432219
 20
3645.3524888481088
 30
0.0
 40
502.89999999999992
 50
174.0
 51
270.0
  0
LINE
  5
7A89
  8
1
  6
CONTINUOUS
 10
1229.3251097432219
 20
3012.3524888481088
 30
0.0
 11
1229.3251097432219
 21
2912.3524888481088
 31
0.0
  0
LINE
  5
7A8A
  8
1
  6
CONTINUOUS
 10
1229.3251097432219
 20
3212.3524888481079
 30
0.0
 11
1229.3251097432219
 21
3112.3524888481088
 31
0.0
  0
LINE
  5
7A8B
  8
2
  6
CENTER
 10
1629.3251097432219
 20
2904.2175738481092
 30
0.0
 11
1629.3251097432219
 21
4108.8271248481078
 31
0.0
  0
ARC
  5
7A8C
  8
1
  6
CONTINUOUS
 10
1591.3251097432219
 20
3730.3524888481079
 30
0.0
 40
341.39999999999992
 50
78.900000000000006
 51
90.0
  0
LINE
  5
7A8D
  8
1
  6
CONTINUOUS
 10
2307.3251097432221
 20
4152.3524888481088
 30
0.0
 11
2271.3251097432221
 21
3692.3524888481088
 31
0.0
  0
LINE
  5
7A8E
  8
2
  6
CENTER
 10
2454.3251097432221
 20
3319.3524888481079
 30
0.0
 11
2454.3251097432221
 21
3459.3524888481088
 31
0.0
  0
CIRCLE
  5
7A8F
  8
1
  6
CONTINUOUS
 10
2454.3251097432221
 20
3389.3524888481088
 30
0.0
 40
70.0
  0
ARC
  5
7A90
  8
1
  6
CONTINUOUS
 10
2454.3251097432221
 20
3389.3524888481088
 30
0.0
 40
142.0
 50
324.60000000000002
 51
215.39999999999989
  0
LINE
  5
7A91
  8
2
  6
CENTER
 10
2524.3251097432221
 20
3389.3524888481088
 30
0.0
 11
2384.3251097432221
 21
3389.3524888481088
 31
0.0
  0
LINE
  5
7A92
  8
1
  6
CONTINUOUS
 10
2279.3251097432221
 20
3212.3524888481079
 30
0.0
 11
2289.3251097432221
 21
3257.3524888481088
 31
0.0
  0
LINE
  5
7A93
  8
1
  6
CONTINUOUS
 10
2324.3251097432221
 20
3272.3524888481079
 30
0.0
 11
2338.6251097432209
 21
3307.152488848109
 31
0.0
  0
LINE
  5
7A94
  8
1
  6
CONTINUOUS
 10
2324.3251097432221
 20
3257.3524888481088
 30
0.0
 11
2324.3251097432221
 21
3272.3524888481079
 31
0.0
  0
LINE
  5
7A95
  8
1
  6
CONTINUOUS
 10
2584.3251097432221
 20
3257.3524888481088
 30
0.0
 11
2584.3251097432221
 21
3272.3524888481079
 31
0.0
  0
LINE
  5
7A96
  8
1
  6
CONTINUOUS
 10
2584.3251097432221
 20
3272.3524888481079
 30
0.0
 11
2570.0251097432229
 21
3307.152488848109
 31
0.0
  0
LINE
  5
7A97
  8
1
  6
CONTINUOUS
 10
1274.3251097432219
 20
6480.7937234961119
 30
0.0
 11
1984.3251097432219
 21
6480.7937234961119
 31
0.0
  0
LINE
  5
7A98
  8
1
  6
CONTINUOUS
 10
1719.3251097432219
 20
5800.7937234961109
 30
0.0
 11
1539.3251097432219
 21
5800.7937234961109
 31
0.0
  0
LINE
  5
7A99
  8
1
  6
CONTINUOUS
 10
1719.3251097432219
 20
5720.7937234961109
 30
0.0
 11
1539.3251097432219
 21
5720.7937234961109
 31
0.0
  0
LINE
  5
7A9A
  8
1
  6
CONTINUOUS
 10
1173.425109743222
 20
5923.2937234961119
 30
0.0
 11
2307.3251097432221
 21
5923.2937234961119
 31
0.0
  0
LINE
  5
7A9B
  8
1
  6
CONTINUOUS
 10
1173.425109743222
 20
6398.2937234961109
 30
0.0
 11
2307.3251097432221
 21
6398.2937234961109
 31
0.0
  0
LINE
  5
7A9C
  8
1
  6
CONTINUOUS
 10
2307.3251097432221
 20
6398.2937234961109
 30
0.0
 11
1657.3251097432219
 21
5923.2937234961119
 31
0.0
  0
LINE
  5
7A9D
  8
1
  6
CONTINUOUS
 10
1657.3251097432219
 20
6398.2937234961109
 30
0.0
 11
2307.3251097432221
 21
5923.2937234961119
 31
0.0
  0
LINE
  5
7A9E
  8
1
  6
CONTINUOUS
 10
1229.3251097432219
 20
6450.7937234961109
 30
0.0
 11
1314.3251097432219
 21
6450.7937234961109
 31
0.0
  0
LINE
  5
7A9F
  8
1
  6
CONTINUOUS
 10
1229.3251097432219
 20
5760.7937234961109
 30
0.0
 11
1539.3251097432219
 21
5760.7937234961109
 31
0.0
  0
LINE
  5
7AA0
  8
1
  6
CONTINUOUS
 10
1173.425109743222
 20
5923.2937234961119
 30
0.0
 11
1173.425109743222
 21
6398.2937234961109
 31
0.0
  0
LINE
  5
7AA1
  8
1
  6
CONTINUOUS
 10
1229.3251097432219
 20
5923.2937234961119
 30
0.0
 11
1229.3251097432219
 21
5760.7937234961109
 31
0.0
  0
LINE
  5
7AA2
  8
1
  6
CONTINUOUS
 10
1229.3251097432219
 20
6450.7937234961109
 30
0.0
 11
1229.3251097432219
 21
6398.2937234961109
 31
0.0
  0
LINE
  5
7AA3
  8
1
  6
CONTINUOUS
 10
1657.3251097432219
 20
5923.2937234961119
 30
0.0
 11
1657.3251097432219
 21
6398.2937234961109
 31
0.0
  0
LINE
  5
7AA4
  8
1
  6
CONTINUOUS
 10
1439.3251097432219
 20
5680.7937234961109
 30
0.0
 11
1439.3251097432219
 21
5840.7937234961109
 31
0.0
  0
LINE
  5
7AA5
  8
1
  6
CONTINUOUS
 10
1648.3251097432219
 20
5800.7937234961109
 30
0.0
 11
1648.3251097432219
 21
5923.2937234961119
 31
0.0
  0
LINE
  5
7AA6
  8
1
  6
CONTINUOUS
 10
1610.3251097432219
 20
5800.7937234961109
 30
0.0
 11
1610.3251097432219
 21
5923.2937234961119
 31
0.0
  0
LINE
  5
7AA7
  8
1
  6
CONTINUOUS
 10
1539.3251097432219
 20
5720.7937234961109
 30
0.0
 11
1539.3251097432219
 21
5800.7937234961109
 31
0.0
  0
LINE
  5
7AA8
  8
1
  6
CONTINUOUS
 10
1314.3251097432219
 20
6480.7937234961119
 30
0.0
 11
1314.3251097432219
 21
6398.2937234961109
 31
0.0
  0
LINE
  5
7AA9
  8
1
  6
CONTINUOUS
 10
1719.3251097432219
 20
5760.7937234961109
 30
0.0
 11
2384.3251097432221
 21
5760.7937234961109
 31
0.0
  0
LINE
  5
7AAA
  8
1
  6
CONTINUOUS
 10
1719.3251097432219
 20
5720.7937234961109
 30
0.0
 11
1719.3251097432219
 21
5800.7937234961109
 31
0.0
  0
LINE
  5
7AAB
  8
1
  6
CONTINUOUS
 10
1944.3251097432219
 20
6480.7937234961119
 30
0.0
 11
1944.3251097432219
 21
6398.2937234961109
 31
0.0
  0
LINE
  5
7AAC
  8
1
  6
CONTINUOUS
 10
2307.3251097432221
 20
5923.2937234961119
 30
0.0
 11
2307.3251097432221
 21
6398.2937234961109
 31
0.0
  0
LINE
  5
7AAD
  8
1
  6
CONTINUOUS
 10
2596.3251097432221
 20
5893.3937234961113
 30
0.0
 11
2596.3251097432221
 21
6293.3937234961113
 31
0.0
  0
LINE
  5
7AAE
  8
1
  6
CONTINUOUS
 10
2312.3251097432221
 20
5893.3937234961113
 30
0.0
 11
2312.3251097432221
 21
6293.3937234961113
 31
0.0
  0
LINE
  5
7AAF
  8
1
  6
CONTINUOUS
 10
2524.3251097432221
 20
5720.7937234961109
 30
0.0
 11
2384.3251097432221
 21
5720.7937234961109
 31
0.0
  0
LINE
  5
7AB0
  8
1
  6
CONTINUOUS
 10
2524.3251097432221
 20
5800.7937234961109
 30
0.0
 11
2384.3251097432221
 21
5800.7937234961109
 31
0.0
  0
LINE
  5
7AB1
  8
1
  6
CONTINUOUS
 10
2596.3251097432221
 20
5893.3937234961113
 30
0.0
 11
2312.3251097432221
 21
5893.3937234961113
 31
0.0
  0
LINE
  5
7AB2
  8
1
  6
CONTINUOUS
 10
2384.3251097432221
 20
5720.7937234961109
 30
0.0
 11
2384.3251097432221
 21
5800.7937234961109
 31
0.0
  0
LINE
  5
7AB3
  8
1
  6
CONTINUOUS
 10
2524.3251097432221
 20
5720.7937234961109
 30
0.0
 11
2524.3251097432221
 21
5800.7937234961109
 31
0.0
  0
LINE
  5
7AB4
  8
1
  6
CONTINUOUS
 10
2435.3251097432221
 20
5800.7937234961109
 30
0.0
 11
2435.3251097432221
 21
5893.3937234961113
 31
0.0
  0
LINE
  5
7AB5
  8
1
  6
CONTINUOUS
 10
2473.3251097432221
 20
5800.7937234961109
 30
0.0
 11
2473.3251097432221
 21
5893.3937234961113
 31
0.0
  0
LINE
  5
7AB6
  8
1
  6
CONTINUOUS
 10
2596.3251097432221
 20
6293.3937234961113
 30
0.0
 11
2312.3251097432221
 21
6293.3937234961113
 31
0.0
  0
LINE
  5
7AB7
  8
1
  6
CONTINUOUS
 10
2629.3251097432221
 20
3012.3524888481088
 30
0.0
 11
2629.3251097432221
 21
2912.3524888481088
 31
0.0
  0
LINE
  5
7AB8
  8
1
  6
CONTINUOUS
 10
2619.3251097432221
 20
3257.3524888481088
 30
0.0
 11
2629.3251097432221
 21
3212.3524888481079
 31
0.0
  0
LINE
  5
7AB9
  8
1
  6
CONTINUOUS
 10
2629.3251097432221
 20
3212.3524888481079
 30
0.0
 11
2629.3251097432221
 21
3112.3524888481088
 31
0.0
  0
LINE
  5
7ABA
  8
1
  6
CONTINUOUS
 10
2629.3251097432221
 20
6450.7937234961109
 30
0.0
 11
2629.3251097432221
 21
5760.7937234961109
 31
0.0
  0
LINE
  5
7ABB
  8
1
  6
CONTINUOUS
 10
2624.3251097432221
 20
5680.7937234961109
 30
0.0
 11
2624.3251097432221
 21
5840.7937234961109
 31
0.0
  0
LINE
  5
7ABC
  8
1
  6
CONTINUOUS
 10
3835.4486303251501
 20
3219.3524888481079
 30
0.0
 11
3995.4486303251501
 21
3219.3524888481079
 31
0.0
  0
LINE
  5
7ABD
  8
1
  6
CONTINUOUS
 10
4077.948630325151
 20
3370.3524888481088
 30
0.0
 11
3955.4486303251501
 21
3370.3524888481088
 31
0.0
  0
LINE
  5
7ABE
  8
1
  6
CONTINUOUS
 10
4077.948630325151
 20
3408.3524888481079
 30
0.0
 11
3955.4486303251501
 21
3408.3524888481079
 31
0.0
  0
LINE
  5
7ABF
  8
1
  6
CONTINUOUS
 10
4077.948630325151
 20
3673.3524888481088
 30
0.0
 11
3955.4486303251501
 21
3673.3524888481088
 31
0.0
  0
LINE
  5
7AC0
  8
1
  6
CONTINUOUS
 10
4077.948630325151
 20
3711.3524888481079
 30
0.0
 11
3955.4486303251501
 21
3711.3524888481079
 31
0.0
  0
LINE
  5
7AC1
  8
1
  6
CONTINUOUS
 10
3835.4486303251501
 20
3882.3524888481088
 30
0.0
 11
3995.4486303251501
 21
3882.3524888481088
 31
0.0
  0
LINE
  5
7AC2
  8
1
  6
CONTINUOUS
 10
4605.4486303251506
 20
3212.3524888481079
 30
0.0
 11
3915.448630325151
 21
3212.3524888481079
 31
0.0
  0
LINE
  5
7AC3
  8
1
  6
CONTINUOUS
 10
4605.4486303251506
 20
3112.3524888481088
 30
0.0
 11
3915.448630325151
 21
3112.3524888481088
 31
0.0
  0
LINE
  5
7AC4
  8
1
  6
CONTINUOUS
 10
4605.4486303251506
 20
3012.3524888481088
 30
0.0
 11
3915.448630325151
 21
3012.3524888481088
 31
0.0
  0
LINE
  5
7AC5
  8
1
  6
CONTINUOUS
 10
4605.4486303251506
 20
2912.3524888481088
 30
0.0
 11
3915.448630325151
 21
2912.3524888481088
 31
0.0
  0
LINE
  5
7AC7
  8
1
  6
CONTINUOUS
 10
3875.4486303251501
 20
3459.3524888481088
 30
0.0
 11
3875.4486303251501
 21
3319.3524888481079
 31
0.0
  0
LINE
  5
7AC8
  8
1
  6
CONTINUOUS
 10
3955.4486303251501
 20
3459.3524888481088
 30
0.0
 11
3955.4486303251501
 21
3319.3524888481079
 31
0.0
  0
LINE
  5
7AC9
  8
1
  6
CONTINUOUS
 10
3835.4486303251501
 20
3882.3524888481088
 30
0.0
 11
3835.4486303251501
 21
3219.3524888481079
 31
0.0
  0
LINE
  5
7ACD
  8
1
  6
CONTINUOUS
 10
3875.4486303251501
 20
3319.3524888481079
 30
0.0
 11
3955.4486303251501
 21
3319.3524888481079
 31
0.0
  0
LINE
  5
7ACE
  8
1
  6
CONTINUOUS
 10
3915.448630325151
 20
3212.3524888481079
 30
0.0
 11
3915.448630325151
 21
3112.3524888481088
 31
0.0
  0
POINT
  5
7ACF
  8
1
  6
CONTINUOUS
 10
3915.448630325151
 20
3012.3524888481088
 30
0.0
  0
LINE
  5
7AD0
  8
1
  6
CONTINUOUS
 10
3915.448630325151
 20
3012.3524888481088
 30
0.0
 11
3915.448630325151
 21
2912.3524888481088
 31
0.0
  0
LINE
  5
7AD1
  8
1
  6
CONTINUOUS
 10
3955.4486303251501
 20
3782.3524888481088
 30
0.0
 11
3955.4486303251501
 21
3602.3524888481088
 31
0.0
  0
LINE
  5
7AD2
  8
1
  6
CONTINUOUS
 10
3875.4486303251501
 20
3782.3524888481088
 30
0.0
 11
3875.4486303251501
 21
3602.3524888481088
 31
0.0
  0
LINE
  5
7AD3
  8
1
  6
CONTINUOUS
 10
3875.4486303251501
 20
3602.3524888481088
 30
0.0
 11
3955.4486303251501
 21
3602.3524888481088
 31
0.0
  0
LINE
  5
7AD4
  8
1
  6
CONTINUOUS
 10
3875.4486303251501
 20
3782.3524888481088
 30
0.0
 11
3955.4486303251501
 21
3782.3524888481088
 31
0.0
  0
LINE
  5
7AD5
  8
1
  6
CONTINUOUS
 10
3875.4486303251501
 20
3459.3524888481088
 30
0.0
 11
3955.4486303251501
 21
3459.3524888481088
 31
0.0
  0
LINE
  5
7AD6
  8
1
  6
CONTINUOUS
 10
4077.948630325151
 20
4152.3524888481088
 30
0.0
 11
4077.948630325151
 21
3212.3524888481079
 31
0.0
  0
LINE
  5
7AD7
  8
1
  6
CONTINUOUS
 10
4552.9486303251497
 20
4152.3524888481088
 30
0.0
 11
4552.9486303251497
 21
3212.3524888481079
 31
0.0
  0
LINE
  5
7AD8
  8
1
  6
CONTINUOUS
 10
3995.4486303251501
 20
3882.3524888481088
 30
0.0
 11
3995.4486303251501
 21
3219.3524888481079
 31
0.0
  0
LINE
  5
7AD9
  8
1
  6
CONTINUOUS
 10
4635.4486303251497
 20
4047.3524888481079
 30
0.0
 11
4635.4486303251497
 21
3337.3524888481079
 31
0.0
  0
LINE
  5
7ADA
  8
1
  6
CONTINUOUS
 10
4605.4486303251506
 20
3212.3524888481079
 30
0.0
 11
4605.4486303251506
 21
3112.3524888481088
 31
0.0
  0
LINE
  5
7ADB
  8
1
  6
CONTINUOUS
 10
4552.9486303251497
 20
3377.3524888481088
 30
0.0
 11
4635.4486303251497
 21
3377.3524888481088
 31
0.0
  0
LINE
  5
7ADC
  8
1
  6
CONTINUOUS
 10
4605.4486303251506
 20
3012.3524888481088
 30
0.0
 11
4605.4486303251506
 21
2912.3524888481088
 31
0.0
  0
LINE
  5
7ADD
  8
1
  6
CONTINUOUS
 10
4552.9486303251497
 20
4007.3524888481079
 30
0.0
 11
4635.4486303251497
 21
4007.3524888481079
 31
0.0
  0
LINE
  5
7ADE
  8
1
  6
CONTINUOUS
 10
4077.948630325151
 20
4112.3524888481088
 30
0.0
 11
4552.9486303251497
 21
4112.3524888481088
 31
0.0
  0
LINE
  5
7ADF
  8
1
  6
CONTINUOUS
 10
4037.9486303251501
 20
4152.3524888481088
 30
0.0
 11
4592.9486303251497
 21
4152.3524888481088
 31
0.0
  0
DIMENSION
  5
7AF5
  8
3
  6
CONTINUOUS
  2
*D1
 10
1629.3251097432219
 20
2714.82085926938
 30
0.0
 11
1429.3251097432219
 21
2792.7057342564799
 31
0.0
 70
   128
 13
1229.3251097432219
 23
2912.3524888481088
 33
0.0
 14
1629.3251097432219
 24
2904.2175738481092
 34
0.0
1001
ACAD
1000
DSTYLE
1002
{
1070
   288
1070
     1
1070
   172
1070
     1
1070
    40
1040
30.0
1070
   271
1070
     0
1070
   143
1040
0.039
1002
}
  0
DIMENSION
  5
7B01
  8
3
  6
CONTINUOUS
  2
*D2
 10
2629.3251097432221
 20
2714.82085926938
 30
0.0
 11
2129.3251097432221
 21
2789.8208592693809
 31
0.0
 70
     0
 13
1629.3251097432219
 23
2904.2175738481092
 33
0.0
 14
2629.3251097432221
 24
2912.3524888481088
 34
0.0
1001
ACAD
1000
DSTYLE
1002
{
1070
   287
1070
     3
1070
   287
1070
     3
1070
    40
1040
30.0
1070
   143
1040
0.039
1070
   172
1070
     1
1070
   271
1070
     0
1070
   279
1070
     0
1070
   288
1070
     1
1002
}
  0
DIMENSION
  5
7B10
  8
3
  6
CONTINUOUS
  2
*D3
 10
2915.8611577432221
 20
3692.3524888481088
 30
0.0
 11
2915.8611577432221
 21
3946.638203133823
 31
0.0
 70
   128
 13
2349.3251097432221
 23
4152.3524888481088
 33
0.0
 14
2271.3718397432222
 24
3692.3524888481088
 34
0.0
 50
90.0
1001
ACAD
1000
DSTYLE
1002
{
1070
   287
1070
     3
1070
   287
1070
     3
1070
    40
1040
30.0
1070
   143
1040
0.039
1070
   172
1070
     1
1070
   271
1070
     0
1070
   279
1070
     0
1070
   288
1070
     1
1002
}
  0
DIMENSION
  5
7B1C
  8
3
  2
*D4
 10
2915.8611577432221
 20
3112.3524888481088
 30
0.0
 11
2840.8611577432212
 21
3402.3524888481102
 31
0.0
 70
     0
 13
2271.3718397432222
 23
3692.3524888481088
 33
0.0
 14
2629.3251097432221
 24
3112.3524888481088
 34
0.0
 50
90.0
1001
ACAD
1000
DSTYLE
1002
{
1070
   287
1070
     3
1070
   287
1070
     3
1070
    40
1040
30.0
1070
   143
1040
0.039
1070
   172
1070
     1
1070
   271
1070
     0
1070
   279
1070
     0
1070
   288
1070
     1
1002
}
  0
DIMENSION
  5
7B53
  8
3
  6
CONTINUOUS
  2
*D5
 10
3178.981309541603
 20
2912.3524888481079
 30
0.0
 11
3178.981309541603
 21
3571.900945711197
 31
0.0
 70
   128
 13
2349.3251097432221
 23
4152.3524888481088
 33
0.0
 14
2629.3251097432221
 24
2912.3524888481088
 34
0.0
 50
90.0
1001
ACAD
1000
DSTYLE
1002
{
1070
   287
1070
     3
1070
   287
1070
     3
1070
    40
1040
30.0
1070
   143
1040
0.039
1070
   172
1070
     1
1070
   271
1070
     0
1070
   279
1070
     0
1070
   288
1070
     1
1002
}
  0
DIMENSION
  5
7B60
  8
3
  6
CONTINUOUS
  2
*D6
 10
1657.3251097432219
 20
4299.4489428481093
 30
0.0
 11
1977.2859597432209
 21
4299.4489428481093
 31
0.0
 70
   128
 13
2307.3251097432221
 23
4152.3524888481088
 33
0.0
 14
1657.3251097432219
 24
4152.3524888481088
 34
0.0
1001
ACAD
1000
DSTYLE
1002
{
1070
   287
1070
     3
1070
   287
1070
     3
1070
    40
1040
30.0
1070
   143
1040
0.039
1070
   172
1070
     1
1070
   271
1070
     0
1070
   279
1070
     0
1070
   288
1070
     1
1002
}
  0
DIMENSION
  5
7B6D
  8
3
  6
CONTINUOUS
  2
*D7
 10
1629.3251097432219
 20
4475.5003798481084
 30
0.0
 11
1977.2859597432209
 21
4475.5003798481084
 31
0.0
 70
   128
 13
2307.3251097432221
 23
4152.3524888481088
 33
0.0
 14
1629.3251097432219
 24
4069.6310768481089
 34
0.0
1001
ACAD
1000
DSTYLE
1002
{
1070
   287
1070
     3
1070
   287
1070
     3
1070
    40
1040
30.0
1070
   143
1040
0.039
1070
   172
1070
     1
1070
   271
1070
     0
1070
   279
1070
     0
1070
   288
1070
     1
1002
}
  0
DIMENSION
  5
7B7B
  8
3
  6
CONTINUOUS
  2
*D8
 10
1175.626188743222
 20
4472.4649988481087
 30
0.0
 11
1383.4833316003651
 21
4472.4649988481087
 31
0.0
 70
   128
 13
1629.3251097432219
 23
4069.6310768481089
 33
0.0
 14
1175.626188743222
 24
3692.3524888481088
 34
0.0
1001
ACAD
1000
DSTYLE
1002
{
1070
   287
1070
     3
1070
   287
1070
     3
1070
    40
1040
30.0
1070
   143
1040
0.039
1070
   172
1070
     1
1070
   271
1070
     0
1070
   279
1070
     0
1070
   288
1070
     1
1002
}
  0
DIMENSION
  5
7B9E
  8
3
  6
CONTINUOUS
  2
*D9
 10
2629.3251097432221
 20
5349.0219084961118
 30
0.0
 11
1867.937427743221
 21
5349.0219084961118
 31
0.0
 70
   128
 13
1229.3251097432219
 23
5760.7937234961109
 33
0.0
 14
2629.3251097432221
 24
5760.7937234961109
 34
0.0
1001
ACAD
1000
DSTYLE
1002
{
1070
   287
1070
     3
1070
   287
1070
     3
1070
    40
1040
30.0
1070
   143
1040
0.039
1070
   172
1070
     1
1070
   271
1070
     0
1070
   279
1070
     0
1070
   288
1070
     1
1002
}
  0
DIMENSION
  5
7BAB
  8
3
  6
CONTINUOUS
  2
*D10
 10
2946.2357707432229
 20
5760.7937234961109
 30
0.0
 11
2946.235770743222
 21
6099.9655744961119
 31
0.0
 70
   128
 13
2629.3251097432221
 23
6450.7937234961109
 33
0.0
 14
2629.3251097432221
 24
5760.7937234961109
 34
0.0
 50
90.0
1001
ACAD
1000
DSTYLE
1002
{
1070
   287
1070
     3
1070
   287
1070
     3
1070
    40
1040
30.0
1070
   143
1040
0.039
1070
   172
1070
     1
1070
   271
1070
     0
1070
   279
1070
     0
1070
   288
1070
     1
1002
}
  0
LINE
  5
7BAC
  8
2
  6
CENTER
 10
1088.3762307432221
 20
6160.7937234961109
 30
0.0
 11
2551.365946743223
 21
6160.7937234961109
 31
0.0
  0
LINE
  5
7BAD
  8
2
  6
CENTER
 10
1629.3251097432219
 20
5599.1380314961116
 30
0.0
 11
1629.3251097432219
 21
6573.5957054961118
 31
0.0
  0
LINE
  5
7BAE
  8
2
  6
CENTER
 10
4315.4486303251506
 20
4315.7589788481082
 30
0.0
 11
4315.4486303251506
 21
2878.438908848108
 31
0.0
  0
DIMENSION
  5
7BBD
  8
3
  6
CONTINUOUS
  2
*D11
 10
4315.4486303251506
 20
2704.245140788621
 30
0.0
 11
4115.4486303251497
 21
2772.2378392825922
 31
0.0
 70
   128
 13
3915.448630325151
 23
2912.3524888481088
 33
0.0
 14
4315.4486303251506
 24
2878.438908848108
 34
0.0
1001
ACAD
1000
DSTYLE
1002
{
1070
   288
1070
     1
1070
   172
1070
     1
1070
    40
1040
30.0
1070
   271
1070
     0
1070
   143
1040
0.039
1002
}
  0
DIMENSION
  5
7BCB
  8
3
  6
CONTINUOUS
  2
*D12
 10
4605.4486303251506
 20
2704.245140788621
 30
0.0
 11
4469.9390467732146
 21
2792.7057342564799
 31
0.0
 70
   128
 13
4315.4486303251506
 23
2878.438908848108
 33
0.0
 14
4605.4486303251506
 24
2912.3524888481088
 34
0.0
1001
ACAD
1000
DSTYLE
1002
{
1070
   288
1070
     1
1070
   172
1070
     1
1070
    40
1040
30.0
1070
   271
1070
     0
1070
   143
1040
0.039
1002
}
  0
LINE
  5
7BD8
  8
2
  6
CENTER
 10
3754.9321491080841
 20
3692.3524888481088
 30
0.0
 11
4739.2620613251511
 21
3692.3524888481088
 31
0.0
  0
DIMENSION
  5
7BFB
  8
3
  6
CONTINUOUS
  2
*D13
 10
4895.1815163251522
 20
3377.3524888481088
 30
0.0
 11
4895.1815163251504
 21
3668.7153708481092
 31
0.0
 70
   128
 13
4635.4486303251497
 23
4007.3524888481079
 33
0.0
 14
4635.4486303251497
 24
3377.3524888481088
 34
0.0
 50
90.0
1001
ACAD
1000
DSTYLE
1002
{
1070
   287
1070
     3
1070
   287
1070
     3
1070
     3
1000
φ<>
1070
    40
1040
30.0
1070
   143
1040
0.039
1070
   172
1070
     1
1070
   271
1070
     0
1070
   279
1070
     0
1070
   288
1070
     1
1002
}
  0
DIMENSION
  5
7C0A
  8
3
  6
CONTINUOUS
  2
*D14
 10
4552.9486303251497
 20
4294.0015078481092
 30
0.0
 11
4315.4486303251506
 21
4294.0015078481092
 31
0.0
 70
   128
 13
4077.948630325151
 23
4152.3524888481088
 33
0.0
 14
4552.9486303251497
 24
4152.3524888481088
 34
0.0
1001
ACAD
1000
DSTYLE
1002
{
1070
   287
1070
     3
1070
   287
1070
     3
1070
    40
1040
30.0
1070
   143
1040
0.039
1070
   172
1070
     1
1070
   271
1070
     0
1070
   279
1070
     0
1070
   288
1070
     1
1002
}
  0
DIMENSION
  5
7C17
  8
3
  6
CONTINUOUS
  2
*D15
 10
4315.4486303251506
 20
4518.6188458481083
 30
0.0
 11
4054.0200588965781
 21
4518.6188458481083
 31
0.0
 70
   128
  1
MAX\P550
 13
3835.4486303251501
 23
3882.3524888481088
 33
0.0
 14
4315.4486303251506
 24
4601.5871888481088
 34
0.0
1001
ACAD
1000
DSTYLE
1002
{
1070
   287
1070
     3
1070
   287
1070
     3
1070
    40
1040
30.0
1070
   143
1040
0.039
1070
   172
1070
     1
1070
   271
1070
     0
1070
   279
1070
     0
1070
   288
1070
     1
1002
}
  0
DIMENSION
  5
7C25
  8
3
  6
CONTINUOUS
  2
*D16
 10
4635.4486303251497
 20
4518.6188458481083
 30
0.0
 11
4483.5955956020916
 21
4607.5253541975608
 31
0.0
 70
   128
 13
4315.4486303251506
 23
4601.5871888481088
 33
0.0
 14
4635.4486303251497
 24
4047.3524888481079
 34
0.0
1001
ACAD
1000
DSTYLE
1002
{
1070
   288
1070
     1
1070
   172
1070
     1
1070
    40
1040
30.0
1070
   271
1070
     0
1070
   143
1040
0.039
1002
}
  0
LINE
  5
7C3D
  8
4
  6
CONTINUOUS
 10
5550.0
 20
1500.0
 30
0.0
 11
5550.0
 21
900.0
 31
0.0
  0
LINE
  5
7C3E
  8
4
  6
CONTINUOUS
 10
3450.0
 20
1500.0
 30
0.0
 11
3450.0
 21
900.0
 31
0.0
  0
LINE
  5
7C3F
  8
4
  6
CONTINUOUS
 10
1950.0
 20
1500.0
 30
0.0
 11
1950.0
 21
900.0
 31
0.0
  0
LINE
  5
7C42
  8
4
  6
CONTINUOUS
 10
1950.0
 20
900.0
 30
0.0
 11
5550.0
 21
900.0
 31
0.0
  0
LINE
  5
7C43
  8
4
  6
CONTINUOUS
 10
1950.0
 20
1200.0
 30
0.0
 11
5550.0
 21
1200.0
 31
0.0
  0
TEXT
  5
7C44
  8
4
  6
CONTINUOUS
 10
2065.50624225
 20
1294.6290779999999
 30
0.0
 40
150.0
  1
機器名称
  0
TEXT
  5
7C45
  8
4
  6
CONTINUOUS
 10
2058.7743179999989
 20
964.93547024999998
 30
0.0
 40
150.0
  1
機器型番
  0
TEXT
  5
7C46
  8
4
  6
CONTINUOUS
 10
3533.0362365000001
 20
1267.715306249999
 30
0.0
 40
120.0
  1
ミツヤリミットロードファン
  0
TEXT
  5
7C47
  8
4
  6
CONTINUOUS
 10
3559.9634872500001
 20
951.4787527499999
 30
0.0
 40
150.0
  1
LLE#4-4
  0
TEXT
  5
7C49
  8
4
  6
CONTINUOUS
 10
2350.1360137500001
 20
7150.2865245000012
 30
0.0
 40
162.0
  1
床置防振ベット
  0
TEXT
  5
7C4A
  8
4
  6
CONTINUOUS
 10
948.50278049999986
 20
7601.6429287499996
 30
0.0
 40
171.42857175
  1
ベルト駆動式片吸込両持排煙ファン
  0
LINE
  5
7C4B
  8
4
  6
CONTINUOUS
 10
750.0
 20
7408.2262627500004
 30
0.0
 11
5550.0
 21
7408.2262627500004
 31
0.0
  0
LINE
  5
7C4C
  8
4
  6
CONTINUOUS
 10
750.0
 20
8008.2262627500004
 30
0.0
 11
5550.0
 21
8008.2262627500004
 31
0.0
  0
LINE
  5
7C4D
  8
4
  6
CONTINUOUS
 10
1950.0
 20
1500.0
 30
0.0
 11
5550.0
 21
1500.0
 31
0.0
  0
LINE
  5
7C4E
  8
4
  6
CONTINUOUS
 10
750.0
 20
8008.2262627500004
 30
0.0
 11
750.0
 21
7408.2262627500004
 31
0.0
  0
TEXT
  5
7C4F
  8
4
  6
CONTINUOUS
 10
1042.5595162499999
 20
7146.9584324999987
 30
0.0
 40
162.0
  1
左回転上向
  0
TEXT
  5
7C50
  8
4
  6
CONTINUOUS
 10
4406.9086777499988
 20
8118.1832445
 30
0.0
 40
168.0
  1
No.
  0
TEXT
  5
7C51
  8
4
  6
CONTINUOUS
 10
3933.8881875000002
 20
7150.2865245000012
 30
0.0
 40
162.0
  1
縮尺：1/30
  0
LINE
  5
7C52
  8
4
  6
CONTINUOUS
 10
5550.0
 20
8008.2262627500004
 30
0.0
 11
5550.0
 21
7408.2262627500004
 31
0.0
  0
LINE
  5
7C54
  8
4
  6
CONTINUOUS
 10
4321.8522667500001
 20
8043.79074975
 30
0.0
 11
4321.8522667500001
 21
8359.9567845000001
 31
0.0
  0
LINE
  5
7C55
  8
4
  6
CONTINUOUS
 10
4321.8522667500001
 20
8359.9567845000001
 30
0.0
 11
5550.0
 21
8359.9567845000001
 31
0.0
  0
LINE
  5
7C56
  8
4
  6
CONTINUOUS
 10
5550.0
 20
8359.9567845000001
 30
0.0
 11
5550.0
 21
8043.79074975
 31
0.0
  0
LINE
  5
7C57
  8
4
  6
CONTINUOUS
 10
5550.0
 20
8043.79074975
 30
0.0
 11
4321.8522667500001
 21
8043.79074975
 31
0.0
  0
LINE
  5
7C75
  8
1
  6
CONTINUOUS
 10
1229.3251097432219
 20
3012.3524888481088
 30
0.0
 11
2629.3251097432221
 21
3012.3524888481088
 31
0.0
  0
DIMENSION
  5
7CDA
  8
3
  2
*D17
 10
2915.8611577432221
 20
2912.3524888481088
 30
0.0
 11
2840.8611577432212
 21
2655.2096317052528
 31
0.0
 70
     0
 13
2629.3251097432221
 23
3012.3524888481088
 33
0.0
 14
2629.3251097432221
 24
2912.3524888481088
 34
0.0
 50
90.0
1001
ACAD
1000
DSTYLE
1002
{
1070
   287
1070
     3
1070
   287
1070
     3
1070
    40
1040
30.0
1070
   143
1040
0.039
1070
   172
1070
     1
1070
   271
1070
     0
1070
   279
1070
     0
1070
   288
1070
     1
1070
     6
1000
DOT
1002
}
  0
LINE
  5
7D21
  8
3
 10
2646.8251097432221
 20
3012.3524888481088
 30
0.0
 11
2950.8611577432221
 21
3012.3524888481088
 31
0.0
  0
POINT
  5
7D2A
  8
DEFPOINTS
  6
BYBLOCK
 62
     0
 10
2629.3251097432221
 20
3112.3524888481088
 30
0.0
  0
POINT
  5
7D2B
  8
DEFPOINTS
  6
BYBLOCK
 62
     0
 10
2629.3251097432221
 20
3012.3524888481088
 30
0.0
  0
LINE
  5
7D43
  8
1
  6
CONTINUOUS
 10
4605.4486303251506
 20
3012.3524888481088
 30
0.0
 11
3915.448630325151
 21
3012.3524888481088
 31
0.0
  0
DIMENSION
  5
7EEE
  8
3
  2
*D19
 10
2629.3251097432221
 20
4662.2138551844027
 30
0.0
 11
1986.7176853405981
 21
4662.2138551844027
 31
0.0
 70
   128
 13
1175.626188743222
 23
3707.3524888481079
 33
0.0
 14
2629.3251097432221
 24
3212.3524888481079
 34
0.0
1001
ACAD
1000
DSTYLE
1002
{
1070
   287
1070
     3
1070
   287
1070
     3
1070
    40
1040
30.0
1070
   143
1040
0.039
1070
   172
1070
     1
1070
   271
1070
     0
1070
   279
1070
     0
1070
   288
1070
     1
1002
}
  0
DIMENSION
  5
7EFE
  8
3
  2
*D20
 10
2915.8611577432221
 20
3012.3524888481088
 30
0.0
 11
3035.8611577432221
 21
3062.3524888481088
 31
0.0
 70
     0
 13
2629.3251097432221
 23
3112.3524888481088
 33
0.0
 14
2629.3251097432221
 24
3012.3524888481088
 34
0.0
 50
90.0
1001
ACAD
1000
DSTYLE
1002
{
1070
   288
1070
     1
1070
   172
1070
     1
1070
    75
1070
     1
1070
    40
1040
30.0
1070
   271
1070
     0
1070
     7
1000
_DOT
1070
   143
1040
0.039
1002
}
  0
ENDSEC
  0
EOF
