  0
SECTION
  2
HEADER
  9
$ACADVER
  1
AC1009
  9
$INSBASE
 10
0.0
 20
0.0
 30
0.0
  9
$EXTMIN
 10
750.0
 20
900.0
 30
0.0
  9
$EXTMAX
 10
5550.0
 20
8359.9567845000001
 30
0.0
  9
$LIMMIN
 10
0.0
 20
0.0
  9
$LIMMAX
 10
297.0
 20
210.0
  9
$ORTHOMODE
 70
     0
  9
$REGENMODE
 70
     1
  9
$FILLMODE
 70
     0
  9
$QTEXTMODE
 70
     0
  9
$MIRRTEXT
 70
     1
  9
$DRAGMODE
 70
     2
  9
$LTSCALE
 40
100.0
  9
$OSMODE
 70
    37
  9
$ATTMODE
 70
     1
  9
$TEXTSIZE
 40
180.0
  9
$TRACEWID
 40
0.05
  9
$TEXTSTYLE
  7
STANDARD
  9
$CLAYER
  8
3
  9
$CELTYPE
  6
BYLAYER
  9
$CECOLOR
 62
   256
  9
$DIMSCALE
 40
30.0
  9
$DIMASZ
 40
2.0
  9
$DIMEXO
 40
0.5
  9
$DIMDLI
 40
10.0
  9
$DIMRND
 40
0.0
  9
$DIMDLE
 40
0.0
  9
$DIMEXE
 40
1.0
  9
$DIMTP
 40
1.0
  9
$DIMTM
 40
1.0
  9
$DIMTXT
 40
3.0
  9
$DIMCEN
 40
0.0
  9
$DIMTSZ
 40
0.0
  9
$DIMTOL
 70
     0
  9
$DIMLIM
 70
     0
  9
$DIMTIH
 70
     0
  9
$DIMTOH
 70
     0
  9
$DIMSE1
 70
     0
  9
$DIMSE2
 70
     0
  9
$DIMTAD
 70
     1
  9
$DIMZIN
 70
     8
  9
$DIMBLK
  1

  9
$DIMASO
 70
     1
  9
$DIMSHO
 70
     1
  9
$DIMPOST
  1

  9
$DIMAPOST
  1

  9
$DIMALT
 70
     0
  9
$DIMALTD
 70
     2
  9
$DIMALTF
 40
0.039
  9
$DIMLFAC
 40
1.0
  9
$DIMTOFL
 70
     1
  9
$DIMTVP
 40
0.0
  9
$DIMTIX
 70
     0
  9
$DIMSOXD
 70
     0
  9
$DIMSAH
 70
     1
  9
$DIMBLK1
  1
OPEN
  9
$DIMBLK2
  1
OPEN
  9
$DIMSTYLE
  2
IGA
  9
$DIMCLRD
 70
     0
  9
$DIMCLRE
 70
     0
  9
$DIMCLRT
 70
     0
  9
$DIMTFAC
 40
10.0
  9
$DIMGAP
 40
1.0
  9
$LUNITS
 70
     2
  9
$LUPREC
 70
     3
  9
$SKETCHINC
 40
0.1
  9
$FILLETRAD
 40
50.0
  9
$AUNITS
 70
     0
  9
$AUPREC
 70
     0
  9
$MENU
  1
acad
  9
$ELEVATION
 40
0.0
  9
$PELEVATION
 40
0.0
  9
$THICKNESS
 40
0.0
  9
$LIMCHECK
 70
     0
  9
$BLIPMODE
 70
     0
  9
$CHAMFERA
 40
0.5
  9
$CHAMFERB
 40
0.5
  9
$SKPOLY
 70
     0
  9
$TDCREATE
 40
2450757.4303901619
  9
$TDUPDATE
 40
2454953.6835000692
  9
$TDINDWG
 40
0.0049040741
  9
$TDUSRTIMER
 40
0.0049040741
  9
$USRTIMER
 70
     1
  9
$ANGBASE
 50
0.0
  9
$ANGDIR
 70
     0
  9
$PDMODE
 70
     0
  9
$PDSIZE
 40
0.0
  9
$PLINEWID
 40
0.0
  9
$COORDS
 70
     1
  9
$SPLFRAME
 70
     0
  9
$SPLINETYPE
 70
     6
  9
$SPLINESEGS
 70
     8
  9
$ATTDIA
 70
     0
  9
$ATTREQ
 70
     1
  9
$HANDLING
 70
 10241
  9
$HANDSEED
  5
8045
  9
$SURFTAB1
 70
     6
  9
$SURFTAB2
 70
     6
  9
$SURFTYPE
 70
     6
  9
$SURFU
 70
     6
  9
$SURFV
 70
     6
  9
$UCSNAME
  2

  9
$UCSORG
 10
0.0
 20
0.0
 30
0.0
  9
$UCSXDIR
 10
1.0
 20
0.0
 30
0.0
  9
$UCSYDIR
 10
0.0
 20
1.0
 30
0.0
  9
$PUCSNAME
  2

  9
$PUCSORG
 10
0.0
 20
0.0
 30
0.0
  9
$PUCSXDIR
 10
1.0
 20
0.0
 30
0.0
  9
$PUCSYDIR
 10
0.0
 20
1.0
 30
0.0
  9
$USERI1
 70
     0
  9
$USERI2
 70
     0
  9
$USERI3
 70
     0
  9
$USERI4
 70
     0
  9
$USERI5
 70
     0
  9
$USERR1
 40
0.0
  9
$USERR2
 40
0.0
  9
$USERR3
 40
0.0
  9
$USERR4
 40
0.0
  9
$USERR5
 40
0.0
  9
$WORLDVIEW
 70
     1
  9
$SHADEDGE
 70
     3
  9
$SHADEDIF
 70
    70
  9
$TILEMODE
 70
     1
  9
$MAXACTVP
 70
    16
  9
$PLIMCHECK
 70
     0
  9
$PEXTMIN
 10
1.0000000000000000E+020
 20
1.0000000000000000E+020
 30
1.0000000000000000E+020
  9
$PEXTMAX
 10
-1.0000000000000000E+020
 20
-1.0000000000000000E+020
 30
-1.0000000000000000E+020
  9
$PLIMMIN
 10
0.0
 20
0.0
  9
$PLIMMAX
 10
12.0
 20
9.0
  9
$UNITMODE
 70
     0
  9
$VISRETAIN
 70
     0
  9
$PLINEGEN
 70
     0
  9
$PSLTSCALE
 70
     1
  0
ENDSEC
  0
SECTION
  2
TABLES
  0
TABLE
  2
VPORT
 70
     2
  0
VPORT
  2
*ACTIVE
 70
     0
 10
0.0
 20
0.0
 11
1.0
 21
1.0
 12
16272.650054574669
 22
4317.6714446057777
 13
0.0
 23
0.0
 14
10.0
 24
10.0
 15
10.0
 25
10.0
 16
0.0
 26
0.0
 36
1.0
 17
0.0
 27
0.0
 37
0.0
 40
12389.485777085911
 41
3.1666666666666661
 42
50.0
 43
0.0
 44
0.0
 50
0.0
 51
0.0
 71
     0
 72
   100
 73
     1
 74
     0
 75
     0
 76
     0
 77
     0
 78
     0
  0
ENDTAB
  0
TABLE
  2
LTYPE
 70
     2
  0
LTYPE
  2
CONTINUOUS
 70
     0
  3
Solid line
 72
    65
 73
     0
 40
0.0
  0
LTYPE
  2
CENTER
 70
     0
  3
____ _ ____ _ ____ _ ____ _ ____ _ ____ _ ____ 
 72
    65
 73
     4
 40
2.0
 49
1.25
 49
-0.25
 49
0.25
 49
-0.25
  0
ENDTAB
  0
TABLE
  2
LAYER
 70
     6
  0
LAYER
  2
0
 70
     0
 62
     7
  6
CONTINUOUS
  0
LAYER
  2
3
 70
     0
 62
     2
  6
CONTINUOUS
  0
LAYER
  2
2
 70
     0
 62
     3
  6
CENTER
  0
LAYER
  2
1
 70
     0
 62
     4
  6
CONTINUOUS
  0
LAYER
  2
4
 70
     0
 62
     7
  6
CONTINUOUS
  0
LAYER
  2
DEFPOINTS
 70
     0
 62
     7
  6
CONTINUOUS
  0
ENDTAB
  0
TABLE
  2
STYLE
 70
     1
  0
STYLE
  2
STANDARD
 70
     0
 40
0.0
 41
1.0
 50
0.0
 71
     0
 42
180.0
  3
simplex.shx
  4
extfont.shx
  0
ENDTAB
  0
TABLE
  2
VIEW
 70
     0
  0
ENDTAB
  0
TABLE
  2
UCS
 70
     0
  0
ENDTAB
  0
TABLE
  2
APPID
 70
     1
  0
APPID
  2
ACAD
 70
     0
  0
ENDTAB
  0
TABLE
  2
DIMSTYLE
 70
     1
  0
DIMSTYLE
  2
IGA
 70
     0
  3

  4

  5

  6
OPEN
  7
OPEN
 40
2.0
 41
2.0
 42
0.5
 43
10.0
 44
1.0
 45
0.0
 46
0.0
 47
1.0
 48
1.0
140
3.0
141
0.0
142
0.0
143
0.03937
144
1.0
145
0.0
146
10.0
147
1.0
 71
     0
 72
     0
 73
     0
 74
     0
 75
     0
 76
     0
 77
     1
 78
     8
170
     0
171
     2
172
     0
173
     1
174
     0
175
     0
176
     0
177
     0
178
     0
  0
ENDTAB
  0
ENDSEC
  0
SECTION
  2
BLOCKS
  0
BLOCK
  8
0
  2
$MODEL_SPACE
 70
     0
 10
0.0
 20
0.0
 30
0.0
  3
$MODEL_SPACE
  1

  0
ENDBLK
  5
1B
  8
0
  0
BLOCK
 67
     1
  8
0
  2
$PAPER_SPACE
 70
     0
 10
0.0
 20
0.0
 30
0.0
  3
$PAPER_SPACE
  1

  0
ENDBLK
  5
18
 67
     1
  8
0
  0
BLOCK
  8
0
  2
_OPEN
 70
     0
 10
0.0
 20
0.0
 30
0.0
  3
_OPEN
  1

  0
LINE
  5
7AE0
  8
0
  6
BYBLOCK
 62
     0
 10
-1.0
 20
0.166667
 30
0.0
 11
0.0
 21
0.0
 31
0.0
  0
LINE
  5
7AE1
  8
0
  6
BYBLOCK
 62
     0
 10
0.0
 20
0.0
 30
0.0
 11
-1.0
 21
-0.166667
 31
0.0
  0
LINE
  5
7AE2
  8
0
  6
BYBLOCK
 62
     0
 10
0.0
 20
0.0
 30
0.0
 11
-1.0
 21
0.0
 31
0.0
  0
ENDBLK
  5
7AE3
  8
0
  0
BLOCK
  8
0
  2
*D1
 70
     1
 10
0.0
 20
0.0
 30
0.0
  3
*D1
  1

  0
LINE
  5
7D7F
  8
0
  6
BYBLOCK
 62
     0
 10
1885.3468756983491
 20
2919.1500889607291
 30
0.0
 11
1885.3468756983491
 21
2667.5119239607288
 31
0.0
  0
LINE
  5
7D80
  8
0
  6
BYBLOCK
 62
     0
 10
2285.3468756983489
 20
2859.4728979607289
 30
0.0
 11
2285.3468756983489
 21
2667.5119239607288
 31
0.0
  0
LINE
  5
7D81
  8
0
  6
BYBLOCK
 62
     0
 10
1945.3468756983491
 20
2697.5119239607288
 30
0.0
 11
2225.3468756983489
 21
2697.5119239607288
 31
0.0
  0
TEXT
  5
7D82
  8
3
 62
     0
 10
1969.6325899840631
 20
2728.5208765799398
 30
0.0
 40
90.0
  1
400
  0
INSERT
  5
7D83
  8
0
  6
BYBLOCK
 62
     0
  2
_OPEN
 10
1885.3468756983491
 20
2697.5119239607288
 30
0.0
 41
60.0
 42
60.0
 43
60.0
 50
180.0
  0
INSERT
  5
7D84
  8
0
  6
BYBLOCK
 62
     0
  2
_OPEN
 10
2285.3468756983489
 20
2697.5119239607288
 30
0.0
 41
60.0
 42
60.0
 43
60.0
  0
POINT
  5
7D85
  8
DEFPOINTS
  6
BYBLOCK
 62
     0
 10
1885.3468756983491
 20
2934.1500889607291
 30
0.0
  0
POINT
  5
7D86
  8
DEFPOINTS
  6
BYBLOCK
 62
     0
 10
2285.3468756983489
 20
2874.472897960728
 30
0.0
  0
POINT
  5
7D87
  8
DEFPOINTS
  6
BYBLOCK
 62
     0
 10
2285.3468756983489
 20
2697.5119239607288
 30
0.0
  0
ENDBLK
  5
7D88
  8
0
  0
BLOCK
  8
0
  2
*D2
 70
     1
 10
0.0
 20
0.0
 30
0.0
  3
*D2
  1

  0
LINE
  5
7FAC
  8
3
  6
CONTINUOUS
 62
     0
 10
2285.3468756983489
 20
2859.4728979607289
 30
0.0
 11
2285.3468756983489
 21
2667.5119239607288
 31
0.0
  0
LINE
  5
7FAD
  8
3
  6
CONTINUOUS
 62
     0
 10
3285.3468756983511
 20
2919.1500889607291
 30
0.0
 11
3285.3468756983511
 21
2667.5119239607288
 31
0.0
  0
LINE
  5
7FAE
  8
3
  6
CONTINUOUS
 62
     0
 10
2345.3468756983489
 20
2697.5119239607288
 30
0.0
 11
3225.3468756983511
 21
2697.5119239607288
 31
0.0
  0
INSERT
  5
7FAF
  8
3
  6
CONTINUOUS
 62
     0
  2
_OPEN
 10
2285.3468756983489
 20
2697.5119239607288
 30
0.0
 41
60.0
 42
60.0
 43
60.0
 50
180.0
  0
INSERT
  5
7FB0
  8
3
  6
CONTINUOUS
 62
     0
  2
_OPEN
 10
3285.3468756983511
 20
2697.5119239607288
 30
0.0
 41
60.0
 42
60.0
 43
60.0
  0
TEXT
  8
3
  40
90
  5
8035
  62
0
  72
0
  71
0
 10
2605.35
 20
2613.21
 30
0.000000
  1
1000
  0
POINT
  5
7FB2
  8
DEFPOINTS
  6
CONTINUOUS
 62
     0
 10
2285.3468756983489
 20
2874.472897960728
 30
0.0
  0
POINT
  5
7FB3
  8
DEFPOINTS
  6
CONTINUOUS
 62
     0
 10
3285.3468756983511
 20
2934.1500889607291
 30
0.0
  0
POINT
  5
7FB4
  8
DEFPOINTS
  6
CONTINUOUS
 62
     0
 10
3285.3468756983511
 20
2697.5119239607288
 30
0.0
  0
ENDBLK
  5
7D44
  8
0
  0
BLOCK
  8
0
  2
*D3
 70
     1
 10
0.0
 20
0.0
 30
0.0
  3
*D3
  1

  0
LINE
  5
7FB5
  8
3
  6
CONTINUOUS
 62
     0
 10
1810.3468756983491
 20
3826.1500889607291
 30
0.0
 11
1613.9028356983511
 21
3826.1500889607291
 31
0.0
  0
LINE
  5
7FB6
  8
3
  6
CONTINUOUS
 62
     0
 10
1810.3468756983491
 20
3176.1500889607291
 30
0.0
 11
1613.9028356983511
 21
3176.1500889607291
 31
0.0
  0
LINE
  5
7FB7
  8
3
  6
CONTINUOUS
 62
     0
 10
1643.9028356983511
 20
3766.1500889607291
 30
0.0
 11
1643.9028356983511
 21
3236.1500889607291
 31
0.0
  0
INSERT
  5
7FB8
  8
3
  6
CONTINUOUS
 62
     0
  2
_OPEN
 10
1643.9028356983511
 20
3826.1500889607291
 30
0.0
 41
60.0
 42
60.0
 43
60.0
 50
90.0
  0
INSERT
  5
7FB9
  8
3
  6
CONTINUOUS
 62
     0
  2
_OPEN
 10
1643.9028356983511
 20
3176.1500889607291
 30
0.0
 41
60.0
 42
60.0
 43
60.0
 50
270.0
  0
TEXT
  8
3
  40
90
  5
8036
  62
0
  72
0
  71
0
 10
1388.90
 20
3349.68
 30
0.000000
  1
650
  0
POINT
  5
7FBB
  8
DEFPOINTS
  6
CONTINUOUS
 62
     0
 10
1825.3468756983491
 20
3826.1500889607291
 30
0.0
  0
POINT
  5
7FBC
  8
DEFPOINTS
  6
CONTINUOUS
 62
     0
 10
1825.3468756983491
 20
3176.1500889607291
 30
0.0
  0
POINT
  5
7FBD
  8
DEFPOINTS
  6
CONTINUOUS
 62
     0
 10
1643.9028356983511
 20
3176.1500889607291
 30
0.0
  0
ENDBLK
  5
7D39
  8
0
  0
BLOCK
  8
0
  2
*D4
 70
     1
 10
0.0
 20
0.0
 30
0.0
  3
*D4
  1

  0
LINE
  5
7FBE
  8
3
  6
CONTINUOUS
 62
     0
 10
1893.0682876983501
 20
3854.1500889607282
 30
0.0
 11
1432.2641636983501
 21
3854.1500889607282
 31
0.0
  0
LINE
  5
7FBF
  8
3
  6
CONTINUOUS
 62
     0
 10
1810.3468756983491
 20
3176.1500889607291
 30
0.0
 11
1432.2641636983501
 21
3176.1500889607291
 31
0.0
  0
LINE
  5
7FC0
  8
3
  6
CONTINUOUS
 62
     0
 10
1462.2641636983501
 20
3794.1500889607291
 30
0.0
 11
1462.2641636983501
 21
3236.1500889607291
 31
0.0
  0
INSERT
  5
7FC1
  8
3
  6
CONTINUOUS
 62
     0
  2
_OPEN
 10
1462.2641636983501
 20
3854.1500889607282
 30
0.0
 41
60.0
 42
60.0
 43
60.0
 50
90.0
  0
INSERT
  5
7FC2
  8
3
  6
CONTINUOUS
 62
     0
  2
_OPEN
 10
1462.2641636983501
 20
3176.1500889607291
 30
0.0
 41
60.0
 42
60.0
 43
60.0
 50
270.0
  0
TEXT
  8
3
  40
90
  5
8037
  62
0
  72
0
  71
0
 10
1207.26
 20
3374.60
 30
0.000000
  1
678
  0
POINT
  5
7FC4
  8
DEFPOINTS
  6
CONTINUOUS
 62
     0
 10
1908.0682876983501
 20
3854.1500889607282
 30
0.0
  0
POINT
  5
7FC5
  8
DEFPOINTS
  6
CONTINUOUS
 62
     0
 10
1825.3468756983491
 20
3176.1500889607291
 30
0.0
  0
POINT
  5
7FC6
  8
DEFPOINTS
  6
CONTINUOUS
 62
     0
 10
1462.2641636983501
 20
3176.1500889607291
 30
0.0
  0
ENDBLK
  5
7D2E
  8
0
  0
BLOCK
  8
0
  2
*D5
 70
     1
 10
0.0
 20
0.0
 30
0.0
  3
*D5
  1

  0
LINE
  5
7FC7
  8
3
  6
CONTINUOUS
 62
     0
 10
2270.3468756983489
 20
4307.8490109607292
 30
0.0
 11
1197.202332698351
 21
4307.8490109607301
 31
0.0
  0
LINE
  5
7FC8
  8
3
  6
CONTINUOUS
 62
     0
 10
1893.0682876983501
 20
3854.1500889607282
 30
0.0
 11
1197.202332698351
 21
3854.1500889607282
 31
0.0
  0
LINE
  5
7FC9
  8
3
  6
CONTINUOUS
 62
     0
 10
1227.202332698351
 20
4247.8490109607301
 30
0.0
 11
1227.202332698351
 21
3914.1500889607282
 31
0.0
  0
INSERT
  5
7FCA
  8
3
  6
CONTINUOUS
 62
     0
  2
_OPEN
 10
1227.202332698351
 20
4307.8490109607301
 30
0.0
 41
60.0
 42
60.0
 43
60.0
 50
90.0
  0
INSERT
  5
7FCB
  8
3
  6
CONTINUOUS
 62
     0
  2
_OPEN
 10
1227.202332698351
 20
3854.1500889607282
 30
0.0
 41
60.0
 42
60.0
 43
60.0
 50
270.0
  0
TEXT
  8
3
  40
90
  5
8038
  62
0
  72
0
  71
0
 10
972.202
 20
3940.69
 30
0.000000
  1
454
  0
POINT
  5
7FCD
  8
DEFPOINTS
  6
CONTINUOUS
 62
     0
 10
2285.3468756983489
 20
4307.8490109607292
 30
0.0
  0
POINT
  5
7FCE
  8
DEFPOINTS
  6
CONTINUOUS
 62
     0
 10
1908.0682876983501
 20
3854.1500889607282
 30
0.0
  0
POINT
  5
7FCF
  8
DEFPOINTS
  6
CONTINUOUS
 62
     0
 10
1227.202332698351
 20
3854.1500889607282
 30
0.0
  0
ENDBLK
  5
7D23
  8
0
  0
BLOCK
  8
0
  2
*D6
 70
     1
 10
0.0
 20
0.0
 30
0.0
  3
*D6
  1

  0
LINE
  5
7FD0
  8
3
  6
CONTINUOUS
 62
     0
 10
1893.0682876983501
 20
3854.1500889607282
 30
0.0
 11
1197.202332698351
 21
3854.1500889607282
 31
0.0
  0
LINE
  5
7FD1
  8
3
  6
CONTINUOUS
 62
     0
 10
1870.3468756983491
 20
3054.1500889607291
 30
0.0
 11
1197.2023326983499
 21
3054.1500889607291
 31
0.0
  0
LINE
  5
7FD2
  8
3
  6
CONTINUOUS
 62
     0
 10
1227.202332698351
 20
3794.1500889607291
 30
0.0
 11
1227.2023326983499
 21
3114.1500889607291
 31
0.0
  0
INSERT
  5
7FD3
  8
3
  6
CONTINUOUS
 62
     0
  2
_OPEN
 10
1227.202332698351
 20
3854.1500889607282
 30
0.0
 41
60.0
 42
60.0
 43
60.0
 50
90.0
  0
INSERT
  5
7FD4
  8
3
  6
CONTINUOUS
 62
     0
  2
_OPEN
 10
1227.2023326983499
 20
3054.1500889607291
 30
0.0
 41
60.0
 42
60.0
 43
60.0
 50
270.0
  0
TEXT
  8
3
  40
90
  5
8039
  62
0
  72
0
  71
0
 10
972.202
 20
3294.85
 30
0.000000
  1
800
  0
POINT
  5
7FD6
  8
DEFPOINTS
  6
CONTINUOUS
 62
     0
 10
1908.0682876983501
 20
3854.1500889607282
 30
0.0
  0
POINT
  5
7FD7
  8
DEFPOINTS
  6
CONTINUOUS
 62
     0
 10
1885.3468756983491
 20
3054.1500889607291
 30
0.0
  0
POINT
  5
7FD8
  8
DEFPOINTS
  6
CONTINUOUS
 62
     0
 10
1227.2023326983499
 20
3054.1500889607291
 30
0.0
  0
ENDBLK
  5
7D18
  8
0
  0
BLOCK
  8
0
  2
*D7
 70
     1
 10
0.0
 20
0.0
 30
0.0
  3
*D7
  1

  0
LINE
  5
7FD9
  8
3
  6
CONTINUOUS
 62
     0
 10
1870.3468756983491
 20
3054.1500889607291
 30
0.0
 11
1197.202332698351
 21
3054.1500889607291
 31
0.0
  0
LINE
  5
7FDA
  8
3
  6
CONTINUOUS
 62
     0
 10
1870.3468756983491
 20
2934.1500889607291
 30
0.0
 11
1197.202332698351
 21
2934.1500889607291
 31
0.0
  0
LINE
  5
7FDB
  8
3
  6
CONTINUOUS
 62
     0
 10
1227.202332698351
 20
3114.1500889607291
 30
0.0
 11
1227.202332698351
 21
3174.1500889607291
 31
0.0
  0
LINE
  5
7FDC
  8
3
  6
CONTINUOUS
 62
     0
 10
1227.202332698351
 20
2874.1500889607291
 30
0.0
 11
1227.202332698351
 21
2539.8643746750149
 31
0.0
  0
LINE
  5
7FDD
  8
3
  6
CONTINUOUS
 62
     0
 10
1227.202332698351
 20
3054.1500889607291
 30
0.0
 11
1227.202332698351
 21
2934.1500889607291
 31
0.0
  0
INSERT
  5
7FDE
  8
3
  6
CONTINUOUS
 62
     0
  2
_OPEN
 10
1227.202332698351
 20
3054.1500889607291
 30
0.0
 41
60.0
 42
60.0
 43
60.0
 50
270.0
  0
INSERT
  5
7FDF
  8
3
  6
CONTINUOUS
 62
     0
  2
_OPEN
 10
1227.202332698351
 20
2934.1500889607291
 30
0.0
 41
60.0
 42
60.0
 43
60.0
 50
90.0
  0
TEXT
  8
3
  40
90
  5
803A
  62
0
  72
0
  71
0
 10
972.202
 20
2517.71
 30
0.000000
  1
120
  0
POINT
  5
7FE1
  8
DEFPOINTS
  6
CONTINUOUS
 62
     0
 10
1885.3468756983491
 20
3054.1500889607291
 30
0.0
  0
POINT
  5
7FE2
  8
DEFPOINTS
  6
CONTINUOUS
 62
     0
 10
1885.3468756983491
 20
2934.1500889607291
 30
0.0
  0
POINT
  5
7FE3
  8
DEFPOINTS
  6
CONTINUOUS
 62
     0
 10
1227.202332698351
 20
2934.1500889607291
 30
0.0
  0
ENDBLK
  5
7D0D
  8
0
  0
BLOCK
  8
0
  2
*D8
 70
     1
 10
0.0
 20
0.0
 30
0.0
  3
*D8
  1

  0
LINE
  5
7FE4
  8
3
  6
CONTINUOUS
 62
     0
 10
2270.3468756983489
 20
4307.8490109607292
 30
0.0
 11
979.6459446983506
 21
4307.8490109607301
 31
0.0
  0
LINE
  5
7FE5
  8
3
  6
CONTINUOUS
 62
     0
 10
1870.3468756983491
 20
2934.1500889607291
 30
0.0
 11
979.64594469835026
 21
2934.1500889607291
 31
0.0
  0
LINE
  5
7FE6
  8
3
  6
CONTINUOUS
 62
     0
 10
1009.64594469835
 20
4247.8490109607301
 30
0.0
 11
1009.64594469835
 21
2994.1500889607291
 31
0.0
  0
INSERT
  5
7FE7
  8
3
  6
CONTINUOUS
 62
     0
  2
_OPEN
 10
1009.64594469835
 20
4307.8490109607301
 30
0.0
 41
60.0
 42
60.0
 43
60.0
 50
90.0
  0
INSERT
  5
7FE8
  8
3
  6
CONTINUOUS
 62
     0
  2
_OPEN
 10
1009.64594469835
 20
2934.1500889607291
 30
0.0
 41
60.0
 42
60.0
 43
60.0
 50
270.0
  0
TEXT
  8
3
  40
90
  5
803B
  62
0
  72
0
  71
0
 10
754.646
 20
3509.84
 30
0.000000
  1
1374
  0
POINT
  5
7FEA
  8
DEFPOINTS
  6
CONTINUOUS
 62
     0
 10
2285.3468756983489
 20
4307.8490109607292
 30
0.0
  0
POINT
  5
7FEB
  8
DEFPOINTS
  6
CONTINUOUS
 62
     0
 10
1885.3468756983491
 20
2934.1500889607291
 30
0.0
  0
POINT
  5
7FEC
  8
DEFPOINTS
  6
CONTINUOUS
 62
     0
 10
1009.64594469835
 20
2934.1500889607291
 30
0.0
  0
ENDBLK
  5
7D00
  8
0
  0
BLOCK
  8
0
  2
*D9
 70
     1
 10
0.0
 20
0.0
 30
0.0
  3
*D9
  1

  0
LINE
  5
7FED
  8
3
  6
CONTINUOUS
 62
     0
 10
1825.3468756983491
 20
3883.1500889607291
 30
0.0
 11
1825.3468756983491
 21
4526.3722230367421
 31
0.0
  0
LINE
  5
7FEE
  8
3
  6
CONTINUOUS
 62
     0
 10
2285.3468756983489
 20
4322.8490109607292
 30
0.0
 11
2285.3468756983489
 21
4526.3722230367421
 31
0.0
  0
LINE
  5
7FEF
  8
3
  6
CONTINUOUS
 62
     0
 10
1885.3468756983491
 20
4496.3722230367421
 30
0.0
 11
2225.3468756983489
 21
4496.3722230367421
 31
0.0
  0
INSERT
  5
7FF0
  8
3
  6
CONTINUOUS
 62
     0
  2
_OPEN
 10
1825.3468756983491
 20
4496.3722230367421
 30
0.0
 41
60.0
 42
60.0
 43
60.0
 50
180.0
  0
INSERT
  5
7FF1
  8
3
  6
CONTINUOUS
 62
     0
  2
_OPEN
 10
2285.3468756983489
 20
4496.3722230367421
 30
0.0
 41
60.0
 42
60.0
 43
60.0
  0
TEXT
  8
3
  40
90
  5
803C
  62
0
  72
0
  71
0
 10
1851.06
 20
4412.07
 30
0.000000
  1
460
  0
POINT
  5
7FF3
  8
DEFPOINTS
  6
CONTINUOUS
 62
     0
 10
1825.3468756983491
 20
3868.1500889607282
 30
0.0
  0
POINT
  5
7FF4
  8
DEFPOINTS
  6
CONTINUOUS
 62
     0
 10
2285.3468756983489
 20
4307.8490109607292
 30
0.0
  0
POINT
  5
7FF5
  8
DEFPOINTS
  6
CONTINUOUS
 62
     0
 10
2285.3468756983489
 20
4496.3722230367421
 30
0.0
  0
ENDBLK
  5
7DED
  8
0
  0
BLOCK
  8
0
  2
*D10
 70
     1
 10
0.0
 20
0.0
 30
0.0
  3
*D10
  1

  0
LINE
  5
7FF6
  8
3
  6
CONTINUOUS
 62
     0
 10
2285.3468756983489
 20
4322.8490109607292
 30
0.0
 11
2285.3468756983489
 21
4526.3722230367421
 31
0.0
  0
LINE
  5
7FF7
  8
3
  6
CONTINUOUS
 62
     0
 10
2833.0457966983499
 20
3869.1500889607291
 30
0.0
 11
2833.0457966983499
 21
4526.3722230367421
 31
0.0
  0
LINE
  5
7FF8
  8
3
  6
CONTINUOUS
 62
     0
 10
2345.3468756983489
 20
4496.3722230367421
 30
0.0
 11
2773.0457966983499
 21
4496.3722230367421
 31
0.0
  0
INSERT
  5
7FF9
  8
3
  6
CONTINUOUS
 62
     0
  2
_OPEN
 10
2285.3468756983489
 20
4496.3722230367421
 30
0.0
 41
60.0
 42
60.0
 43
60.0
 50
180.0
  0
INSERT
  5
7FFA
  8
3
  6
CONTINUOUS
 62
     0
  2
_OPEN
 10
2833.0457966983499
 20
4496.3722230367421
 30
0.0
 41
60.0
 42
60.0
 43
60.0
  0
TEXT
  8
3
  40
90
  5
803D
  62
0
  72
0
  71
0
 10
2379.20
 20
4412.07
 30
0.000000
  1
548
  0
POINT
  5
7FFC
  8
DEFPOINTS
  6
CONTINUOUS
 62
     0
 10
2285.3468756983489
 20
4307.8490109607292
 30
0.0
  0
POINT
  5
7FFD
  8
DEFPOINTS
  6
CONTINUOUS
 62
     0
 10
2833.0457966983499
 20
3854.1500889607282
 30
0.0
  0
POINT
  5
7FFE
  8
DEFPOINTS
  6
CONTINUOUS
 62
     0
 10
2833.0457966983499
 20
4496.3722230367421
 30
0.0
  0
ENDBLK
  5
7DE2
  8
0
  0
BLOCK
  8
0
  2
*D11
 70
     1
 10
0.0
 20
0.0
 30
0.0
  3
*D11
  1

  0
LINE
  5
7FFF
  8
3
  6
CONTINUOUS
 62
     0
 10
1885.3468756983491
 20
5570.8769998473581
 30
0.0
 11
1885.3468756983491
 21
5200.8936738473594
 31
0.0
  0
LINE
  5
8000
  8
3
  6
CONTINUOUS
 62
     0
 10
3285.3468756983511
 20
5570.8769998473581
 30
0.0
 11
3285.3468756983511
 21
5200.8936738473594
 31
0.0
  0
LINE
  5
8001
  8
3
  6
CONTINUOUS
 62
     0
 10
1945.3468756983491
 20
5230.8936738473603
 30
0.0
 11
3225.3468756983511
 21
5230.8936738473603
 31
0.0
  0
INSERT
  5
8002
  8
3
  6
CONTINUOUS
 62
     0
  2
_OPEN
 10
1885.3468756983491
 20
5230.8936738473603
 30
0.0
 41
60.0
 42
60.0
 43
60.0
 50
180.0
  0
INSERT
  5
8003
  8
3
  6
CONTINUOUS
 62
     0
  2
_OPEN
 10
3285.3468756983511
 20
5230.8936738473603
 30
0.0
 41
60.0
 42
60.0
 43
60.0
  0
TEXT
  8
3
  40
90
  5
803E
  62
0
  72
0
  71
0
 10
2364.97
 20
5146.59
 30
0.000000
  1
1400
  0
POINT
  5
8005
  8
DEFPOINTS
  6
CONTINUOUS
 62
     0
 10
1885.3468756983491
 20
5585.8769998473581
 30
0.0
  0
POINT
  5
8006
  8
DEFPOINTS
  6
CONTINUOUS
 62
     0
 10
3285.3468756983511
 20
5585.8769998473581
 30
0.0
  0
POINT
  5
8007
  8
DEFPOINTS
  6
CONTINUOUS
 62
     0
 10
3285.3468756983511
 20
5230.8936738473603
 30
0.0
  0
ENDBLK
  5
7CDF
  8
0
  0
BLOCK
  8
0
  2
*D12
 70
     1
 10
0.0
 20
0.0
 30
0.0
  3
*D12
  1

  0
LINE
  5
8008
  8
3
  6
CONTINUOUS
 62
     0
 10
3300.3468756983498
 20
6275.8769998473581
 30
0.0
 11
3579.3281656983509
 21
6275.8769998473581
 31
0.0
  0
LINE
  5
8009
  8
3
  6
CONTINUOUS
 62
     0
 10
3300.3468756983498
 20
5585.8769998473581
 30
0.0
 11
3579.3281656983509
 21
5585.8769998473581
 31
0.0
  0
LINE
  5
800A
  8
3
  6
CONTINUOUS
 62
     0
 10
3549.3281656983509
 20
6215.8769998473581
 30
0.0
 11
3549.3281656983509
 21
5645.876999847359
 31
0.0
  0
INSERT
  5
800B
  8
3
  6
CONTINUOUS
 62
     0
  2
_OPEN
 10
3549.3281656983509
 20
6275.8769998473581
 30
0.0
 41
60.0
 42
60.0
 43
60.0
 50
90.0
  0
INSERT
  5
800C
  8
3
  6
CONTINUOUS
 62
     0
  2
_OPEN
 10
3549.3281656983509
 20
5585.8769998473581
 30
0.0
 41
60.0
 42
60.0
 43
60.0
 50
270.0
  0
TEXT
  8
3
  40
90
  5
803F
  62
0
  72
0
  71
0
 10
3294.33
 20
5794.09
 30
0.000000
  1
690
  0
POINT
  5
800E
  8
DEFPOINTS
  6
CONTINUOUS
 62
     0
 10
3285.3468756983511
 20
6275.8769998473581
 30
0.0
  0
POINT
  5
800F
  8
DEFPOINTS
  6
CONTINUOUS
 62
     0
 10
3285.3468756983511
 20
5585.8769998473581
 30
0.0
  0
POINT
  5
8010
  8
DEFPOINTS
  6
CONTINUOUS
 62
     0
 10
3549.3281656983509
 20
5585.8769998473581
 30
0.0
  0
ENDBLK
  5
7CD4
  8
0
  0
BLOCK
  8
0
  2
*D13
 70
     1
 10
0.0
 20
0.0
 30
0.0
  3
*D13
  1

  0
LINE
  5
8011
  8
3
  6
CONTINUOUS
 62
     0
 10
4368.8104277446246
 20
4325.0500889607292
 30
0.0
 11
4368.8104277446246
 21
4497.796224960729
 31
0.0
  0
LINE
  5
8012
  8
3
  6
CONTINUOUS
 62
     0
 10
4843.8104277446246
 20
4325.0500889607292
 30
0.0
 11
4843.8104277446246
 21
4497.796224960729
 31
0.0
  0
LINE
  5
8013
  8
3
  6
CONTINUOUS
 62
     0
 10
4428.8104277446237
 20
4467.796224960729
 30
0.0
 11
4783.8104277446246
 21
4467.796224960729
 31
0.0
  0
INSERT
  5
8014
  8
3
  6
CONTINUOUS
 62
     0
  2
_OPEN
 10
4368.8104277446246
 20
4467.796224960729
 30
0.0
 41
60.0
 42
60.0
 43
60.0
 50
180.0
  0
INSERT
  5
8015
  8
3
  6
CONTINUOUS
 62
     0
  2
_OPEN
 10
4843.8104277446246
 20
4467.796224960729
 30
0.0
 41
60.0
 42
60.0
 43
60.0
  0
TEXT
  8
3
  40
90
  5
8040
  62
0
  72
0
  71
0
 10
4426.31
 20
4383.50
 30
0.000000
  1
475
  0
POINT
  5
8017
  8
DEFPOINTS
  6
CONTINUOUS
 62
     0
 10
4368.8104277446246
 20
4310.0500889607292
 30
0.0
  0
POINT
  5
8018
  8
DEFPOINTS
  6
CONTINUOUS
 62
     0
 10
4843.8104277446246
 20
4310.0500889607292
 30
0.0
  0
POINT
  5
8019
  8
DEFPOINTS
  6
CONTINUOUS
 62
     0
 10
4843.8104277446246
 20
4467.796224960729
 30
0.0
  0
ENDBLK
  5
7CC9
  8
0
  0
BLOCK
  8
0
  2
*D14
 70
     1
 10
0.0
 20
0.0
 30
0.0
  3
*D14
  1

  0
LINE
  5
801A
  8
3
  6
CONTINUOUS
 62
     0
 10
4126.3104277446237
 20
4059.1500889607291
 30
0.0
 11
4126.3104277446237
 21
4707.3225718149806
 31
0.0
  0
LINE
  5
801B
  8
3
  6
CONTINUOUS
 62
     0
 10
4606.3104277446246
 20
4632.3491471968964
 30
0.0
 11
4606.3104277446246
 21
4707.3225718149806
 31
0.0
  0
LINE
  5
801C
  8
3
  6
CONTINUOUS
 62
     0
 10
4186.3104277446246
 20
4677.3225718149824
 30
0.0
 11
4546.3104277446237
 21
4677.3225718149824
 31
0.0
  0
INSERT
  5
801D
  8
3
  6
CONTINUOUS
 62
     0
  2
_OPEN
 10
4126.3104277446237
 20
4677.3225718149824
 30
0.0
 41
60.0
 42
60.0
 43
60.0
 50
180.0
  0
INSERT
  5
801E
  8
3
  6
CONTINUOUS
 62
     0
  2
_OPEN
 10
4606.3104277446246
 20
4677.3225718149824
 30
0.0
 41
60.0
 42
60.0
 43
60.0
  0
TEXT
  8
3
  40
90
  5
8041
  62
0
  72
0
  71
0
 10
4164.88
 20
4668.02
 30
0.000000
  1
MAX
  0
TEXT
  8
3
  40
90
  5
8042
  62
0
  72
0
  71
0
 10
4164.88
 20
4551.02
 30
0.000000
  1
550
  0
POINT
  5
8020
  8
DEFPOINTS
  6
CONTINUOUS
 62
     0
 10
4126.3104277446237
 20
4044.1500889607291
 30
0.0
  0
POINT
  5
8021
  8
DEFPOINTS
  6
CONTINUOUS
 62
     0
 10
4606.3104277446246
 20
4617.3491471968964
 30
0.0
  0
POINT
  5
8022
  8
DEFPOINTS
  6
CONTINUOUS
 62
     0
 10
4606.3104277446246
 20
4677.3225718149824
 30
0.0
  0
ENDBLK
  5
7E19
  8
0
  0
BLOCK
  8
0
  2
*D15
 70
     1
 10
0.0
 20
0.0
 30
0.0
  3
*D15
  1

  0
LINE
  5
7E05
  8
0
  6
BYBLOCK
 62
     0
 10
4606.3104277446246
 20
4622.365594567771
 30
0.0
 11
4606.3104277446246
 21
4707.3225718149806
 31
0.0
  0
LINE
  5
7E06
  8
0
  6
BYBLOCK
 62
     0
 10
4926.3104277446237
 20
4224.1500889607287
 30
0.0
 11
4926.3104277446237
 21
4707.3225718149806
 31
0.0
  0
LINE
  5
7E07
  8
0
  6
BYBLOCK
 62
     0
 10
4666.3104277446237
 20
4677.3225718149824
 30
0.0
 11
4866.3104277446237
 21
4677.3225718149824
 31
0.0
  0
TEXT
  5
7E08
  8
3
 62
     0
 10
4658.2184681263716
 20
4716.9987475444141
 30
0.0
 40
90.0
  1
320
  0
INSERT
  5
7E09
  8
0
  6
BYBLOCK
 62
     0
  2
_OPEN
 10
4606.3104277446246
 20
4677.3225718149824
 30
0.0
 41
60.0
 42
60.0
 43
60.0
 50
180.0
  0
INSERT
  5
7E0A
  8
0
  6
BYBLOCK
 62
     0
  2
_OPEN
 10
4926.3104277446237
 20
4677.3225718149824
 30
0.0
 41
60.0
 42
60.0
 43
60.0
  0
POINT
  5
7E0B
  8
DEFPOINTS
  6
BYBLOCK
 62
     0
 10
4606.3104277446246
 20
4607.365594567771
 30
0.0
  0
POINT
  5
7E0C
  8
DEFPOINTS
  6
BYBLOCK
 62
     0
 10
4926.3104277446237
 20
4209.1500889607278
 30
0.0
  0
POINT
  5
7E0D
  8
DEFPOINTS
  6
BYBLOCK
 62
     0
 10
4926.3104277446237
 20
4677.3225718149824
 30
0.0
  0
ENDBLK
  5
7E0E
  8
0
  0
BLOCK
  8
0
  2
*D16
 70
     1
 10
0.0
 20
0.0
 30
0.0
  3
*D16
  1

  0
LINE
  5
8023
  8
3
  6
CONTINUOUS
 62
     0
 10
4941.3104277446246
 20
4169.1500889607287
 30
0.0
 11
5165.3886867446254
 21
4169.1500889607287
 31
0.0
  0
LINE
  5
8024
  8
3
  6
CONTINUOUS
 62
     0
 10
4941.3104277446246
 20
3539.1500889607282
 30
0.0
 11
5165.3886867446254
 21
3539.1500889607282
 31
0.0
  0
LINE
  5
8025
  8
3
  6
CONTINUOUS
 62
     0
 10
5135.3886867446263
 20
4109.1500889607287
 30
0.0
 11
5135.3886867446263
 21
3599.1500889607282
 31
0.0
  0
INSERT
  5
8026
  8
3
  6
CONTINUOUS
 62
     0
  2
_OPEN
 10
5135.3886867446263
 20
4169.1500889607287
 30
0.0
 41
60.0
 42
60.0
 43
60.0
 50
90.0
  0
INSERT
  5
8027
  8
3
  6
CONTINUOUS
 62
     0
  2
_OPEN
 10
5135.3886867446263
 20
3539.1500889607282
 30
0.0
 41
60.0
 42
60.0
 43
60.0
 50
270.0
  0
TEXT
  8
3
  40
90
  5
8043
  62
0
  72
0
  71
0
 10
4880.39
 20
3714.13
 30
0.000000
  1
φ630
  0
POINT
  5
8029
  8
DEFPOINTS
  6
CONTINUOUS
 62
     0
 10
4926.3104277446237
 20
4169.1500889607287
 30
0.0
  0
POINT
  5
802A
  8
DEFPOINTS
  6
CONTINUOUS
 62
     0
 10
4926.3104277446237
 20
3539.1500889607282
 30
0.0
  0
POINT
  5
802B
  8
DEFPOINTS
  6
CONTINUOUS
 62
     0
 10
5135.3886867446263
 20
3539.1500889607282
 30
0.0
  0
ENDBLK
  5
7DB4
  8
0
  0
BLOCK
  8
0
  2
*D17
 70
     1
 10
0.0
 20
0.0
 30
0.0
  3
*D17
  1

  0
LINE
  5
7D8A
  8
0
  6
BYBLOCK
 62
     0
 10
4206.3104277446237
 20
2919.1500889607291
 30
0.0
 11
4206.3104277446237
 21
2713.7803199607288
 31
0.0
  0
LINE
  5
7D8B
  8
0
  6
BYBLOCK
 62
     0
 10
4606.3104277446246
 20
2888.9393339607282
 30
0.0
 11
4606.3104277446246
 21
2713.7803199607288
 31
0.0
  0
LINE
  5
7D8C
  8
0
  6
BYBLOCK
 62
     0
 10
4266.3104277446237
 20
2743.7803199607288
 30
0.0
 11
4546.3104277446237
 21
2743.7803199607288
 31
0.0
  0
TEXT
  5
7D8D
  8
3
 62
     0
 10
4290.5961420303393
 20
2758.8302446843409
 30
0.0
 40
90.0
  1
400
  0
INSERT
  5
7D8E
  8
0
  6
BYBLOCK
 62
     0
  2
_OPEN
 10
4206.3104277446237
 20
2743.7803199607288
 30
0.0
 41
60.0
 42
60.0
 43
60.0
 50
180.0
  0
INSERT
  5
7D8F
  8
0
  6
BYBLOCK
 62
     0
  2
_OPEN
 10
4606.3104277446246
 20
2743.7803199607288
 30
0.0
 41
60.0
 42
60.0
 43
60.0
  0
POINT
  5
7D90
  8
DEFPOINTS
  6
BYBLOCK
 62
     0
 10
4206.3104277446237
 20
2934.1500889607291
 30
0.0
  0
POINT
  5
7D91
  8
DEFPOINTS
  6
BYBLOCK
 62
     0
 10
4606.3104277446246
 20
2903.9393339607282
 30
0.0
  0
POINT
  5
7D92
  8
DEFPOINTS
  6
BYBLOCK
 62
     0
 10
4606.3104277446246
 20
2743.7803199607288
 30
0.0
  0
ENDBLK
  5
7D93
  8
0
  0
BLOCK
  8
0
  2
*D18
 70
     1
 10
0.0
 20
0.0
 30
0.0
  3
*D18
  1

  0
LINE
  5
7D95
  8
0
  6
BYBLOCK
 62
     0
 10
4606.3104277446246
 20
2888.9393339607282
 30
0.0
 11
4606.3104277446246
 21
2713.7803199607288
 31
0.0
  0
LINE
  5
7D96
  8
0
  6
BYBLOCK
 62
     0
 10
4896.3104277446246
 20
2919.1500889607291
 30
0.0
 11
4896.3104277446246
 21
2713.7803199607288
 31
0.0
  0
LINE
  5
7D97
  8
0
  6
BYBLOCK
 62
     0
 10
4666.3104277446237
 20
2743.7803199607288
 30
0.0
 11
4836.3104277446237
 21
2743.7803199607288
 31
0.0
  0
TEXT
  5
7D98
  8
3
 62
     0
 10
4635.4676581461872
 20
2773.984941014412
 30
0.0
 40
90.0
  1
290
  0
INSERT
  5
7D99
  8
0
  6
BYBLOCK
 62
     0
  2
_OPEN
 10
4606.3104277446246
 20
2743.7803199607288
 30
0.0
 41
60.0
 42
60.0
 43
60.0
 50
180.0
  0
INSERT
  5
7D9A
  8
0
  6
BYBLOCK
 62
     0
  2
_OPEN
 10
4896.3104277446246
 20
2743.7803199607288
 30
0.0
 41
60.0
 42
60.0
 43
60.0
  0
POINT
  5
7D9B
  8
DEFPOINTS
  6
BYBLOCK
 62
     0
 10
4606.3104277446246
 20
2903.9393339607282
 30
0.0
  0
POINT
  5
7D9C
  8
DEFPOINTS
  6
BYBLOCK
 62
     0
 10
4896.3104277446246
 20
2934.1500889607291
 30
0.0
  0
POINT
  5
7D9D
  8
DEFPOINTS
  6
BYBLOCK
 62
     0
 10
4896.3104277446246
 20
2743.7803199607288
 30
0.0
  0
ENDBLK
  5
7D9E
  8
0
  0
BLOCK
  8
0
  2
*D19
 70
     1
 10
0.0
 20
0.0
 30
0.0
  3
*D19
  1

  0
LINE
  5
802C
  8
3
 62
     0
 10
1825.3468756983491
 20
3883.1500889607291
 30
0.0
 11
1825.3468756983491
 21
4706.0175439350351
 31
0.0
  0
LINE
  5
802D
  8
3
 62
     0
 10
3285.3468756983511
 20
3169.1500889607291
 30
0.0
 11
3285.3468756983511
 21
4706.0175439350351
 31
0.0
  0
LINE
  5
802E
  8
3
 62
     0
 10
1885.3468756983491
 20
4676.0175439350342
 30
0.0
 11
3225.3468756983511
 21
4676.0175439350342
 31
0.0
  0
INSERT
  5
802F
  8
3
 62
     0
  2
_OPEN
 10
1825.3468756983491
 20
4676.0175439350342
 30
0.0
 41
60.0
 42
60.0
 43
60.0
 50
180.0
  0
INSERT
  5
8030
  8
3
 62
     0
  2
_OPEN
 10
3285.3468756983511
 20
4676.0175439350342
 30
0.0
 41
60.0
 42
60.0
 43
60.0
  0
TEXT
  8
3
  40
90
  5
8044
  62
0
  72
0
  71
0
 10
2364.35
 20
4591.72
 30
0.000000
  1
1460
  0
POINT
  5
8032
  8
DEFPOINTS
 62
     0
 10
1825.3468756983491
 20
3868.1500889607282
 30
0.0
  0
POINT
  5
8033
  8
DEFPOINTS
 62
     0
 10
3285.3468756983511
 20
3154.1500889607291
 30
0.0
  0
POINT
  5
8034
  8
DEFPOINTS
 62
     0
 10
3285.3468756983511
 20
4676.0175439350342
 30
0.0
  0
ENDBLK
  5
7DD7
  8
0
  0
ENDSEC
  0
SECTION
  2
ENTITIES
  0
LINE
  5
7A6F
  8
1
  6
CONTINUOUS
 10
1885.3468756983491
 20
2934.1500889607291
 30
0.0
 11
3285.3468756983511
 21
2934.1500889607291
 31
0.0
  0
LINE
  5
7A70
  8
1
  6
CONTINUOUS
 10
1885.3468756983491
 20
3034.1500889607291
 30
0.0
 11
3285.3468756983511
 21
3034.1500889607291
 31
0.0
  0
CIRCLE
  5
7A71
  8
1
  6
CONTINUOUS
 10
2285.3468756983489
 20
3854.1500889607282
 30
0.0
 40
355.0
  0
LINE
  5
7A72
  8
1
  6
CONTINUOUS
 10
1885.3468756983491
 20
3154.1500889607291
 30
0.0
 11
3285.3468756983511
 21
3154.1500889607291
 31
0.0
  0
ARC
  5
7A73
  8
1
  6
CONTINUOUS
 10
2323.3468756983489
 20
3892.1500889607291
 30
0.0
 40
417.39999999999992
 50
96.0
 51
180.0
  0
LINE
  5
7A74
  8
1
  6
CONTINUOUS
 10
1825.3468756983491
 20
3176.1500889607291
 30
0.0
 11
2285.3468756983489
 21
3212.1500889607291
 31
0.0
  0
LINE
  5
7A75
  8
1
  6
CONTINUOUS
 10
1885.3468756983491
 20
3054.1500889607291
 30
0.0
 11
3285.3468756983511
 21
3054.1500889607291
 31
0.0
  0
LINE
  5
7A76
  8
1
  6
CONTINUOUS
 10
1865.3468756983491
 20
3826.1500889607291
 30
0.0
 11
1865.3468756983491
 21
3176.1500889607291
 31
0.0
  0
LINE
  5
7A77
  8
1
  6
CONTINUOUS
 10
1825.3468756983491
 20
3868.1500889607282
 30
0.0
 11
1825.3468756983491
 21
3134.1500889607291
 31
0.0
  0
LINE
  5
7A78
  8
1
  6
CONTINUOUS
 10
1885.3468756983491
 20
3034.1500889607291
 30
0.0
 11
1885.3468756983491
 21
2934.1500889607291
 31
0.0
  0
LINE
  5
7A79
  8
1
  6
CONTINUOUS
 10
1885.3468756983491
 20
3154.1500889607291
 30
0.0
 11
1885.3468756983491
 21
3054.1500889607291
 31
0.0
  0
ARC
  5
7A7A
  8
1
  6
CONTINUOUS
 10
2247.3468756983489
 20
3892.1500889607291
 30
0.0
 40
341.39999999999992
 50
180.0
 51
191.09999999999999
  0
LINE
  5
7A7B
  8
1
  6
CONTINUOUS
 10
1912.446875698349
 20
3826.1500889607291
 30
0.0
 11
1825.3468756983491
 21
3826.1500889607291
 31
0.0
  0
ARC
  5
7A7C
  8
1
  6
CONTINUOUS
 10
2332.3468756983489
 20
3807.1500889607282
 30
0.0
 40
502.89999999999992
 50
0.0
 51
96.0
  0
ARC
  5
7A7D
  8
1
  6
CONTINUOUS
 10
2238.3468756983489
 20
3807.1500889607282
 30
0.0
 40
596.89999999999998
 50
274.5
 51
0.0
  0
LINE
  5
7A7E
  8
1
  6
CONTINUOUS
 10
3149.04687569835
 20
3389.5500889607292
 30
0.0
 11
2335.04687569835
 21
3929.1500889607282
 31
0.0
  0
LINE
  5
7A7F
  8
1
  6
CONTINUOUS
 10
3204.2468756983508
 20
3472.850088960729
 30
0.0
 11
2390.3468756983489
 21
4012.5500889607292
 31
0.0
  0
LINE
  5
7A80
  8
1
  6
CONTINUOUS
 10
3074.04687569835
 20
3271.350088960728
 30
0.0
 11
2238.7468756983508
 21
3777.250088960729
 31
0.0
  0
LINE
  5
7A81
  8
1
  6
CONTINUOUS
 10
3022.2468756983508
 20
3185.750088960729
 30
0.0
 11
2186.9468756983488
 21
3691.6500889607282
 31
0.0
  0
CIRCLE
  5
7A82
  8
1
  6
CONTINUOUS
 10
2285.3468756983489
 20
3854.1500889607282
 30
0.0
 40
315.0
  0
ARC
  5
7A83
  8
1
  6
CONTINUOUS
 10
2285.3468756983489
 20
3854.1500889607282
 30
0.0
 40
190.0
 50
56.5
 51
238.80000000000001
  0
LINE
  5
7A84
  8
2
  6
CENTER
 10
4918.6925177446237
 20
3854.1500889607282
 30
0.0
 11
4061.0739848343801
 21
3854.1500889607282
 31
0.0
  0
CIRCLE
  5
7A85
  8
1
  6
CONTINUOUS
 10
2285.3468756983489
 20
3854.1500889607282
 30
0.0
 40
90.0
  0
LINE
  5
7A86
  8
2
  6
CENTER
 10
2285.3468756983489
 20
6380.3982598473604
 30
0.0
 11
2285.3468756983489
 21
5317.6546248473578
 31
0.0
  0
ARC
  5
7A87
  8
1
  6
CONTINUOUS
 10
3110.3468756983511
 20
3331.1500889607291
 30
0.0
 40
170.0
 50
238.80000000000001
 51
56.5
  0
LINE
  5
7A88
  8
2
  6
CENTER
 10
3110.3468756983511
 20
3261.1500889607291
 30
0.0
 11
3110.3468756983511
 21
3401.1500889607291
 31
0.0
  0
CIRCLE
  5
7A89
  8
1
  6
CONTINUOUS
 10
3110.3468756983511
 20
3331.1500889607291
 30
0.0
 40
70.0
  0
ARC
  5
7A8A
  8
1
  6
CONTINUOUS
 10
3110.3468756983511
 20
3331.1500889607291
 30
0.0
 40
142.0
 50
324.60000000000002
 51
215.39999999999989
  0
LINE
  5
7A8B
  8
2
  6
CENTER
 10
3180.3468756983511
 20
3331.1500889607291
 30
0.0
 11
3040.3468756983511
 21
3331.1500889607291
 31
0.0
  0
LINE
  5
7A8C
  8
1
  6
CONTINUOUS
 10
2945.3468756983511
 20
3199.1500889607291
 30
0.0
 11
3275.3468756983511
 21
3199.1500889607291
 31
0.0
  0
LINE
  5
7A8D
  8
1
  6
CONTINUOUS
 10
2935.3468756983511
 20
3154.1500889607291
 30
0.0
 11
2945.3468756983511
 21
3199.1500889607291
 31
0.0
  0
LINE
  5
7A8E
  8
1
  6
CONTINUOUS
 10
2980.3468756983511
 20
3214.1500889607291
 30
0.0
 11
2994.64687569835
 21
3248.9500889607289
 31
0.0
  0
LINE
  5
7A8F
  8
1
  6
CONTINUOUS
 10
2980.3468756983511
 20
3199.1500889607291
 30
0.0
 11
2980.3468756983511
 21
3214.1500889607291
 31
0.0
  0
LINE
  5
7A90
  8
1
  6
CONTINUOUS
 10
3285.3468756983511
 20
3034.1500889607291
 30
0.0
 11
3285.3468756983511
 21
2934.1500889607291
 31
0.0
  0
LINE
  5
7A91
  8
1
  6
CONTINUOUS
 10
3275.3468756983511
 20
3199.1500889607291
 30
0.0
 11
3285.3468756983511
 21
3154.1500889607291
 31
0.0
  0
LINE
  5
7A92
  8
1
  6
CONTINUOUS
 10
3240.3468756983511
 20
3199.1500889607291
 30
0.0
 11
3240.3468756983511
 21
3214.1500889607291
 31
0.0
  0
LINE
  5
7A93
  8
1
  6
CONTINUOUS
 10
3240.3468756983511
 20
3214.1500889607291
 30
0.0
 11
3226.04687569835
 21
3248.9500889607289
 31
0.0
  0
LINE
  5
7A94
  8
1
  6
CONTINUOUS
 10
3285.3468756983511
 20
3154.1500889607291
 30
0.0
 11
3285.3468756983511
 21
3054.1500889607291
 31
0.0
  0
LINE
  5
7A95
  8
1
  6
CONTINUOUS
 10
1930.3468756983491
 20
6305.8769998473581
 30
0.0
 11
2640.3468756983489
 21
6305.8769998473581
 31
0.0
  0
LINE
  5
7A96
  8
1
  6
CONTINUOUS
 10
1825.3468756983491
 20
5748.376999847359
 30
0.0
 11
2835.2468756983499
 21
5748.376999847359
 31
0.0
  0
LINE
  5
7A97
  8
1
  6
CONTINUOUS
 10
1825.3468756983491
 20
6223.3769998473581
 30
0.0
 11
2835.2468756983499
 21
6223.3769998473581
 31
0.0
  0
LINE
  5
7A98
  8
1
  6
CONTINUOUS
 10
1885.3468756983491
 20
6275.8769998473581
 30
0.0
 11
1970.3468756983491
 21
6275.8769998473581
 31
0.0
  0
LINE
  5
7A99
  8
1
  6
CONTINUOUS
 10
1885.3468756983491
 20
5585.8769998473581
 30
0.0
 11
2195.3468756983489
 21
5585.8769998473581
 31
0.0
  0
LINE
  5
7A9A
  8
1
  6
CONTINUOUS
 10
1825.3468756983491
 20
5708.376999847359
 30
0.0
 11
1825.3468756983491
 21
6263.3769998473581
 31
0.0
  0
LINE
  5
7A9B
  8
1
  6
CONTINUOUS
 10
1865.3468756983491
 20
5748.376999847359
 30
0.0
 11
1865.3468756983491
 21
6223.3769998473581
 31
0.0
  0
LINE
  5
7A9C
  8
1
  6
CONTINUOUS
 10
1885.3468756983491
 20
5748.376999847359
 30
0.0
 11
1885.3468756983491
 21
5585.8769998473581
 31
0.0
  0
LINE
  5
7A9D
  8
1
  6
CONTINUOUS
 10
1885.3468756983491
 20
6275.8769998473581
 30
0.0
 11
1885.3468756983491
 21
6223.3769998473581
 31
0.0
  0
LINE
  5
7A9E
  8
1
  6
CONTINUOUS
 10
2095.3468756983489
 20
5665.8769998473581
 30
0.0
 11
3310.3468756983511
 21
5665.8769998473581
 31
0.0
  0
LINE
  5
7A9F
  8
1
  6
CONTINUOUS
 10
2095.3468756983489
 20
5505.8769998473581
 30
0.0
 11
3310.3468756983511
 21
5505.8769998473581
 31
0.0
  0
LINE
  5
7AA0
  8
1
  6
CONTINUOUS
 10
2600.3468756983489
 20
6275.8769998473581
 30
0.0
 11
3285.3468756983511
 21
6275.8769998473581
 31
0.0
  0
LINE
  5
7AA1
  8
1
  6
CONTINUOUS
 10
2375.3468756983489
 20
5585.8769998473581
 30
0.0
 11
3040.3468756983511
 21
5585.8769998473581
 31
0.0
  0
LINE
  5
7AA2
  8
1
  6
CONTINUOUS
 10
2375.3468756983489
 20
5625.8769998473581
 30
0.0
 11
2195.3468756983489
 21
5625.8769998473581
 31
0.0
  0
LINE
  5
7AA3
  8
1
  6
CONTINUOUS
 10
2375.3468756983489
 20
5545.8769998473581
 30
0.0
 11
2195.3468756983489
 21
5545.8769998473581
 31
0.0
  0
LINE
  5
7AA4
  8
1
  6
CONTINUOUS
 10
2195.3468756983489
 20
5545.8769998473581
 30
0.0
 11
2195.3468756983489
 21
5625.8769998473581
 31
0.0
  0
LINE
  5
7AA5
  8
1
  6
CONTINUOUS
 10
2095.3468756983489
 20
5505.8769998473581
 30
0.0
 11
2095.3468756983489
 21
5665.8769998473581
 31
0.0
  0
LINE
  5
7AA6
  8
1
  6
CONTINUOUS
 10
2304.3468756983489
 20
5625.8769998473581
 30
0.0
 11
2304.3468756983489
 21
5748.376999847359
 31
0.0
  0
LINE
  5
7AA7
  8
1
  6
CONTINUOUS
 10
2266.3468756983489
 20
5625.8769998473581
 30
0.0
 11
2266.3468756983489
 21
5748.376999847359
 31
0.0
  0
LINE
  5
7AA8
  8
1
  6
CONTINUOUS
 10
2375.3468756983489
 20
5545.8769998473581
 30
0.0
 11
2375.3468756983489
 21
5625.8769998473581
 31
0.0
  0
LINE
  5
7AA9
  8
1
  6
CONTINUOUS
 10
1970.3468756983491
 20
6305.8769998473581
 30
0.0
 11
1970.3468756983491
 21
6223.3769998473581
 31
0.0
  0
LINE
  5
7AAA
  8
1
  6
CONTINUOUS
 10
2835.2468756983499
 20
5748.376999847359
 30
0.0
 11
2835.2468756983499
 21
6223.3769998473581
 31
0.0
  0
LINE
  5
7AAB
  8
1
  6
CONTINUOUS
 10
2600.3468756983489
 20
6305.8769998473581
 30
0.0
 11
2600.3468756983489
 21
6223.3769998473581
 31
0.0
  0
LINE
  5
7AAC
  8
1
  6
CONTINUOUS
 10
3285.3468756983511
 20
6275.8769998473581
 30
0.0
 11
3285.3468756983511
 21
5585.8769998473581
 31
0.0
  0
LINE
  5
7AAD
  8
1
  6
CONTINUOUS
 10
3252.3468756983511
 20
5718.4769998473575
 30
0.0
 11
3252.3468756983511
 21
6118.4769998473575
 31
0.0
  0
LINE
  5
7AAE
  8
1
  6
CONTINUOUS
 10
2968.3468756983511
 20
5718.4769998473575
 30
0.0
 11
2968.3468756983511
 21
6118.4769998473575
 31
0.0
  0
LINE
  5
7AAF
  8
1
  6
CONTINUOUS
 10
3180.3468756983511
 20
5545.8769998473581
 30
0.0
 11
3040.3468756983511
 21
5545.8769998473581
 31
0.0
  0
LINE
  5
7AB0
  8
1
  6
CONTINUOUS
 10
3180.3468756983511
 20
5625.8769998473581
 30
0.0
 11
3040.3468756983511
 21
5625.8769998473581
 31
0.0
  0
LINE
  5
7AB1
  8
1
  6
CONTINUOUS
 10
3252.3468756983511
 20
5718.4769998473575
 30
0.0
 11
2968.3468756983511
 21
5718.4769998473575
 31
0.0
  0
LINE
  5
7AB2
  8
1
  6
CONTINUOUS
 10
3040.3468756983511
 20
5545.8769998473581
 30
0.0
 11
3040.3468756983511
 21
5625.8769998473581
 31
0.0
  0
LINE
  5
7AB3
  8
1
  6
CONTINUOUS
 10
3091.3468756983511
 20
5625.8769998473581
 30
0.0
 11
3091.3468756983511
 21
5718.4769998473575
 31
0.0
  0
LINE
  5
7AB4
  8
1
  6
CONTINUOUS
 10
3180.3468756983511
 20
5545.8769998473581
 30
0.0
 11
3180.3468756983511
 21
5625.8769998473581
 31
0.0
  0
LINE
  5
7AB5
  8
1
  6
CONTINUOUS
 10
3310.3468756983511
 20
5505.8769998473581
 30
0.0
 11
3310.3468756983511
 21
5665.8769998473581
 31
0.0
  0
LINE
  5
7AB6
  8
1
  6
CONTINUOUS
 10
3129.3468756983511
 20
5625.8769998473581
 30
0.0
 11
3129.3468756983511
 21
5718.4769998473575
 31
0.0
  0
LINE
  5
7AB7
  8
1
  6
CONTINUOUS
 10
3180.3468756983511
 20
5585.8769998473581
 30
0.0
 11
3285.3468756983511
 21
5585.8769998473581
 31
0.0
  0
LINE
  5
7AB8
  8
1
  6
CONTINUOUS
 10
3252.3468756983511
 20
6118.4769998473575
 30
0.0
 11
2968.3468756983511
 21
6118.4769998473575
 31
0.0
  0
LINE
  5
7AB9
  8
1
  6
CONTINUOUS
 10
4368.8104277446246
 20
3826.1500889607291
 30
0.0
 11
4843.8104277446246
 21
3826.1500889607291
 31
0.0
  0
LINE
  5
7ABA
  8
1
  6
CONTINUOUS
 10
4896.3104277446246
 20
3154.1500889607291
 30
0.0
 11
4206.3104277446237
 21
3154.1500889607291
 31
0.0
  0
LINE
  5
7ABB
  8
1
  6
CONTINUOUS
 10
4896.3104277446246
 20
3054.1500889607291
 30
0.0
 11
4206.3104277446237
 21
3054.1500889607291
 31
0.0
  0
LINE
  5
7ABC
  8
1
  6
CONTINUOUS
 10
4368.8104277446246
 20
4310.0500889607292
 30
0.0
 11
4843.8104277446246
 21
4310.0500889607292
 31
0.0
  0
LINE
  5
7ABD
  8
1
  6
CONTINUOUS
 10
4368.8104277446246
 20
3176.1500889607291
 30
0.0
 11
4843.8104277446246
 21
3176.1500889607291
 31
0.0
  0
LINE
  5
7ABE
  8
1
  6
CONTINUOUS
 10
4368.8104277446246
 20
3826.1500889607291
 30
0.0
 11
4843.8104277446246
 21
3176.1500889607291
 31
0.0
  0
LINE
  5
7ABF
  8
1
  6
CONTINUOUS
 10
4368.8104277446246
 20
3176.1500889607291
 30
0.0
 11
4843.8104277446246
 21
3826.1500889607291
 31
0.0
  0
LINE
  5
7AC0
  8
1
  6
CONTINUOUS
 10
4896.3104277446246
 20
3034.1500889607291
 30
0.0
 11
4206.3104277446237
 21
3034.1500889607291
 31
0.0
  0
LINE
  5
7AC1
  8
1
  6
CONTINUOUS
 10
4896.3104277446246
 20
2934.1500889607291
 30
0.0
 11
4206.3104277446237
 21
2934.1500889607291
 31
0.0
  0
LINE
  5
7AC2
  8
1
  6
CONTINUOUS
 10
4368.8104277446246
 20
4310.0500889607292
 30
0.0
 11
4368.8104277446246
 21
3154.1500889607291
 31
0.0
  0
LINE
  5
7AC3
  8
1
  6
CONTINUOUS
 10
4368.8104277446246
 20
3873.1500889607291
 30
0.0
 11
4246.3104277446237
 21
3873.1500889607291
 31
0.0
  0
LINE
  5
7AC4
  8
1
  6
CONTINUOUS
 10
4368.8104277446246
 20
3835.1500889607291
 30
0.0
 11
4246.3104277446237
 21
3835.1500889607291
 31
0.0
  0
LINE
  5
7AC5
  8
1
  6
CONTINUOUS
 10
4368.8104277446246
 20
3312.1500889607291
 30
0.0
 11
4246.3104277446237
 21
3312.1500889607291
 31
0.0
  0
LINE
  5
7AC6
  8
1
  6
CONTINUOUS
 10
4368.8104277446246
 20
3350.1500889607291
 30
0.0
 11
4246.3104277446237
 21
3350.1500889607291
 31
0.0
  0
LINE
  5
7AC7
  8
1
  6
CONTINUOUS
 10
4126.3104277446237
 20
4044.1500889607291
 30
0.0
 11
4126.3104277446237
 21
3161.1500889607291
 31
0.0
  0
LINE
  5
7AC8
  8
1
  6
CONTINUOUS
 10
4286.3104277446237
 20
4044.1500889607291
 30
0.0
 11
4286.3104277446237
 21
3161.1500889607291
 31
0.0
  0
LINE
  5
7AC9
  8
1
  6
CONTINUOUS
 10
4166.3104277446237
 20
3401.1500889607291
 30
0.0
 11
4166.3104277446237
 21
3261.1500889607291
 31
0.0
  0
LINE
  5
7ACA
  8
1
  6
CONTINUOUS
 10
4246.3104277446237
 20
3401.1500889607291
 30
0.0
 11
4246.3104277446237
 21
3261.1500889607291
 31
0.0
  0
LINE
  5
7ACD
  8
1
  6
CONTINUOUS
 10
4206.3104277446237
 20
3154.1500889607291
 30
0.0
 11
4206.3104277446237
 21
3054.1500889607291
 31
0.0
  0
LINE
  5
7ACE
  8
1
  6
CONTINUOUS
 10
4126.3104277446237
 20
3161.1500889607291
 30
0.0
 11
4286.3104277446237
 21
3161.1500889607291
 31
0.0
  0
LINE
  5
7ACF
  8
1
  6
CONTINUOUS
 10
4166.3104277446237
 20
3261.1500889607291
 30
0.0
 11
4246.3104277446237
 21
3261.1500889607291
 31
0.0
  0
POINT
  5
7AD0
  8
1
  6
CONTINUOUS
 10
4206.3104277446237
 20
3034.1500889607291
 30
0.0
  0
LINE
  5
7AD1
  8
1
  6
CONTINUOUS
 10
4206.3104277446237
 20
3034.1500889607291
 30
0.0
 11
4206.3104277446237
 21
2934.1500889607291
 31
0.0
  0
LINE
  5
7AD2
  8
1
  6
CONTINUOUS
 10
4126.3104277446237
 20
4044.1500889607291
 30
0.0
 11
4286.3104277446237
 21
4044.1500889607291
 31
0.0
  0
LINE
  5
7AD3
  8
1
  6
CONTINUOUS
 10
4166.3104277446237
 20
3944.1500889607291
 30
0.0
 11
4246.3104277446237
 21
3944.1500889607291
 31
0.0
  0
LINE
  5
7AD4
  8
1
  6
CONTINUOUS
 10
4166.3104277446237
 20
3764.1500889607282
 30
0.0
 11
4246.3104277446237
 21
3764.1500889607282
 31
0.0
  0
LINE
  5
7AD5
  8
1
  6
CONTINUOUS
 10
4166.3104277446237
 20
3401.1500889607291
 30
0.0
 11
4246.3104277446237
 21
3401.1500889607291
 31
0.0
  0
LINE
  5
7AD6
  8
1
  6
CONTINUOUS
 10
4166.3104277446237
 20
3944.1500889607291
 30
0.0
 11
4166.3104277446237
 21
3764.1500889607282
 31
0.0
  0
LINE
  5
7AD7
  8
1
  6
CONTINUOUS
 10
4246.3104277446237
 20
3944.1500889607291
 30
0.0
 11
4246.3104277446237
 21
3764.1500889607282
 31
0.0
  0
LINE
  5
7AD8
  8
1
  6
CONTINUOUS
 10
4843.8104277446246
 20
4310.0500889607292
 30
0.0
 11
4843.8104277446246
 21
3154.1500889607291
 31
0.0
  0
LINE
  5
7AD9
  8
1
  6
CONTINUOUS
 10
4926.3104277446237
 20
4209.1500889607278
 30
0.0
 11
4926.3104277446237
 21
3499.1500889607282
 31
0.0
  0
LINE
  5
7ADA
  8
1
  6
CONTINUOUS
 10
4896.3104277446246
 20
3154.1500889607291
 30
0.0
 11
4896.3104277446246
 21
3054.1500889607291
 31
0.0
  0
LINE
  5
7ADB
  8
1
  6
CONTINUOUS
 10
4896.3104277446246
 20
3034.1500889607291
 30
0.0
 11
4896.3104277446246
 21
2934.1500889607291
 31
0.0
  0
LINE
  5
7ADC
  8
1
  6
CONTINUOUS
 10
4843.8104277446246
 20
3539.1500889607282
 30
0.0
 11
4926.3104277446237
 21
3539.1500889607282
 31
0.0
  0
LINE
  5
7ADD
  8
1
  6
CONTINUOUS
 10
4843.8104277446246
 20
4169.1500889607287
 30
0.0
 11
4926.3104277446237
 21
4169.1500889607287
 31
0.0
  0
DIMENSION
  5
7AF3
  8
3
  6
CONTINUOUS
  2
*D1
 10
2285.3468756983489
 20
2697.5119239607288
 30
0.0
 11
2085.3468756983489
 21
2773.5208765799398
 31
0.0
 70
   128
 13
1885.3468756983491
 23
2934.1500889607291
 33
0.0
 14
2285.3468756983489
 24
2874.472897960728
 34
0.0
1001
ACAD
1000
DSTYLE
1002
{
1070
   288
1070
     1
1070
   172
1070
     1
1070
    40
1040
30.0
1070
   271
1070
     0
1070
   143
1040
0.039
1002
}
  0
DIMENSION
  5
7AFF
  8
3
  6
CONTINUOUS
  2
*D2
 10
3285.3468756983511
 20
2697.5119239607288
 30
0.0
 11
2785.3468756983498
 21
2772.5119239607288
 31
0.0
 70
     0
 13
2285.3468756983489
 23
2874.472897960728
 33
0.0
 14
3285.3468756983511
 24
2934.1500889607291
 34
0.0
1001
ACAD
1000
DSTYLE
1002
{
1070
   287
1070
     3
1070
   287
1070
     3
1070
    40
1040
30.0
1070
   143
1040
0.039
1070
   172
1070
     1
1070
   271
1070
     0
1070
   279
1070
     0
1070
   288
1070
     1
1002
}
  0
DIMENSION
  5
7B0C
  8
3
  6
CONTINUOUS
  2
*D3
 10
1643.9028356983511
 20
3176.1500889607291
 30
0.0
 11
1643.9028356983511
 21
3508.9847349607289
 31
0.0
 70
   128
 13
1825.3468756983491
 23
3826.1500889607291
 33
0.0
 14
1825.3468756983491
 24
3176.1500889607291
 34
0.0
 50
90.0
1001
ACAD
1000
DSTYLE
1002
{
1070
   287
1070
     3
1070
   287
1070
     3
1070
    40
1040
30.0
1070
   143
1040
0.039
1070
   172
1070
     1
1070
   271
1070
     0
1070
   279
1070
     0
1070
   288
1070
     1
1002
}
  0
DIMENSION
  5
7B19
  8
3
  6
CONTINUOUS
  2
*D4
 10
1462.2641636983501
 20
3176.1500889607291
 30
0.0
 11
1462.2641636983501
 21
3533.898391960729
 31
0.0
 70
   128
 13
1908.0682876983501
 23
3854.1500889607282
 33
0.0
 14
1825.3468756983491
 24
3176.1500889607291
 34
0.0
 50
90.0
1001
ACAD
1000
DSTYLE
1002
{
1070
   287
1070
     3
1070
   287
1070
     3
1070
    40
1040
30.0
1070
   143
1040
0.039
1070
   172
1070
     1
1070
   271
1070
     0
1070
   279
1070
     0
1070
   288
1070
     1
1002
}
  0
DIMENSION
  5
7B28
  8
3
  6
CONTINUOUS
  2
*D5
 10
1227.202332698351
 20
3854.1500889607282
 30
0.0
 11
1227.2023326983499
 21
4099.9918681035851
 31
0.0
 70
   128
 13
2285.3468756983489
 23
4307.8490109607292
 33
0.0
 14
1908.0682876983501
 24
3854.1500889607282
 34
0.0
 50
90.0
1001
ACAD
1000
DSTYLE
1002
{
1070
   287
1070
     3
1070
   287
1070
     3
1070
    40
1040
30.0
1070
   143
1040
0.039
1070
   172
1070
     1
1070
   271
1070
     0
1070
   279
1070
     0
1070
   288
1070
     1
1002
}
  0
DIMENSION
  5
7B34
  8
3
  6
CONTINUOUS
  2
*D6
 10
1227.2023326983499
 20
3054.1500889607291
 30
0.0
 11
1152.2023326983499
 21
3454.15008896073
 31
0.0
 70
     0
 13
1908.0682876983501
 23
3854.1500889607282
 33
0.0
 14
1885.3468756983491
 24
3054.1500889607291
 34
0.0
 50
90.0
1001
ACAD
1000
DSTYLE
1002
{
1070
   287
1070
     3
1070
   287
1070
     3
1070
    40
1040
30.0
1070
   143
1040
0.039
1070
   172
1070
     1
1070
   271
1070
     0
1070
   279
1070
     0
1070
   288
1070
     1
1002
}
  0
DIMENSION
  5
7B44
  8
3
  6
CONTINUOUS
  2
*D7
 10
1227.202332698351
 20
2934.1500889607291
 30
0.0
 11
1227.2023326983499
 21
2677.0072318178732
 31
0.0
 70
   128
 13
1885.3468756983491
 23
3054.1500889607291
 33
0.0
 14
1885.3468756983491
 24
2934.1500889607291
 34
0.0
 50
90.0
1001
ACAD
1000
DSTYLE
1002
{
1070
   287
1070
     3
1070
   287
1070
     3
1070
    40
1040
30.0
1070
   143
1040
0.039
1070
   172
1070
     1
1070
   271
1070
     0
1070
   279
1070
     0
1070
   288
1070
     1
1002
}
  0
DIMENSION
  5
7B6B
  8
3
  6
CONTINUOUS
  2
*D8
 10
1009.64594469835
 20
2934.1500889607291
 30
0.0
 11
1009.64594469835
 21
3669.143844960729
 31
0.0
 70
   128
 13
2285.3468756983489
 23
4307.8490109607292
 33
0.0
 14
1885.3468756983491
 24
2934.1500889607291
 34
0.0
 50
90.0
1001
ACAD
1000
DSTYLE
1002
{
1070
   287
1070
     3
1070
   287
1070
     3
1070
    40
1040
30.0
1070
   143
1040
0.039
1070
   172
1070
     1
1070
   271
1070
     0
1070
   279
1070
     0
1070
   288
1070
     1
1002
}
  0
DIMENSION
  5
7B7A
  8
3
  6
CONTINUOUS
  2
*D9
 10
2285.3468756983489
 20
4496.3722230367421
 30
0.0
 11
2031.0611614126351
 21
4496.3722230367421
 31
0.0
 70
   128
 13
1825.3468756983491
 23
3868.1500889607282
 33
0.0
 14
2285.3468756983489
 24
4307.8490109607292
 34
0.0
1001
ACAD
1000
DSTYLE
1002
{
1070
   287
1070
     3
1070
   287
1070
     3
1070
    40
1040
30.0
1070
   143
1040
0.039
1070
   172
1070
     1
1070
   271
1070
     0
1070
   279
1070
     0
1070
   288
1070
     1
1002
}
  0
DIMENSION
  5
7B86
  8
3
  6
CONTINUOUS
  2
*D10
 10
2833.0457966983499
 20
4496.3722230367421
 30
0.0
 11
2559.1963361983499
 21
4571.3722230367421
 31
0.0
 70
     0
 13
2285.3468756983489
 23
4307.8490109607292
 33
0.0
 14
2833.0457966983499
 24
3854.1500889607282
 34
0.0
1001
ACAD
1000
DSTYLE
1002
{
1070
   287
1070
     3
1070
   287
1070
     3
1070
    40
1040
30.0
1070
   143
1040
0.039
1070
   172
1070
     1
1070
   271
1070
     0
1070
   279
1070
     0
1070
   288
1070
     1
1002
}
  0
DIMENSION
  5
7B93
  8
3
  6
CONTINUOUS
  2
*D11
 10
3285.3468756983511
 20
5230.8936738473603
 30
0.0
 11
2544.9731426983508
 21
5230.8936738473603
 31
0.0
 70
   128
 13
1885.3468756983491
 23
5585.8769998473581
 33
0.0
 14
3285.3468756983511
 24
5585.8769998473581
 34
0.0
1001
ACAD
1000
DSTYLE
1002
{
1070
   287
1070
     3
1070
   287
1070
     3
1070
    40
1040
30.0
1070
   143
1040
0.039
1070
   172
1070
     1
1070
   271
1070
     0
1070
   279
1070
     0
1070
   288
1070
     1
1002
}
  0
DIMENSION
  5
7BA0
  8
3
  6
CONTINUOUS
  2
*D12
 10
3549.3281656983509
 20
5585.8769998473581
 30
0.0
 11
3549.3281656983509
 21
5953.3892118473577
 31
0.0
 70
   128
 13
3285.3468756983511
 23
6275.8769998473581
 33
0.0
 14
3285.3468756983511
 24
5585.8769998473581
 34
0.0
 50
90.0
1001
ACAD
1000
DSTYLE
1002
{
1070
   287
1070
     3
1070
   287
1070
     3
1070
    40
1040
30.0
1070
   143
1040
0.039
1070
   172
1070
     1
1070
   271
1070
     0
1070
   279
1070
     0
1070
   288
1070
     1
1002
}
  0
LINE
  5
7BA1
  8
2
  6
CENTER
 10
3141.5395336983511
 20
5985.8769998473581
 30
0.0
 11
1626.0950906983501
 21
5985.8769998473581
 31
0.0
  0
LINE
  5
7BA2
  8
2
  6
CENTER
 10
4606.3104277446246
 20
4362.4524409607284
 30
0.0
 11
4606.3104277446246
 21
2903.9393339607282
 31
0.0
  0
DIMENSION
  5
7BB1
  8
3
  6
CONTINUOUS
  2
*D13
 10
4843.8104277446246
 20
4467.796224960729
 30
0.0
 11
4606.3104277446246
 21
4467.796224960729
 31
0.0
 70
   128
 13
4368.8104277446246
 23
4310.0500889607292
 33
0.0
 14
4843.8104277446246
 24
4310.0500889607292
 34
0.0
1001
ACAD
1000
DSTYLE
1002
{
1070
   287
1070
     3
1070
   287
1070
     3
1070
    40
1040
30.0
1070
   143
1040
0.039
1070
   172
1070
     1
1070
   271
1070
     0
1070
   279
1070
     0
1070
   288
1070
     1
1002
}
  0
DIMENSION
  5
7BBE
  8
3
  6
CONTINUOUS
  2
*D14
 10
4606.3104277446246
 20
4677.3225718149824
 30
0.0
 11
4344.8818563160521
 21
4677.3225718149824
 31
0.0
 70
   128
  1
MAX\P550
 13
4126.3104277446237
 23
4044.1500889607291
 33
0.0
 14
4606.3104277446246
 24
4617.3491471968964
 34
0.0
1001
ACAD
1000
DSTYLE
1002
{
1070
   287
1070
     3
1070
   287
1070
     3
1070
    40
1040
30.0
1070
   143
1040
0.039
1070
   172
1070
     1
1070
   271
1070
     0
1070
   279
1070
     0
1070
   288
1070
     1
1002
}
  0
DIMENSION
  5
7BCC
  8
3
  6
CONTINUOUS
  2
*D15
 10
4926.3104277446237
 20
4677.3225718149824
 30
0.0
 11
4773.9327538406569
 21
4761.9987475444141
 31
0.0
 70
   128
 13
4606.3104277446246
 23
4607.365594567771
 33
0.0
 14
4926.3104277446237
 24
4209.1500889607278
 34
0.0
1001
ACAD
1000
DSTYLE
1002
{
1070
   288
1070
     1
1070
   172
1070
     1
1070
    40
1040
30.0
1070
   271
1070
     0
1070
   143
1040
0.039
1002
}
  0
DIMENSION
  5
7BEF
  8
3
  6
CONTINUOUS
  2
*D16
 10
5135.3886867446263
 20
3539.1500889607282
 30
0.0
 11
5135.3886867446254
 21
3873.4279659607291
 31
0.0
 70
   128
 13
4926.3104277446237
 23
4169.1500889607287
 33
0.0
 14
4926.3104277446237
 24
3539.1500889607282
 34
0.0
 50
90.0
1001
ACAD
1000
DSTYLE
1002
{
1070
   287
1070
     3
1070
   287
1070
     3
1070
     3
1000
φ<>
1070
    40
1040
30.0
1070
   143
1040
0.039
1070
   172
1070
     1
1070
   271
1070
     0
1070
   279
1070
     0
1070
   288
1070
     1
1002
}
  0
DIMENSION
  5
7BFE
  8
3
  6
CONTINUOUS
  2
*D17
 10
4606.3104277446246
 20
2743.7803199607288
 30
0.0
 11
4406.3104277446246
 21
2803.8302446843409
 31
0.0
 70
   128
 13
4206.3104277446237
 23
2934.1500889607291
 33
0.0
 14
4606.3104277446246
 24
2903.9393339607282
 34
0.0
1001
ACAD
1000
DSTYLE
1002
{
1070
   288
1070
     1
1070
   172
1070
     1
1070
    40
1040
30.0
1070
   271
1070
     0
1070
   143
1040
0.039
1002
}
  0
DIMENSION
  5
7C0C
  8
3
  6
CONTINUOUS
  2
*D18
 10
4896.3104277446246
 20
2743.7803199607288
 30
0.0
 11
4751.1819438604716
 21
2818.984941014412
 31
0.0
 70
   128
 13
4606.3104277446246
 23
2903.9393339607282
 33
0.0
 14
4896.3104277446246
 24
2934.1500889607291
 34
0.0
1001
ACAD
1000
DSTYLE
1002
{
1070
   288
1070
     1
1070
   172
1070
     1
1070
    40
1040
30.0
1070
   271
1070
     0
1070
   143
1040
0.039
1002
}
  0
LINE
  5
7C30
  8
2
  6
CENTER
 10
2950.71818769835
 20
3854.1500889607282
 30
0.0
 11
1817.857052698349
 21
3854.1500889607282
 31
0.0
  0
LINE
  5
7C31
  8
2
  6
CENTER
 10
2285.3468756983489
 20
4323.2076532408346
 30
0.0
 11
2285.3468756983489
 21
2874.472897960728
 31
0.0
  0
LINE
  5
7C32
  8
4
  6
CONTINUOUS
 10
5550.0
 20
1500.0
 30
0.0
 11
5550.0
 21
900.0
 31
0.0
  0
LINE
  5
7C33
  8
4
  6
CONTINUOUS
 10
3450.0
 20
1500.0
 30
0.0
 11
3450.0
 21
900.0
 31
0.0
  0
LINE
  5
7C34
  8
4
  6
CONTINUOUS
 10
1950.0
 20
1500.0
 30
0.0
 11
1950.0
 21
900.0
 31
0.0
  0
LINE
  5
7C37
  8
4
  6
CONTINUOUS
 10
1950.0
 20
900.0
 30
0.0
 11
5550.0
 21
900.0
 31
0.0
  0
LINE
  5
7C38
  8
4
  6
CONTINUOUS
 10
1950.0
 20
1200.0
 30
0.0
 11
5550.0
 21
1200.0
 31
0.0
  0
TEXT
  5
7C39
  8
4
  6
CONTINUOUS
 10
2065.50624225
 20
1294.6290779999999
 30
0.0
 40
150.0
  1
機器名称
  0
TEXT
  5
7C3A
  8
4
  6
CONTINUOUS
 10
2058.7743179999989
 20
964.93547024999998
 30
0.0
 40
150.0
  1
機器型番
  0
TEXT
  5
7C3B
  8
4
  6
CONTINUOUS
 10
3533.0362365000001
 20
1267.715306249999
 30
0.0
 40
120.0
  1
ミツヤリミットロードファン
  0
TEXT
  5
7C3C
  8
4
  6
CONTINUOUS
 10
3559.9634872500001
 20
951.4787527499999
 30
0.0
 40
150.0
  1
LLE#4-4
  0
TEXT
  5
7C3E
  8
4
  6
CONTINUOUS
 10
2160.8513257499999
 20
7150.2865245000012
 30
0.0
 40
162.0
  1
床置防振ベット
  0
TEXT
  5
7C3F
  8
4
  6
CONTINUOUS
 10
948.50278049999986
 20
7601.6429287499996
 30
0.0
 40
171.42857175
  1
ベルト駆動式片吸込両持排煙ファン
  0
LINE
  5
7C40
  8
4
  6
CONTINUOUS
 10
750.0
 20
7408.2262627500004
 30
0.0
 11
5550.0
 21
7408.2262627500004
 31
0.0
  0
LINE
  5
7C41
  8
4
  6
CONTINUOUS
 10
750.0
 20
8008.2262627500004
 30
0.0
 11
5550.0
 21
8008.2262627500004
 31
0.0
  0
LINE
  5
7C42
  8
4
  6
CONTINUOUS
 10
1950.0
 20
1500.0
 30
0.0
 11
5550.0
 21
1500.0
 31
0.0
  0
LINE
  5
7C43
  8
4
  6
CONTINUOUS
 10
750.0
 20
8008.2262627500004
 30
0.0
 11
750.0
 21
7408.2262627500004
 31
0.0
  0
TEXT
  5
7C44
  8
4
  6
CONTINUOUS
 10
853.27482825000004
 20
7146.9584324999987
 30
0.0
 40
162.0
  1
右回転左横向
  0
TEXT
  5
7C45
  8
4
  6
CONTINUOUS
 10
4406.9086777499988
 20
8118.1832445
 30
0.0
 40
168.0
  1
No.
  0
TEXT
  5
7C46
  8
4
  6
CONTINUOUS
 10
3933.8881875000002
 20
7150.2865245000012
 30
0.0
 40
162.0
  1
縮尺：1/30
  0
LINE
  5
7C47
  8
4
  6
CONTINUOUS
 10
5550.0
 20
8008.2262627500004
 30
0.0
 11
5550.0
 21
7408.2262627500004
 31
0.0
  0
LINE
  5
7C49
  8
4
  6
CONTINUOUS
 10
4321.8522667500001
 20
8043.79074975
 30
0.0
 11
4321.8522667500001
 21
8359.9567845000001
 31
0.0
  0
LINE
  5
7C4A
  8
4
  6
CONTINUOUS
 10
4321.8522667500001
 20
8359.9567845000001
 30
0.0
 11
5550.0
 21
8359.9567845000001
 31
0.0
  0
LINE
  5
7C4B
  8
4
  6
CONTINUOUS
 10
5550.0
 20
8359.9567845000001
 30
0.0
 11
5550.0
 21
8043.79074975
 31
0.0
  0
LINE
  5
7C4C
  8
4
  6
CONTINUOUS
 10
5550.0
 20
8043.79074975
 30
0.0
 11
4321.8522667500001
 21
8043.79074975
 31
0.0
  0
DIMENSION
  5
7DC1
  8
3
  2
*D19
 10
3285.3468756983511
 20
4676.0175439350342
 30
0.0
 11
2544.3531646807378
 21
4676.0175439350342
 31
0.0
 70
   128
 13
1825.3468756983491
 23
3868.1500889607282
 33
0.0
 14
3285.3468756983511
 24
3154.1500889607291
 34
0.0
1001
ACAD
1000
DSTYLE
1002
{
1070
   287
1070
     3
1070
   287
1070
     3
1070
    40
1040
30.0
1070
   143
1040
0.039
1070
   172
1070
     1
1070
   271
1070
     0
1070
   279
1070
     0
1070
   288
1070
     1
1002
}
  0
ENDSEC
  0
EOF
