  0
SECTION
  2
HEADER
  9
$ACADVER
  1
AC1009
  9
$INSBASE
 10
0.0
 20
0.0
 30
0.0
  9
$EXTMIN
 10
750.0
 20
900.0
 30
0.0
  9
$EXTMAX
 10
5550.0
 20
8359.9567845000001
 30
0.0
  9
$LIMMIN
 10
0.0
 20
0.0
  9
$LIMMAX
 10
297.0
 20
210.0
  9
$ORTHOMODE
 70
     0
  9
$REGENMODE
 70
     1
  9
$FILLMODE
 70
     0
  9
$QTEXTMODE
 70
     0
  9
$MIRRTEXT
 70
     1
  9
$DRAGMODE
 70
     2
  9
$LTSCALE
 40
100.0
  9
$OSMODE
 70
    37
  9
$ATTMODE
 70
     1
  9
$TEXTSIZE
 40
180.0
  9
$TRACEWID
 40
0.05
  9
$TEXTSTYLE
  7
STANDARD
  9
$CLAYER
  8
3
  9
$CELTYPE
  6
BYLAYER
  9
$CECOLOR
 62
   256
  9
$DIMSCALE
 40
30.0
  9
$DIMASZ
 40
2.0
  9
$DIMEXO
 40
0.5
  9
$DIMDLI
 40
10.0
  9
$DIMRND
 40
0.0
  9
$DIMDLE
 40
0.0
  9
$DIMEXE
 40
1.0
  9
$DIMTP
 40
1.0
  9
$DIMTM
 40
1.0
  9
$DIMTXT
 40
3.0
  9
$DIMCEN
 40
0.0
  9
$DIMTSZ
 40
0.0
  9
$DIMTOL
 70
     0
  9
$DIMLIM
 70
     0
  9
$DIMTIH
 70
     0
  9
$DIMTOH
 70
     0
  9
$DIMSE1
 70
     0
  9
$DIMSE2
 70
     0
  9
$DIMTAD
 70
     1
  9
$DIMZIN
 70
     8
  9
$DIMBLK
  1

  9
$DIMASO
 70
     1
  9
$DIMSHO
 70
     1
  9
$DIMPOST
  1

  9
$DIMAPOST
  1

  9
$DIMALT
 70
     0
  9
$DIMALTD
 70
     2
  9
$DIMALTF
 40
0.039
  9
$DIMLFAC
 40
1.0
  9
$DIMTOFL
 70
     1
  9
$DIMTVP
 40
0.0
  9
$DIMTIX
 70
     0
  9
$DIMSOXD
 70
     0
  9
$DIMSAH
 70
     1
  9
$DIMBLK1
  1
OPEN
  9
$DIMBLK2
  1
OPEN
  9
$DIMSTYLE
  2
IGA
  9
$DIMCLRD
 70
     0
  9
$DIMCLRE
 70
     0
  9
$DIMCLRT
 70
     0
  9
$DIMTFAC
 40
10.0
  9
$DIMGAP
 40
1.0
  9
$LUNITS
 70
     2
  9
$LUPREC
 70
     3
  9
$SKETCHINC
 40
0.1
  9
$FILLETRAD
 40
50.0
  9
$AUNITS
 70
     0
  9
$AUPREC
 70
     0
  9
$MENU
  1
acad
  9
$ELEVATION
 40
0.0
  9
$PELEVATION
 40
0.0
  9
$THICKNESS
 40
0.0
  9
$LIMCHECK
 70
     0
  9
$BLIPMODE
 70
     0
  9
$CHAMFERA
 40
0.5
  9
$CHAMFERB
 40
0.5
  9
$SKPOLY
 70
     0
  9
$TDCREATE
 40
2450757.3694475689
  9
$TDUPDATE
 40
2454953.6833966202
  9
$TDINDWG
 40
0.0042927778
  9
$TDUSRTIMER
 40
0.0042927778
  9
$USRTIMER
 70
     1
  9
$ANGBASE
 50
0.0
  9
$ANGDIR
 70
     0
  9
$PDMODE
 70
     0
  9
$PDSIZE
 40
0.0
  9
$PLINEWID
 40
0.0
  9
$COORDS
 70
     1
  9
$SPLFRAME
 70
     0
  9
$SPLINETYPE
 70
     6
  9
$SPLINESEGS
 70
     8
  9
$ATTDIA
 70
     0
  9
$ATTREQ
 70
     1
  9
$HANDLING
 70
 10241
  9
$HANDSEED
  5
7FFF
  9
$SURFTAB1
 70
     6
  9
$SURFTAB2
 70
     6
  9
$SURFTYPE
 70
     6
  9
$SURFU
 70
     6
  9
$SURFV
 70
     6
  9
$UCSNAME
  2

  9
$UCSORG
 10
0.0
 20
0.0
 30
0.0
  9
$UCSXDIR
 10
1.0
 20
0.0
 30
0.0
  9
$UCSYDIR
 10
0.0
 20
1.0
 30
0.0
  9
$PUCSNAME
  2

  9
$PUCSORG
 10
0.0
 20
0.0
 30
0.0
  9
$PUCSXDIR
 10
1.0
 20
0.0
 30
0.0
  9
$PUCSYDIR
 10
0.0
 20
1.0
 30
0.0
  9
$USERI1
 70
     0
  9
$USERI2
 70
     0
  9
$USERI3
 70
     0
  9
$USERI4
 70
     0
  9
$USERI5
 70
     0
  9
$USERR1
 40
0.0
  9
$USERR2
 40
0.0
  9
$USERR3
 40
0.0
  9
$USERR4
 40
0.0
  9
$USERR5
 40
0.0
  9
$WORLDVIEW
 70
     1
  9
$SHADEDGE
 70
     3
  9
$SHADEDIF
 70
    70
  9
$TILEMODE
 70
     1
  9
$MAXACTVP
 70
    16
  9
$PLIMCHECK
 70
     0
  9
$PEXTMIN
 10
1.0000000000000000E+020
 20
1.0000000000000000E+020
 30
1.0000000000000000E+020
  9
$PEXTMAX
 10
-1.0000000000000000E+020
 20
-1.0000000000000000E+020
 30
-1.0000000000000000E+020
  9
$PLIMMIN
 10
0.0
 20
0.0
  9
$PLIMMAX
 10
12.0
 20
9.0
  9
$UNITMODE
 70
     0
  9
$VISRETAIN
 70
     0
  9
$PLINEGEN
 70
     0
  9
$PSLTSCALE
 70
     1
  0
ENDSEC
  0
SECTION
  2
TABLES
  0
TABLE
  2
VPORT
 70
     2
  0
VPORT
  2
*ACTIVE
 70
     0
 10
0.0
 20
0.0
 11
1.0
 21
1.0
 12
13083.263814010579
 22
4192.5523140049881
 13
0.0
 23
0.0
 14
10.0
 24
10.0
 15
10.0
 25
10.0
 16
0.0
 26
0.0
 36
1.0
 17
0.0
 27
0.0
 37
0.0
 40
11676.15108629084
 41
3.1666666666666661
 42
50.0
 43
0.0
 44
0.0
 50
0.0
 51
0.0
 71
     0
 72
   100
 73
     1
 74
     0
 75
     0
 76
     0
 77
     0
 78
     0
  0
ENDTAB
  0
TABLE
  2
LTYPE
 70
     2
  0
LTYPE
  2
CONTINUOUS
 70
     0
  3
Solid line
 72
    65
 73
     0
 40
0.0
  0
LTYPE
  2
CENTER
 70
     0
  3
____ _ ____ _ ____ _ ____ _ ____ _ ____ _ ____ 
 72
    65
 73
     4
 40
2.0
 49
1.25
 49
-0.25
 49
0.25
 49
-0.25
  0
ENDTAB
  0
TABLE
  2
LAYER
 70
     6
  0
LAYER
  2
0
 70
     0
 62
     7
  6
CONTINUOUS
  0
LAYER
  2
3
 70
     0
 62
     2
  6
CONTINUOUS
  0
LAYER
  2
2
 70
     0
 62
     3
  6
CENTER
  0
LAYER
  2
1
 70
     0
 62
     4
  6
CONTINUOUS
  0
LAYER
  2
4
 70
     0
 62
     7
  6
CONTINUOUS
  0
LAYER
  2
DEFPOINTS
 70
     0
 62
     7
  6
CONTINUOUS
  0
ENDTAB
  0
TABLE
  2
STYLE
 70
     1
  0
STYLE
  2
STANDARD
 70
     0
 40
0.0
 41
1.0
 50
0.0
 71
     0
 42
180.0
  3
simplex.shx
  4
extfont.shx
  0
ENDTAB
  0
TABLE
  2
VIEW
 70
     0
  0
ENDTAB
  0
TABLE
  2
UCS
 70
     0
  0
ENDTAB
  0
TABLE
  2
APPID
 70
     1
  0
APPID
  2
ACAD
 70
     0
  0
ENDTAB
  0
TABLE
  2
DIMSTYLE
 70
     1
  0
DIMSTYLE
  2
IGA
 70
     0
  3

  4

  5

  6
OPEN
  7
OPEN
 40
2.0
 41
2.0
 42
0.5
 43
10.0
 44
1.0
 45
0.0
 46
0.0
 47
1.0
 48
1.0
140
3.0
141
0.0
142
0.0
143
0.03937
144
1.0
145
0.0
146
10.0
147
1.0
 71
     0
 72
     0
 73
     0
 74
     0
 75
     0
 76
     0
 77
     1
 78
     8
170
     0
171
     2
172
     0
173
     1
174
     0
175
     0
176
     0
177
     0
178
     0
  0
ENDTAB
  0
ENDSEC
  0
SECTION
  2
BLOCKS
  0
BLOCK
  8
0
  2
$MODEL_SPACE
 70
     0
 10
0.0
 20
0.0
 30
0.0
  3
$MODEL_SPACE
  1

  0
ENDBLK
  5
1B
  8
0
  0
BLOCK
 67
     1
  8
0
  2
$PAPER_SPACE
 70
     0
 10
0.0
 20
0.0
 30
0.0
  3
$PAPER_SPACE
  1

  0
ENDBLK
  5
18
 67
     1
  8
0
  0
BLOCK
  8
0
  2
_OPEN
 70
     0
 10
0.0
 20
0.0
 30
0.0
  3
_OPEN
  1

  0
LINE
  5
7AE5
  8
0
  6
BYBLOCK
 62
     0
 10
-1.0
 20
0.166667
 30
0.0
 11
0.0
 21
0.0
 31
0.0
  0
LINE
  5
7AE6
  8
0
  6
BYBLOCK
 62
     0
 10
0.0
 20
0.0
 30
0.0
 11
-1.0
 21
-0.166667
 31
0.0
  0
LINE
  5
7AE7
  8
0
  6
BYBLOCK
 62
     0
 10
0.0
 20
0.0
 30
0.0
 11
-1.0
 21
0.0
 31
0.0
  0
ENDBLK
  5
7AE8
  8
0
  0
BLOCK
  8
0
  2
*D1
 70
     1
 10
0.0
 20
0.0
 30
0.0
  3
*D1
  1

  0
LINE
  5
7F70
  8
3
  6
CONTINUOUS
 62
     0
 10
1141.744367396506
 20
2620.848676663305
 30
0.0
 11
1141.744367396506
 21
2352.970468663304
 31
0.0
  0
LINE
  5
7F71
  8
3
  6
CONTINUOUS
 62
     0
 10
2141.7443673965058
 20
2566.4986216633051
 30
0.0
 11
2141.7443673965058
 21
2352.970468663304
 31
0.0
  0
LINE
  5
7F72
  8
3
  6
CONTINUOUS
 62
     0
 10
1201.744367396506
 20
2382.970468663304
 30
0.0
 11
2081.7443673965058
 21
2382.970468663304
 31
0.0
  0
INSERT
  5
7F73
  8
3
  6
CONTINUOUS
 62
     0
  2
_OPEN
 10
1141.744367396506
 20
2382.970468663304
 30
0.0
 41
60.0
 42
60.0
 43
60.0
 50
180.0
  0
INSERT
  5
7F74
  8
3
  6
CONTINUOUS
 62
     0
  2
_OPEN
 10
2141.7443673965058
 20
2382.970468663304
 30
0.0
 41
60.0
 42
60.0
 43
60.0
  0
TEXT
  8
3
  40
90
  5
7FF0
  62
0
  72
0
  71
0
 10
1437.15
 20
2298.67
 30
0.000000
  1
1000
  0
POINT
  5
7F76
  8
DEFPOINTS
  6
CONTINUOUS
 62
     0
 10
1141.744367396506
 20
2635.848676663305
 30
0.0
  0
POINT
  5
7F77
  8
DEFPOINTS
  6
CONTINUOUS
 62
     0
 10
2141.7443673965058
 20
2581.4986216633051
 30
0.0
  0
POINT
  5
7F78
  8
DEFPOINTS
  6
CONTINUOUS
 62
     0
 10
2141.7443673965058
 20
2382.970468663304
 30
0.0
  0
ENDBLK
  5
7D95
  8
0
  0
BLOCK
  8
0
  2
*D2
 70
     1
 10
0.0
 20
0.0
 30
0.0
  3
*D2
  1

  0
LINE
  5
7DC3
  8
0
  6
BYBLOCK
 62
     0
 10
2141.7443673965058
 20
2872.6113078847879
 30
0.0
 11
2141.7443673965058
 21
2659.0831548847882
 31
0.0
  0
LINE
  5
7DC4
  8
0
  6
BYBLOCK
 62
     0
 10
2541.7443673965058
 20
2926.9613628847892
 30
0.0
 11
2541.7443673965058
 21
2659.0831548847882
 31
0.0
  0
LINE
  5
7DC5
  8
0
  6
BYBLOCK
 62
     0
 10
2201.7443673965058
 20
2689.0831548847891
 30
0.0
 11
2481.7443673965058
 21
2689.0831548847891
 31
0.0
  0
TEXT
  5
7DC6
  8
3
 62
     0
 10
2226.03008168222
 20
2705.5383021704579
 30
0.0
 40
90.0
  1
400
  0
INSERT
  5
7DC7
  8
0
  6
BYBLOCK
 62
     0
  2
_OPEN
 10
2141.7443673965058
 20
2689.0831548847891
 30
0.0
 41
60.0
 42
60.0
 43
60.0
 50
180.0
  0
INSERT
  5
7DC8
  8
0
  6
BYBLOCK
 62
     0
  2
_OPEN
 10
2541.7443673965058
 20
2689.0831548847891
 30
0.0
 41
60.0
 42
60.0
 43
60.0
  0
POINT
  5
7DC9
  8
DEFPOINTS
  6
BYBLOCK
 62
     0
 10
2141.7443673965058
 20
2887.6113078847889
 30
0.0
  0
POINT
  5
7DCA
  8
DEFPOINTS
  6
BYBLOCK
 62
     0
 10
2541.7443673965058
 20
2941.9613628847892
 30
0.0
  0
POINT
  5
7DCB
  8
DEFPOINTS
  6
BYBLOCK
 62
     0
 10
2541.7443673965058
 20
2689.0831548847891
 30
0.0
  0
ENDBLK
  5
7DCC
  8
0
  0
BLOCK
  8
0
  2
*D3
 70
     1
 10
0.0
 20
0.0
 30
0.0
  3
*D3
  1

  0
LINE
  5
7F79
  8
3
  6
CONTINUOUS
 62
     0
 10
2616.7443673965058
 20
3938.848676663305
 30
0.0
 11
2915.6938093965082
 21
3938.848676663305
 31
0.0
  0
LINE
  5
7F7A
  8
3
  6
CONTINUOUS
 62
     0
 10
2616.7443673965058
 20
3288.848676663305
 30
0.0
 11
2915.6938093965082
 21
3288.848676663305
 31
0.0
  0
LINE
  5
7F7B
  8
3
  6
CONTINUOUS
 62
     0
 10
2885.6938093965082
 20
3878.8486766633041
 30
0.0
 11
2885.6938093965082
 21
3348.848676663305
 31
0.0
  0
INSERT
  5
7F7C
  8
3
  6
CONTINUOUS
 62
     0
  2
_OPEN
 10
2885.6938093965082
 20
3938.848676663305
 30
0.0
 41
60.0
 42
60.0
 43
60.0
 50
90.0
  0
INSERT
  5
7F7D
  8
3
  6
CONTINUOUS
 62
     0
  2
_OPEN
 10
2885.6938093965082
 20
3288.848676663305
 30
0.0
 41
60.0
 42
60.0
 43
60.0
 50
270.0
  0
TEXT
  8
3
  40
90
  5
7FF1
  62
0
  72
0
  71
0
 10
2630.69
 20
3446.14
 30
0.000000
  1
650
  0
POINT
  5
7F7F
  8
DEFPOINTS
  6
CONTINUOUS
 62
     0
 10
2601.7443673965058
 20
3938.848676663305
 30
0.0
  0
POINT
  5
7F80
  8
DEFPOINTS
  6
CONTINUOUS
 62
     0
 10
2601.7443673965058
 20
3288.848676663305
 30
0.0
  0
POINT
  5
7F81
  8
DEFPOINTS
  6
CONTINUOUS
 62
     0
 10
2885.6938093965082
 20
3288.848676663305
 30
0.0
  0
ENDBLK
  5
7D7D
  8
0
  0
BLOCK
  8
0
  2
*D4
 70
     1
 10
0.0
 20
0.0
 30
0.0
  3
*D4
  1

  0
LINE
  5
7F82
  8
3
  6
CONTINUOUS
 62
     0
 10
2616.7443673965058
 20
3938.848676663305
 30
0.0
 11
3124.6850233965079
 21
3938.8486766633041
 31
0.0
  0
LINE
  5
7F83
  8
3
  6
CONTINUOUS
 62
     0
 10
2534.0229553965069
 20
3260.848676663305
 30
0.0
 11
3124.6850233965079
 21
3260.848676663305
 31
0.0
  0
LINE
  5
7F84
  8
3
  6
CONTINUOUS
 62
     0
 10
3094.6850233965069
 20
3878.8486766633041
 30
0.0
 11
3094.6850233965069
 21
3320.8486766633041
 31
0.0
  0
INSERT
  5
7F85
  8
3
  6
CONTINUOUS
 62
     0
  2
_OPEN
 10
3094.6850233965069
 20
3938.8486766633041
 30
0.0
 41
60.0
 42
60.0
 43
60.0
 50
90.0
  0
INSERT
  5
7F86
  8
3
  6
CONTINUOUS
 62
     0
  2
_OPEN
 10
3094.6850233965069
 20
3260.848676663305
 30
0.0
 41
60.0
 42
60.0
 43
60.0
 50
270.0
  0
TEXT
  8
3
  40
90
  5
7FF2
  62
0
  72
0
  71
0
 10
2839.69
 20
3460.44
 30
0.000000
  1
678
  0
POINT
  5
7F88
  8
DEFPOINTS
  6
CONTINUOUS
 62
     0
 10
2601.7443673965058
 20
3938.848676663305
 30
0.0
  0
POINT
  5
7F89
  8
DEFPOINTS
  6
CONTINUOUS
 62
     0
 10
2519.0229553965069
 20
3260.848676663305
 30
0.0
  0
POINT
  5
7F8A
  8
DEFPOINTS
  6
CONTINUOUS
 62
     0
 10
3094.6850233965069
 20
3260.848676663305
 30
0.0
  0
ENDBLK
  5
7D72
  8
0
  0
BLOCK
  8
0
  2
*D5
 70
     1
 10
0.0
 20
0.0
 30
0.0
  3
*D5
  1

  0
LINE
  5
7F8B
  8
3
  6
CONTINUOUS
 62
     0
 10
2534.0229553965069
 20
3260.848676663305
 30
0.0
 11
3124.6850233965069
 21
3260.848676663305
 31
0.0
  0
LINE
  5
7F8C
  8
3
  6
CONTINUOUS
 62
     0
 10
2556.7443673965058
 20
2755.848676663305
 30
0.0
 11
3124.6850233965069
 21
2755.8486766633041
 31
0.0
  0
LINE
  5
7F8D
  8
3
  6
CONTINUOUS
 62
     0
 10
3094.6850233965069
 20
3200.848676663305
 30
0.0
 11
3094.6850233965069
 21
2815.8486766633041
 31
0.0
  0
INSERT
  5
7F8E
  8
3
  6
CONTINUOUS
 62
     0
  2
_OPEN
 10
3094.6850233965069
 20
3260.848676663305
 30
0.0
 41
60.0
 42
60.0
 43
60.0
 50
90.0
  0
INSERT
  5
7F8F
  8
3
  6
CONTINUOUS
 62
     0
  2
_OPEN
 10
3094.6850233965069
 20
2755.8486766633041
 30
0.0
 41
60.0
 42
60.0
 43
60.0
 50
270.0
  0
TEXT
  8
3
  40
90
  5
7FF3
  62
0
  72
0
  71
0
 10
2839.69
 20
2849.05
 30
0.000000
  1
505
  0
POINT
  5
7F91
  8
DEFPOINTS
  6
CONTINUOUS
 62
     0
 10
2519.0229553965069
 20
3260.848676663305
 30
0.0
  0
POINT
  5
7F92
  8
DEFPOINTS
  6
CONTINUOUS
 62
     0
 10
2541.7443673965058
 20
2755.848676663305
 30
0.0
  0
POINT
  5
7F93
  8
DEFPOINTS
  6
CONTINUOUS
 62
     0
 10
3094.6850233965069
 20
2755.8486766633041
 30
0.0
  0
ENDBLK
  5
7D67
  8
0
  0
BLOCK
  8
0
  2
*D6
 70
     1
 10
0.0
 20
0.0
 30
0.0
  3
*D6
  1

  0
LINE
  5
7F94
  8
3
  6
CONTINUOUS
 62
     0
 10
2556.7443673965058
 20
2755.848676663305
 30
0.0
 11
3124.6850233965069
 21
2755.8486766633041
 31
0.0
  0
LINE
  5
7F95
  8
3
  6
CONTINUOUS
 62
     0
 10
2556.7443673965058
 20
2635.848676663305
 30
0.0
 11
3124.6850233965069
 21
2635.8486766633041
 31
0.0
  0
LINE
  5
7F96
  8
3
  6
CONTINUOUS
 62
     0
 10
3094.6850233965069
 20
2815.8486766633041
 30
0.0
 11
3094.6850233965069
 21
2875.8486766633041
 31
0.0
  0
LINE
  5
7F97
  8
3
  6
CONTINUOUS
 62
     0
 10
3094.6850233965069
 20
2575.8486766633041
 30
0.0
 11
3094.6850233965069
 21
2241.5629623775899
 31
0.0
  0
LINE
  5
7F98
  8
3
  6
CONTINUOUS
 62
     0
 10
3094.6850233965069
 20
2755.8486766633041
 30
0.0
 11
3094.6850233965069
 21
2635.8486766633041
 31
0.0
  0
INSERT
  5
7F99
  8
3
  6
CONTINUOUS
 62
     0
  2
_OPEN
 10
3094.6850233965069
 20
2755.8486766633041
 30
0.0
 41
60.0
 42
60.0
 43
60.0
 50
270.0
  0
INSERT
  5
7F9A
  8
3
  6
CONTINUOUS
 62
     0
  2
_OPEN
 10
3094.6850233965069
 20
2635.8486766633041
 30
0.0
 41
60.0
 42
60.0
 43
60.0
 50
90.0
  0
TEXT
  8
3
  40
90
  5
7FF4
  62
0
  72
0
  71
0
 10
2839.69
 20
2219.41
 30
0.000000
  1
120
  0
POINT
  5
7F9C
  8
DEFPOINTS
  6
CONTINUOUS
 62
     0
 10
2541.7443673965058
 20
2755.848676663305
 30
0.0
  0
POINT
  5
7F9D
  8
DEFPOINTS
  6
CONTINUOUS
 62
     0
 10
2541.7443673965058
 20
2635.848676663305
 30
0.0
  0
POINT
  5
7F9E
  8
DEFPOINTS
  6
CONTINUOUS
 62
     0
 10
3094.6850233965069
 20
2635.8486766633041
 30
0.0
  0
ENDBLK
  5
7D5C
  8
0
  0
BLOCK
  8
0
  2
*D7
 70
     1
 10
0.0
 20
0.0
 30
0.0
  3
*D7
  1

  0
LINE
  5
7F9F
  8
3
  6
CONTINUOUS
 62
     0
 10
2616.7443673965058
 20
3980.848676663305
 30
0.0
 11
3362.3051743965079
 21
3980.8486766633041
 31
0.0
  0
LINE
  5
7FA0
  8
3
  6
CONTINUOUS
 62
     0
 10
2556.7443673965058
 20
2635.848676663305
 30
0.0
 11
3362.3051743965079
 21
2635.8486766633041
 31
0.0
  0
LINE
  5
7FA1
  8
3
  6
CONTINUOUS
 62
     0
 10
3332.3051743965079
 20
3920.8486766633041
 30
0.0
 11
3332.305174396507
 21
2695.8486766633041
 31
0.0
  0
INSERT
  5
7FA2
  8
3
  6
CONTINUOUS
 62
     0
  2
_OPEN
 10
3332.3051743965079
 20
3980.8486766633041
 30
0.0
 41
60.0
 42
60.0
 43
60.0
 50
90.0
  0
INSERT
  5
7FA3
  8
3
  6
CONTINUOUS
 62
     0
  2
_OPEN
 10
3332.305174396507
 20
2635.8486766633041
 30
0.0
 41
60.0
 42
60.0
 43
60.0
 50
270.0
  0
TEXT
  8
3
  40
90
  5
7FF5
  62
0
  72
0
  71
0
 10
3077.31
 20
3117.13
 30
0.000000
  1
1345
  0
POINT
  5
7FA5
  8
DEFPOINTS
  6
CONTINUOUS
 62
     0
 10
2601.7443673965058
 20
3980.848676663305
 30
0.0
  0
POINT
  5
7FA6
  8
DEFPOINTS
  6
CONTINUOUS
 62
     0
 10
2541.7443673965058
 20
2635.848676663305
 30
0.0
  0
POINT
  5
7FA7
  8
DEFPOINTS
  6
CONTINUOUS
 62
     0
 10
3332.305174396507
 20
2635.8486766633041
 30
0.0
  0
ENDBLK
  5
7D4F
  8
0
  0
BLOCK
  8
0
  2
*D8
 70
     1
 10
0.0
 20
0.0
 30
0.0
  3
*D8
  1

  0
LINE
  5
7FA8
  8
3
  6
CONTINUOUS
 62
     0
 10
1594.0454463965059
 20
3275.8486766633041
 30
0.0
 11
1594.0454463965059
 21
4201.6556326633035
 31
0.0
  0
LINE
  5
7FA9
  8
3
  6
CONTINUOUS
 62
     0
 10
2141.7443673965058
 20
3917.848676663305
 30
0.0
 11
2141.7443673965058
 21
4201.6556326633035
 31
0.0
  0
LINE
  5
7FAA
  8
3
  6
CONTINUOUS
 62
     0
 10
1654.045446396507
 20
4171.6556326633054
 30
0.0
 11
2081.7443673965058
 21
4171.6556326633054
 31
0.0
  0
INSERT
  5
7FAB
  8
3
  6
CONTINUOUS
 62
     0
  2
_OPEN
 10
1594.0454463965059
 20
4171.6556326633054
 30
0.0
 41
60.0
 42
60.0
 43
60.0
 50
180.0
  0
INSERT
  5
7FAC
  8
3
  6
CONTINUOUS
 62
     0
  2
_OPEN
 10
2141.7443673965058
 20
4171.6556326633054
 30
0.0
 41
60.0
 42
60.0
 43
60.0
  0
TEXT
  8
3
  40
90
  5
7FF6
  62
0
  72
0
  71
0
 10
1654.05
 20
4087.36
 30
0.000000
  1
548
  0
POINT
  5
7FAE
  8
DEFPOINTS
  6
CONTINUOUS
 62
     0
 10
1594.0454463965059
 20
3260.848676663305
 30
0.0
  0
POINT
  5
7FAF
  8
DEFPOINTS
  6
CONTINUOUS
 62
     0
 10
2141.7443673965058
 20
3902.848676663305
 30
0.0
  0
POINT
  5
7FB0
  8
DEFPOINTS
  6
CONTINUOUS
 62
     0
 10
2141.7443673965058
 20
4171.6556326633054
 30
0.0
  0
ENDBLK
  5
7D44
  8
0
  0
BLOCK
  8
0
  2
*D9
 70
     1
 10
0.0
 20
0.0
 30
0.0
  3
*D9
  1

  0
LINE
  5
7FB1
  8
3
  6
CONTINUOUS
 62
     0
 10
1141.744367396506
 20
5444.5918672390517
 30
0.0
 11
1141.744367396506
 21
5080.0909262390524
 31
0.0
  0
LINE
  5
7FB2
  8
3
  6
CONTINUOUS
 62
     0
 10
2541.7443673965058
 20
5444.5918672390517
 30
0.0
 11
2541.7443673965058
 21
5080.0909262390524
 31
0.0
  0
LINE
  5
7FB3
  8
3
  6
CONTINUOUS
 62
     0
 10
1201.744367396506
 20
5110.0909262390533
 30
0.0
 11
2481.7443673965058
 21
5110.0909262390533
 31
0.0
  0
INSERT
  5
7FB4
  8
3
  6
CONTINUOUS
 62
     0
  2
_OPEN
 10
1141.744367396506
 20
5110.0909262390533
 30
0.0
 41
60.0
 42
60.0
 43
60.0
 50
180.0
  0
INSERT
  5
7FB5
  8
3
  6
CONTINUOUS
 62
     0
  2
_OPEN
 10
2541.7443673965058
 20
5110.0909262390533
 30
0.0
 41
60.0
 42
60.0
 43
60.0
  0
TEXT
  8
3
  40
90
  5
7FF7
  62
0
  72
0
  71
0
 10
1680.21
 20
5025.79
 30
0.000000
  1
1400
  0
POINT
  5
7FB7
  8
DEFPOINTS
  6
CONTINUOUS
 62
     0
 10
1141.744367396506
 20
5459.5918672390517
 30
0.0
  0
POINT
  5
7FB8
  8
DEFPOINTS
  6
CONTINUOUS
 62
     0
 10
2541.7443673965058
 20
5459.5918672390517
 30
0.0
  0
POINT
  5
7FB9
  8
DEFPOINTS
  6
CONTINUOUS
 62
     0
 10
2541.7443673965058
 20
5110.0909262390533
 30
0.0
  0
ENDBLK
  5
7D39
  8
0
  0
BLOCK
  8
0
  2
*D10
 70
     1
 10
0.0
 20
0.0
 30
0.0
  3
*D10
  1

  0
LINE
  5
7FBA
  8
3
  6
CONTINUOUS
 62
     0
 10
2556.7443673965058
 20
6149.5918672390526
 30
0.0
 11
2872.1831673965071
 21
6149.5918672390526
 31
0.0
  0
LINE
  5
7FBB
  8
3
  6
CONTINUOUS
 62
     0
 10
2556.7443673965058
 20
5459.5918672390517
 30
0.0
 11
2872.1831673965071
 21
5459.5918672390517
 31
0.0
  0
LINE
  5
7FBC
  8
3
  6
CONTINUOUS
 62
     0
 10
2842.1831673965071
 20
6089.5918672390526
 30
0.0
 11
2842.1831673965071
 21
5519.5918672390526
 31
0.0
  0
INSERT
  5
7FBD
  8
3
  6
CONTINUOUS
 62
     0
  2
_OPEN
 10
2842.1831673965071
 20
6149.5918672390526
 30
0.0
 41
60.0
 42
60.0
 43
60.0
 50
90.0
  0
INSERT
  5
7FBE
  8
3
  6
CONTINUOUS
 62
     0
  2
_OPEN
 10
2842.1831673965071
 20
5459.5918672390517
 30
0.0
 41
60.0
 42
60.0
 43
60.0
 50
270.0
  0
TEXT
  8
3
  40
90
  5
7FF8
  62
0
  72
0
  71
0
 10
2587.18
 20
5688.33
 30
0.000000
  1
690
  0
POINT
  5
7FC0
  8
DEFPOINTS
  6
CONTINUOUS
 62
     0
 10
2541.7443673965058
 20
6149.5918672390526
 30
0.0
  0
POINT
  5
7FC1
  8
DEFPOINTS
  6
CONTINUOUS
 62
     0
 10
2541.7443673965058
 20
5459.5918672390517
 30
0.0
  0
POINT
  5
7FC2
  8
DEFPOINTS
  6
CONTINUOUS
 62
     0
 10
2842.1831673965071
 20
5459.5918672390517
 30
0.0
  0
ENDBLK
  5
7D2E
  8
0
  0
BLOCK
  8
0
  2
*D11
 70
     1
 10
0.0
 20
0.0
 30
0.0
  3
*D11
  1

  0
LINE
  5
7DCE
  8
0
  6
BYBLOCK
 62
     0
 10
4001.5403958624802
 20
2926.9613628847892
 30
0.0
 11
4001.5403958624802
 21
2725.2118338847881
 31
0.0
  0
LINE
  5
7DCF
  8
0
  6
BYBLOCK
 62
     0
 10
4401.5403958624793
 20
2802.5617028847892
 30
0.0
 11
4401.5403958624793
 21
2725.2118338847881
 31
0.0
  0
LINE
  5
7DD0
  8
0
  6
BYBLOCK
 62
     0
 10
4061.5403958624788
 20
2755.2118338847881
 30
0.0
 11
4341.5403958624793
 21
2755.2118338847881
 31
0.0
  0
TEXT
  5
7DD1
  8
3
 62
     0
 10
4085.826110148193
 20
2767.744910605019
 30
0.0
 40
90.0
  1
400
  0
INSERT
  5
7DD2
  8
0
  6
BYBLOCK
 62
     0
  2
_OPEN
 10
4001.5403958624802
 20
2755.2118338847881
 30
0.0
 41
60.0
 42
60.0
 43
60.0
 50
180.0
  0
INSERT
  5
7DD3
  8
0
  6
BYBLOCK
 62
     0
  2
_OPEN
 10
4401.5403958624793
 20
2755.2118338847881
 30
0.0
 41
60.0
 42
60.0
 43
60.0
  0
POINT
  5
7DD4
  8
DEFPOINTS
  6
BYBLOCK
 62
     0
 10
4001.5403958624802
 20
2941.9613628847892
 30
0.0
  0
POINT
  5
7DD5
  8
DEFPOINTS
  6
BYBLOCK
 62
     0
 10
4401.5403958624793
 20
2817.5617028847892
 30
0.0
  0
POINT
  5
7DD6
  8
DEFPOINTS
  6
BYBLOCK
 62
     0
 10
4401.5403958624793
 20
2755.2118338847881
 30
0.0
  0
ENDBLK
  5
7DD7
  8
0
  0
BLOCK
  8
0
  2
*D12
 70
     1
 10
0.0
 20
0.0
 30
0.0
  3
*D12
  1

  0
LINE
  5
7DD9
  8
0
  6
BYBLOCK
 62
     0
 10
4401.5403958624793
 20
2802.5617028847892
 30
0.0
 11
4401.5403958624793
 21
2725.2118338847881
 31
0.0
  0
LINE
  5
7DDA
  8
0
  6
BYBLOCK
 62
     0
 10
4691.5403958624793
 20
2926.9613628847892
 30
0.0
 11
4691.5403958624793
 21
2725.2118338847881
 31
0.0
  0
LINE
  5
7DDB
  8
0
  6
BYBLOCK
 62
     0
 10
4461.5403958624793
 20
2755.2118338847881
 30
0.0
 11
4631.5403958624793
 21
2755.2118338847881
 31
0.0
  0
TEXT
  5
7DDC
  8
3
 62
     0
 10
4439.3207843839227
 20
2783.2965504357921
 30
0.0
 40
90.0
  1
290
  0
INSERT
  5
7DDD
  8
0
  6
BYBLOCK
 62
     0
  2
_OPEN
 10
4401.5403958624793
 20
2755.2118338847881
 30
0.0
 41
60.0
 42
60.0
 43
60.0
 50
180.0
  0
INSERT
  5
7DDE
  8
0
  6
BYBLOCK
 62
     0
  2
_OPEN
 10
4691.5403958624793
 20
2755.2118338847881
 30
0.0
 41
60.0
 42
60.0
 43
60.0
  0
POINT
  5
7DDF
  8
DEFPOINTS
  6
BYBLOCK
 62
     0
 10
4401.5403958624793
 20
2817.5617028847892
 30
0.0
  0
POINT
  5
7DE0
  8
DEFPOINTS
  6
BYBLOCK
 62
     0
 10
4691.5403958624793
 20
2941.9613628847892
 30
0.0
  0
POINT
  5
7DE1
  8
DEFPOINTS
  6
BYBLOCK
 62
     0
 10
4691.5403958624793
 20
2755.2118338847881
 30
0.0
  0
ENDBLK
  5
7DE2
  8
0
  0
BLOCK
  8
0
  2
*D13
 70
     1
 10
0.0
 20
0.0
 30
0.0
  3
*D13
  1

  0
LINE
  5
7FC3
  8
3
  6
CONTINUOUS
 62
     0
 10
4736.5403958624793
 20
3575.848676663305
 30
0.0
 11
4983.08896286248
 21
3575.848676663305
 31
0.0
  0
LINE
  5
7FC4
  8
3
  6
CONTINUOUS
 62
     0
 10
4736.5403958624793
 20
2945.848676663305
 30
0.0
 11
4983.08896286248
 21
2945.848676663305
 31
0.0
  0
LINE
  5
7FC5
  8
3
  6
CONTINUOUS
 62
     0
 10
4953.08896286248
 20
3515.848676663305
 30
0.0
 11
4953.08896286248
 21
3005.848676663305
 31
0.0
  0
INSERT
  5
7FC6
  8
3
  6
CONTINUOUS
 62
     0
  2
_OPEN
 10
4953.08896286248
 20
3575.848676663305
 30
0.0
 41
60.0
 42
60.0
 43
60.0
 50
90.0
  0
INSERT
  5
7FC7
  8
3
  6
CONTINUOUS
 62
     0
  2
_OPEN
 10
4953.08896286248
 20
2945.848676663305
 30
0.0
 41
60.0
 42
60.0
 43
60.0
 50
270.0
  0
TEXT
  8
3
  40
90
  5
7FF9
  62
0
  72
0
  71
0
 10
4698.09
 20
3085.42
 30
0.000000
  1
φ630
  0
POINT
  5
7FC9
  8
DEFPOINTS
  6
CONTINUOUS
 62
     0
 10
4721.5403958624784
 20
3575.848676663305
 30
0.0
  0
POINT
  5
7FCA
  8
DEFPOINTS
  6
CONTINUOUS
 62
     0
 10
4721.5403958624784
 20
2945.848676663305
 30
0.0
  0
POINT
  5
7FCB
  8
DEFPOINTS
  6
CONTINUOUS
 62
     0
 10
4953.08896286248
 20
2945.848676663305
 30
0.0
  0
ENDBLK
  5
7DED
  8
0
  0
BLOCK
  8
0
  2
*D14
 70
     1
 10
0.0
 20
0.0
 30
0.0
  3
*D14
  1

  0
LINE
  5
7FCC
  8
3
  6
CONTINUOUS
 62
     0
 10
4164.0403958624793
 20
3953.848676663305
 30
0.0
 11
4164.0403958624793
 21
4051.9567867457331
 31
0.0
  0
LINE
  5
7FCD
  8
3
  6
CONTINUOUS
 62
     0
 10
4639.0403958624793
 20
3953.848676663305
 30
0.0
 11
4639.0403958624793
 21
4051.9567867457331
 31
0.0
  0
LINE
  5
7FCE
  8
3
  6
CONTINUOUS
 62
     0
 10
4224.0403958624802
 20
4021.9567867457331
 30
0.0
 11
4579.0403958624793
 21
4021.9567867457331
 31
0.0
  0
INSERT
  5
7FCF
  8
3
  6
CONTINUOUS
 62
     0
  2
_OPEN
 10
4164.0403958624793
 20
4021.9567867457331
 30
0.0
 41
60.0
 42
60.0
 43
60.0
 50
180.0
  0
INSERT
  5
7FD0
  8
3
  6
CONTINUOUS
 62
     0
  2
_OPEN
 10
4639.0403958624793
 20
4021.9567867457331
 30
0.0
 41
60.0
 42
60.0
 43
60.0
  0
TEXT
  8
3
  40
90
  5
7FFA
  62
0
  72
0
  71
0
 10
4221.54
 20
3937.66
 30
0.000000
  1
475
  0
POINT
  5
7FD2
  8
DEFPOINTS
  6
CONTINUOUS
 62
     0
 10
4164.0403958624793
 20
3938.848676663305
 30
0.0
  0
POINT
  5
7FD3
  8
DEFPOINTS
  6
CONTINUOUS
 62
     0
 10
4639.0403958624793
 20
3938.848676663305
 30
0.0
  0
POINT
  5
7FD4
  8
DEFPOINTS
  6
CONTINUOUS
 62
     0
 10
4639.0403958624793
 20
4021.9567867457331
 30
0.0
  0
ENDBLK
  5
7E5B
  8
0
  0
BLOCK
  8
0
  2
*D15
 70
     1
 10
0.0
 20
0.0
 30
0.0
  3
*D15
  1

  0
LINE
  5
7FD5
  8
3
  6
CONTINUOUS
 62
     0
 10
3921.5403958624788
 20
3465.848676663305
 30
0.0
 11
3921.5403958624788
 21
4288.3956488524873
 31
0.0
  0
LINE
  5
7FD6
  8
3
  6
CONTINUOUS
 62
     0
 10
4391.1640718786712
 20
4171.3807102360806
 30
0.0
 11
4391.1640718786712
 21
4288.3956488524873
 31
0.0
  0
LINE
  5
7FD7
  8
3
  6
CONTINUOUS
 62
     0
 10
3981.5403958624788
 20
4258.3956488524873
 30
0.0
 11
4331.1640718786712
 21
4258.3956488524873
 31
0.0
  0
INSERT
  5
7FD8
  8
3
  6
CONTINUOUS
 62
     0
  2
_OPEN
 10
3921.5403958624788
 20
4258.3956488524873
 30
0.0
 41
60.0
 42
60.0
 43
60.0
 50
180.0
  0
INSERT
  5
7FD9
  8
3
  6
CONTINUOUS
 62
     0
  2
_OPEN
 10
4391.1640718786712
 20
4258.3956488524873
 30
0.0
 41
60.0
 42
60.0
 43
60.0
  0
TEXT
  8
3
  40
90
  5
7FFB
  62
0
  72
0
  71
0
 10
3960.11
 20
4249.10
 30
0.000000
  1
MAX
  0
TEXT
  8
3
  40
90
  5
7FFC
  62
0
  72
0
  71
0
 10
3960.11
 20
4132.10
 30
0.000000
  1
550
  0
POINT
  5
7FDB
  8
DEFPOINTS
  6
CONTINUOUS
 62
     0
 10
3921.5403958624788
 20
3450.848676663305
 30
0.0
  0
POINT
  5
7FDC
  8
DEFPOINTS
  6
CONTINUOUS
 62
     0
 10
4391.1640718786712
 20
4156.3807102360806
 30
0.0
  0
POINT
  5
7FDD
  8
DEFPOINTS
  6
CONTINUOUS
 62
     0
 10
4391.1640718786712
 20
4258.3956488524873
 30
0.0
  0
ENDBLK
  5
7E9F
  8
0
  0
BLOCK
  8
0
  2
*D16
 70
     1
 10
0.0
 20
0.0
 30
0.0
  3
*D16
  1

  0
LINE
  5
7E7E
  8
0
  6
BYBLOCK
 62
     0
 10
4391.1640718786712
 20
4477.4933964575648
 30
0.0
 11
4391.1640718786712
 21
4594.5083350739706
 31
0.0
  0
LINE
  5
7E7F
  8
0
  6
BYBLOCK
 62
     0
 10
4721.5403958624784
 20
3936.9613628847892
 30
0.0
 11
4721.5403958624784
 21
4594.5083350739706
 31
0.0
  0
LINE
  5
7E80
  8
0
  6
BYBLOCK
 62
     0
 10
4451.1640718786712
 20
4564.5083350739724
 30
0.0
 11
4661.5403958624802
 21
4564.5083350739724
 31
0.0
  0
TEXT
  5
7E81
  8
3
 62
     0
 10
4449.6971083677317
 20
4580.3185399929498
 30
0.0
 40
90.0
  1
330
  0
INSERT
  5
7E82
  8
0
  6
BYBLOCK
 62
     0
  2
_OPEN
 10
4391.1640718786712
 20
4564.5083350739724
 30
0.0
 41
60.0
 42
60.0
 43
60.0
 50
180.0
  0
INSERT
  5
7E83
  8
0
  6
BYBLOCK
 62
     0
  2
_OPEN
 10
4721.5403958624784
 20
4564.5083350739724
 30
0.0
 41
60.0
 42
60.0
 43
60.0
  0
POINT
  5
7E84
  8
DEFPOINTS
  6
BYBLOCK
 62
     0
 10
4391.1640718786712
 20
4462.4933964575639
 30
0.0
  0
POINT
  5
7E85
  8
DEFPOINTS
  6
BYBLOCK
 62
     0
 10
4721.5403958624784
 20
3921.9613628847892
 30
0.0
  0
POINT
  5
7E86
  8
DEFPOINTS
  6
BYBLOCK
 62
     0
 10
4721.5403958624784
 20
4564.5083350739724
 30
0.0
  0
ENDBLK
  5
7E87
  8
0
  0
BLOCK
  8
0
  2
*D17
 70
     1
 10
0.0
 20
0.0
 30
0.0
  3
*D17
  1

  0
LINE
  5
7FDE
  8
3
  6
CONTINUOUS
 62
     0
 10
2141.7443673965058
 20
3917.848676663305
 30
0.0
 11
2141.7443673965058
 21
4197.9324686633036
 31
0.0
  0
LINE
  5
7FDF
  8
3
  6
CONTINUOUS
 62
     0
 10
2601.7443673965058
 20
3995.848676663305
 30
0.0
 11
2601.7443673965058
 21
4197.9324686633036
 31
0.0
  0
LINE
  5
7FE0
  8
3
  6
CONTINUOUS
 62
     0
 10
2201.7443673965058
 20
4167.9324686633054
 30
0.0
 11
2541.7443673965058
 21
4167.9324686633054
 31
0.0
  0
INSERT
  5
7FE1
  8
3
  6
CONTINUOUS
 62
     0
  2
_OPEN
 10
2141.7443673965058
 20
4167.9324686633054
 30
0.0
 41
60.0
 42
60.0
 43
60.0
 50
180.0
  0
INSERT
  5
7FE2
  8
3
  6
CONTINUOUS
 62
     0
  2
_OPEN
 10
2601.7443673965058
 20
4167.9324686633054
 30
0.0
 41
60.0
 42
60.0
 43
60.0
  0
TEXT
  8
3
  40
90
  5
7FFD
  62
0
  72
0
  71
0
 10
2216.03
 20
4083.63
 30
0.000000
  1
460
  0
POINT
  5
7FE4
  8
DEFPOINTS
  6
CONTINUOUS
 62
     0
 10
2141.7443673965058
 20
3902.848676663305
 30
0.0
  0
POINT
  5
7FE5
  8
DEFPOINTS
  6
CONTINUOUS
 62
     0
 10
2601.7443673965058
 20
3980.848676663305
 30
0.0
  0
POINT
  5
7FE6
  8
DEFPOINTS
  6
CONTINUOUS
 62
     0
 10
2601.7443673965058
 20
4167.9324686633054
 30
0.0
  0
ENDBLK
  5
7CDC
  8
0
  0
BLOCK
  8
0
  2
*D18
 70
     1
 10
0.0
 20
0.0
 30
0.0
  3
*D18
  1

  0
LINE
  5
7FE7
  8
3
 62
     0
 10
2601.7443673965058
 20
3995.848676663305
 30
0.0
 11
2601.7443673965058
 21
4371.7268539784927
 31
0.0
  0
LINE
  5
7FE8
  8
3
 62
     0
 10
1141.744367396506
 20
2870.848676663305
 30
0.0
 11
1141.744367396506
 21
4371.7268539784927
 31
0.0
  0
LINE
  5
7FE9
  8
3
 62
     0
 10
2541.7443673965058
 20
4341.7268539784918
 30
0.0
 11
1201.744367396506
 21
4341.7268539784918
 31
0.0
  0
INSERT
  5
7FEA
  8
3
 62
     0
  2
_OPEN
 10
2601.7443673965058
 20
4341.7268539784918
 30
0.0
 41
60.0
 42
60.0
 43
60.0
  0
INSERT
  5
7FEB
  8
3
 62
     0
  2
_OPEN
 10
1141.744367396506
 20
4341.7268539784918
 30
0.0
 41
60.0
 42
60.0
 43
60.0
 50
180.0
  0
TEXT
  8
3
  40
90
  5
7FFE
  62
0
  72
0
  71
0
 10
1656.44
 20
4257.43
 30
0.000000
  1
1460
  0
POINT
  5
7FED
  8
DEFPOINTS
 62
     0
 10
2601.7443673965058
 20
3980.848676663305
 30
0.0
  0
POINT
  5
7FEE
  8
DEFPOINTS
 62
     0
 10
1141.744367396506
 20
2855.848676663305
 30
0.0
  0
POINT
  5
7FEF
  8
DEFPOINTS
 62
     0
 10
1141.744367396506
 20
4341.7268539784918
 30
0.0
  0
ENDBLK
  5
7E93
  8
0
  0
ENDSEC
  0
SECTION
  2
ENTITIES
  0
LINE
  5
7A73
  8
1
  6
CONTINUOUS
 10
1358.1443673965071
 20
2868.0486766633039
 30
0.0
 11
2188.0443673965051
 21
3076.6486766633052
 31
0.0
  0
LINE
  5
7A74
  8
1
  6
CONTINUOUS
 10
1333.844367396506
 20
2965.0486766633039
 30
0.0
 11
2163.6443673965082
 21
3173.6486766633052
 31
0.0
  0
LINE
  5
7A75
  8
1
  6
CONTINUOUS
 10
1267.6443673965071
 20
3195.6486766633052
 30
0.0
 11
2086.8443673965062
 21
3442.7486766633042
 31
0.0
  0
LINE
  5
7A76
  8
1
  6
CONTINUOUS
 10
1296.5443673965051
 20
3099.9486766633049
 30
0.0
 11
2115.7443673965058
 21
3347.0486766633048
 31
0.0
  0
LINE
  5
7A77
  8
1
  6
CONTINUOUS
 10
1481.744367396506
 20
2900.848676663305
 30
0.0
 11
1151.744367396506
 21
2900.848676663305
 31
0.0
  0
ARC
  5
7A78
  8
1
  6
CONTINUOUS
 10
1316.744367396506
 20
3032.848676663305
 30
0.0
 40
142.0
 50
324.60000000000002
 51
215.39999999999989
  0
LINE
  5
7A79
  8
1
  6
CONTINUOUS
 10
2541.7443673965058
 20
2855.848676663305
 30
0.0
 11
1141.744367396506
 21
2855.848676663305
 31
0.0
  0
LINE
  5
7A7A
  8
1
  6
CONTINUOUS
 10
2541.7443673965058
 20
2755.848676663305
 30
0.0
 11
1141.744367396506
 21
2755.848676663305
 31
0.0
  0
LINE
  5
7A7B
  8
1
  6
CONTINUOUS
 10
2541.7443673965058
 20
2635.848676663305
 30
0.0
 11
1141.744367396506
 21
2635.848676663305
 31
0.0
  0
LINE
  5
7A7C
  8
1
  6
CONTINUOUS
 10
2541.7443673965058
 20
2735.848676663305
 30
0.0
 11
1141.744367396506
 21
2735.848676663305
 31
0.0
  0
LINE
  5
7A7D
  8
2
  6
CENTER
 10
1316.744367396506
 20
2962.848676663305
 30
0.0
 11
1316.744367396506
 21
3102.848676663305
 31
0.0
  0
ARC
  5
7A7E
  8
1
  6
CONTINUOUS
 10
1316.744367396506
 20
3032.848676663305
 30
0.0
 40
170.0
 50
106.8
 51
284.10000000000002
  0
CIRCLE
  5
7A7F
  8
1
  6
CONTINUOUS
 10
1316.744367396506
 20
3032.848676663305
 30
0.0
 40
70.0
  0
LINE
  5
7A80
  8
1
  6
CONTINUOUS
 10
1186.744367396506
 20
2915.848676663305
 30
0.0
 11
1201.0443673965051
 21
2950.6486766633052
 31
0.0
  0
LINE
  5
7A81
  8
1
  6
CONTINUOUS
 10
1151.744367396506
 20
2900.848676663305
 30
0.0
 11
1141.744367396506
 21
2855.848676663305
 31
0.0
  0
LINE
  5
7A82
  8
1
  6
CONTINUOUS
 10
1186.744367396506
 20
2900.848676663305
 30
0.0
 11
1186.744367396506
 21
2915.848676663305
 31
0.0
  0
LINE
  5
7A83
  8
1
  6
CONTINUOUS
 10
1141.744367396506
 20
2855.848676663305
 30
0.0
 11
1141.744367396506
 21
2755.848676663305
 31
0.0
  0
LINE
  5
7A84
  8
1
  6
CONTINUOUS
 10
1141.744367396506
 20
2735.848676663305
 30
0.0
 11
1141.744367396506
 21
2635.848676663305
 31
0.0
  0
LINE
  5
7A85
  8
2
  6
CENTER
 10
1246.744367396506
 20
3032.848676663305
 30
0.0
 11
1386.744367396506
 21
3032.848676663305
 31
0.0
  0
CIRCLE
  5
7A86
  8
1
  6
CONTINUOUS
 10
2141.7443673965058
 20
3260.848676663305
 30
0.0
 40
355.0
  0
CIRCLE
  5
7A87
  8
1
  6
CONTINUOUS
 10
2141.7443673965058
 20
3260.848676663305
 30
0.0
 40
315.0
  0
ARC
  5
7A88
  8
1
  6
CONTINUOUS
 10
2103.7443673965058
 20
3222.848676663305
 30
0.0
 40
417.39999999999992
 50
276.0
 51
0.0
  0
LINE
  5
7A89
  8
1
  6
CONTINUOUS
 10
2601.7443673965058
 20
3938.848676663305
 30
0.0
 11
2141.7443673965058
 21
3902.848676663305
 31
0.0
  0
ARC
  5
7A8A
  8
1
  6
CONTINUOUS
 10
2188.7443673965058
 20
3307.8486766633041
 30
0.0
 40
596.89999999999998
 50
94.500000000000014
 51
180.0
  0
ARC
  5
7A8B
  8
1
  6
CONTINUOUS
 10
2094.7443673965058
 20
3307.8486766633041
 30
0.0
 40
502.89999999999992
 50
180.0
 51
276.0
  0
LINE
  5
7A8C
  8
1
  6
CONTINUOUS
 10
1491.744367396506
 20
2855.848676663305
 30
0.0
 11
1481.744367396506
 21
2900.848676663305
 31
0.0
  0
LINE
  5
7A8D
  8
1
  6
CONTINUOUS
 10
1446.744367396506
 20
2915.848676663305
 30
0.0
 11
1432.444367396507
 21
2950.6486766633052
 31
0.0
  0
LINE
  5
7A8E
  8
1
  6
CONTINUOUS
 10
1446.744367396506
 20
2900.848676663305
 30
0.0
 11
1446.744367396506
 21
2915.848676663305
 31
0.0
  0
ARC
  5
7A8F
  8
1
  6
CONTINUOUS
 10
2141.7443673965058
 20
3260.848676663305
 30
0.0
 40
190.0
 50
284.10000000000002
 51
106.8
  0
LINE
  5
7A90
  8
2
  6
CENTER
 10
1453.399697396507
 20
3260.848676663305
 30
0.0
 11
2681.7184473965058
 21
3260.848676663305
 31
0.0
  0
CIRCLE
  5
7A91
  8
1
  6
CONTINUOUS
 10
2141.7443673965058
 20
3260.848676663305
 30
0.0
 40
90.0
  0
LINE
  5
7A92
  8
2
  6
CENTER
 10
2141.7443673965058
 20
2564.3330766633048
 30
0.0
 11
2141.7443673965058
 21
4099.9184906633054
 31
0.0
  0
LINE
  5
7A93
  8
1
  6
CONTINUOUS
 10
2561.7443673965058
 20
3288.848676663305
 30
0.0
 11
2561.7443673965058
 21
3938.848676663305
 31
0.0
  0
LINE
  5
7A94
  8
1
  6
CONTINUOUS
 10
2601.7443673965058
 20
3246.8486766633041
 30
0.0
 11
2601.7443673965058
 21
3980.848676663305
 31
0.0
  0
LINE
  5
7A95
  8
1
  6
CONTINUOUS
 10
2541.7443673965058
 20
2855.848676663305
 30
0.0
 11
2541.7443673965058
 21
2755.848676663305
 31
0.0
  0
LINE
  5
7A96
  8
1
  6
CONTINUOUS
 10
2541.7443673965058
 20
2735.848676663305
 30
0.0
 11
2541.7443673965058
 21
2635.848676663305
 31
0.0
  0
LINE
  5
7A97
  8
1
  6
CONTINUOUS
 10
2514.6443673965068
 20
3288.848676663305
 30
0.0
 11
2601.7443673965058
 21
3288.848676663305
 31
0.0
  0
ARC
  5
7A98
  8
1
  6
CONTINUOUS
 10
2179.7443673965058
 20
3222.848676663305
 30
0.0
 40
341.39999999999992
 50
0.0
 51
11.1
  0
LINE
  5
7A99
  8
1
  6
CONTINUOUS
 10
2051.7443673965058
 20
5459.5918672390517
 30
0.0
 11
1386.744367396506
 21
5459.5918672390517
 31
0.0
  0
LINE
  5
7A9A
  8
1
  6
CONTINUOUS
 10
1826.744367396506
 20
6149.5918672390526
 30
0.0
 11
1141.744367396506
 21
6149.5918672390526
 31
0.0
  0
LINE
  5
7A9B
  8
1
  6
CONTINUOUS
 10
2331.7443673965058
 20
5539.5918672390526
 30
0.0
 11
1116.744367396506
 21
5539.5918672390526
 31
0.0
  0
LINE
  5
7A9C
  8
1
  6
CONTINUOUS
 10
2331.7443673965058
 20
5379.5918672390526
 30
0.0
 11
1116.744367396506
 21
5379.5918672390526
 31
0.0
  0
LINE
  5
7A9D
  8
1
  6
CONTINUOUS
 10
1174.744367396506
 20
5992.191867239052
 30
0.0
 11
1458.744367396506
 21
5992.191867239052
 31
0.0
  0
LINE
  5
7A9E
  8
1
  6
CONTINUOUS
 10
1174.744367396506
 20
5592.1918672390511
 30
0.0
 11
1458.744367396506
 21
5592.1918672390511
 31
0.0
  0
LINE
  5
7A9F
  8
1
  6
CONTINUOUS
 10
1141.744367396506
 20
6149.5918672390526
 30
0.0
 11
1141.744367396506
 21
5459.5918672390517
 31
0.0
  0
LINE
  5
7AA0
  8
1
  6
CONTINUOUS
 10
1174.744367396506
 20
5592.1918672390511
 30
0.0
 11
1174.744367396506
 21
5992.191867239052
 31
0.0
  0
LINE
  5
7AA1
  8
1
  6
CONTINUOUS
 10
1246.744367396506
 20
5459.5918672390517
 30
0.0
 11
1141.744367396506
 21
5459.5918672390517
 31
0.0
  0
LINE
  5
7AA2
  8
1
  6
CONTINUOUS
 10
1116.744367396506
 20
5379.5918672390526
 30
0.0
 11
1116.744367396506
 21
5539.5918672390526
 31
0.0
  0
LINE
  5
7AA3
  8
1
  6
CONTINUOUS
 10
1386.744367396506
 20
5419.5918672390517
 30
0.0
 11
1386.744367396506
 21
5499.5918672390526
 31
0.0
  0
LINE
  5
7AA4
  8
1
  6
CONTINUOUS
 10
1246.744367396506
 20
5419.5918672390517
 30
0.0
 11
1246.744367396506
 21
5499.5918672390526
 31
0.0
  0
LINE
  5
7AA5
  8
1
  6
CONTINUOUS
 10
1246.744367396506
 20
5419.5918672390517
 30
0.0
 11
1386.744367396506
 21
5419.5918672390517
 31
0.0
  0
LINE
  5
7AA6
  8
1
  6
CONTINUOUS
 10
1246.744367396506
 20
5499.5918672390526
 30
0.0
 11
1386.744367396506
 21
5499.5918672390526
 31
0.0
  0
LINE
  5
7AA7
  8
1
  6
CONTINUOUS
 10
1335.744367396506
 20
5499.5918672390526
 30
0.0
 11
1335.744367396506
 21
5592.1918672390511
 31
0.0
  0
LINE
  5
7AA8
  8
1
  6
CONTINUOUS
 10
1297.744367396506
 20
5499.5918672390526
 30
0.0
 11
1297.744367396506
 21
5592.1918672390511
 31
0.0
  0
LINE
  5
7AA9
  8
1
  6
CONTINUOUS
 10
2496.7443673965058
 20
6179.5918672390526
 30
0.0
 11
1786.744367396506
 21
6179.5918672390526
 31
0.0
  0
LINE
  5
7AAA
  8
1
  6
CONTINUOUS
 10
2601.7443673965058
 20
5622.0918672390526
 30
0.0
 11
1591.844367396506
 21
5622.0918672390526
 31
0.0
  0
LINE
  5
7AAB
  8
1
  6
CONTINUOUS
 10
2601.7443673965058
 20
6097.0918672390517
 30
0.0
 11
1591.844367396506
 21
6097.0918672390517
 31
0.0
  0
LINE
  5
7AAC
  8
1
  6
CONTINUOUS
 10
2541.7443673965058
 20
5459.5918672390517
 30
0.0
 11
2231.7443673965058
 21
5459.5918672390517
 31
0.0
  0
LINE
  5
7AAD
  8
1
  6
CONTINUOUS
 10
1591.844367396506
 20
5622.0918672390526
 30
0.0
 11
1591.844367396506
 21
6097.0918672390517
 31
0.0
  0
LINE
  5
7AAE
  8
1
  6
CONTINUOUS
 10
1458.744367396506
 20
5592.1918672390511
 30
0.0
 11
1458.744367396506
 21
5992.191867239052
 31
0.0
  0
LINE
  5
7AAF
  8
1
  6
CONTINUOUS
 10
1826.744367396506
 20
6179.5918672390526
 30
0.0
 11
1826.744367396506
 21
6097.0918672390517
 31
0.0
  0
LINE
  5
7AB0
  8
1
  6
CONTINUOUS
 10
2051.7443673965058
 20
5499.5918672390526
 30
0.0
 11
2231.7443673965058
 21
5499.5918672390526
 31
0.0
  0
LINE
  5
7AB1
  8
1
  6
CONTINUOUS
 10
2051.7443673965058
 20
5419.5918672390517
 30
0.0
 11
2231.7443673965058
 21
5419.5918672390517
 31
0.0
  0
LINE
  5
7AB2
  8
1
  6
CONTINUOUS
 10
2051.7443673965058
 20
5419.5918672390517
 30
0.0
 11
2051.7443673965058
 21
5499.5918672390526
 31
0.0
  0
LINE
  5
7AB3
  8
1
  6
CONTINUOUS
 10
2122.7443673965058
 20
5499.5918672390526
 30
0.0
 11
2122.7443673965058
 21
5622.0918672390526
 31
0.0
  0
LINE
  5
7AB4
  8
1
  6
CONTINUOUS
 10
2160.7443673965058
 20
5499.5918672390526
 30
0.0
 11
2160.7443673965058
 21
5622.0918672390526
 31
0.0
  0
LINE
  5
7AB5
  8
1
  6
CONTINUOUS
 10
2231.7443673965058
 20
5419.5918672390517
 30
0.0
 11
2231.7443673965058
 21
5499.5918672390526
 31
0.0
  0
LINE
  5
7AB6
  8
1
  6
CONTINUOUS
 10
2331.7443673965058
 20
5379.5918672390526
 30
0.0
 11
2331.7443673965058
 21
5539.5918672390526
 31
0.0
  0
LINE
  5
7AB7
  8
1
  6
CONTINUOUS
 10
2601.7443673965058
 20
5582.0918672390526
 30
0.0
 11
2601.7443673965058
 21
6137.0918672390526
 31
0.0
  0
LINE
  5
7AB8
  8
1
  6
CONTINUOUS
 10
2561.7443673965058
 20
5622.0918672390526
 30
0.0
 11
2561.7443673965058
 21
6097.0918672390517
 31
0.0
  0
LINE
  5
7AB9
  8
1
  6
CONTINUOUS
 10
2541.7443673965058
 20
5622.0918672390526
 30
0.0
 11
2541.7443673965058
 21
5459.5918672390517
 31
0.0
  0
LINE
  5
7ABA
  8
1
  6
CONTINUOUS
 10
2456.7443673965058
 20
6179.5918672390526
 30
0.0
 11
2456.7443673965058
 21
6097.0918672390517
 31
0.0
  0
LINE
  5
7ABB
  8
1
  6
CONTINUOUS
 10
2541.7443673965058
 20
6149.5918672390526
 30
0.0
 11
2456.7443673965058
 21
6149.5918672390526
 31
0.0
  0
LINE
  5
7ABC
  8
1
  6
CONTINUOUS
 10
2541.7443673965058
 20
6149.5918672390526
 30
0.0
 11
2541.7443673965058
 21
6097.0918672390517
 31
0.0
  0
LINE
  5
7ABD
  8
1
  6
CONTINUOUS
 10
4164.0403958624793
 20
3288.848676663305
 30
0.0
 11
4639.0403958624793
 21
3938.848676663305
 31
0.0
  0
LINE
  5
7ABE
  8
1
  6
CONTINUOUS
 10
4164.0403958624793
 20
3938.848676663305
 30
0.0
 11
4639.0403958624793
 21
3288.848676663305
 31
0.0
  0
LINE
  5
7ABF
  8
1
  6
CONTINUOUS
 10
4164.0403958624793
 20
3288.848676663305
 30
0.0
 11
4639.0403958624793
 21
3288.848676663305
 31
0.0
  0
LINE
  5
7AC0
  8
1
  6
CONTINUOUS
 10
4164.0403958624793
 20
3938.848676663305
 30
0.0
 11
4639.0403958624793
 21
3938.848676663305
 31
0.0
  0
LINE
  5
7AC1
  8
1
  6
CONTINUOUS
 10
4691.5403958624793
 20
2755.848676663305
 30
0.0
 11
4001.5403958624802
 21
2755.848676663305
 31
0.0
  0
LINE
  5
7AC2
  8
1
  6
CONTINUOUS
 10
4691.5403958624793
 20
2855.848676663305
 30
0.0
 11
4001.5403958624802
 21
2855.848676663305
 31
0.0
  0
LINE
  5
7AC3
  8
1
  6
CONTINUOUS
 10
4691.5403958624793
 20
2635.848676663305
 30
0.0
 11
4001.5403958624802
 21
2635.848676663305
 31
0.0
  0
LINE
  5
7AC4
  8
1
  6
CONTINUOUS
 10
4691.5403958624793
 20
2735.848676663305
 30
0.0
 11
4001.5403958624802
 21
2735.848676663305
 31
0.0
  0
LINE
  5
7AC5
  8
1
  6
CONTINUOUS
 10
4164.0403958624793
 20
3938.848676663305
 30
0.0
 11
4164.0403958624793
 21
2855.848676663305
 31
0.0
  0
LINE
  5
7AC6
  8
1
  6
CONTINUOUS
 10
3961.5403958624788
 20
2962.848676663305
 30
0.0
 11
4041.5403958624788
 21
2962.848676663305
 31
0.0
  0
LINE
  5
7AC7
  8
1
  6
CONTINUOUS
 10
3961.5403958624788
 20
3102.848676663305
 30
0.0
 11
4041.5403958624788
 21
3102.848676663305
 31
0.0
  0
LINE
  5
7AC8
  8
1
  6
CONTINUOUS
 10
3961.5403958624788
 20
3170.848676663305
 30
0.0
 11
4041.5403958624788
 21
3170.848676663305
 31
0.0
  0
LINE
  5
7AC9
  8
1
  6
CONTINUOUS
 10
3961.5403958624788
 20
3350.8486766633041
 30
0.0
 11
4041.5403958624788
 21
3350.8486766633041
 31
0.0
  0
LINE
  5
7ACA
  8
1
  6
CONTINUOUS
 10
3921.5403958624788
 20
3450.848676663305
 30
0.0
 11
4081.5403958624788
 21
3450.848676663305
 31
0.0
  0
LINE
  5
7ACB
  8
1
  6
CONTINUOUS
 10
3921.5403958624788
 20
2862.8486766633041
 30
0.0
 11
4081.5403958624788
 21
2862.8486766633041
 31
0.0
  0
LINE
  5
7ACC
  8
1
  6
CONTINUOUS
 10
3961.5403958624788
 20
3102.848676663305
 30
0.0
 11
3961.5403958624788
 21
2962.848676663305
 31
0.0
  0
LINE
  5
7ACD
  8
1
  6
CONTINUOUS
 10
3921.5403958624788
 20
3450.848676663305
 30
0.0
 11
3921.5403958624788
 21
2862.8486766633041
 31
0.0
  0
LINE
  5
7AD1
  8
1
  6
CONTINUOUS
 10
3961.5403958624788
 20
3350.8486766633041
 30
0.0
 11
3961.5403958624788
 21
3170.848676663305
 31
0.0
  0
LINE
  5
7AD2
  8
1
  6
CONTINUOUS
 10
4041.5403958624788
 20
3102.848676663305
 30
0.0
 11
4041.5403958624788
 21
2962.848676663305
 31
0.0
  0
LINE
  5
7AD3
  8
1
  6
CONTINUOUS
 10
4081.5403958624788
 20
3450.848676663305
 30
0.0
 11
4081.5403958624788
 21
2862.8486766633041
 31
0.0
  0
LINE
  5
7AD4
  8
1
  6
CONTINUOUS
 10
4164.0403958624793
 20
3051.848676663305
 30
0.0
 11
4041.5403958624788
 21
3051.848676663305
 31
0.0
  0
LINE
  5
7AD5
  8
1
  6
CONTINUOUS
 10
4164.0403958624793
 20
3013.848676663305
 30
0.0
 11
4041.5403958624788
 21
3013.848676663305
 31
0.0
  0
LINE
  5
7AD6
  8
1
  6
CONTINUOUS
 10
4001.5403958624802
 20
2855.848676663305
 30
0.0
 11
4001.5403958624802
 21
2755.848676663305
 31
0.0
  0
LINE
  5
7AD7
  8
1
  6
CONTINUOUS
 10
4001.5403958624802
 20
2735.848676663305
 30
0.0
 11
4001.5403958624802
 21
2635.848676663305
 31
0.0
  0
POINT
  5
7AD8
  8
1
  6
CONTINUOUS
 10
4001.5403958624802
 20
2755.848676663305
 30
0.0
  0
POINT
  5
7AD9
  8
1
  6
CONTINUOUS
 10
4001.5403958624802
 20
2735.848676663305
 30
0.0
  0
LINE
  5
7ADA
  8
1
  6
CONTINUOUS
 10
4164.0403958624793
 20
3241.848676663305
 30
0.0
 11
4041.5403958624788
 21
3241.848676663305
 31
0.0
  0
LINE
  5
7ADB
  8
1
  6
CONTINUOUS
 10
4164.0403958624793
 20
3279.8486766633041
 30
0.0
 11
4041.5403958624788
 21
3279.8486766633041
 31
0.0
  0
LINE
  5
7ADC
  8
1
  6
CONTINUOUS
 10
4041.5403958624788
 20
3350.8486766633041
 30
0.0
 11
4041.5403958624788
 21
3170.848676663305
 31
0.0
  0
LINE
  5
7ADD
  8
1
  6
CONTINUOUS
 10
4639.0403958624793
 20
3938.848676663305
 30
0.0
 11
4639.0403958624793
 21
2855.848676663305
 31
0.0
  0
LINE
  5
7ADE
  8
1
  6
CONTINUOUS
 10
4721.5403958624784
 20
3615.848676663305
 30
0.0
 11
4721.5403958624784
 21
2905.848676663305
 31
0.0
  0
LINE
  5
7ADF
  8
1
  6
CONTINUOUS
 10
4639.0403958624793
 20
2945.848676663305
 30
0.0
 11
4721.5403958624784
 21
2945.848676663305
 31
0.0
  0
LINE
  5
7AE0
  8
1
  6
CONTINUOUS
 10
4691.5403958624793
 20
2855.848676663305
 30
0.0
 11
4691.5403958624793
 21
2755.848676663305
 31
0.0
  0
LINE
  5
7AE1
  8
1
  6
CONTINUOUS
 10
4691.5403958624793
 20
2735.848676663305
 30
0.0
 11
4691.5403958624793
 21
2635.848676663305
 31
0.0
  0
LINE
  5
7AE2
  8
1
  6
CONTINUOUS
 10
4639.0403958624793
 20
3575.848676663305
 30
0.0
 11
4721.5403958624784
 21
3575.848676663305
 31
0.0
  0
DIMENSION
  5
7AF6
  8
3
  6
CONTINUOUS
  2
*D1
 10
2141.7443673965058
 20
2382.970468663304
 30
0.0
 11
1617.1484533965061
 21
2382.970468663304
 31
0.0
 70
   128
 13
1141.744367396506
 23
2635.848676663305
 33
0.0
 14
2141.7443673965058
 24
2581.4986216633051
 34
0.0
1001
ACAD
1000
DSTYLE
1002
{
1070
   287
1070
     3
1070
   287
1070
     3
1070
    40
1040
30.0
1070
   143
1040
0.039
1070
   172
1070
     1
1070
   271
1070
     0
1070
   279
1070
     0
1070
   288
1070
     1
1002
}
  0
DIMENSION
  5
7B04
  8
3
  6
CONTINUOUS
  2
*D2
 10
2541.7443673965058
 20
2382.970468663304
 30
0.0
 11
2341.7443673965058
 21
2444.4256159489742
 31
0.0
 12
0.0
 22
-306.11268622148413
 32
0.0
 70
   128
 13
2141.7443673965058
 23
2581.4986216633051
 33
0.0
 14
2541.7443673965058
 24
2635.848676663305
 34
0.0
1001
ACAD
1000
DSTYLE
1002
{
1070
   288
1070
     1
1070
   172
1070
     1
1070
    40
1040
30.0
1070
   271
1070
     0
1070
   143
1040
0.039
1002
}
  0
DIMENSION
  5
7B27
  8
3
  6
CONTINUOUS
  2
*D3
 10
2885.6938093965082
 20
3288.848676663305
 30
0.0
 11
2885.6938093965068
 21
3605.4380466633052
 31
0.0
 70
   128
 13
2601.7443673965058
 23
3938.848676663305
 33
0.0
 14
2601.7443673965058
 24
3288.848676663305
 34
0.0
 50
90.0
1001
ACAD
1000
DSTYLE
1002
{
1070
   287
1070
     3
1070
   287
1070
     3
1070
    40
1040
30.0
1070
   143
1040
0.039
1070
   172
1070
     1
1070
   271
1070
     0
1070
   279
1070
     0
1070
   288
1070
     1
1002
}
  0
DIMENSION
  5
7B34
  8
3
  6
CONTINUOUS
  2
*D4
 10
3094.6850233965069
 20
3260.848676663305
 30
0.0
 11
3094.6850233965069
 21
3619.7426676633049
 31
0.0
 70
   128
 13
2601.7443673965058
 23
3938.848676663305
 33
0.0
 14
2519.0229553965069
 24
3260.848676663305
 34
0.0
 50
90.0
1001
ACAD
1000
DSTYLE
1002
{
1070
   287
1070
     3
1070
   287
1070
     3
1070
    40
1040
30.0
1070
   143
1040
0.039
1070
   172
1070
     1
1070
   271
1070
     0
1070
   279
1070
     0
1070
   288
1070
     1
1002
}
  0
DIMENSION
  5
7B40
  8
3
  6
CONTINUOUS
  2
*D5
 10
3094.6850233965069
 20
2755.8486766633041
 30
0.0
 11
3019.685023396506
 21
3008.348676663305
 31
0.0
 70
     0
 13
2519.0229553965069
 23
3260.848676663305
 33
0.0
 14
2541.7443673965058
 24
2755.848676663305
 34
0.0
 50
90.0
1001
ACAD
1000
DSTYLE
1002
{
1070
   287
1070
     3
1070
   287
1070
     3
1070
    40
1040
30.0
1070
   143
1040
0.039
1070
   172
1070
     1
1070
   271
1070
     0
1070
   279
1070
     0
1070
   288
1070
     1
1002
}
  0
DIMENSION
  5
7B50
  8
3
  6
CONTINUOUS
  2
*D6
 10
3094.6850233965069
 20
2635.8486766633041
 30
0.0
 11
3094.6850233965069
 21
2378.7058195204481
 31
0.0
 70
   128
 13
2541.7443673965058
 23
2755.848676663305
 33
0.0
 14
2541.7443673965058
 24
2635.848676663305
 34
0.0
 50
90.0
1001
ACAD
1000
DSTYLE
1002
{
1070
   287
1070
     3
1070
   287
1070
     3
1070
    40
1040
30.0
1070
   143
1040
0.039
1070
   172
1070
     1
1070
   271
1070
     0
1070
   279
1070
     0
1070
   288
1070
     1
1002
}
  0
DIMENSION
  5
7B77
  8
3
  6
CONTINUOUS
  2
*D7
 10
3332.305174396507
 20
2635.8486766633041
 30
0.0
 11
3332.305174396507
 21
3276.4319766633048
 31
0.0
 70
   128
 13
2601.7443673965058
 23
3980.848676663305
 33
0.0
 14
2541.7443673965058
 24
2635.848676663305
 34
0.0
 50
90.0
1001
ACAD
1000
DSTYLE
1002
{
1070
   287
1070
     3
1070
   287
1070
     3
1070
    40
1040
30.0
1070
   143
1040
0.039
1070
   172
1070
     1
1070
   271
1070
     0
1070
   279
1070
     0
1070
   288
1070
     1
1002
}
  0
DIMENSION
  5
7B84
  8
3
  6
CONTINUOUS
  2
*D8
 10
2141.7443673965058
 20
4171.6556326633054
 30
0.0
 11
1834.045446396507
 21
4171.6556326633054
 31
0.0
 70
   128
 13
1594.0454463965059
 23
3260.848676663305
 33
0.0
 14
2141.7443673965058
 24
3902.848676663305
 34
0.0
1001
ACAD
1000
DSTYLE
1002
{
1070
   287
1070
     3
1070
   287
1070
     3
1070
    40
1040
30.0
1070
   143
1040
0.039
1070
   172
1070
     1
1070
   271
1070
     0
1070
   279
1070
     0
1070
   288
1070
     1
1002
}
  0
DIMENSION
  5
7BB5
  8
3
  6
CONTINUOUS
  2
*D9
 10
2541.7443673965058
 20
5110.0909262390533
 30
0.0
 11
1860.210767396507
 21
5110.0909262390533
 31
0.0
 70
   128
 13
1141.744367396506
 23
5459.5918672390517
 33
0.0
 14
2541.7443673965058
 24
5459.5918672390517
 34
0.0
1001
ACAD
1000
DSTYLE
1002
{
1070
   287
1070
     3
1070
   287
1070
     3
1070
    40
1040
30.0
1070
   143
1040
0.039
1070
   172
1070
     1
1070
   271
1070
     0
1070
   279
1070
     0
1070
   288
1070
     1
1002
}
  0
DIMENSION
  5
7BC2
  8
3
  6
CONTINUOUS
  2
*D10
 10
2842.1831673965071
 20
5459.5918672390517
 30
0.0
 11
2842.1831673965062
 21
5847.6346832390527
 31
0.0
 70
   129
 13
2541.7443673965058
 23
6149.5918672390526
 33
0.0
 14
2541.7443673965058
 24
5459.5918672390517
 34
0.0
1001
ACAD
1000
DSTYLE
1002
{
1070
   287
1070
     3
1070
   287
1070
     3
1070
    40
1040
30.0
1070
   143
1040
0.039
1070
   172
1070
     1
1070
   271
1070
     0
1070
   279
1070
     0
1070
   288
1070
     1
1002
}
  0
LINE
  5
7BC3
  8
2
  6
CENTER
 10
1377.127389396506
 20
5859.5918672390526
 30
0.0
 11
2653.1466893965062
 21
5859.5918672390526
 31
0.0
  0
LINE
  5
7BC4
  8
2
  6
CENTER
 10
4401.5403958624793
 20
4000.9470416633039
 30
0.0
 11
4401.5403958624793
 21
2511.449016663305
 31
0.0
  0
DIMENSION
  5
7BD3
  8
3
  6
CONTINUOUS
  2
*D11
 10
4401.5403958624793
 20
2449.0991476633039
 30
0.0
 11
4201.5403958624793
 21
2506.6322243835348
 31
0.0
 12
0.0
 22
-306.11268622148413
 32
0.0
 70
   128
 13
4001.5403958624802
 23
2635.848676663305
 33
0.0
 14
4401.5403958624793
 24
2511.449016663305
 34
0.0
1001
ACAD
1000
DSTYLE
1002
{
1070
   288
1070
     1
1070
   172
1070
     1
1070
    40
1040
30.0
1070
   271
1070
     0
1070
   143
1040
0.039
1002
}
  0
DIMENSION
  5
7BE1
  8
3
  6
CONTINUOUS
  2
*D12
 10
4691.5403958624793
 20
2449.0991476633039
 30
0.0
 11
4555.035070098209
 21
2522.183864214308
 31
0.0
 12
0.0
 22
-306.11268622148413
 32
0.0
 70
   128
 13
4401.5403958624793
 23
2511.449016663305
 33
0.0
 14
4691.5403958624793
 24
2635.848676663305
 34
0.0
1001
ACAD
1000
DSTYLE
1002
{
1070
   288
1070
     1
1070
   172
1070
     1
1070
    40
1040
30.0
1070
   271
1070
     0
1070
   143
1040
0.039
1002
}
  0
DIMENSION
  5
7C1C
  8
3
  6
CONTINUOUS
  2
*D13
 10
4953.08896286248
 20
2945.848676663305
 30
0.0
 11
4953.0889628624791
 21
3244.7202096633041
 31
0.0
 70
   128
 13
4721.5403958624784
 23
3575.848676663305
 33
0.0
 14
4721.5403958624784
 24
2945.848676663305
 34
0.0
 50
90.0
1001
ACAD
1000
DSTYLE
1002
{
1070
   287
1070
     3
1070
   287
1070
     3
1070
     3
1000
φ<>
1070
    40
1040
30.0
1070
   143
1040
0.039
1070
   172
1070
     1
1070
   271
1070
     0
1070
   279
1070
     0
1070
   288
1070
     1
1002
}
  0
DIMENSION
  5
7C2C
  8
3
  6
CONTINUOUS
  2
*D14
 10
4639.0403958624793
 20
4021.9567867457331
 30
0.0
 11
4401.5403958624793
 21
4021.9567867457331
 31
0.0
 70
   128
 13
4164.0403958624793
 23
3938.848676663305
 33
0.0
 14
4639.0403958624793
 24
3938.848676663305
 34
0.0
1001
ACAD
1000
DSTYLE
1002
{
1070
   287
1070
     3
1070
   287
1070
     3
1070
    40
1040
30.0
1070
   143
1040
0.039
1070
   172
1070
     1
1070
   271
1070
     0
1070
   279
1070
     0
1070
   288
1070
     1
1002
}
  0
DIMENSION
  5
7C39
  8
3
  6
CONTINUOUS
  2
*D15
 10
4391.1640718786712
 20
4258.3956488524873
 30
0.0
 11
4140.1118244339068
 21
4258.3956488524873
 31
0.0
 70
   128
  1
MAX\P550
 13
3921.5403958624788
 23
3450.848676663305
 33
0.0
 14
4391.1640718786712
 24
4156.3807102360806
 34
0.0
1001
ACAD
1000
DSTYLE
1002
{
1070
   287
1070
     3
1070
   287
1070
     3
1070
    40
1040
30.0
1070
   143
1040
0.039
1070
   172
1070
     1
1070
   271
1070
     0
1070
   279
1070
     0
1070
   288
1070
     1
1002
}
  0
DIMENSION
  5
7C47
  8
3
  6
CONTINUOUS
  2
*D16
 10
4721.5403958624784
 20
4258.3956488524873
 30
0.0
 11
4565.4113940820171
 21
4319.2058537714656
 31
0.0
 12
0.0
 22
-306.11268622148413
 32
0.0
 70
   128
 13
4391.1640718786712
 23
4156.3807102360806
 33
0.0
 14
4721.5403958624784
 24
3615.848676663305
 34
0.0
1001
ACAD
1000
DSTYLE
1002
{
1070
   288
1070
     1
1070
   172
1070
     1
1070
    40
1040
30.0
1070
   271
1070
     0
1070
   143
1040
0.039
1002
}
  0
LINE
  5
7C5F
  8
2
  6
CENTER
 10
3870.1973494042181
 20
3260.848676663305
 30
0.0
 11
4756.9187108624792
 21
3260.848676663305
 31
0.0
  0
LINE
  5
7C60
  8
2
  6
CENTER
 10
2141.7443673965058
 20
5230.3484512390532
 30
0.0
 11
2141.7443673965058
 21
6196.1204152390528
 31
0.0
  0
LINE
  5
7C61
  8
4
  6
CONTINUOUS
 10
5550.0
 20
1500.0
 30
0.0
 11
5550.0
 21
900.0
 31
0.0
  0
LINE
  5
7C62
  8
4
  6
CONTINUOUS
 10
3450.0
 20
1500.0
 30
0.0
 11
3450.0
 21
900.0
 31
0.0
  0
LINE
  5
7C63
  8
4
  6
CONTINUOUS
 10
1950.0
 20
1500.0
 30
0.0
 11
1950.0
 21
900.0
 31
0.0
  0
LINE
  5
7C66
  8
4
  6
CONTINUOUS
 10
1950.0
 20
900.0
 30
0.0
 11
5550.0
 21
900.0
 31
0.0
  0
LINE
  5
7C67
  8
4
  6
CONTINUOUS
 10
1950.0
 20
1200.0
 30
0.0
 11
5550.0
 21
1200.0
 31
0.0
  0
TEXT
  5
7C68
  8
4
  6
CONTINUOUS
 10
2065.50624225
 20
1294.6290779999999
 30
0.0
 40
150.0
  1
機器名称
  0
TEXT
  5
7C69
  8
4
  6
CONTINUOUS
 10
2058.7743179999989
 20
964.93547024999998
 30
0.0
 40
150.0
  1
機器型番
  0
TEXT
  5
7C6A
  8
4
  6
CONTINUOUS
 10
3533.0362365000001
 20
1267.715306249999
 30
0.0
 40
120.0
  1
ミツヤリミットロードファン
  0
TEXT
  5
7C6B
  8
4
  6
CONTINUOUS
 10
3559.9634872500001
 20
951.4787527499999
 30
0.0
 40
150.0
  1
LLE#4-4
  0
TEXT
  5
7C6D
  8
4
  6
CONTINUOUS
 10
2343.4539479999999
 20
7150.2865245000012
 30
0.0
 40
162.0
  1
床置防振ベット
  0
TEXT
  5
7C6E
  8
4
  6
CONTINUOUS
 10
948.50278049999986
 20
7601.6429287499996
 30
0.0
 40
171.42857175
  1
ベルト駆動式片吸込両持排煙ファン
  0
LINE
  5
7C6F
  8
4
  6
CONTINUOUS
 10
750.0
 20
7408.2262627500004
 30
0.0
 11
5550.0
 21
7408.2262627500004
 31
0.0
  0
LINE
  5
7C70
  8
4
  6
CONTINUOUS
 10
750.0
 20
8008.2262627500004
 30
0.0
 11
5550.0
 21
8008.2262627500004
 31
0.0
  0
LINE
  5
7C71
  8
4
  6
CONTINUOUS
 10
1950.0
 20
1500.0
 30
0.0
 11
5550.0
 21
1500.0
 31
0.0
  0
LINE
  5
7C72
  8
4
  6
CONTINUOUS
 10
750.0
 20
8008.2262627500004
 30
0.0
 11
750.0
 21
7408.2262627500004
 31
0.0
  0
TEXT
  5
7C73
  8
4
  6
CONTINUOUS
 10
1035.877451249999
 20
7146.9584324999987
 30
0.0
 40
162.0
  1
右回転右横向
  0
TEXT
  5
7C74
  8
4
  6
CONTINUOUS
 10
4406.9086777499988
 20
8118.1832445
 30
0.0
 40
168.0
  1
No.
  0
TEXT
  5
7C75
  8
4
  6
CONTINUOUS
 10
3933.8881875000002
 20
7150.2865245000012
 30
0.0
 40
162.0
  1
縮尺：1/30
  0
LINE
  5
7C76
  8
4
  6
CONTINUOUS
 10
5550.0
 20
8008.2262627500004
 30
0.0
 11
5550.0
 21
7408.2262627500004
 31
0.0
  0
LINE
  5
7C78
  8
4
  6
CONTINUOUS
 10
4321.8522667500001
 20
8043.79074975
 30
0.0
 11
4321.8522667500001
 21
8359.9567845000001
 31
0.0
  0
LINE
  5
7C79
  8
4
  6
CONTINUOUS
 10
4321.8522667500001
 20
8359.9567845000001
 30
0.0
 11
5550.0
 21
8359.9567845000001
 31
0.0
  0
LINE
  5
7C7A
  8
4
  6
CONTINUOUS
 10
5550.0
 20
8359.9567845000001
 30
0.0
 11
5550.0
 21
8043.79074975
 31
0.0
  0
LINE
  5
7C7B
  8
4
  6
CONTINUOUS
 10
5550.0
 20
8043.79074975
 30
0.0
 11
4321.8522667500001
 21
8043.79074975
 31
0.0
  0
DIMENSION
  5
7CA7
  8
3
  6
CONTINUOUS
  2
*D17
 10
2601.7443673965058
 20
4167.9324686633054
 30
0.0
 11
2396.03008168222
 21
4167.9324686633054
 31
0.0
 70
   128
 13
2141.7443673965058
 23
3902.848676663305
 33
0.0
 14
2601.7443673965058
 24
3980.848676663305
 34
0.0
1001
ACAD
1000
DSTYLE
1002
{
1070
   287
1070
     3
1070
   287
1070
     3
1070
    40
1040
30.0
1070
   143
1040
0.039
1070
   172
1070
     1
1070
   271
1070
     0
1070
   279
1070
     0
1070
   288
1070
     1
1002
}
  0
DIMENSION
  5
7E94
  8
3
  2
*D18
 10
1141.744367396506
 20
4341.7268539784918
 30
0.0
 11
1836.4368352898521
 21
4341.7268539784918
 31
0.0
 70
   128
 13
2601.7443673965058
 23
3980.848676663305
 33
0.0
 14
1141.744367396506
 24
2855.848676663305
 34
0.0
1001
ACAD
1000
DSTYLE
1002
{
1070
   287
1070
     3
1070
   287
1070
     3
1070
    40
1040
30.0
1070
   143
1040
0.039
1070
   172
1070
     1
1070
   271
1070
     0
1070
   279
1070
     0
1070
   288
1070
     1
1002
}
  0
ENDSEC
  0
EOF
