  0
SECTION
  2
HEADER
  9
$ACADVER
  1
AC1009
  9
$INSBASE
 10
0.0
 20
0.0
 30
0.0
  9
$EXTMIN
 10
750.0
 20
900.0
 30
0.0
  9
$EXTMAX
 10
5550.0
 20
8359.9567845000001
 30
0.0
  9
$LIMMIN
 10
0.0
 20
0.0
  9
$LIMMAX
 10
297.0
 20
210.0
  9
$ORTHOMODE
 70
     0
  9
$REGENMODE
 70
     1
  9
$FILLMODE
 70
     0
  9
$QTEXTMODE
 70
     0
  9
$MIRRTEXT
 70
     1
  9
$DRAGMODE
 70
     2
  9
$LTSCALE
 40
100.0
  9
$OSMODE
 70
    37
  9
$ATTMODE
 70
     1
  9
$TEXTSIZE
 40
180.0
  9
$TRACEWID
 40
0.05
  9
$TEXTSTYLE
  7
STANDARD
  9
$CLAYER
  8
3
  9
$CELTYPE
  6
BYLAYER
  9
$CECOLOR
 62
   256
  9
$DIMSCALE
 40
30.0
  9
$DIMASZ
 40
2.0
  9
$DIMEXO
 40
0.5
  9
$DIMDLI
 40
10.0
  9
$DIMRND
 40
0.0
  9
$DIMDLE
 40
0.0
  9
$DIMEXE
 40
1.0
  9
$DIMTP
 40
1.0
  9
$DIMTM
 40
1.0
  9
$DIMTXT
 40
3.0
  9
$DIMCEN
 40
0.0
  9
$DIMTSZ
 40
0.0
  9
$DIMTOL
 70
     0
  9
$DIMLIM
 70
     0
  9
$DIMTIH
 70
     0
  9
$DIMTOH
 70
     0
  9
$DIMSE1
 70
     0
  9
$DIMSE2
 70
     0
  9
$DIMTAD
 70
     1
  9
$DIMZIN
 70
     8
  9
$DIMBLK
  1

  9
$DIMASO
 70
     1
  9
$DIMSHO
 70
     1
  9
$DIMPOST
  1

  9
$DIMAPOST
  1

  9
$DIMALT
 70
     0
  9
$DIMALTD
 70
     2
  9
$DIMALTF
 40
0.039
  9
$DIMLFAC
 40
1.0
  9
$DIMTOFL
 70
     1
  9
$DIMTVP
 40
0.0
  9
$DIMTIX
 70
     0
  9
$DIMSOXD
 70
     0
  9
$DIMSAH
 70
     1
  9
$DIMBLK1
  1
OPEN
  9
$DIMBLK2
  1
OPEN
  9
$DIMSTYLE
  2
IGA
  9
$DIMCLRD
 70
     0
  9
$DIMCLRE
 70
     0
  9
$DIMCLRT
 70
     0
  9
$DIMTFAC
 40
10.0
  9
$DIMGAP
 40
1.0
  9
$LUNITS
 70
     2
  9
$LUPREC
 70
     3
  9
$SKETCHINC
 40
0.1
  9
$FILLETRAD
 40
50.0
  9
$AUNITS
 70
     0
  9
$AUPREC
 70
     0
  9
$MENU
  1
acad
  9
$ELEVATION
 40
0.0
  9
$PELEVATION
 40
0.0
  9
$THICKNESS
 40
0.0
  9
$LIMCHECK
 70
     0
  9
$BLIPMODE
 70
     0
  9
$CHAMFERA
 40
0.5
  9
$CHAMFERB
 40
0.5
  9
$SKPOLY
 70
     0
  9
$TDCREATE
 40
2450757.3912270828
  9
$TDUPDATE
 40
2454953.6832948029
  9
$TDINDWG
 40
0.0040676273
  9
$TDUSRTIMER
 40
0.0040676273
  9
$USRTIMER
 70
     1
  9
$ANGBASE
 50
0.0
  9
$ANGDIR
 70
     0
  9
$PDMODE
 70
     0
  9
$PDSIZE
 40
0.0
  9
$PLINEWID
 40
0.0
  9
$COORDS
 70
     1
  9
$SPLFRAME
 70
     0
  9
$SPLINETYPE
 70
     6
  9
$SPLINESEGS
 70
     8
  9
$ATTDIA
 70
     0
  9
$ATTREQ
 70
     1
  9
$HANDLING
 70
 10241
  9
$HANDSEED
  5
7F60
  9
$SURFTAB1
 70
     6
  9
$SURFTAB2
 70
     6
  9
$SURFTYPE
 70
     6
  9
$SURFU
 70
     6
  9
$SURFV
 70
     6
  9
$UCSNAME
  2

  9
$UCSORG
 10
0.0
 20
0.0
 30
0.0
  9
$UCSXDIR
 10
1.0
 20
0.0
 30
0.0
  9
$UCSYDIR
 10
0.0
 20
1.0
 30
0.0
  9
$PUCSNAME
  2

  9
$PUCSORG
 10
0.0
 20
0.0
 30
0.0
  9
$PUCSXDIR
 10
1.0
 20
0.0
 30
0.0
  9
$PUCSYDIR
 10
0.0
 20
1.0
 30
0.0
  9
$USERI1
 70
     0
  9
$USERI2
 70
     0
  9
$USERI3
 70
     0
  9
$USERI4
 70
     0
  9
$USERI5
 70
     0
  9
$USERR1
 40
0.0
  9
$USERR2
 40
0.0
  9
$USERR3
 40
0.0
  9
$USERR4
 40
0.0
  9
$USERR5
 40
0.0
  9
$WORLDVIEW
 70
     1
  9
$SHADEDGE
 70
     3
  9
$SHADEDIF
 70
    70
  9
$TILEMODE
 70
     1
  9
$MAXACTVP
 70
    16
  9
$PLIMCHECK
 70
     0
  9
$PEXTMIN
 10
1.0000000000000000E+020
 20
1.0000000000000000E+020
 30
1.0000000000000000E+020
  9
$PEXTMAX
 10
-1.0000000000000000E+020
 20
-1.0000000000000000E+020
 30
-1.0000000000000000E+020
  9
$PLIMMIN
 10
0.0
 20
0.0
  9
$PLIMMAX
 10
12.0
 20
9.0
  9
$UNITMODE
 70
     0
  9
$VISRETAIN
 70
     0
  9
$PLINEGEN
 70
     0
  9
$PSLTSCALE
 70
     1
  0
ENDSEC
  0
SECTION
  2
TABLES
  0
TABLE
  2
VPORT
 70
     2
  0
VPORT
  2
*ACTIVE
 70
     0
 10
0.0
 20
0.0
 11
1.0
 21
1.0
 12
13727.93167668927
 22
4123.6185500060474
 13
0.0
 23
0.0
 14
10.0
 24
10.0
 15
10.0
 25
10.0
 16
0.0
 26
0.0
 36
1.0
 17
0.0
 27
0.0
 37
0.0
 40
10650.195733772551
 41
3.1666666666666661
 42
50.0
 43
0.0
 44
0.0
 50
0.0
 51
0.0
 71
     0
 72
   100
 73
     1
 74
     0
 75
     0
 76
     0
 77
     0
 78
     0
  0
ENDTAB
  0
TABLE
  2
LTYPE
 70
     2
  0
LTYPE
  2
CONTINUOUS
 70
     0
  3
Solid line
 72
    65
 73
     0
 40
0.0
  0
LTYPE
  2
CENTER
 70
     0
  3
____ _ ____ _ ____ _ ____ _ ____ _ ____ _ ____ 
 72
    65
 73
     4
 40
2.0
 49
1.25
 49
-0.25
 49
0.25
 49
-0.25
  0
ENDTAB
  0
TABLE
  2
LAYER
 70
     6
  0
LAYER
  2
0
 70
     0
 62
     7
  6
CONTINUOUS
  0
LAYER
  2
3
 70
     0
 62
     2
  6
CONTINUOUS
  0
LAYER
  2
2
 70
     0
 62
     3
  6
CENTER
  0
LAYER
  2
1
 70
     0
 62
     4
  6
CONTINUOUS
  0
LAYER
  2
4
 70
     0
 62
     7
  6
CONTINUOUS
  0
LAYER
  2
DEFPOINTS
 70
     0
 62
     7
  6
CONTINUOUS
  0
ENDTAB
  0
TABLE
  2
STYLE
 70
     1
  0
STYLE
  2
STANDARD
 70
     0
 40
0.0
 41
1.0
 50
0.0
 71
     0
 42
180.0
  3
simplex.shx
  4
extfont.shx
  0
ENDTAB
  0
TABLE
  2
VIEW
 70
     0
  0
ENDTAB
  0
TABLE
  2
UCS
 70
     0
  0
ENDTAB
  0
TABLE
  2
APPID
 70
     1
  0
APPID
  2
ACAD
 70
     0
  0
ENDTAB
  0
TABLE
  2
DIMSTYLE
 70
     1
  0
DIMSTYLE
  2
IGA
 70
     0
  3

  4

  5

  6
OPEN
  7
OPEN
 40
2.0
 41
2.0
 42
0.5
 43
10.0
 44
1.0
 45
0.0
 46
0.0
 47
1.0
 48
1.0
140
3.0
141
0.0
142
0.0
143
0.03937
144
1.0
145
0.0
146
10.0
147
1.0
 71
     0
 72
     0
 73
     0
 74
     0
 75
     0
 76
     0
 77
     1
 78
     8
170
     0
171
     2
172
     0
173
     1
174
     0
175
     0
176
     0
177
     0
178
     0
  0
ENDTAB
  0
ENDSEC
  0
SECTION
  2
BLOCKS
  0
BLOCK
  8
0
  2
$MODEL_SPACE
 70
     0
 10
0.0
 20
0.0
 30
0.0
  3
$MODEL_SPACE
  1

  0
ENDBLK
  5
1B
  8
0
  0
BLOCK
 67
     1
  8
0
  2
$PAPER_SPACE
 70
     0
 10
0.0
 20
0.0
 30
0.0
  3
$PAPER_SPACE
  1

  0
ENDBLK
  5
18
 67
     1
  8
0
  0
BLOCK
  8
0
  2
_OPEN
 70
     0
 10
0.0
 20
0.0
 30
0.0
  3
_OPEN
  1

  0
LINE
  5
7AE2
  8
0
  6
BYBLOCK
 62
     0
 10
-1.0
 20
0.166667
 30
0.0
 11
0.0
 21
0.0
 31
0.0
  0
LINE
  5
7AE3
  8
0
  6
BYBLOCK
 62
     0
 10
0.0
 20
0.0
 30
0.0
 11
-1.0
 21
-0.166667
 31
0.0
  0
LINE
  5
7AE4
  8
0
  6
BYBLOCK
 62
     0
 10
0.0
 20
0.0
 30
0.0
 11
-1.0
 21
0.0
 31
0.0
  0
ENDBLK
  5
7AE5
  8
0
  0
BLOCK
  8
0
  2
*D1
 70
     1
 10
0.0
 20
0.0
 30
0.0
  3
*D1
  1

  0
LINE
  5
7D71
  8
0
  6
BYBLOCK
 62
     0
 10
1305.9164789595161
 20
3018.1675104227588
 30
0.0
 11
1305.9164789595161
 21
2803.5133164227591
 31
0.0
  0
LINE
  5
7D72
  8
0
  6
BYBLOCK
 62
     0
 10
1705.9164789595161
 20
2930.0325954227592
 30
0.0
 11
1705.9164789595161
 21
2803.5133164227591
 31
0.0
  0
LINE
  5
7D73
  8
0
  6
BYBLOCK
 62
     0
 10
1365.9164789595161
 20
2833.5133164227591
 30
0.0
 11
1645.9164789595161
 21
2833.5133164227591
 31
0.0
  0
TEXT
  5
7D74
  8
3
 62
     0
 10
1390.2021932452301
 20
2852.725443345415
 30
0.0
 40
90.0
  1
400
  0
INSERT
  5
7D75
  8
0
  6
BYBLOCK
 62
     0
  2
_OPEN
 10
1305.9164789595161
 20
2833.5133164227591
 30
0.0
 41
60.0
 42
60.0
 43
60.0
 50
180.0
  0
INSERT
  5
7D76
  8
0
  6
BYBLOCK
 62
     0
  2
_OPEN
 10
1705.9164789595161
 20
2833.5133164227591
 30
0.0
 41
60.0
 42
60.0
 43
60.0
  0
POINT
  5
7D77
  8
DEFPOINTS
  6
BYBLOCK
 62
     0
 10
1305.9164789595161
 20
3033.1675104227588
 30
0.0
  0
POINT
  5
7D78
  8
DEFPOINTS
  6
BYBLOCK
 62
     0
 10
1705.9164789595161
 20
2945.0325954227592
 30
0.0
  0
POINT
  5
7D79
  8
DEFPOINTS
  6
BYBLOCK
 62
     0
 10
1705.9164789595161
 20
2833.5133164227591
 30
0.0
  0
ENDBLK
  5
7D7A
  8
0
  0
BLOCK
  8
0
  2
*D2
 70
     1
 10
0.0
 20
0.0
 30
0.0
  3
*D2
  1

  0
LINE
  5
7ED1
  8
3
  6
CONTINUOUS
 62
     0
 10
1705.9164789595161
 20
2455.5579379183941
 30
0.0
 11
1705.9164789595161
 21
2329.038658918394
 31
0.0
  0
LINE
  5
7ED2
  8
3
  6
CONTINUOUS
 62
     0
 10
2705.9164789595161
 20
2543.6928529183951
 30
0.0
 11
2705.9164789595161
 21
2329.038658918394
 31
0.0
  0
LINE
  5
7ED3
  8
3
  6
CONTINUOUS
 62
     0
 10
1765.9164789595161
 20
2359.038658918394
 30
0.0
 11
2645.9164789595161
 21
2359.038658918394
 31
0.0
  0
INSERT
  5
7ED4
  8
3
  6
CONTINUOUS
 62
     0
  2
_OPEN
 10
1705.9164789595161
 20
2359.038658918394
 30
0.0
 41
60.0
 42
60.0
 43
60.0
 50
180.0
  0
INSERT
  5
7ED5
  8
3
  6
CONTINUOUS
 62
     0
  2
_OPEN
 10
2705.9164789595161
 20
2359.038658918394
 30
0.0
 41
60.0
 42
60.0
 43
60.0
  0
TEXT
  8
3
  40
90
  5
7F51
  62
0
  72
0
  71
0
 10
2025.92
 20
2274.74
 30
0.000000
  1
1000
  0
POINT
  5
7ED7
  8
DEFPOINTS
  6
CONTINUOUS
 62
     0
 10
1705.9164789595161
 20
2470.5579379183941
 30
0.0
  0
POINT
  5
7ED8
  8
DEFPOINTS
  6
CONTINUOUS
 62
     0
 10
2705.9164789595161
 20
2558.6928529183938
 30
0.0
  0
POINT
  5
7ED9
  8
DEFPOINTS
  6
CONTINUOUS
 62
     0
 10
2705.9164789595161
 20
2359.038658918394
 30
0.0
  0
ENDBLK
  5
7D2B
  8
0
  0
BLOCK
  8
0
  2
*D3
 70
     1
 10
0.0
 20
0.0
 30
0.0
  3
*D3
  1

  0
LINE
  5
7EDA
  8
3
  6
CONTINUOUS
 62
     0
 10
2440.9164789595161
 20
3718.6928529183938
 30
0.0
 11
3022.4525269595169
 21
3718.6928529183938
 31
0.0
  0
LINE
  5
7EDB
  8
3
  6
CONTINUOUS
 62
     0
 10
2362.9632089595161
 20
3258.6928529183938
 30
0.0
 11
3022.4525269595169
 21
3258.6928529183938
 31
0.0
  0
LINE
  5
7EDC
  8
3
  6
CONTINUOUS
 62
     0
 10
2992.4525269595169
 20
3658.6928529183938
 30
0.0
 11
2992.4525269595169
 21
3318.6928529183938
 31
0.0
  0
INSERT
  5
7EDD
  8
3
  6
CONTINUOUS
 62
     0
  2
_OPEN
 10
2992.4525269595169
 20
3718.6928529183938
 30
0.0
 41
60.0
 42
60.0
 43
60.0
 50
90.0
  0
INSERT
  5
7EDE
  8
3
  6
CONTINUOUS
 62
     0
  2
_OPEN
 10
2992.4525269595169
 20
3258.6928529183938
 30
0.0
 41
60.0
 42
60.0
 43
60.0
 50
270.0
  0
TEXT
  8
3
  40
90
  5
7F52
  62
0
  72
0
  71
0
 10
2737.45
 20
3353.68
 30
0.000000
  1
460
  0
POINT
  5
7EE0
  8
DEFPOINTS
  6
CONTINUOUS
 62
     0
 10
2425.9164789595161
 20
3718.6928529183938
 30
0.0
  0
POINT
  5
7EE1
  8
DEFPOINTS
  6
CONTINUOUS
 62
     0
 10
2347.9632089595152
 20
3258.6928529183938
 30
0.0
  0
POINT
  5
7EE2
  8
DEFPOINTS
  6
CONTINUOUS
 62
     0
 10
2992.4525269595169
 20
3258.6928529183938
 30
0.0
  0
ENDBLK
  5
7D20
  8
0
  0
BLOCK
  8
0
  2
*D4
 70
     1
 10
0.0
 20
0.0
 30
0.0
  3
*D4
  1

  0
LINE
  5
7EE3
  8
3
  6
CONTINUOUS
 62
     0
 10
2362.9632089595161
 20
3258.6928529183938
 30
0.0
 11
3022.452526959516
 21
3258.6928529183938
 31
0.0
  0
LINE
  5
7EE4
  8
3
  6
CONTINUOUS
 62
     0
 10
2720.9164789595161
 20
2678.6928529183938
 30
0.0
 11
3022.452526959516
 21
2678.6928529183938
 31
0.0
  0
LINE
  5
7EE5
  8
3
  6
CONTINUOUS
 62
     0
 10
2992.452526959516
 20
3198.6928529183938
 30
0.0
 11
2992.452526959516
 21
2738.6928529183938
 31
0.0
  0
INSERT
  5
7EE6
  8
3
  6
CONTINUOUS
 62
     0
  2
_OPEN
 10
2992.452526959516
 20
3258.6928529183938
 30
0.0
 41
60.0
 42
60.0
 43
60.0
 50
90.0
  0
INSERT
  5
7EE7
  8
3
  6
CONTINUOUS
 62
     0
  2
_OPEN
 10
2992.452526959516
 20
2678.6928529183938
 30
0.0
 41
60.0
 42
60.0
 43
60.0
 50
270.0
  0
TEXT
  8
3
  40
90
  5
7F53
  62
0
  72
0
  71
0
 10
2737.45
 20
2809.39
 30
0.000000
  1
580
  0
POINT
  5
7EE9
  8
DEFPOINTS
  6
CONTINUOUS
 62
     0
 10
2347.9632089595152
 20
3258.6928529183938
 30
0.0
  0
POINT
  5
7EEA
  8
DEFPOINTS
  6
CONTINUOUS
 62
     0
 10
2705.9164789595161
 20
2678.6928529183938
 30
0.0
  0
POINT
  5
7EEB
  8
DEFPOINTS
  6
CONTINUOUS
 62
     0
 10
2992.452526959516
 20
2678.6928529183938
 30
0.0
  0
ENDBLK
  5
7D15
  8
0
  0
BLOCK
  8
0
  2
*D5
 70
     1
 10
0.0
 20
0.0
 30
0.0
  3
*D5
  1

  0
LINE
  5
7EEC
  8
3
  6
CONTINUOUS
 62
     0
 10
2720.9164789595161
 20
2678.6928529183938
 30
0.0
 11
3022.452526959516
 21
2678.6928529183938
 31
0.0
  0
LINE
  5
7EED
  8
3
  6
CONTINUOUS
 62
     0
 10
2720.9164789595161
 20
2558.6928529183938
 30
0.0
 11
3022.452526959516
 21
2558.6928529183938
 31
0.0
  0
LINE
  5
7EEE
  8
3
  6
CONTINUOUS
 62
     0
 10
2992.452526959516
 20
2738.6928529183938
 30
0.0
 11
2992.452526959516
 21
2798.6928529183938
 31
0.0
  0
LINE
  5
7EEF
  8
3
  6
CONTINUOUS
 62
     0
 10
2992.452526959516
 20
2498.6928529183951
 30
0.0
 11
2992.452526959516
 21
2164.4071386326809
 31
0.0
  0
LINE
  5
7EF0
  8
3
  6
CONTINUOUS
 62
     0
 10
2992.452526959516
 20
2678.6928529183938
 30
0.0
 11
2992.452526959516
 21
2558.6928529183938
 31
0.0
  0
INSERT
  5
7EF1
  8
3
  6
CONTINUOUS
 62
     0
  2
_OPEN
 10
2992.452526959516
 20
2678.6928529183938
 30
0.0
 41
60.0
 42
60.0
 43
60.0
 50
270.0
  0
INSERT
  5
7EF2
  8
3
  6
CONTINUOUS
 62
     0
  2
_OPEN
 10
2992.452526959516
 20
2558.6928529183938
 30
0.0
 41
60.0
 42
60.0
 43
60.0
 50
90.0
  0
TEXT
  8
3
  40
90
  5
7F54
  62
0
  72
0
  71
0
 10
2737.45
 20
2142.25
 30
0.000000
  1
120
  0
POINT
  5
7EF4
  8
DEFPOINTS
  6
CONTINUOUS
 62
     0
 10
2705.9164789595161
 20
2678.6928529183938
 30
0.0
  0
POINT
  5
7EF5
  8
DEFPOINTS
  6
CONTINUOUS
 62
     0
 10
2705.9164789595161
 20
2558.6928529183938
 30
0.0
  0
POINT
  5
7EF6
  8
DEFPOINTS
  6
CONTINUOUS
 62
     0
 10
2992.452526959516
 20
2558.6928529183938
 30
0.0
  0
ENDBLK
  5
7D0A
  8
0
  0
BLOCK
  8
0
  2
*D6
 70
     1
 10
0.0
 20
0.0
 30
0.0
  3
*D6
  1

  0
LINE
  5
7EF7
  8
3
  6
CONTINUOUS
 62
     0
 10
2440.9164789595161
 20
3718.6928529183938
 30
0.0
 11
3253.2994749595168
 21
3718.6928529183938
 31
0.0
  0
LINE
  5
7EF8
  8
3
  6
CONTINUOUS
 62
     0
 10
2720.9164789595161
 20
2558.6928529183938
 30
0.0
 11
3253.2994749595168
 21
2558.6928529183938
 31
0.0
  0
LINE
  5
7EF9
  8
3
  6
CONTINUOUS
 62
     0
 10
3223.2994749595168
 20
3658.6928529183929
 30
0.0
 11
3223.2994749595168
 21
2618.6928529183938
 31
0.0
  0
INSERT
  5
7EFA
  8
3
  6
CONTINUOUS
 62
     0
  2
_OPEN
 10
3223.2994749595168
 20
3718.6928529183938
 30
0.0
 41
60.0
 42
60.0
 43
60.0
 50
90.0
  0
INSERT
  5
7EFB
  8
3
  6
CONTINUOUS
 62
     0
  2
_OPEN
 10
3223.2994749595168
 20
2558.6928529183938
 30
0.0
 41
60.0
 42
60.0
 43
60.0
 50
270.0
  0
TEXT
  8
3
  40
90
  5
7F55
  62
0
  72
0
  71
0
 10
2968.30
 20
2988.93
 30
0.000000
  1
1160
  0
POINT
  5
7EFD
  8
DEFPOINTS
  6
CONTINUOUS
 62
     0
 10
2425.9164789595161
 20
3718.6928529183938
 30
0.0
  0
POINT
  5
7EFE
  8
DEFPOINTS
  6
CONTINUOUS
 62
     0
 10
2705.9164789595161
 20
2558.6928529183938
 30
0.0
  0
POINT
  5
7EFF
  8
DEFPOINTS
  6
CONTINUOUS
 62
     0
 10
3223.2994749595168
 20
2558.6928529183938
 30
0.0
  0
ENDBLK
  5
7CFD
  8
0
  0
BLOCK
  8
0
  2
*D7
 70
     1
 10
0.0
 20
0.0
 30
0.0
  3
*D7
  1

  0
LINE
  5
7F00
  8
3
  6
CONTINUOUS
 62
     0
 10
2383.9164789595161
 20
3733.6928529183938
 30
0.0
 11
2383.9164789595161
 21
3895.7893069183938
 31
0.0
  0
LINE
  5
7F01
  8
3
  6
CONTINUOUS
 62
     0
 10
1733.9164789595161
 20
3733.6928529183938
 30
0.0
 11
1733.9164789595161
 21
3895.7893069183938
 31
0.0
  0
LINE
  5
7F02
  8
3
  6
CONTINUOUS
 62
     0
 10
2323.9164789595161
 20
3865.7893069183951
 30
0.0
 11
1793.9164789595161
 21
3865.7893069183951
 31
0.0
  0
INSERT
  5
7F03
  8
3
  6
CONTINUOUS
 62
     0
  2
_OPEN
 10
2383.9164789595161
 20
3865.7893069183951
 30
0.0
 41
60.0
 42
60.0
 43
60.0
  0
INSERT
  5
7F04
  8
3
  6
CONTINUOUS
 62
     0
  2
_OPEN
 10
1733.9164789595161
 20
3865.7893069183951
 30
0.0
 41
60.0
 42
60.0
 43
60.0
 50
180.0
  0
TEXT
  8
3
  40
90
  5
7F56
  62
0
  72
0
  71
0
 10
1873.88
 20
3781.49
 30
0.000000
  1
650
  0
POINT
  5
7F06
  8
DEFPOINTS
  6
CONTINUOUS
 62
     0
 10
2383.9164789595161
 20
3718.6928529183938
 30
0.0
  0
POINT
  5
7F07
  8
DEFPOINTS
  6
CONTINUOUS
 62
     0
 10
1733.9164789595161
 20
3718.6928529183938
 30
0.0
  0
POINT
  5
7F08
  8
DEFPOINTS
  6
CONTINUOUS
 62
     0
 10
1733.9164789595161
 20
3865.7893069183951
 30
0.0
  0
ENDBLK
  5
7CF2
  8
0
  0
BLOCK
  8
0
  2
*D8
 70
     1
 10
0.0
 20
0.0
 30
0.0
  3
*D8
  1

  0
LINE
  5
7F09
  8
3
  6
CONTINUOUS
 62
     0
 10
2383.9164789595161
 20
3733.6928529183938
 30
0.0
 11
2383.9164789595161
 21
4071.8407439183939
 31
0.0
  0
LINE
  5
7F0A
  8
3
  6
CONTINUOUS
 62
     0
 10
1705.9164789595161
 20
3650.9714409183939
 30
0.0
 11
1705.9164789595161
 21
4071.8407439183939
 31
0.0
  0
LINE
  5
7F0B
  8
3
  6
CONTINUOUS
 62
     0
 10
2323.9164789595161
 20
4041.8407439183939
 30
0.0
 11
1765.9164789595161
 21
4041.8407439183939
 31
0.0
  0
INSERT
  5
7F0C
  8
3
  6
CONTINUOUS
 62
     0
  2
_OPEN
 10
2383.9164789595161
 20
4041.8407439183939
 30
0.0
 41
60.0
 42
60.0
 43
60.0
  0
INSERT
  5
7F0D
  8
3
  6
CONTINUOUS
 62
     0
  2
_OPEN
 10
1705.9164789595161
 20
4041.8407439183939
 30
0.0
 41
60.0
 42
60.0
 43
60.0
 50
180.0
  0
TEXT
  8
3
  40
90
  5
7F57
  62
0
  72
0
  71
0
 10
1873.88
 20
3957.54
 30
0.000000
  1
678
  0
POINT
  5
7F0F
  8
DEFPOINTS
  6
CONTINUOUS
 62
     0
 10
2383.9164789595161
 20
3718.6928529183938
 30
0.0
  0
POINT
  5
7F10
  8
DEFPOINTS
  6
CONTINUOUS
 62
     0
 10
1705.9164789595161
 20
3635.9714409183939
 30
0.0
  0
POINT
  5
7F11
  8
DEFPOINTS
  6
CONTINUOUS
 62
     0
 10
1705.9164789595161
 20
4041.8407439183939
 30
0.0
  0
ENDBLK
  5
7CE7
  8
0
  0
BLOCK
  8
0
  2
*D9
 70
     1
 10
0.0
 20
0.0
 30
0.0
  3
*D9
  1

  0
LINE
  5
7F12
  8
3
  6
CONTINUOUS
 62
     0
 10
1705.9164789595161
 20
3650.9714409183939
 30
0.0
 11
1705.9164789595161
 21
4068.805362918396
 31
0.0
  0
LINE
  5
7F13
  8
3
  6
CONTINUOUS
 62
     0
 10
1252.2175579595159
 20
3273.6928529183938
 30
0.0
 11
1252.2175579595159
 21
4068.805362918396
 31
0.0
  0
LINE
  5
7F14
  8
3
  6
CONTINUOUS
 62
     0
 10
1645.9164789595161
 20
4038.8053629183942
 30
0.0
 11
1312.2175579595171
 21
4038.8053629183942
 31
0.0
  0
INSERT
  5
7F15
  8
3
  6
CONTINUOUS
 62
     0
  2
_OPEN
 10
1705.9164789595161
 20
4038.8053629183942
 30
0.0
 41
60.0
 42
60.0
 43
60.0
  0
INSERT
  5
7F16
  8
3
  6
CONTINUOUS
 62
     0
  2
_OPEN
 10
1252.2175579595159
 20
4038.8053629183942
 30
0.0
 41
60.0
 42
60.0
 43
60.0
 50
180.0
  0
TEXT
  8
3
  40
90
  5
7F58
  62
0
  72
0
  71
0
 10
1280.07
 20
3954.51
 30
0.000000
  1
454
  0
POINT
  5
7F18
  8
DEFPOINTS
  6
CONTINUOUS
 62
     0
 10
1705.9164789595161
 20
3635.9714409183939
 30
0.0
  0
POINT
  5
7F19
  8
DEFPOINTS
  6
CONTINUOUS
 62
     0
 10
1252.2175579595159
 20
3258.6928529183938
 30
0.0
  0
POINT
  5
7F1A
  8
DEFPOINTS
  6
CONTINUOUS
 62
     0
 10
1252.2175579595159
 20
4038.8053629183942
 30
0.0
  0
ENDBLK
  5
7CDC
  8
0
  0
BLOCK
  8
0
  2
*D10
 70
     1
 10
0.0
 20
0.0
 30
0.0
  3
*D10
  1

  0
LINE
  5
7F1B
  8
3
  6
CONTINUOUS
 62
     0
 10
1305.9164789595161
 20
5582.5336371975136
 30
0.0
 11
1305.9164789595161
 21
5155.7618221975154
 31
0.0
  0
LINE
  5
7F1C
  8
3
  6
CONTINUOUS
 62
     0
 10
2705.9164789595161
 20
5582.5336371975136
 30
0.0
 11
2705.9164789595161
 21
5155.7618221975154
 31
0.0
  0
LINE
  5
7F1D
  8
3
  6
CONTINUOUS
 62
     0
 10
1365.9164789595161
 20
5185.7618221975154
 30
0.0
 11
2645.9164789595161
 21
5185.7618221975154
 31
0.0
  0
INSERT
  5
7F1E
  8
3
  6
CONTINUOUS
 62
     0
  2
_OPEN
 10
1305.9164789595161
 20
5185.7618221975154
 30
0.0
 41
60.0
 42
60.0
 43
60.0
 50
180.0
  0
INSERT
  5
7F1F
  8
3
  6
CONTINUOUS
 62
     0
  2
_OPEN
 10
2705.9164789595161
 20
5185.7618221975154
 30
0.0
 41
60.0
 42
60.0
 43
60.0
  0
TEXT
  8
3
  40
90
  5
7F59
  62
0
  72
0
  71
0
 10
1764.53
 20
5101.46
 30
0.000000
  1
1400
  0
POINT
  5
7F21
  8
DEFPOINTS
  6
CONTINUOUS
 62
     0
 10
1305.9164789595161
 20
5597.5336371975136
 30
0.0
  0
POINT
  5
7F22
  8
DEFPOINTS
  6
CONTINUOUS
 62
     0
 10
2705.9164789595161
 20
5597.5336371975136
 30
0.0
  0
POINT
  5
7F23
  8
DEFPOINTS
  6
CONTINUOUS
 62
     0
 10
2705.9164789595161
 20
5185.7618221975154
 30
0.0
  0
ENDBLK
  5
7CD1
  8
0
  0
BLOCK
  8
0
  2
*D11
 70
     1
 10
0.0
 20
0.0
 30
0.0
  3
*D11
  1

  0
LINE
  5
7F24
  8
3
  6
CONTINUOUS
 62
     0
 10
2720.9164789595161
 20
6287.5336371975154
 30
0.0
 11
3052.8271399595169
 21
6287.5336371975154
 31
0.0
  0
LINE
  5
7F25
  8
3
  6
CONTINUOUS
 62
     0
 10
2720.9164789595161
 20
5597.5336371975136
 30
0.0
 11
3052.8271399595169
 21
5597.5336371975136
 31
0.0
  0
LINE
  5
7F26
  8
3
  6
CONTINUOUS
 62
     0
 10
3022.8271399595169
 20
6227.5336371975136
 30
0.0
 11
3022.8271399595169
 21
5657.5336371975154
 31
0.0
  0
INSERT
  5
7F27
  8
3
  6
CONTINUOUS
 62
     0
  2
_OPEN
 10
3022.8271399595169
 20
6287.5336371975154
 30
0.0
 41
60.0
 42
60.0
 43
60.0
 50
90.0
  0
INSERT
  5
7F28
  8
3
  6
CONTINUOUS
 62
     0
  2
_OPEN
 10
3022.8271399595169
 20
5597.5336371975136
 30
0.0
 41
60.0
 42
60.0
 43
60.0
 50
270.0
  0
TEXT
  8
3
  40
90
  5
7F5A
  62
0
  72
0
  71
0
 10
2767.83
 20
5777.41
 30
0.000000
  1
690
  0
POINT
  5
7F2A
  8
DEFPOINTS
  6
CONTINUOUS
 62
     0
 10
2705.9164789595161
 20
6287.5336371975154
 30
0.0
  0
POINT
  5
7F2B
  8
DEFPOINTS
  6
CONTINUOUS
 62
     0
 10
2705.9164789595161
 20
5597.5336371975136
 30
0.0
  0
POINT
  5
7F2C
  8
DEFPOINTS
  6
CONTINUOUS
 62
     0
 10
3022.8271399595169
 20
5597.5336371975136
 30
0.0
  0
ENDBLK
  5
7CC6
  8
0
  0
BLOCK
  8
0
  2
*D12
 70
     1
 10
0.0
 20
0.0
 30
0.0
  3
*D12
  1

  0
LINE
  5
7D92
  8
0
  6
BYBLOCK
 62
     0
 10
3992.0400409611429
 20
3018.1675104227588
 30
0.0
 11
3992.0400409611429
 21
2793.202492422759
 31
0.0
  0
LINE
  5
7D93
  8
0
  6
BYBLOCK
 62
     0
 10
4392.0400409611429
 20
2984.253930422758
 30
0.0
 11
4392.0400409611429
 21
2793.202492422759
 31
0.0
  0
LINE
  5
7D94
  8
0
  6
BYBLOCK
 62
     0
 10
4052.0400409611429
 20
2823.202492422759
 30
0.0
 11
4332.0400409611429
 21
2823.202492422759
 31
0.0
  0
TEXT
  5
7D95
  8
3
 62
     0
 10
4081.759514796267
 20
2858.2607977486441
 30
0.0
 40
90.0
  1
400
  0
INSERT
  5
7D96
  8
0
  6
BYBLOCK
 62
     0
  2
_OPEN
 10
3992.0400409611429
 20
2823.202492422759
 30
0.0
 41
60.0
 42
60.0
 43
60.0
 50
180.0
  0
INSERT
  5
7D97
  8
0
  6
BYBLOCK
 62
     0
  2
_OPEN
 10
4392.0400409611429
 20
2823.202492422759
 30
0.0
 41
60.0
 42
60.0
 43
60.0
  0
POINT
  5
7D98
  8
DEFPOINTS
  6
BYBLOCK
 62
     0
 10
3992.0400409611429
 20
3033.1675104227588
 30
0.0
  0
POINT
  5
7D99
  8
DEFPOINTS
  6
BYBLOCK
 62
     0
 10
4392.0400409611429
 20
2999.253930422758
 30
0.0
  0
POINT
  5
7D9A
  8
DEFPOINTS
  6
BYBLOCK
 62
     0
 10
4392.0400409611429
 20
2823.202492422759
 30
0.0
  0
ENDBLK
  5
7D9B
  8
0
  0
BLOCK
  8
0
  2
*D13
 70
     1
 10
0.0
 20
0.0
 30
0.0
  3
*D13
  1

  0
LINE
  5
7D87
  8
0
  6
BYBLOCK
 62
     0
 10
4392.0400409611429
 20
2984.253930422758
 30
0.0
 11
4392.0400409611429
 21
2793.202492422759
 31
0.0
  0
LINE
  5
7D88
  8
0
  6
BYBLOCK
 62
     0
 10
4682.0400409611429
 20
3018.1675104227588
 30
0.0
 11
4682.0400409611429
 21
2793.202492422759
 31
0.0
  0
LINE
  5
7D89
  8
0
  6
BYBLOCK
 62
     0
 10
4452.0400409611429
 20
2823.202492422759
 30
0.0
 11
4622.0400409611429
 21
2823.202492422759
 31
0.0
  0
TEXT
  5
7D8A
  8
3
 62
     0
 10
4425.2336303113962
 20
2863.7961275961352
 30
0.0
 40
90.0
  1
290
  0
INSERT
  5
7D8B
  8
0
  6
BYBLOCK
 62
     0
  2
_OPEN
 10
4392.0400409611429
 20
2823.202492422759
 30
0.0
 41
60.0
 42
60.0
 43
60.0
 50
180.0
  0
INSERT
  5
7D8C
  8
0
  6
BYBLOCK
 62
     0
  2
_OPEN
 10
4682.0400409611429
 20
2823.202492422759
 30
0.0
 41
60.0
 42
60.0
 43
60.0
  0
POINT
  5
7D8D
  8
DEFPOINTS
  6
BYBLOCK
 62
     0
 10
4392.0400409611429
 20
2999.253930422758
 30
0.0
  0
POINT
  5
7D8E
  8
DEFPOINTS
  6
BYBLOCK
 62
     0
 10
4682.0400409611429
 20
3033.1675104227588
 30
0.0
  0
POINT
  5
7D8F
  8
DEFPOINTS
  6
BYBLOCK
 62
     0
 10
4682.0400409611429
 20
2823.202492422759
 30
0.0
  0
ENDBLK
  5
7D90
  8
0
  0
BLOCK
  8
0
  2
*D14
 70
     1
 10
0.0
 20
0.0
 30
0.0
  3
*D14
  1

  0
LINE
  5
7F2D
  8
3
  6
CONTINUOUS
 62
     0
 10
4727.0400409611429
 20
3573.6928529183938
 30
0.0
 11
5001.7729269611436
 21
3573.6928529183938
 31
0.0
  0
LINE
  5
7F2E
  8
3
  6
CONTINUOUS
 62
     0
 10
4727.0400409611429
 20
2943.6928529183938
 30
0.0
 11
5001.7729269611436
 21
2943.6928529183938
 31
0.0
  0
LINE
  5
7F2F
  8
3
  6
CONTINUOUS
 62
     0
 10
4971.7729269611427
 20
3513.6928529183938
 30
0.0
 11
4971.7729269611427
 21
3003.6928529183938
 31
0.0
  0
INSERT
  5
7F30
  8
3
  6
CONTINUOUS
 62
     0
  2
_OPEN
 10
4971.7729269611427
 20
3573.6928529183938
 30
0.0
 41
60.0
 42
60.0
 43
60.0
 50
90.0
  0
INSERT
  5
7F31
  8
3
  6
CONTINUOUS
 62
     0
  2
_OPEN
 10
4971.7729269611427
 20
2943.6928529183938
 30
0.0
 41
60.0
 42
60.0
 43
60.0
 50
270.0
  0
TEXT
  8
3
  40
90
  5
7F5B
  62
0
  72
0
  71
0
 10
4716.77
 20
3075.76
 30
0.000000
  1
φ630
  0
POINT
  5
7F33
  8
DEFPOINTS
  6
CONTINUOUS
 62
     0
 10
4712.040040961142
 20
3573.6928529183938
 30
0.0
  0
POINT
  5
7F34
  8
DEFPOINTS
  6
CONTINUOUS
 62
     0
 10
4712.040040961142
 20
2943.6928529183938
 30
0.0
  0
POINT
  5
7F35
  8
DEFPOINTS
  6
CONTINUOUS
 62
     0
 10
4971.7729269611427
 20
2943.6928529183938
 30
0.0
  0
ENDBLK
  5
7D43
  8
0
  0
BLOCK
  8
0
  2
*D15
 70
     1
 10
0.0
 20
0.0
 30
0.0
  3
*D15
  1

  0
LINE
  5
7F36
  8
3
  6
CONTINUOUS
 62
     0
 10
4154.5400409611429
 20
3733.6928529183938
 30
0.0
 11
4154.5400409611429
 21
3890.3418719183942
 31
0.0
  0
LINE
  5
7F37
  8
3
  6
CONTINUOUS
 62
     0
 10
4629.5400409611429
 20
3733.6928529183938
 30
0.0
 11
4629.5400409611429
 21
3890.3418719183942
 31
0.0
  0
LINE
  5
7F38
  8
3
  6
CONTINUOUS
 62
     0
 10
4214.5400409611429
 20
3860.3418719183951
 30
0.0
 11
4569.540040961142
 21
3860.3418719183951
 31
0.0
  0
INSERT
  5
7F39
  8
3
  6
CONTINUOUS
 62
     0
  2
_OPEN
 10
4154.5400409611429
 20
3860.3418719183951
 30
0.0
 41
60.0
 42
60.0
 43
60.0
 50
180.0
  0
INSERT
  5
7F3A
  8
3
  6
CONTINUOUS
 62
     0
  2
_OPEN
 10
4629.5400409611429
 20
3860.3418719183951
 30
0.0
 41
60.0
 42
60.0
 43
60.0
  0
TEXT
  8
3
  40
90
  5
7F5C
  62
0
  72
0
  71
0
 10
4212.04
 20
3776.04
 30
0.000000
  1
475
  0
POINT
  5
7F3C
  8
DEFPOINTS
  6
CONTINUOUS
 62
     0
 10
4154.5400409611429
 20
3718.6928529183938
 30
0.0
  0
POINT
  5
7F3D
  8
DEFPOINTS
  6
CONTINUOUS
 62
     0
 10
4629.5400409611429
 20
3718.6928529183938
 30
0.0
  0
POINT
  5
7F3E
  8
DEFPOINTS
  6
CONTINUOUS
 62
     0
 10
4629.5400409611429
 20
3860.3418719183951
 30
0.0
  0
ENDBLK
  5
7C97
  8
0
  0
BLOCK
  8
0
  2
*D16
 70
     1
 10
0.0
 20
0.0
 30
0.0
  3
*D16
  1

  0
LINE
  5
7F3F
  8
3
  6
CONTINUOUS
 62
     0
 10
3912.0400409611429
 20
3463.6928529183938
 30
0.0
 11
3912.0400409611429
 21
4131.5651994608643
 31
0.0
  0
LINE
  5
7F40
  8
3
  6
CONTINUOUS
 62
     0
 10
4392.0400409611429
 20
4037.962020328087
 30
0.0
 11
4392.0400409611429
 21
4131.5651994608643
 31
0.0
  0
LINE
  5
7F41
  8
3
  6
CONTINUOUS
 62
     0
 10
3972.0400409611429
 20
4101.5651994608643
 30
0.0
 11
4332.0400409611429
 21
4101.5651994608643
 31
0.0
  0
INSERT
  5
7F42
  8
3
  6
CONTINUOUS
 62
     0
  2
_OPEN
 10
3912.0400409611429
 20
4101.5651994608643
 30
0.0
 41
60.0
 42
60.0
 43
60.0
 50
180.0
  0
INSERT
  5
7F43
  8
3
  6
CONTINUOUS
 62
     0
  2
_OPEN
 10
4392.0400409611429
 20
4101.5651994608643
 30
0.0
 41
60.0
 42
60.0
 43
60.0
  0
TEXT
  8
3
  40
90
  5
7F5D
  62
0
  72
0
  71
0
 10
3950.61
 20
4092.27
 30
0.000000
  1
MAX
  0
TEXT
  8
3
  40
90
  5
7F5E
  62
0
  72
0
  71
0
 10
3950.61
 20
3975.27
 30
0.000000
  1
550
  0
POINT
  5
7F45
  8
DEFPOINTS
  6
CONTINUOUS
 62
     0
 10
3912.0400409611429
 20
3448.6928529183938
 30
0.0
  0
POINT
  5
7F46
  8
DEFPOINTS
  6
CONTINUOUS
 62
     0
 10
4392.0400409611429
 20
4022.9620203280861
 30
0.0
  0
POINT
  5
7F47
  8
DEFPOINTS
  6
CONTINUOUS
 62
     0
 10
4392.0400409611429
 20
4101.5651994608643
 30
0.0
  0
ENDBLK
  5
7E00
  8
0
  0
BLOCK
  8
0
  2
*D17
 70
     1
 10
0.0
 20
0.0
 30
0.0
  3
*D17
  1

  0
LINE
  5
7DDF
  8
0
  6
BYBLOCK
 62
     0
 10
4392.0400409611429
 20
4517.9720076799422
 30
0.0
 11
4392.0400409611429
 21
4606.0398569652289
 31
0.0
  0
LINE
  5
7DE0
  8
0
  6
BYBLOCK
 62
     0
 10
4712.040040961142
 20
4103.1675104227588
 30
0.0
 11
4712.040040961142
 21
4606.0398569652289
 31
0.0
  0
LINE
  5
7DE1
  8
0
  6
BYBLOCK
 62
     0
 10
4452.0400409611429
 20
4576.0398569652289
 30
0.0
 11
4652.0400409611429
 21
4576.0398569652289
 31
0.0
  0
TEXT
  5
7DE2
  8
3
 62
     0
 10
4452.9331285172339
 20
4607.4259872293951
 30
0.0
 40
90.0
  1
320
  0
INSERT
  5
7DE3
  8
0
  6
BYBLOCK
 62
     0
  2
_OPEN
 10
4392.0400409611429
 20
4576.0398569652289
 30
0.0
 41
60.0
 42
60.0
 43
60.0
 50
180.0
  0
INSERT
  5
7DE4
  8
0
  6
BYBLOCK
 62
     0
  2
_OPEN
 10
4712.040040961142
 20
4576.0398569652289
 30
0.0
 41
60.0
 42
60.0
 43
60.0
  0
POINT
  5
7DE5
  8
DEFPOINTS
  6
BYBLOCK
 62
     0
 10
4392.0400409611429
 20
4502.9720076799422
 30
0.0
  0
POINT
  5
7DE6
  8
DEFPOINTS
  6
BYBLOCK
 62
     0
 10
4712.040040961142
 20
4088.1675104227588
 30
0.0
  0
POINT
  5
7DE7
  8
DEFPOINTS
  6
BYBLOCK
 62
     0
 10
4712.040040961142
 20
4576.0398569652289
 30
0.0
  0
ENDBLK
  5
7DE8
  8
0
  0
BLOCK
  8
0
  2
*D18
 70
     1
 10
0.0
 20
0.0
 30
0.0
  3
*D18
  1

  0
LINE
  5
7F48
  8
3
 62
     0
 10
1252.2175579595159
 20
3288.6928529183938
 30
0.0
 11
1252.2175579595159
 21
4246.6986632132021
 31
0.0
  0
LINE
  5
7F49
  8
3
 62
     0
 10
2705.9164789595161
 20
2793.6928529183938
 30
0.0
 11
2705.9164789595161
 21
4246.6986632132021
 31
0.0
  0
LINE
  5
7F4A
  8
3
 62
     0
 10
1312.2175579595171
 20
4216.698663213203
 30
0.0
 11
2645.9164789595161
 21
4216.698663213203
 31
0.0
  0
INSERT
  5
7F4B
  8
3
 62
     0
  2
_OPEN
 10
1252.2175579595159
 20
4216.698663213203
 30
0.0
 41
60.0
 42
60.0
 43
60.0
 50
180.0
  0
INSERT
  5
7F4C
  8
3
 62
     0
  2
_OPEN
 10
2705.9164789595161
 20
4216.698663213203
 30
0.0
 41
60.0
 42
60.0
 43
60.0
  0
TEXT
  8
3
  40
90
  5
7F5F
  62
0
  72
0
  71
0
 10
1901.23
 20
4132.40
 30
0.000000
  1
1454
  0
POINT
  5
7F4E
  8
DEFPOINTS
 62
     0
 10
1252.2175579595159
 20
3273.6928529183938
 30
0.0
  0
POINT
  5
7F4F
  8
DEFPOINTS
 62
     0
 10
2705.9164789595161
 20
2778.6928529183938
 30
0.0
  0
POINT
  5
7F50
  8
DEFPOINTS
 62
     0
 10
2705.9164789595161
 20
4216.698663213203
 30
0.0
  0
ENDBLK
  5
7DF4
  8
0
  0
ENDSEC
  0
SECTION
  2
ENTITIES
  0
LINE
  5
7A70
  8
1
  6
CONTINUOUS
 10
1305.9164789595161
 20
2558.6928529183938
 30
0.0
 11
2705.9164789595161
 21
2558.6928529183938
 31
0.0
  0
LINE
  5
7A71
  8
1
  6
CONTINUOUS
 10
1305.9164789595161
 20
2658.6928529183938
 30
0.0
 11
2705.9164789595161
 21
2658.6928529183938
 31
0.0
  0
ARC
  5
7A72
  8
1
  6
CONTINUOUS
 10
2530.9164789595161
 20
2955.6928529183938
 30
0.0
 40
170.0
 50
251.09999999999999
 51
68.5
  0
LINE
  5
7A73
  8
1
  6
CONTINUOUS
 10
1515.9164789595161
 20
5677.5336371975136
 30
0.0
 11
2700.9164789595161
 21
5677.5336371975136
 31
0.0
  0
LINE
  5
7A74
  8
1
  6
CONTINUOUS
 10
1515.9164789595161
 20
5517.5336371975154
 30
0.0
 11
2700.9164789595161
 21
5517.5336371975154
 31
0.0
  0
LINE
  5
7A75
  8
1
  6
CONTINUOUS
 10
2365.9164789595161
 20
2823.6928529183938
 30
0.0
 11
2695.9164789595161
 21
2823.6928529183938
 31
0.0
  0
LINE
  5
7A76
  8
1
  6
CONTINUOUS
 10
1305.9164789595161
 20
2778.6928529183938
 30
0.0
 11
2705.9164789595161
 21
2778.6928529183938
 31
0.0
  0
LINE
  5
7A77
  8
1
  6
CONTINUOUS
 10
1305.9164789595161
 20
2678.6928529183938
 30
0.0
 11
2705.9164789595161
 21
2678.6928529183938
 31
0.0
  0
LINE
  5
7A78
  8
1
  6
CONTINUOUS
 10
2020.9164789595161
 20
6287.5336371975154
 30
0.0
 11
2705.9164789595161
 21
6287.5336371975154
 31
0.0
  0
LINE
  5
7A79
  8
1
  6
CONTINUOUS
 10
2600.9164789595161
 20
5597.5336371975136
 30
0.0
 11
2705.9164789595161
 21
5597.5336371975136
 31
0.0
  0
LINE
  5
7A7A
  8
2
  6
CENTER
 10
1202.520993959517
 20
3258.6928529183938
 30
0.0
 11
2434.7636819595168
 21
3258.6928529183938
 31
0.0
  0
ARC
  5
7A7B
  8
1
  6
CONTINUOUS
 10
1705.9164789595161
 20
3258.6928529183938
 30
0.0
 40
190.0
 50
68.5
 51
251.09999999999999
  0
CIRCLE
  5
7A7C
  8
1
  6
CONTINUOUS
 10
1705.9164789595161
 20
3258.6928529183938
 30
0.0
 40
90.0
  0
CIRCLE
  5
7A7D
  8
1
  6
CONTINUOUS
 10
1705.9164789595161
 20
3258.6928529183938
 30
0.0
 40
355.0
  0
CIRCLE
  5
7A7E
  8
1
  6
CONTINUOUS
 10
1705.9164789595161
 20
3258.6928529183938
 30
0.0
 40
315.0
  0
LINE
  5
7A7F
  8
1
  6
CONTINUOUS
 10
1733.9164789595161
 20
3678.6928529183938
 30
0.0
 11
2383.9164789595161
 21
3678.6928529183938
 31
0.0
  0
ARC
  5
7A80
  8
1
  6
CONTINUOUS
 10
1752.9164789595161
 20
3305.6928529183938
 30
0.0
 40
596.89999999999998
 50
270.0
 51
355.5
  0
LINE
  5
7A81
  8
1
  6
CONTINUOUS
 10
1691.9164789595161
 20
3718.6928529183938
 30
0.0
 11
2425.9164789595161
 21
3718.6928529183938
 31
0.0
  0
LINE
  5
7A82
  8
1
  6
CONTINUOUS
 10
2556.516478959516
 20
3020.8928529183941
 30
0.0
 11
1738.8164789595151
 21
3342.492852918394
 31
0.0
  0
LINE
  5
7A83
  8
1
  6
CONTINUOUS
 10
2593.1164789595168
 20
3113.8928529183941
 30
0.0
 11
1775.4164789595161
 21
3435.5928529183948
 31
0.0
  0
LINE
  5
7A84
  8
1
  6
CONTINUOUS
 10
2508.3164789595162
 20
2889.492852918394
 30
0.0
 11
1676.8164789595151
 21
3173.5928529183939
 31
0.0
  0
LINE
  5
7A85
  8
1
  6
CONTINUOUS
 10
2475.9164789595161
 20
2794.8928529183941
 30
0.0
 11
1644.516478959516
 21
3078.8928529183941
 31
0.0
  0
ARC
  5
7A86
  8
1
  6
CONTINUOUS
 10
1667.9164789595161
 20
3220.6928529183938
 30
0.0
 40
417.39999999999992
 50
90.0
 51
174.0
  0
LINE
  5
7A87
  8
1
  6
CONTINUOUS
 10
1733.9164789595161
 20
3631.6928529183938
 30
0.0
 11
1733.9164789595161
 21
3718.6928529183938
 31
0.0
  0
ARC
  5
7A88
  8
1
  6
CONTINUOUS
 10
1752.9164789595161
 20
3211.6928529183938
 30
0.0
 40
502.89999999999992
 50
174.0
 51
270.0
  0
LINE
  5
7A89
  8
1
  6
CONTINUOUS
 10
1305.9164789595161
 20
2658.6928529183938
 30
0.0
 11
1305.9164789595161
 21
2558.6928529183938
 31
0.0
  0
LINE
  5
7A8A
  8
1
  6
CONTINUOUS
 10
1305.9164789595161
 20
2778.6928529183938
 30
0.0
 11
1305.9164789595161
 21
2678.6928529183938
 31
0.0
  0
LINE
  5
7A8B
  8
2
  6
CENTER
 10
1705.9164789595161
 20
2470.5579379183941
 30
0.0
 11
1705.9164789595161
 21
3675.1674889183942
 31
0.0
  0
ARC
  5
7A8C
  8
1
  6
CONTINUOUS
 10
1667.9164789595161
 20
3296.6928529183938
 30
0.0
 40
341.39999999999992
 50
78.900000000000006
 51
90.0
  0
LINE
  5
7A8D
  8
1
  6
CONTINUOUS
 10
2383.9164789595161
 20
3718.6928529183938
 30
0.0
 11
2347.9164789595161
 21
3258.6928529183938
 31
0.0
  0
LINE
  5
7A8E
  8
2
  6
CENTER
 10
2530.9164789595161
 20
2885.6928529183938
 30
0.0
 11
2530.9164789595161
 21
3025.6928529183938
 31
0.0
  0
CIRCLE
  5
7A8F
  8
1
  6
CONTINUOUS
 10
2530.9164789595161
 20
2955.6928529183938
 30
0.0
 40
70.0
  0
ARC
  5
7A90
  8
1
  6
CONTINUOUS
 10
2530.9164789595161
 20
2955.6928529183938
 30
0.0
 40
142.0
 50
324.60000000000002
 51
215.39999999999989
  0
LINE
  5
7A91
  8
2
  6
CENTER
 10
2600.9164789595161
 20
2955.6928529183938
 30
0.0
 11
2460.9164789595161
 21
2955.6928529183938
 31
0.0
  0
LINE
  5
7A92
  8
1
  6
CONTINUOUS
 10
2355.9164789595161
 20
2778.6928529183938
 30
0.0
 11
2365.9164789595161
 21
2823.6928529183938
 31
0.0
  0
LINE
  5
7A93
  8
1
  6
CONTINUOUS
 10
2400.9164789595161
 20
2838.6928529183938
 30
0.0
 11
2415.2164789595149
 21
2873.492852918394
 31
0.0
  0
LINE
  5
7A94
  8
1
  6
CONTINUOUS
 10
2400.9164789595161
 20
2823.6928529183938
 30
0.0
 11
2400.9164789595161
 21
2838.6928529183938
 31
0.0
  0
LINE
  5
7A95
  8
1
  6
CONTINUOUS
 10
2660.9164789595161
 20
2823.6928529183938
 30
0.0
 11
2660.9164789595161
 21
2838.6928529183938
 31
0.0
  0
LINE
  5
7A96
  8
1
  6
CONTINUOUS
 10
2660.9164789595161
 20
2838.6928529183938
 30
0.0
 11
2646.6164789595168
 21
2873.492852918394
 31
0.0
  0
LINE
  5
7A97
  8
1
  6
CONTINUOUS
 10
1350.9164789595161
 20
6317.5336371975154
 30
0.0
 11
2060.9164789595161
 21
6317.5336371975154
 31
0.0
  0
LINE
  5
7A98
  8
1
  6
CONTINUOUS
 10
1795.9164789595161
 20
5637.5336371975136
 30
0.0
 11
1615.916478959515
 21
5637.5336371975136
 31
0.0
  0
LINE
  5
7A99
  8
1
  6
CONTINUOUS
 10
1795.9164789595161
 20
5557.5336371975154
 30
0.0
 11
1615.916478959515
 21
5557.5336371975154
 31
0.0
  0
LINE
  5
7A9A
  8
1
  6
CONTINUOUS
 10
1250.016478959516
 20
5760.0336371975154
 30
0.0
 11
2383.9164789595161
 21
5760.0336371975154
 31
0.0
  0
LINE
  5
7A9B
  8
1
  6
CONTINUOUS
 10
1250.016478959516
 20
6235.0336371975136
 30
0.0
 11
2383.9164789595161
 21
6235.0336371975136
 31
0.0
  0
LINE
  5
7A9C
  8
1
  6
CONTINUOUS
 10
2383.9164789595161
 20
6235.0336371975136
 30
0.0
 11
1733.9164789595161
 21
5760.0336371975154
 31
0.0
  0
LINE
  5
7A9D
  8
1
  6
CONTINUOUS
 10
1733.9164789595161
 20
6235.0336371975136
 30
0.0
 11
2383.9164789595161
 21
5760.0336371975154
 31
0.0
  0
LINE
  5
7A9E
  8
1
  6
CONTINUOUS
 10
1305.9164789595161
 20
6287.5336371975154
 30
0.0
 11
1390.9164789595161
 21
6287.5336371975154
 31
0.0
  0
LINE
  5
7A9F
  8
1
  6
CONTINUOUS
 10
1305.9164789595161
 20
5597.5336371975136
 30
0.0
 11
1615.916478959515
 21
5597.5336371975136
 31
0.0
  0
LINE
  5
7AA0
  8
1
  6
CONTINUOUS
 10
1250.016478959516
 20
5760.0336371975154
 30
0.0
 11
1250.016478959516
 21
6235.0336371975136
 31
0.0
  0
LINE
  5
7AA1
  8
1
  6
CONTINUOUS
 10
1305.9164789595161
 20
5760.0336371975154
 30
0.0
 11
1305.9164789595161
 21
5597.5336371975136
 31
0.0
  0
LINE
  5
7AA2
  8
1
  6
CONTINUOUS
 10
1305.9164789595161
 20
6287.5336371975154
 30
0.0
 11
1305.9164789595161
 21
6235.0336371975136
 31
0.0
  0
LINE
  5
7AA3
  8
1
  6
CONTINUOUS
 10
1733.9164789595161
 20
5760.0336371975154
 30
0.0
 11
1733.9164789595161
 21
6235.0336371975136
 31
0.0
  0
LINE
  5
7AA4
  8
1
  6
CONTINUOUS
 10
1515.9164789595161
 20
5517.5336371975154
 30
0.0
 11
1515.9164789595161
 21
5677.5336371975136
 31
0.0
  0
LINE
  5
7AA5
  8
1
  6
CONTINUOUS
 10
1724.9164789595161
 20
5637.5336371975136
 30
0.0
 11
1724.9164789595161
 21
5760.0336371975154
 31
0.0
  0
LINE
  5
7AA6
  8
1
  6
CONTINUOUS
 10
1686.9164789595161
 20
5637.5336371975136
 30
0.0
 11
1686.9164789595161
 21
5760.0336371975154
 31
0.0
  0
LINE
  5
7AA7
  8
1
  6
CONTINUOUS
 10
1615.916478959515
 20
5557.5336371975154
 30
0.0
 11
1615.916478959515
 21
5637.5336371975136
 31
0.0
  0
LINE
  5
7AA8
  8
1
  6
CONTINUOUS
 10
1390.9164789595161
 20
6317.5336371975154
 30
0.0
 11
1390.9164789595161
 21
6235.0336371975136
 31
0.0
  0
LINE
  5
7AA9
  8
1
  6
CONTINUOUS
 10
1795.9164789595161
 20
5597.5336371975136
 30
0.0
 11
2460.9164789595161
 21
5597.5336371975136
 31
0.0
  0
LINE
  5
7AAA
  8
1
  6
CONTINUOUS
 10
1795.9164789595161
 20
5557.5336371975154
 30
0.0
 11
1795.9164789595161
 21
5637.5336371975136
 31
0.0
  0
LINE
  5
7AAB
  8
1
  6
CONTINUOUS
 10
2020.9164789595161
 20
6317.5336371975154
 30
0.0
 11
2020.9164789595161
 21
6235.0336371975136
 31
0.0
  0
LINE
  5
7AAC
  8
1
  6
CONTINUOUS
 10
2383.9164789595161
 20
5760.0336371975154
 30
0.0
 11
2383.9164789595161
 21
6235.0336371975136
 31
0.0
  0
LINE
  5
7AAD
  8
1
  6
CONTINUOUS
 10
2672.9164789595161
 20
5730.133637197514
 30
0.0
 11
2672.9164789595161
 21
6130.1336371975149
 31
0.0
  0
LINE
  5
7AAE
  8
1
  6
CONTINUOUS
 10
2388.9164789595161
 20
5730.133637197514
 30
0.0
 11
2388.9164789595161
 21
6130.1336371975149
 31
0.0
  0
LINE
  5
7AAF
  8
1
  6
CONTINUOUS
 10
2600.9164789595161
 20
5557.5336371975154
 30
0.0
 11
2460.9164789595161
 21
5557.5336371975154
 31
0.0
  0
LINE
  5
7AB0
  8
1
  6
CONTINUOUS
 10
2600.9164789595161
 20
5637.5336371975136
 30
0.0
 11
2460.9164789595161
 21
5637.5336371975136
 31
0.0
  0
LINE
  5
7AB1
  8
1
  6
CONTINUOUS
 10
2672.9164789595161
 20
5730.133637197514
 30
0.0
 11
2388.9164789595161
 21
5730.133637197514
 31
0.0
  0
LINE
  5
7AB2
  8
1
  6
CONTINUOUS
 10
2460.9164789595161
 20
5557.5336371975154
 30
0.0
 11
2460.9164789595161
 21
5637.5336371975136
 31
0.0
  0
LINE
  5
7AB3
  8
1
  6
CONTINUOUS
 10
2600.9164789595161
 20
5557.5336371975154
 30
0.0
 11
2600.9164789595161
 21
5637.5336371975136
 31
0.0
  0
LINE
  5
7AB4
  8
1
  6
CONTINUOUS
 10
2511.9164789595161
 20
5637.5336371975136
 30
0.0
 11
2511.9164789595161
 21
5730.133637197514
 31
0.0
  0
LINE
  5
7AB5
  8
1
  6
CONTINUOUS
 10
2549.9164789595161
 20
5637.5336371975136
 30
0.0
 11
2549.9164789595161
 21
5730.133637197514
 31
0.0
  0
LINE
  5
7AB6
  8
1
  6
CONTINUOUS
 10
2672.9164789595161
 20
6130.1336371975149
 30
0.0
 11
2388.9164789595161
 21
6130.1336371975149
 31
0.0
  0
LINE
  5
7AB7
  8
1
  6
CONTINUOUS
 10
2705.9164789595161
 20
2658.6928529183938
 30
0.0
 11
2705.9164789595161
 21
2558.6928529183938
 31
0.0
  0
LINE
  5
7AB8
  8
1
  6
CONTINUOUS
 10
2695.9164789595161
 20
2823.6928529183938
 30
0.0
 11
2705.9164789595161
 21
2778.6928529183938
 31
0.0
  0
LINE
  5
7AB9
  8
1
  6
CONTINUOUS
 10
2705.9164789595161
 20
2778.6928529183938
 30
0.0
 11
2705.9164789595161
 21
2678.6928529183938
 31
0.0
  0
LINE
  5
7ABA
  8
1
  6
CONTINUOUS
 10
2705.9164789595161
 20
6287.5336371975154
 30
0.0
 11
2705.9164789595161
 21
5597.5336371975136
 31
0.0
  0
LINE
  5
7ABB
  8
1
  6
CONTINUOUS
 10
2700.9164789595161
 20
5517.5336371975154
 30
0.0
 11
2700.9164789595161
 21
5677.5336371975136
 31
0.0
  0
LINE
  5
7ABC
  8
1
  6
CONTINUOUS
 10
3912.0400409611429
 20
2785.6928529183938
 30
0.0
 11
4072.0400409611429
 21
2785.6928529183938
 31
0.0
  0
LINE
  5
7ABD
  8
1
  6
CONTINUOUS
 10
4154.5400409611429
 20
2936.6928529183938
 30
0.0
 11
4032.0400409611429
 21
2936.6928529183938
 31
0.0
  0
LINE
  5
7ABE
  8
1
  6
CONTINUOUS
 10
4154.5400409611429
 20
2974.6928529183938
 30
0.0
 11
4032.0400409611429
 21
2974.6928529183938
 31
0.0
  0
LINE
  5
7ABF
  8
1
  6
CONTINUOUS
 10
4154.5400409611429
 20
3239.6928529183938
 30
0.0
 11
4032.0400409611429
 21
3239.6928529183938
 31
0.0
  0
LINE
  5
7AC0
  8
1
  6
CONTINUOUS
 10
4154.5400409611429
 20
3277.6928529183938
 30
0.0
 11
4032.0400409611429
 21
3277.6928529183938
 31
0.0
  0
LINE
  5
7AC1
  8
1
  6
CONTINUOUS
 10
3912.0400409611429
 20
3448.6928529183938
 30
0.0
 11
4072.0400409611429
 21
3448.6928529183938
 31
0.0
  0
LINE
  5
7AC2
  8
1
  6
CONTINUOUS
 10
4682.0400409611429
 20
2778.6928529183938
 30
0.0
 11
3992.0400409611429
 21
2778.6928529183938
 31
0.0
  0
LINE
  5
7AC3
  8
1
  6
CONTINUOUS
 10
4682.0400409611429
 20
2678.6928529183938
 30
0.0
 11
3992.0400409611429
 21
2678.6928529183938
 31
0.0
  0
LINE
  5
7AC4
  8
1
  6
CONTINUOUS
 10
4682.0400409611429
 20
2658.6928529183938
 30
0.0
 11
3992.0400409611429
 21
2658.6928529183938
 31
0.0
  0
LINE
  5
7AC5
  8
1
  6
CONTINUOUS
 10
4682.0400409611429
 20
2558.6928529183938
 30
0.0
 11
3992.0400409611429
 21
2558.6928529183938
 31
0.0
  0
LINE
  5
7AC7
  8
1
  6
CONTINUOUS
 10
3952.0400409611429
 20
3025.6928529183938
 30
0.0
 11
3952.0400409611429
 21
2885.6928529183938
 31
0.0
  0
LINE
  5
7AC8
  8
1
  6
CONTINUOUS
 10
4032.0400409611429
 20
3025.6928529183938
 30
0.0
 11
4032.0400409611429
 21
2885.6928529183938
 31
0.0
  0
LINE
  5
7AC9
  8
1
  6
CONTINUOUS
 10
3912.0400409611429
 20
3448.6928529183938
 30
0.0
 11
3912.0400409611429
 21
2785.6928529183938
 31
0.0
  0
LINE
  5
7ACD
  8
1
  6
CONTINUOUS
 10
3952.0400409611429
 20
2885.6928529183938
 30
0.0
 11
4032.0400409611429
 21
2885.6928529183938
 31
0.0
  0
LINE
  5
7ACE
  8
1
  6
CONTINUOUS
 10
3992.0400409611429
 20
2778.6928529183938
 30
0.0
 11
3992.0400409611429
 21
2678.6928529183938
 31
0.0
  0
POINT
  5
7ACF
  8
1
  6
CONTINUOUS
 10
3992.0400409611429
 20
2658.6928529183938
 30
0.0
  0
LINE
  5
7AD0
  8
1
  6
CONTINUOUS
 10
3992.0400409611429
 20
2658.6928529183938
 30
0.0
 11
3992.0400409611429
 21
2558.6928529183938
 31
0.0
  0
LINE
  5
7AD1
  8
1
  6
CONTINUOUS
 10
4032.0400409611429
 20
3348.6928529183938
 30
0.0
 11
4032.0400409611429
 21
3168.6928529183938
 31
0.0
  0
LINE
  5
7AD2
  8
1
  6
CONTINUOUS
 10
3952.0400409611429
 20
3348.6928529183938
 30
0.0
 11
3952.0400409611429
 21
3168.6928529183938
 31
0.0
  0
LINE
  5
7AD3
  8
1
  6
CONTINUOUS
 10
3952.0400409611429
 20
3168.6928529183938
 30
0.0
 11
4032.0400409611429
 21
3168.6928529183938
 31
0.0
  0
LINE
  5
7AD4
  8
1
  6
CONTINUOUS
 10
3952.0400409611429
 20
3348.6928529183938
 30
0.0
 11
4032.0400409611429
 21
3348.6928529183938
 31
0.0
  0
LINE
  5
7AD5
  8
1
  6
CONTINUOUS
 10
3952.0400409611429
 20
3025.6928529183938
 30
0.0
 11
4032.0400409611429
 21
3025.6928529183938
 31
0.0
  0
LINE
  5
7AD6
  8
1
  6
CONTINUOUS
 10
4154.5400409611429
 20
3718.6928529183938
 30
0.0
 11
4154.5400409611429
 21
2778.6928529183938
 31
0.0
  0
LINE
  5
7AD7
  8
1
  6
CONTINUOUS
 10
4629.5400409611429
 20
3718.6928529183938
 30
0.0
 11
4629.5400409611429
 21
2778.6928529183938
 31
0.0
  0
LINE
  5
7AD8
  8
1
  6
CONTINUOUS
 10
4072.0400409611429
 20
3448.6928529183938
 30
0.0
 11
4072.0400409611429
 21
2785.6928529183938
 31
0.0
  0
LINE
  5
7AD9
  8
1
  6
CONTINUOUS
 10
4712.040040961142
 20
3613.6928529183938
 30
0.0
 11
4712.040040961142
 21
2903.6928529183938
 31
0.0
  0
LINE
  5
7ADA
  8
1
  6
CONTINUOUS
 10
4682.0400409611429
 20
2778.6928529183938
 30
0.0
 11
4682.0400409611429
 21
2678.6928529183938
 31
0.0
  0
LINE
  5
7ADB
  8
1
  6
CONTINUOUS
 10
4629.5400409611429
 20
2943.6928529183938
 30
0.0
 11
4712.040040961142
 21
2943.6928529183938
 31
0.0
  0
LINE
  5
7ADC
  8
1
  6
CONTINUOUS
 10
4682.0400409611429
 20
2658.6928529183938
 30
0.0
 11
4682.0400409611429
 21
2558.6928529183938
 31
0.0
  0
LINE
  5
7ADD
  8
1
  6
CONTINUOUS
 10
4629.5400409611429
 20
3573.6928529183938
 30
0.0
 11
4712.040040961142
 21
3573.6928529183938
 31
0.0
  0
LINE
  5
7ADE
  8
1
  6
CONTINUOUS
 10
4154.5400409611429
 20
3678.6928529183938
 30
0.0
 11
4629.5400409611429
 21
3678.6928529183938
 31
0.0
  0
LINE
  5
7ADF
  8
1
  6
CONTINUOUS
 10
4114.5400409611429
 20
3718.6928529183938
 30
0.0
 11
4669.5400409611429
 21
3718.6928529183938
 31
0.0
  0
DIMENSION
  5
7AF5
  8
3
  6
CONTINUOUS
  2
*D1
 10
1705.9164789595161
 20
2359.038658918394
 30
0.0
 11
1505.9164789595161
 21
2423.2507858410499
 31
0.0
 12
0.0
 22
-474.47465750436447
 32
0.0
 70
   128
 13
1305.9164789595161
 23
2558.6928529183938
 33
0.0
 14
1705.9164789595161
 24
2470.5579379183941
 34
0.0
1001
ACAD
1000
DSTYLE
1002
{
1070
   288
1070
     1
1070
   172
1070
     1
1070
    40
1040
30.0
1070
   271
1070
     0
1070
   143
1040
0.039
1002
}
  0
DIMENSION
  5
7B01
  8
3
  6
CONTINUOUS
  2
*D2
 10
2705.9164789595161
 20
2359.038658918394
 30
0.0
 11
2205.9164789595161
 21
2434.038658918394
 31
0.0
 70
     0
 13
1705.9164789595161
 23
2470.5579379183941
 33
0.0
 14
2705.9164789595161
 24
2558.6928529183938
 34
0.0
1001
ACAD
1000
DSTYLE
1002
{
1070
   287
1070
     3
1070
   287
1070
     3
1070
    40
1040
30.0
1070
   143
1040
0.039
1070
   172
1070
     1
1070
   271
1070
     0
1070
   279
1070
     0
1070
   288
1070
     1
1002
}
  0
DIMENSION
  5
7B10
  8
3
  6
CONTINUOUS
  2
*D3
 10
2992.4525269595169
 20
3258.6928529183938
 30
0.0
 11
2992.452526959516
 21
3512.978567204108
 31
0.0
 70
   128
 13
2425.9164789595161
 23
3718.6928529183938
 33
0.0
 14
2347.9632089595152
 24
3258.6928529183938
 34
0.0
 50
90.0
1001
ACAD
1000
DSTYLE
1002
{
1070
   287
1070
     3
1070
   287
1070
     3
1070
    40
1040
30.0
1070
   143
1040
0.039
1070
   172
1070
     1
1070
   271
1070
     0
1070
   279
1070
     0
1070
   288
1070
     1
1002
}
  0
DIMENSION
  5
7B1C
  8
3
  6
CONTINUOUS
  2
*D4
 10
2992.452526959516
 20
2678.6928529183938
 30
0.0
 11
2917.4525269595151
 21
2968.6928529183951
 31
0.0
 70
     0
 13
2347.9632089595152
 23
3258.6928529183938
 33
0.0
 14
2705.9164789595161
 24
2678.6928529183938
 34
0.0
 50
90.0
1001
ACAD
1000
DSTYLE
1002
{
1070
   287
1070
     3
1070
   287
1070
     3
1070
    40
1040
30.0
1070
   143
1040
0.039
1070
   172
1070
     1
1070
   271
1070
     0
1070
   279
1070
     0
1070
   288
1070
     1
1002
}
  0
DIMENSION
  5
7B2C
  8
3
  6
CONTINUOUS
  2
*D5
 10
2992.452526959516
 20
2558.6928529183938
 30
0.0
 11
2992.452526959516
 21
2301.5499957755378
 31
0.0
 70
   128
 13
2705.9164789595161
 23
2678.6928529183938
 33
0.0
 14
2705.9164789595161
 24
2558.6928529183938
 34
0.0
 50
90.0
1001
ACAD
1000
DSTYLE
1002
{
1070
   287
1070
     3
1070
   287
1070
     3
1070
    40
1040
30.0
1070
   143
1040
0.039
1070
   172
1070
     1
1070
   271
1070
     0
1070
   279
1070
     0
1070
   288
1070
     1
1002
}
  0
DIMENSION
  5
7B53
  8
3
  6
CONTINUOUS
  2
*D6
 10
3223.2994749595168
 20
2558.6928529183938
 30
0.0
 11
3223.2994749595159
 21
3148.234708918395
 31
0.0
 70
   128
 13
2425.9164789595161
 23
3718.6928529183938
 33
0.0
 14
2705.9164789595161
 24
2558.6928529183938
 34
0.0
 50
90.0
1001
ACAD
1000
DSTYLE
1002
{
1070
   287
1070
     3
1070
   287
1070
     3
1070
    40
1040
30.0
1070
   143
1040
0.039
1070
   172
1070
     1
1070
   271
1070
     0
1070
   279
1070
     0
1070
   288
1070
     1
1002
}
  0
DIMENSION
  5
7B60
  8
3
  6
CONTINUOUS
  2
*D7
 10
1733.9164789595161
 20
3865.7893069183951
 30
0.0
 11
2053.8773289595151
 21
3865.7893069183951
 31
0.0
 70
   128
 13
2383.9164789595161
 23
3718.6928529183938
 33
0.0
 14
1733.9164789595161
 24
3718.6928529183938
 34
0.0
1001
ACAD
1000
DSTYLE
1002
{
1070
   287
1070
     3
1070
   287
1070
     3
1070
    40
1040
30.0
1070
   143
1040
0.039
1070
   172
1070
     1
1070
   271
1070
     0
1070
   279
1070
     0
1070
   288
1070
     1
1002
}
  0
DIMENSION
  5
7B6D
  8
3
  6
CONTINUOUS
  2
*D8
 10
1705.9164789595161
 20
4041.8407439183939
 30
0.0
 11
2053.8773289595151
 21
4041.8407439183939
 31
0.0
 70
   128
 13
2383.9164789595161
 23
3718.6928529183938
 33
0.0
 14
1705.9164789595161
 24
3635.9714409183939
 34
0.0
1001
ACAD
1000
DSTYLE
1002
{
1070
   287
1070
     3
1070
   287
1070
     3
1070
    40
1040
30.0
1070
   143
1040
0.039
1070
   172
1070
     1
1070
   271
1070
     0
1070
   279
1070
     0
1070
   288
1070
     1
1002
}
  0
DIMENSION
  5
7B7B
  8
3
  6
CONTINUOUS
  2
*D9
 10
1252.2175579595159
 20
4038.8053629183942
 30
0.0
 11
1460.07470081666
 21
4038.8053629183942
 31
0.0
 70
   128
 13
1705.9164789595161
 23
3635.9714409183939
 33
0.0
 14
1252.2175579595159
 24
3258.6928529183938
 34
0.0
1001
ACAD
1000
DSTYLE
1002
{
1070
   287
1070
     3
1070
   287
1070
     3
1070
    40
1040
30.0
1070
   143
1040
0.039
1070
   172
1070
     1
1070
   271
1070
     0
1070
   279
1070
     0
1070
   288
1070
     1
1002
}
  0
DIMENSION
  5
7B9E
  8
3
  6
CONTINUOUS
  2
*D10
 10
2705.9164789595161
 20
5185.7618221975154
 30
0.0
 11
1944.5287969595149
 21
5185.7618221975154
 31
0.0
 70
   128
 13
1305.9164789595161
 23
5597.5336371975136
 33
0.0
 14
2705.9164789595161
 24
5597.5336371975136
 34
0.0
1001
ACAD
1000
DSTYLE
1002
{
1070
   287
1070
     3
1070
   287
1070
     3
1070
    40
1040
30.0
1070
   143
1040
0.039
1070
   172
1070
     1
1070
   271
1070
     0
1070
   279
1070
     0
1070
   288
1070
     1
1002
}
  0
DIMENSION
  5
7BAB
  8
3
  6
CONTINUOUS
  2
*D11
 10
3022.8271399595169
 20
5597.5336371975136
 30
0.0
 11
3022.827139959516
 21
5936.7054881975164
 31
0.0
 70
   128
 13
2705.9164789595161
 23
6287.5336371975154
 33
0.0
 14
2705.9164789595161
 24
5597.5336371975136
 34
0.0
 50
90.0
1001
ACAD
1000
DSTYLE
1002
{
1070
   287
1070
     3
1070
   287
1070
     3
1070
    40
1040
30.0
1070
   143
1040
0.039
1070
   172
1070
     1
1070
   271
1070
     0
1070
   279
1070
     0
1070
   288
1070
     1
1002
}
  0
LINE
  5
7BAC
  8
2
  6
CENTER
 10
1164.9675999595161
 20
5997.5336371975136
 30
0.0
 11
2627.9573159595161
 21
5997.5336371975136
 31
0.0
  0
LINE
  5
7BAD
  8
2
  6
CENTER
 10
1705.9164789595161
 20
5435.8779451975151
 30
0.0
 11
1705.9164789595161
 21
6410.3356191975154
 31
0.0
  0
LINE
  5
7BAE
  8
2
  6
CENTER
 10
4392.0400409611429
 20
3882.0993429183941
 30
0.0
 11
4392.0400409611429
 21
2524.7792729183939
 31
0.0
  0
DIMENSION
  5
7BBD
  8
3
  6
CONTINUOUS
  2
*D12
 10
4392.0400409611429
 20
2348.7278349183939
 30
0.0
 11
4197.4738005105528
 21
2428.7861402442791
 31
0.0
 12
0.0
 22
-474.47465750436447
 32
0.0
 70
   128
 13
3992.0400409611429
 23
2558.6928529183938
 33
0.0
 14
4392.0400409611429
 24
2524.7792729183939
 34
0.0
1001
ACAD
1000
DSTYLE
1002
{
1070
   288
1070
     1
1070
   172
1070
     1
1070
    40
1040
30.0
1070
   271
1070
     0
1070
   143
1040
0.039
1002
}
  0
DIMENSION
  5
7BCB
  8
3
  6
CONTINUOUS
  2
*D13
 10
4682.0400409611429
 20
2348.7278349183939
 30
0.0
 11
4540.9479160256824
 21
2434.3214700917702
 31
0.0
 12
0.0
 22
-474.47465750436447
 32
0.0
 70
   128
 13
4392.0400409611429
 23
2524.7792729183939
 33
0.0
 14
4682.0400409611429
 24
2558.6928529183938
 34
0.0
1001
ACAD
1000
DSTYLE
1002
{
1070
   288
1070
     1
1070
   172
1070
     1
1070
    40
1040
30.0
1070
   271
1070
     0
1070
   143
1040
0.039
1002
}
  0
LINE
  5
7BD8
  8
2
  6
CENTER
 10
3853.999727215763
 20
3258.6928529183938
 30
0.0
 11
4773.6239120564351
 21
3258.6928529183938
 31
0.0
  0
DIMENSION
  5
7BFB
  8
3
  6
CONTINUOUS
  2
*D14
 10
4971.7729269611427
 20
2943.6928529183938
 30
0.0
 11
4971.7729269611427
 21
3235.0557349183941
 31
0.0
 70
   128
 13
4712.040040961142
 23
3573.6928529183938
 33
0.0
 14
4712.040040961142
 24
2943.6928529183938
 34
0.0
 50
90.0
1001
ACAD
1000
DSTYLE
1002
{
1070
   287
1070
     3
1070
   287
1070
     3
1070
     3
1000
φ<>
1070
    40
1040
30.0
1070
   143
1040
0.039
1070
   172
1070
     1
1070
   271
1070
     0
1070
   279
1070
     0
1070
   288
1070
     1
1002
}
  0
DIMENSION
  5
7C0A
  8
3
  6
CONTINUOUS
  2
*D15
 10
4629.5400409611429
 20
3860.3418719183951
 30
0.0
 11
4392.0400409611429
 21
3860.3418719183951
 31
0.0
 70
   128
 13
4154.5400409611429
 23
3718.6928529183938
 33
0.0
 14
4629.5400409611429
 24
3718.6928529183938
 34
0.0
1001
ACAD
1000
DSTYLE
1002
{
1070
   287
1070
     3
1070
   287
1070
     3
1070
    40
1040
30.0
1070
   143
1040
0.039
1070
   172
1070
     1
1070
   271
1070
     0
1070
   279
1070
     0
1070
   288
1070
     1
1002
}
  0
DIMENSION
  5
7C17
  8
3
  6
CONTINUOUS
  2
*D16
 10
4392.0400409611429
 20
4101.5651994608643
 30
0.0
 11
4130.6114695325714
 21
4101.5651994608643
 31
0.0
 70
   128
  1
MAX\P550
 13
3912.0400409611429
 23
3448.6928529183938
 33
0.0
 14
4392.0400409611429
 24
4022.9620203280861
 34
0.0
1001
ACAD
1000
DSTYLE
1002
{
1070
   287
1070
     3
1070
   287
1070
     3
1070
    40
1040
30.0
1070
   143
1040
0.039
1070
   172
1070
     1
1070
   271
1070
     0
1070
   279
1070
     0
1070
   288
1070
     1
1002
}
  0
DIMENSION
  5
7C25
  8
3
  6
CONTINUOUS
  2
*D17
 10
4712.040040961142
 20
4101.5651994608643
 30
0.0
 11
4568.6474142315192
 21
4177.9513297250296
 31
0.0
 12
0.0
 22
-474.47465750436447
 32
0.0
 70
   128
 13
4392.0400409611429
 23
4028.497350175578
 33
0.0
 14
4712.040040961142
 24
3613.6928529183938
 34
0.0
1001
ACAD
1000
DSTYLE
1002
{
1070
   288
1070
     1
1070
   172
1070
     1
1070
    40
1040
30.0
1070
   271
1070
     0
1070
   143
1040
0.039
1002
}
  0
LINE
  5
7C3D
  8
4
  6
CONTINUOUS
 10
5550.0
 20
1500.0
 30
0.0
 11
5550.0
 21
900.0
 31
0.0
  0
LINE
  5
7C3E
  8
4
  6
CONTINUOUS
 10
3450.0
 20
1500.0
 30
0.0
 11
3450.0
 21
900.0
 31
0.0
  0
LINE
  5
7C3F
  8
4
  6
CONTINUOUS
 10
1950.0
 20
1500.0
 30
0.0
 11
1950.0
 21
900.0
 31
0.0
  0
LINE
  5
7C42
  8
4
  6
CONTINUOUS
 10
1950.0
 20
900.0
 30
0.0
 11
5550.0
 21
900.0
 31
0.0
  0
LINE
  5
7C43
  8
4
  6
CONTINUOUS
 10
1950.0
 20
1200.0
 30
0.0
 11
5550.0
 21
1200.0
 31
0.0
  0
TEXT
  5
7C44
  8
4
  6
CONTINUOUS
 10
2065.50624225
 20
1294.6290779999999
 30
0.0
 40
150.0
  1
機器名称
  0
TEXT
  5
7C45
  8
4
  6
CONTINUOUS
 10
2058.7743179999989
 20
964.93547024999998
 30
0.0
 40
150.0
  1
機器型番
  0
TEXT
  5
7C46
  8
4
  6
CONTINUOUS
 10
3533.0362365000001
 20
1267.715306249999
 30
0.0
 40
120.0
  1
ミツヤリミットロードファン
  0
TEXT
  5
7C47
  8
4
  6
CONTINUOUS
 10
3559.9634872500001
 20
951.4787527499999
 30
0.0
 40
150.0
  1
LLE#4-4
  0
TEXT
  5
7C49
  8
4
  6
CONTINUOUS
 10
2350.1360137500001
 20
7150.2865245000012
 30
0.0
 40
162.0
  1
床置防振ベット
  0
TEXT
  5
7C4A
  8
4
  6
CONTINUOUS
 10
948.50278049999986
 20
7601.6429287499996
 30
0.0
 40
171.42857175
  1
ベルト駆動式片吸込両持排煙ファン
  0
LINE
  5
7C4B
  8
4
  6
CONTINUOUS
 10
750.0
 20
7408.2262627500004
 30
0.0
 11
5550.0
 21
7408.2262627500004
 31
0.0
  0
LINE
  5
7C4C
  8
4
  6
CONTINUOUS
 10
750.0
 20
8008.2262627500004
 30
0.0
 11
5550.0
 21
8008.2262627500004
 31
0.0
  0
LINE
  5
7C4D
  8
4
  6
CONTINUOUS
 10
1950.0
 20
1500.0
 30
0.0
 11
5550.0
 21
1500.0
 31
0.0
  0
LINE
  5
7C4E
  8
4
  6
CONTINUOUS
 10
750.0
 20
8008.2262627500004
 30
0.0
 11
750.0
 21
7408.2262627500004
 31
0.0
  0
TEXT
  5
7C4F
  8
4
  6
CONTINUOUS
 10
1042.5595162499999
 20
7146.9584324999987
 30
0.0
 40
162.0
  1
左回転上向
  0
TEXT
  5
7C50
  8
4
  6
CONTINUOUS
 10
4406.9086777499988
 20
8118.1832445
 30
0.0
 40
168.0
  1
No.
  0
TEXT
  5
7C51
  8
4
  6
CONTINUOUS
 10
3933.8881875000002
 20
7150.2865245000012
 30
0.0
 40
162.0
  1
縮尺：1/30
  0
LINE
  5
7C52
  8
4
  6
CONTINUOUS
 10
5550.0
 20
8008.2262627500004
 30
0.0
 11
5550.0
 21
7408.2262627500004
 31
0.0
  0
LINE
  5
7C54
  8
4
  6
CONTINUOUS
 10
4321.8522667500001
 20
8043.79074975
 30
0.0
 11
4321.8522667500001
 21
8359.9567845000001
 31
0.0
  0
LINE
  5
7C55
  8
4
  6
CONTINUOUS
 10
4321.8522667500001
 20
8359.9567845000001
 30
0.0
 11
5550.0
 21
8359.9567845000001
 31
0.0
  0
LINE
  5
7C56
  8
4
  6
CONTINUOUS
 10
5550.0
 20
8359.9567845000001
 30
0.0
 11
5550.0
 21
8043.79074975
 31
0.0
  0
LINE
  5
7C57
  8
4
  6
CONTINUOUS
 10
5550.0
 20
8043.79074975
 30
0.0
 11
4321.8522667500001
 21
8043.79074975
 31
0.0
  0
DIMENSION
  5
7DF5
  8
3
  2
*D18
 10
2705.9164789595161
 20
4216.698663213203
 30
0.0
 11
2081.230237669115
 21
4216.698663213203
 31
0.0
 70
   128
 13
1252.2175579595159
 23
3273.6928529183938
 33
0.0
 14
2705.9164789595161
 24
2778.6928529183938
 34
0.0
1001
ACAD
1000
DSTYLE
1002
{
1070
   287
1070
     3
1070
   287
1070
     3
1070
    40
1040
30.0
1070
   143
1040
0.039
1070
   172
1070
     1
1070
   271
1070
     0
1070
   279
1070
     0
1070
   288
1070
     1
1002
}
  0
ENDSEC
  0
EOF
