  0
SECTION
  2
HEADER
  9
$ACADVER
  1
AC1009
  9
$INSBASE
 10
0.0
 20
0.0
 30
0.0
  9
$EXTMIN
 10
750.0
 20
900.0
 30
0.0
  9
$EXTMAX
 10
5550.0
 20
8359.9567845000001
 30
0.0
  9
$LIMMIN
 10
0.0
 20
0.0
  9
$LIMMAX
 10
297.0
 20
210.0
  9
$ORTHOMODE
 70
     0
  9
$REGENMODE
 70
     1
  9
$FILLMODE
 70
     0
  9
$QTEXTMODE
 70
     0
  9
$MIRRTEXT
 70
     1
  9
$DRAGMODE
 70
     2
  9
$LTSCALE
 40
100.0
  9
$OSMODE
 70
    37
  9
$ATTMODE
 70
     1
  9
$TEXTSIZE
 40
180.0
  9
$TRACEWID
 40
0.05
  9
$TEXTSTYLE
  7
STANDARD
  9
$CLAYER
  8
3
  9
$CELTYPE
  6
BYLAYER
  9
$CECOLOR
 62
   256
  9
$DIMSCALE
 40
30.0
  9
$DIMASZ
 40
2.0
  9
$DIMEXO
 40
0.5
  9
$DIMDLI
 40
10.0
  9
$DIMRND
 40
0.0
  9
$DIMDLE
 40
0.0
  9
$DIMEXE
 40
1.0
  9
$DIMTP
 40
1.0
  9
$DIMTM
 40
1.0
  9
$DIMTXT
 40
3.0
  9
$DIMCEN
 40
0.0
  9
$DIMTSZ
 40
0.0
  9
$DIMTOL
 70
     0
  9
$DIMLIM
 70
     0
  9
$DIMTIH
 70
     0
  9
$DIMTOH
 70
     0
  9
$DIMSE1
 70
     0
  9
$DIMSE2
 70
     0
  9
$DIMTAD
 70
     1
  9
$DIMZIN
 70
     8
  9
$DIMBLK
  1

  9
$DIMASO
 70
     1
  9
$DIMSHO
 70
     1
  9
$DIMPOST
  1

  9
$DIMAPOST
  1

  9
$DIMALT
 70
     0
  9
$DIMALTD
 70
     2
  9
$DIMALTF
 40
0.039
  9
$DIMLFAC
 40
1.0
  9
$DIMTOFL
 70
     1
  9
$DIMTVP
 40
0.0
  9
$DIMTIX
 70
     0
  9
$DIMSOXD
 70
     0
  9
$DIMSAH
 70
     1
  9
$DIMBLK1
  1
OPEN
  9
$DIMBLK2
  1
OPEN
  9
$DIMSTYLE
  2
IGA
  9
$DIMCLRD
 70
     0
  9
$DIMCLRE
 70
     0
  9
$DIMCLRT
 70
     0
  9
$DIMTFAC
 40
10.0
  9
$DIMGAP
 40
1.0
  9
$LUNITS
 70
     2
  9
$LUPREC
 70
     3
  9
$SKETCHINC
 40
0.1
  9
$FILLETRAD
 40
50.0
  9
$AUNITS
 70
     0
  9
$AUPREC
 70
     0
  9
$MENU
  1
acad
  9
$ELEVATION
 40
0.0
  9
$PELEVATION
 40
0.0
  9
$THICKNESS
 40
0.0
  9
$LIMCHECK
 70
     0
  9
$BLIPMODE
 70
     0
  9
$CHAMFERA
 40
0.5
  9
$CHAMFERB
 40
0.5
  9
$SKPOLY
 70
     0
  9
$TDCREATE
 40
2450757.3536413191
  9
$TDUPDATE
 40
2454953.6832443508
  9
$TDINDWG
 40
0.0034226157
  9
$TDUSRTIMER
 40
0.0034226157
  9
$USRTIMER
 70
     1
  9
$ANGBASE
 50
0.0
  9
$ANGDIR
 70
     0
  9
$PDMODE
 70
     0
  9
$PDSIZE
 40
0.0
  9
$PLINEWID
 40
0.0
  9
$COORDS
 70
     1
  9
$SPLFRAME
 70
     0
  9
$SPLINETYPE
 70
     6
  9
$SPLINESEGS
 70
     8
  9
$ATTDIA
 70
     0
  9
$ATTREQ
 70
     1
  9
$HANDLING
 70
 10241
  9
$HANDSEED
  5
7FA5
  9
$SURFTAB1
 70
     6
  9
$SURFTAB2
 70
     6
  9
$SURFTYPE
 70
     6
  9
$SURFU
 70
     6
  9
$SURFV
 70
     6
  9
$UCSNAME
  2

  9
$UCSORG
 10
0.0
 20
0.0
 30
0.0
  9
$UCSXDIR
 10
1.0
 20
0.0
 30
0.0
  9
$UCSYDIR
 10
0.0
 20
1.0
 30
0.0
  9
$PUCSNAME
  2

  9
$PUCSORG
 10
0.0
 20
0.0
 30
0.0
  9
$PUCSXDIR
 10
1.0
 20
0.0
 30
0.0
  9
$PUCSYDIR
 10
0.0
 20
1.0
 30
0.0
  9
$USERI1
 70
     0
  9
$USERI2
 70
     0
  9
$USERI3
 70
     0
  9
$USERI4
 70
     0
  9
$USERI5
 70
     0
  9
$USERR1
 40
0.0
  9
$USERR2
 40
0.0
  9
$USERR3
 40
0.0
  9
$USERR4
 40
0.0
  9
$USERR5
 40
0.0
  9
$WORLDVIEW
 70
     1
  9
$SHADEDGE
 70
     3
  9
$SHADEDIF
 70
    70
  9
$TILEMODE
 70
     1
  9
$MAXACTVP
 70
    16
  9
$PLIMCHECK
 70
     0
  9
$PEXTMIN
 10
1.0000000000000000E+020
 20
1.0000000000000000E+020
 30
1.0000000000000000E+020
  9
$PEXTMAX
 10
-1.0000000000000000E+020
 20
-1.0000000000000000E+020
 30
-1.0000000000000000E+020
  9
$PLIMMIN
 10
0.0
 20
0.0
  9
$PLIMMAX
 10
12.0
 20
9.0
  9
$UNITMODE
 70
     0
  9
$VISRETAIN
 70
     0
  9
$PLINEGEN
 70
     0
  9
$PSLTSCALE
 70
     1
  0
ENDSEC
  0
SECTION
  2
TABLES
  0
TABLE
  2
VPORT
 70
     2
  0
VPORT
  2
*ACTIVE
 70
     0
 10
0.0
 20
0.0
 11
1.0
 21
1.0
 12
12511.69099391471
 22
3598.781448839984
 13
0.0
 23
0.0
 14
10.0
 24
10.0
 15
10.0
 25
10.0
 16
0.0
 26
0.0
 36
1.0
 17
0.0
 27
0.0
 37
0.0
 40
9609.5812580638958
 41
3.1666666666666661
 42
50.0
 43
0.0
 44
0.0
 50
0.0
 51
0.0
 71
     0
 72
   100
 73
     1
 74
     0
 75
     0
 76
     0
 77
     0
 78
     0
  0
ENDTAB
  0
TABLE
  2
LTYPE
 70
     2
  0
LTYPE
  2
CONTINUOUS
 70
     0
  3
Solid line
 72
    65
 73
     0
 40
0.0
  0
LTYPE
  2
CENTER
 70
     0
  3
____ _ ____ _ ____ _ ____ _ ____ _ ____ _ ____ 
 72
    65
 73
     4
 40
2.0
 49
1.25
 49
-0.25
 49
0.25
 49
-0.25
  0
ENDTAB
  0
TABLE
  2
LAYER
 70
     6
  0
LAYER
  2
0
 70
     0
 62
     7
  6
CONTINUOUS
  0
LAYER
  2
3
 70
     0
 62
     2
  6
CONTINUOUS
  0
LAYER
  2
2
 70
     0
 62
     3
  6
CENTER
  0
LAYER
  2
1
 70
     0
 62
     4
  6
CONTINUOUS
  0
LAYER
  2
4
 70
     0
 62
     7
  6
CONTINUOUS
  0
LAYER
  2
DEFPOINTS
 70
     0
 62
     7
  6
CONTINUOUS
  0
ENDTAB
  0
TABLE
  2
STYLE
 70
     1
  0
STYLE
  2
STANDARD
 70
     0
 40
0.0
 41
1.0
 50
0.0
 71
     0
 42
180.0
  3
simplex.shx
  4
extfont.shx
  0
ENDTAB
  0
TABLE
  2
VIEW
 70
     0
  0
ENDTAB
  0
TABLE
  2
UCS
 70
     0
  0
ENDTAB
  0
TABLE
  2
APPID
 70
     1
  0
APPID
  2
ACAD
 70
     0
  0
ENDTAB
  0
TABLE
  2
DIMSTYLE
 70
     1
  0
DIMSTYLE
  2
IGA
 70
     0
  3

  4

  5

  6
OPEN
  7
OPEN
 40
2.0
 41
2.0
 42
0.5
 43
10.0
 44
1.0
 45
0.0
 46
0.0
 47
1.0
 48
1.0
140
3.0
141
0.0
142
0.0
143
0.03937
144
1.0
145
0.0
146
10.0
147
1.0
 71
     0
 72
     0
 73
     0
 74
     0
 75
     0
 76
     0
 77
     1
 78
     8
170
     0
171
     2
172
     0
173
     1
174
     0
175
     0
176
     0
177
     0
178
     0
  0
ENDTAB
  0
ENDSEC
  0
SECTION
  2
BLOCKS
  0
BLOCK
  8
0
  2
$MODEL_SPACE
 70
     0
 10
0.0
 20
0.0
 30
0.0
  3
$MODEL_SPACE
  1

  0
ENDBLK
  5
1B
  8
0
  0
BLOCK
 67
     1
  8
0
  2
$PAPER_SPACE
 70
     0
 10
0.0
 20
0.0
 30
0.0
  3
$PAPER_SPACE
  1

  0
ENDBLK
  5
18
 67
     1
  8
0
  0
BLOCK
  8
0
  2
_OPEN
 70
     0
 10
0.0
 20
0.0
 30
0.0
  3
_OPEN
  1

  0
LINE
  5
7ADC
  8
0
  6
BYBLOCK
 62
     0
 10
-1.0
 20
0.166667
 30
0.0
 11
0.0
 21
0.0
 31
0.0
  0
LINE
  5
7ADD
  8
0
  6
BYBLOCK
 62
     0
 10
0.0
 20
0.0
 30
0.0
 11
-1.0
 21
-0.166667
 31
0.0
  0
LINE
  5
7ADE
  8
0
  6
BYBLOCK
 62
     0
 10
0.0
 20
0.0
 30
0.0
 11
-1.0
 21
0.0
 31
0.0
  0
ENDBLK
  5
7ADF
  8
0
  0
BLOCK
  8
0
  2
*D1
 70
     1
 10
0.0
 20
0.0
 30
0.0
  3
*D1
  1

  0
LINE
  5
7D55
  8
0
  6
BYBLOCK
 62
     0
 10
2035.4248760000009
 20
2911.0137262398589
 30
0.0
 11
2035.4248760000009
 21
2658.4685032398588
 31
0.0
  0
LINE
  5
7D56
  8
0
  6
BYBLOCK
 62
     0
 10
2435.4248760000009
 20
2838.102545239859
 30
0.0
 11
2435.4248760000009
 21
2658.4685032398588
 31
0.0
  0
LINE
  5
7D57
  8
0
  6
BYBLOCK
 62
     0
 10
2095.424876
 20
2688.4685032398588
 30
0.0
 11
2375.4248760000009
 21
2688.4685032398588
 31
0.0
  0
TEXT
  5
7D58
  8
3
 62
     0
 10
2119.7105902857152
 20
2720.2944588768728
 30
0.0
 40
90.0
  1
400
  0
INSERT
  5
7D59
  8
0
  6
BYBLOCK
 62
     0
  2
_OPEN
 10
2035.4248760000009
 20
2688.4685032398588
 30
0.0
 41
60.0
 42
60.0
 43
60.0
 50
180.0
  0
INSERT
  5
7D5A
  8
0
  6
BYBLOCK
 62
     0
  2
_OPEN
 10
2435.4248760000009
 20
2688.4685032398588
 30
0.0
 41
60.0
 42
60.0
 43
60.0
  0
POINT
  5
7D5B
  8
DEFPOINTS
  6
BYBLOCK
 62
     0
 10
2035.4248760000009
 20
2926.0137262398598
 30
0.0
  0
POINT
  5
7D5C
  8
DEFPOINTS
  6
BYBLOCK
 62
     0
 10
2435.4248760000009
 20
2853.1025452398599
 30
0.0
  0
POINT
  5
7D5D
  8
DEFPOINTS
  6
BYBLOCK
 62
     0
 10
2435.4248760000009
 20
2688.4685032398588
 30
0.0
  0
ENDBLK
  5
7D5E
  8
0
  0
BLOCK
  8
0
  2
*D2
 70
     1
 10
0.0
 20
0.0
 30
0.0
  3
*D2
  1

  0
LINE
  5
7F16
  8
3
  6
CONTINUOUS
 62
     0
 10
2435.4248760000009
 20
2838.102545239859
 30
0.0
 11
2435.4248760000009
 21
2658.4685032398588
 31
0.0
  0
LINE
  5
7F17
  8
3
  6
CONTINUOUS
 62
     0
 10
3435.4248759999991
 20
2911.0137262398589
 30
0.0
 11
3435.4248759999991
 21
2658.4685032398588
 31
0.0
  0
LINE
  5
7F18
  8
3
  6
CONTINUOUS
 62
     0
 10
2495.4248760000009
 20
2688.4685032398588
 30
0.0
 11
3375.4248759999982
 21
2688.4685032398588
 31
0.0
  0
INSERT
  5
7F19
  8
3
  6
CONTINUOUS
 62
     0
  2
_OPEN
 10
2435.4248760000009
 20
2688.4685032398588
 30
0.0
 41
60.0
 42
60.0
 43
60.0
 50
180.0
  0
INSERT
  5
7F1A
  8
3
  6
CONTINUOUS
 62
     0
  2
_OPEN
 10
3435.4248759999991
 20
2688.4685032398588
 30
0.0
 41
60.0
 42
60.0
 43
60.0
  0
TEXT
  8
3
  40
90
  5
7F96
  62
0
  72
0
  71
0
 10
2755.42
 20
2604.17
 30
0.000000
  1
1000
  0
POINT
  5
7F1C
  8
DEFPOINTS
  6
CONTINUOUS
 62
     0
 10
2435.4248760000009
 20
2853.1025452398599
 30
0.0
  0
POINT
  5
7F1D
  8
DEFPOINTS
  6
CONTINUOUS
 62
     0
 10
3435.4248759999991
 20
2926.0137262398598
 30
0.0
  0
POINT
  5
7F1E
  8
DEFPOINTS
  6
CONTINUOUS
 62
     0
 10
3435.4248759999991
 20
2688.4685032398588
 30
0.0
  0
ENDBLK
  5
7D0D
  8
0
  0
BLOCK
  8
0
  2
*D3
 70
     1
 10
0.0
 20
0.0
 30
0.0
  3
*D3
  1

  0
LINE
  5
7F1F
  8
3
  6
CONTINUOUS
 62
     0
 10
1960.4248760000009
 20
4229.0137262398603
 30
0.0
 11
1741.2018399999999
 21
4229.0137262398603
 31
0.0
  0
LINE
  5
7F20
  8
3
  6
CONTINUOUS
 62
     0
 10
1960.4248760000009
 20
3579.0137262398598
 30
0.0
 11
1741.2018399999999
 21
3579.0137262398598
 31
0.0
  0
LINE
  5
7F21
  8
3
  6
CONTINUOUS
 62
     0
 10
1771.2018399999999
 20
4169.0137262398594
 30
0.0
 11
1771.2018399999999
 21
3639.0137262398598
 31
0.0
  0
INSERT
  5
7F22
  8
3
  6
CONTINUOUS
 62
     0
  2
_OPEN
 10
1771.2018399999999
 20
4229.0137262398603
 30
0.0
 41
60.0
 42
60.0
 43
60.0
 50
90.0
  0
INSERT
  5
7F23
  8
3
  6
CONTINUOUS
 62
     0
  2
_OPEN
 10
1771.2018399999999
 20
3579.0137262398598
 30
0.0
 41
60.0
 42
60.0
 43
60.0
 50
270.0
  0
TEXT
  8
3
  40
90
  5
7F97
  62
0
  72
0
  71
0
 10
1516.20
 20
3769.86
 30
0.000000
  1
650
  0
POINT
  5
7F25
  8
DEFPOINTS
  6
CONTINUOUS
 62
     0
 10
1975.4248760000009
 20
4229.0137262398603
 30
0.0
  0
POINT
  5
7F26
  8
DEFPOINTS
  6
CONTINUOUS
 62
     0
 10
1975.4248760000009
 20
3579.0137262398598
 30
0.0
  0
POINT
  5
7F27
  8
DEFPOINTS
  6
CONTINUOUS
 62
     0
 10
1771.2018399999999
 20
3579.0137262398598
 30
0.0
  0
ENDBLK
  5
7D02
  8
0
  0
BLOCK
  8
0
  2
*D4
 70
     1
 10
0.0
 20
0.0
 30
0.0
  3
*D4
  1

  0
LINE
  5
7F28
  8
3
  6
CONTINUOUS
 62
     0
 10
1960.4248760000009
 20
4229.0137262398603
 30
0.0
 11
1547.642317
 21
4229.0137262398603
 31
0.0
  0
LINE
  5
7F29
  8
3
  6
CONTINUOUS
 62
     0
 10
2043.146289
 20
3551.0137262398598
 30
0.0
 11
1547.642317
 21
3551.0137262398598
 31
0.0
  0
LINE
  5
7F2A
  8
3
  6
CONTINUOUS
 62
     0
 10
1577.642317
 20
4169.0137262398594
 30
0.0
 11
1577.642317
 21
3611.0137262398598
 31
0.0
  0
INSERT
  5
7F2B
  8
3
  6
CONTINUOUS
 62
     0
  2
_OPEN
 10
1577.642317
 20
4229.0137262398603
 30
0.0
 41
60.0
 42
60.0
 43
60.0
 50
90.0
  0
INSERT
  5
7F2C
  8
3
  6
CONTINUOUS
 62
     0
  2
_OPEN
 10
1577.642317
 20
3551.0137262398598
 30
0.0
 41
60.0
 42
60.0
 43
60.0
 50
270.0
  0
TEXT
  8
3
  40
90
  5
7F98
  62
0
  72
0
  71
0
 10
1322.64
 20
3754.51
 30
0.000000
  1
678
  0
POINT
  5
7F2E
  8
DEFPOINTS
  6
CONTINUOUS
 62
     0
 10
1975.4248760000009
 20
4229.0137262398603
 30
0.0
  0
POINT
  5
7F2F
  8
DEFPOINTS
  6
CONTINUOUS
 62
     0
 10
2058.1462889999998
 20
3551.0137262398598
 30
0.0
  0
POINT
  5
7F30
  8
DEFPOINTS
  6
CONTINUOUS
 62
     0
 10
1577.642317
 20
3551.0137262398598
 30
0.0
  0
ENDBLK
  5
7CF7
  8
0
  0
BLOCK
  8
0
  2
*D5
 70
     1
 10
0.0
 20
0.0
 30
0.0
  3
*D5
  1

  0
LINE
  5
7F31
  8
3
  6
CONTINUOUS
 62
     0
 10
2043.146289
 20
3551.0137262398598
 30
0.0
 11
1547.642317
 21
3551.0137262398598
 31
0.0
  0
LINE
  5
7F32
  8
3
  6
CONTINUOUS
 62
     0
 10
2020.4248760000009
 20
3046.0137262398598
 30
0.0
 11
1547.642317
 21
3046.0137262398598
 31
0.0
  0
LINE
  5
7F33
  8
3
  6
CONTINUOUS
 62
     0
 10
1577.642317
 20
3491.0137262398598
 30
0.0
 11
1577.642317
 21
3106.0137262398598
 31
0.0
  0
INSERT
  5
7F34
  8
3
  6
CONTINUOUS
 62
     0
  2
_OPEN
 10
1577.642317
 20
3551.0137262398598
 30
0.0
 41
60.0
 42
60.0
 43
60.0
 50
90.0
  0
INSERT
  5
7F35
  8
3
  6
CONTINUOUS
 62
     0
  2
_OPEN
 10
1577.642317
 20
3046.0137262398598
 30
0.0
 41
60.0
 42
60.0
 43
60.0
 50
270.0
  0
TEXT
  8
3
  40
90
  5
7F99
  62
0
  72
0
  71
0
 10
1322.64
 20
3139.21
 30
0.000000
  1
505
  0
POINT
  5
7F37
  8
DEFPOINTS
  6
CONTINUOUS
 62
     0
 10
2058.1462889999998
 20
3551.0137262398598
 30
0.0
  0
POINT
  5
7F38
  8
DEFPOINTS
  6
CONTINUOUS
 62
     0
 10
2035.4248760000009
 20
3046.0137262398598
 30
0.0
  0
POINT
  5
7F39
  8
DEFPOINTS
  6
CONTINUOUS
 62
     0
 10
1577.642317
 20
3046.0137262398598
 30
0.0
  0
ENDBLK
  5
7CEC
  8
0
  0
BLOCK
  8
0
  2
*D6
 70
     1
 10
0.0
 20
0.0
 30
0.0
  3
*D6
  1

  0
LINE
  5
7F3A
  8
3
  6
CONTINUOUS
 62
     0
 10
2020.4248760000009
 20
3046.0137262398598
 30
0.0
 11
1547.337888
 21
3046.0137262398598
 31
0.0
  0
LINE
  5
7F3B
  8
3
  6
CONTINUOUS
 62
     0
 10
2020.4248760000009
 20
2926.0137262398598
 30
0.0
 11
1547.337888
 21
2926.0137262398598
 31
0.0
  0
LINE
  5
7F3C
  8
3
  6
CONTINUOUS
 62
     0
 10
1577.337888
 20
3106.0137262398598
 30
0.0
 11
1577.337888
 21
3166.0137262398598
 31
0.0
  0
LINE
  5
7F3D
  8
3
  6
CONTINUOUS
 62
     0
 10
1577.337888
 20
2866.0137262398589
 30
0.0
 11
1577.337888
 21
2531.728011954146
 31
0.0
  0
LINE
  5
7F3E
  8
3
  6
CONTINUOUS
 62
     0
 10
1577.337888
 20
3046.0137262398598
 30
0.0
 11
1577.337888
 21
2926.0137262398598
 31
0.0
  0
INSERT
  5
7F3F
  8
3
  6
CONTINUOUS
 62
     0
  2
_OPEN
 10
1577.337888
 20
3046.0137262398598
 30
0.0
 41
60.0
 42
60.0
 43
60.0
 50
270.0
  0
INSERT
  5
7F40
  8
3
  6
CONTINUOUS
 62
     0
  2
_OPEN
 10
1577.337888
 20
2926.0137262398598
 30
0.0
 41
60.0
 42
60.0
 43
60.0
 50
90.0
  0
TEXT
  8
3
  40
90
  5
7F9A
  62
0
  72
0
  71
0
 10
1322.34
 20
2509.57
 30
0.000000
  1
120
  0
POINT
  5
7F42
  8
DEFPOINTS
  6
CONTINUOUS
 62
     0
 10
2035.4248760000009
 20
3046.0137262398598
 30
0.0
  0
POINT
  5
7F43
  8
DEFPOINTS
  6
CONTINUOUS
 62
     0
 10
2035.4248760000009
 20
2926.0137262398598
 30
0.0
  0
POINT
  5
7F44
  8
DEFPOINTS
  6
CONTINUOUS
 62
     0
 10
1577.337888
 20
2926.0137262398598
 30
0.0
  0
ENDBLK
  5
7CE1
  8
0
  0
BLOCK
  8
0
  2
*D7
 70
     1
 10
0.0
 20
0.0
 30
0.0
  3
*D7
  1

  0
LINE
  5
7F45
  8
3
  6
CONTINUOUS
 62
     0
 10
1960.4248760000009
 20
4271.0137262398603
 30
0.0
 11
1356.850738000001
 21
4271.0137262398603
 31
0.0
  0
LINE
  5
7F46
  8
3
  6
CONTINUOUS
 62
     0
 10
2020.4248760000009
 20
2926.0137262398598
 30
0.0
 11
1356.850738000001
 21
2926.0137262398598
 31
0.0
  0
LINE
  5
7F47
  8
3
  6
CONTINUOUS
 62
     0
 10
1386.850738000001
 20
4211.0137262398603
 30
0.0
 11
1386.850738000001
 21
2986.0137262398598
 31
0.0
  0
INSERT
  5
7F48
  8
3
  6
CONTINUOUS
 62
     0
  2
_OPEN
 10
1386.850738000001
 20
4271.0137262398603
 30
0.0
 41
60.0
 42
60.0
 43
60.0
 50
90.0
  0
INSERT
  5
7F49
  8
3
  6
CONTINUOUS
 62
     0
  2
_OPEN
 10
1386.850738000001
 20
2926.0137262398598
 30
0.0
 41
60.0
 42
60.0
 43
60.0
 50
270.0
  0
TEXT
  8
3
  40
90
  5
7F9B
  62
0
  72
0
  71
0
 10
1131.85
 20
3383.01
 30
0.000000
  1
1345
  0
POINT
  5
7F4B
  8
DEFPOINTS
  6
CONTINUOUS
 62
     0
 10
1975.4248760000009
 20
4271.0137262398603
 30
0.0
  0
POINT
  5
7F4C
  8
DEFPOINTS
  6
CONTINUOUS
 62
     0
 10
2035.4248760000009
 20
2926.0137262398598
 30
0.0
  0
POINT
  5
7F4D
  8
DEFPOINTS
  6
CONTINUOUS
 62
     0
 10
1386.850738000001
 20
2926.0137262398598
 30
0.0
  0
ENDBLK
  5
7CD4
  8
0
  0
BLOCK
  8
0
  2
*D8
 70
     1
 10
0.0
 20
0.0
 30
0.0
  3
*D8
  1

  0
LINE
  5
7F4E
  8
3
  6
CONTINUOUS
 62
     0
 10
1975.4248760000009
 20
4286.0137262398603
 30
0.0
 11
1975.4248760000009
 21
4411.0969862398597
 31
0.0
  0
LINE
  5
7F4F
  8
3
  6
CONTINUOUS
 62
     0
 10
2435.4248760000009
 20
4208.0137262398603
 30
0.0
 11
2435.4248760000009
 21
4411.0969862398597
 31
0.0
  0
LINE
  5
7F50
  8
3
  6
CONTINUOUS
 62
     0
 10
2035.4248760000009
 20
4381.0969862398588
 30
0.0
 11
2375.4248760000009
 21
4381.0969862398588
 31
0.0
  0
INSERT
  5
7F51
  8
3
  6
CONTINUOUS
 62
     0
  2
_OPEN
 10
1975.4248760000009
 20
4381.0969862398588
 30
0.0
 41
60.0
 42
60.0
 43
60.0
 50
180.0
  0
INSERT
  5
7F52
  8
3
  6
CONTINUOUS
 62
     0
  2
_OPEN
 10
2435.4248760000009
 20
4381.0969862398588
 30
0.0
 41
60.0
 42
60.0
 43
60.0
  0
TEXT
  8
3
  40
90
  5
7F9C
  62
0
  72
0
  71
0
 10
2001.14
 20
4296.80
 30
0.000000
  1
460
  0
POINT
  5
7F54
  8
DEFPOINTS
  6
CONTINUOUS
 62
     0
 10
1975.4248760000009
 20
4271.0137262398603
 30
0.0
  0
POINT
  5
7F55
  8
DEFPOINTS
  6
CONTINUOUS
 62
     0
 10
2435.4248760000009
 20
4193.0137262398603
 30
0.0
  0
POINT
  5
7F56
  8
DEFPOINTS
  6
CONTINUOUS
 62
     0
 10
2435.4248760000009
 20
4381.0969862398588
 30
0.0
  0
ENDBLK
  5
7CC9
  8
0
  0
BLOCK
  8
0
  2
*D9
 70
     1
 10
0.0
 20
0.0
 30
0.0
  3
*D9
  1

  0
LINE
  5
7F57
  8
3
  6
CONTINUOUS
 62
     0
 10
2435.4248760000009
 20
4208.0137262398603
 30
0.0
 11
2435.4248760000009
 21
4411.0969862398597
 31
0.0
  0
LINE
  5
7F58
  8
3
  6
CONTINUOUS
 62
     0
 10
2983.1237980000001
 20
3566.0137262398612
 30
0.0
 11
2983.1237980000001
 21
4411.0969862398597
 31
0.0
  0
LINE
  5
7F59
  8
3
  6
CONTINUOUS
 62
     0
 10
2495.4248760000009
 20
4381.0969862398588
 30
0.0
 11
2923.1237980000001
 21
4381.0969862398588
 31
0.0
  0
INSERT
  5
7F5A
  8
3
  6
CONTINUOUS
 62
     0
  2
_OPEN
 10
2435.4248760000009
 20
4381.0969862398588
 30
0.0
 41
60.0
 42
60.0
 43
60.0
 50
180.0
  0
INSERT
  5
7F5B
  8
3
  6
CONTINUOUS
 62
     0
  2
_OPEN
 10
2983.1237980000001
 20
4381.0969862398588
 30
0.0
 41
60.0
 42
60.0
 43
60.0
  0
TEXT
  8
3
  40
90
  5
7F9D
  62
0
  72
0
  71
0
 10
2529.27
 20
4296.80
 30
0.000000
  1
548
  0
POINT
  5
7F5D
  8
DEFPOINTS
  6
CONTINUOUS
 62
     0
 10
2435.4248760000009
 20
4193.0137262398603
 30
0.0
  0
POINT
  5
7F5E
  8
DEFPOINTS
  6
CONTINUOUS
 62
     0
 10
2983.1237980000001
 20
3551.0137262398598
 30
0.0
  0
POINT
  5
7F5F
  8
DEFPOINTS
  6
CONTINUOUS
 62
     0
 10
2983.1237980000001
 20
4381.0969862398588
 30
0.0
  0
ENDBLK
  5
7CBE
  8
0
  0
BLOCK
  8
0
  2
*D10
 70
     1
 10
0.0
 20
0.0
 30
0.0
  3
*D10
  1

  0
LINE
  5
7F60
  8
3
  6
CONTINUOUS
 62
     0
 10
2035.4248760000009
 20
5294.1484407385651
 30
0.0
 11
2035.4248760000009
 21
4954.6140837385656
 31
0.0
  0
LINE
  5
7F61
  8
3
  6
CONTINUOUS
 62
     0
 10
3435.4248759999991
 20
5294.1484407385651
 30
0.0
 11
3435.4248759999991
 21
4954.6140837385656
 31
0.0
  0
LINE
  5
7F62
  8
3
  6
CONTINUOUS
 62
     0
 10
2095.424876
 20
4984.6140837385656
 30
0.0
 11
3375.4248759999982
 21
4984.6140837385656
 31
0.0
  0
INSERT
  5
7F63
  8
3
  6
CONTINUOUS
 62
     0
  2
_OPEN
 10
2035.4248760000009
 20
4984.6140837385656
 30
0.0
 41
60.0
 42
60.0
 43
60.0
 50
180.0
  0
INSERT
  5
7F64
  8
3
  6
CONTINUOUS
 62
     0
  2
_OPEN
 10
3435.4248759999991
 20
4984.6140837385656
 30
0.0
 41
60.0
 42
60.0
 43
60.0
  0
TEXT
  8
3
  40
90
  5
7F9E
  62
0
  72
0
  71
0
 10
2549.48
 20
4900.31
 30
0.000000
  1
1400
  0
POINT
  5
7F66
  8
DEFPOINTS
  6
CONTINUOUS
 62
     0
 10
2035.4248760000009
 20
5309.1484407385651
 30
0.0
  0
POINT
  5
7F67
  8
DEFPOINTS
  6
CONTINUOUS
 62
     0
 10
3435.4248759999991
 20
5309.1484407385651
 30
0.0
  0
POINT
  5
7F68
  8
DEFPOINTS
  6
CONTINUOUS
 62
     0
 10
3435.4248759999991
 20
4984.6140837385656
 30
0.0
  0
ENDBLK
  5
7CB3
  8
0
  0
BLOCK
  8
0
  2
*D11
 70
     1
 10
0.0
 20
0.0
 30
0.0
  3
*D11
  1

  0
LINE
  5
7F69
  8
3
  6
CONTINUOUS
 62
     0
 10
3450.4248759999991
 20
5999.1484407385651
 30
0.0
 11
3767.8250850000009
 21
5999.1484407385651
 31
0.0
  0
LINE
  5
7F6A
  8
3
  6
CONTINUOUS
 62
     0
 10
3450.4248759999991
 20
5309.1484407385651
 30
0.0
 11
3767.8250850000009
 21
5309.1484407385651
 31
0.0
  0
LINE
  5
7F6B
  8
3
  6
CONTINUOUS
 62
     0
 10
3737.8250850000009
 20
5939.1484407385651
 30
0.0
 11
3737.8250850000009
 21
5369.1484407385651
 31
0.0
  0
INSERT
  5
7F6C
  8
3
  6
CONTINUOUS
 62
     0
  2
_OPEN
 10
3737.8250850000009
 20
5999.1484407385651
 30
0.0
 41
60.0
 42
60.0
 43
60.0
 50
90.0
  0
INSERT
  5
7F6D
  8
3
  6
CONTINUOUS
 62
     0
  2
_OPEN
 10
3737.8250850000009
 20
5309.1484407385651
 30
0.0
 41
60.0
 42
60.0
 43
60.0
 50
270.0
  0
TEXT
  8
3
  40
90
  5
7F9F
  62
0
  72
0
  71
0
 10
3482.83
 20
5478.36
 30
0.000000
  1
690
  0
POINT
  5
7F6F
  8
DEFPOINTS
  6
CONTINUOUS
 62
     0
 10
3435.4248759999991
 20
5999.1484407385651
 30
0.0
  0
POINT
  5
7F70
  8
DEFPOINTS
  6
CONTINUOUS
 62
     0
 10
3435.4248759999991
 20
5309.1484407385651
 30
0.0
  0
POINT
  5
7F71
  8
DEFPOINTS
  6
CONTINUOUS
 62
     0
 10
3737.8250850000009
 20
5309.1484407385651
 30
0.0
  0
ENDBLK
  5
7CA8
  8
0
  0
BLOCK
  8
0
  2
*D12
 70
     1
 10
0.0
 20
0.0
 30
0.0
  3
*D12
  1

  0
LINE
  5
7D60
  8
0
  6
BYBLOCK
 62
     0
 10
4284.7128595819286
 20
2911.0137262398589
 30
0.0
 11
4284.7128595819286
 21
2692.2640362398602
 31
0.0
  0
LINE
  5
7D61
  8
0
  6
BYBLOCK
 62
     0
 10
4684.7128595819277
 20
2805.5122682398601
 30
0.0
 11
4684.7128595819277
 21
2692.2640362398602
 31
0.0
  0
LINE
  5
7D62
  8
0
  6
BYBLOCK
 62
     0
 10
4344.7128595819277
 20
2722.2640362398602
 30
0.0
 11
4624.7128595819277
 21
2722.2640362398602
 31
0.0
  0
TEXT
  5
7D63
  8
3
 62
     0
 10
4368.9985738676432
 20
2755.5547793818291
 30
0.0
 40
90.0
  1
400
  0
INSERT
  5
7D64
  8
0
  6
BYBLOCK
 62
     0
  2
_OPEN
 10
4284.7128595819286
 20
2722.2640362398602
 30
0.0
 41
60.0
 42
60.0
 43
60.0
 50
180.0
  0
INSERT
  5
7D65
  8
0
  6
BYBLOCK
 62
     0
  2
_OPEN
 10
4684.7128595819277
 20
2722.2640362398602
 30
0.0
 41
60.0
 42
60.0
 43
60.0
  0
POINT
  5
7D66
  8
DEFPOINTS
  6
BYBLOCK
 62
     0
 10
4284.7128595819286
 20
2926.0137262398598
 30
0.0
  0
POINT
  5
7D67
  8
DEFPOINTS
  6
BYBLOCK
 62
     0
 10
4684.7128595819277
 20
2820.5122682398601
 30
0.0
  0
POINT
  5
7D68
  8
DEFPOINTS
  6
BYBLOCK
 62
     0
 10
4684.7128595819277
 20
2722.2640362398602
 30
0.0
  0
ENDBLK
  5
7D69
  8
0
  0
BLOCK
  8
0
  2
*D13
 70
     1
 10
0.0
 20
0.0
 30
0.0
  3
*D13
  1

  0
LINE
  5
7D6B
  8
0
  6
BYBLOCK
 62
     0
 10
4684.7128595819277
 20
2805.5122682398601
 30
0.0
 11
4684.7128595819277
 21
2692.2640362398602
 31
0.0
  0
LINE
  5
7D6C
  8
0
  6
BYBLOCK
 62
     0
 10
4974.7128595819277
 20
2911.0137262398589
 30
0.0
 11
4974.7128595819277
 21
2692.2640362398602
 31
0.0
  0
LINE
  5
7D6D
  8
0
  6
BYBLOCK
 62
     0
 10
4744.7128595819286
 20
2722.2640362398602
 30
0.0
 11
4914.7128595819277
 21
2722.2640362398602
 31
0.0
  0
TEXT
  5
7D6E
  8
3
 62
     0
 10
4714.7329681308011
 20
2764.3698472302021
 30
0.0
 40
90.0
  1
290
  0
INSERT
  5
7D6F
  8
0
  6
BYBLOCK
 62
     0
  2
_OPEN
 10
4684.7128595819277
 20
2722.2640362398602
 30
0.0
 41
60.0
 42
60.0
 43
60.0
 50
180.0
  0
INSERT
  5
7D70
  8
0
  6
BYBLOCK
 62
     0
  2
_OPEN
 10
4974.7128595819277
 20
2722.2640362398602
 30
0.0
 41
60.0
 42
60.0
 43
60.0
  0
POINT
  5
7D71
  8
DEFPOINTS
  6
BYBLOCK
 62
     0
 10
4684.7128595819277
 20
2820.5122682398601
 30
0.0
  0
POINT
  5
7D72
  8
DEFPOINTS
  6
BYBLOCK
 62
     0
 10
4974.7128595819277
 20
2926.0137262398598
 30
0.0
  0
POINT
  5
7D73
  8
DEFPOINTS
  6
BYBLOCK
 62
     0
 10
4974.7128595819277
 20
2722.2640362398602
 30
0.0
  0
ENDBLK
  5
7D74
  8
0
  0
BLOCK
  8
0
  2
*D14
 70
     1
 10
0.0
 20
0.0
 30
0.0
  3
*D14
  1

  0
LINE
  5
7F72
  8
3
  6
CONTINUOUS
 62
     0
 10
5019.7128595819286
 20
3866.0137262398598
 30
0.0
 11
5229.6808025819291
 21
3866.0137262398589
 31
0.0
  0
LINE
  5
7F73
  8
3
  6
CONTINUOUS
 62
     0
 10
5019.7128595819286
 20
3236.0137262398598
 30
0.0
 11
5229.6808025819291
 21
3236.0137262398589
 31
0.0
  0
LINE
  5
7F74
  8
3
  6
CONTINUOUS
 62
     0
 10
5199.6808025819291
 20
3806.0137262398589
 30
0.0
 11
5199.6808025819291
 21
3296.0137262398589
 31
0.0
  0
INSERT
  5
7F75
  8
3
  6
CONTINUOUS
 62
     0
  2
_OPEN
 10
5199.6808025819291
 20
3866.0137262398589
 30
0.0
 41
60.0
 42
60.0
 43
60.0
 50
90.0
  0
INSERT
  5
7F76
  8
3
  6
CONTINUOUS
 62
     0
  2
_OPEN
 10
5199.6808025819291
 20
3236.0137262398589
 30
0.0
 41
60.0
 42
60.0
 43
60.0
 50
270.0
  0
TEXT
  8
3
  40
90
  5
7FA0
  62
0
  72
0
  71
0
 10
4944.68
 20
3447.00
 30
0.000000
  1
φ630
  0
POINT
  5
7F78
  8
DEFPOINTS
  6
CONTINUOUS
 62
     0
 10
5004.7128595819277
 20
3866.0137262398598
 30
0.0
  0
POINT
  5
7F79
  8
DEFPOINTS
  6
CONTINUOUS
 62
     0
 10
5004.7128595819277
 20
3236.0137262398598
 30
0.0
  0
POINT
  5
7F7A
  8
DEFPOINTS
  6
CONTINUOUS
 62
     0
 10
5199.6808025819291
 20
3236.0137262398589
 30
0.0
  0
ENDBLK
  5
7D8A
  8
0
  0
BLOCK
  8
0
  2
*D15
 70
     1
 10
0.0
 20
0.0
 30
0.0
  3
*D15
  1

  0
LINE
  5
7F7B
  8
3
  6
CONTINUOUS
 62
     0
 10
4447.2128595819277
 20
4244.0137262398603
 30
0.0
 11
4447.2128595819277
 21
4349.7146942398595
 31
0.0
  0
LINE
  5
7F7C
  8
3
  6
CONTINUOUS
 62
     0
 10
4922.2128595819286
 20
4244.0137262398603
 30
0.0
 11
4922.2128595819286
 21
4349.7146942398595
 31
0.0
  0
LINE
  5
7F7D
  8
3
  6
CONTINUOUS
 62
     0
 10
4507.2128595819286
 20
4319.7146942398595
 30
0.0
 11
4862.2128595819277
 21
4319.7146942398595
 31
0.0
  0
INSERT
  5
7F7E
  8
3
  6
CONTINUOUS
 62
     0
  2
_OPEN
 10
4447.2128595819277
 20
4319.7146942398595
 30
0.0
 41
60.0
 42
60.0
 43
60.0
 50
180.0
  0
INSERT
  5
7F7F
  8
3
  6
CONTINUOUS
 62
     0
  2
_OPEN
 10
4922.2128595819286
 20
4319.7146942398595
 30
0.0
 41
60.0
 42
60.0
 43
60.0
  0
TEXT
  8
3
  40
90
  5
7FA1
  62
0
  72
0
  71
0
 10
4504.71
 20
4235.41
 30
0.000000
  1
475
  0
POINT
  5
7F81
  8
DEFPOINTS
  6
CONTINUOUS
 62
     0
 10
4447.2128595819277
 20
4229.0137262398603
 30
0.0
  0
POINT
  5
7F82
  8
DEFPOINTS
  6
CONTINUOUS
 62
     0
 10
4922.2128595819286
 20
4229.0137262398603
 30
0.0
  0
POINT
  5
7F83
  8
DEFPOINTS
  6
CONTINUOUS
 62
     0
 10
4922.2128595819286
 20
4319.7146942398595
 30
0.0
  0
ENDBLK
  5
7C79
  8
0
  0
BLOCK
  8
0
  2
*D16
 70
     1
 10
0.0
 20
0.0
 30
0.0
  3
*D16
  1

  0
LINE
  5
7F84
  8
3
  6
CONTINUOUS
 62
     0
 10
4204.7128595819277
 20
3756.0137262398598
 30
0.0
 11
4204.7128595819277
 21
4568.3137252398601
 31
0.0
  0
LINE
  5
7F85
  8
3
  6
CONTINUOUS
 62
     0
 10
4684.7128595819277
 20
4520.33696623986
 30
0.0
 11
4684.7128595819277
 21
4568.3137252398601
 31
0.0
  0
LINE
  5
7F86
  8
3
  6
CONTINUOUS
 62
     0
 10
4264.7128595819286
 20
4538.3137252398601
 30
0.0
 11
4624.7128595819277
 21
4538.3137252398601
 31
0.0
  0
INSERT
  5
7F87
  8
3
  6
CONTINUOUS
 62
     0
  2
_OPEN
 10
4204.7128595819277
 20
4538.3137252398601
 30
0.0
 41
60.0
 42
60.0
 43
60.0
 50
180.0
  0
INSERT
  5
7F88
  8
3
  6
CONTINUOUS
 62
     0
  2
_OPEN
 10
4684.7128595819277
 20
4538.3137252398601
 30
0.0
 41
60.0
 42
60.0
 43
60.0
  0
TEXT
  8
3
  40
90
  5
7FA2
  62
0
  72
0
  71
0
 10
4243.28
 20
4529.01
 30
0.000000
  1
MAX
  0
TEXT
  8
3
  40
90
  5
7FA3
  62
0
  72
0
  71
0
 10
4243.28
 20
4412.01
 30
0.000000
  1
550
  0
POINT
  5
7F8A
  8
DEFPOINTS
  6
CONTINUOUS
 62
     0
 10
4204.7128595819277
 20
3741.0137262398598
 30
0.0
  0
POINT
  5
7F8B
  8
DEFPOINTS
  6
CONTINUOUS
 62
     0
 10
4684.7128595819277
 20
4505.33696623986
 30
0.0
  0
POINT
  5
7F8C
  8
DEFPOINTS
  6
CONTINUOUS
 62
     0
 10
4684.7128595819277
 20
4538.3137252398601
 30
0.0
  0
ENDBLK
  5
7D95
  8
0
  0
BLOCK
  8
0
  2
*D17
 70
     1
 10
0.0
 20
0.0
 30
0.0
  3
*D17
  1

  0
LINE
  5
7D76
  8
0
  6
BYBLOCK
 62
     0
 10
4684.7128595819277
 20
4520.33696623986
 30
0.0
 11
4684.7128595819277
 21
4568.6548732398596
 31
0.0
  0
LINE
  5
7D77
  8
0
  6
BYBLOCK
 62
     0
 10
5004.7128595819277
 20
3921.0137262398598
 30
0.0
 11
5004.7128595819277
 21
4568.6548732398596
 31
0.0
  0
LINE
  5
7D78
  8
0
  6
BYBLOCK
 62
     0
 10
4744.7128595819286
 20
4538.6548732398587
 30
0.0
 11
4944.7128595819286
 21
4538.6548732398587
 31
0.0
  0
TEXT
  5
7D79
  8
3
 62
     0
 10
4732.3776924592794
 20
4580.2762550125481
 30
0.0
 40
90.0
  1
320
  0
INSERT
  5
7D7A
  8
0
  6
BYBLOCK
 62
     0
  2
_OPEN
 10
4684.7128595819277
 20
4538.6548732398587
 30
0.0
 41
60.0
 42
60.0
 43
60.0
 50
180.0
  0
INSERT
  5
7D7B
  8
0
  6
BYBLOCK
 62
     0
  2
_OPEN
 10
5004.7128595819277
 20
4538.6548732398587
 30
0.0
 41
60.0
 42
60.0
 43
60.0
  0
POINT
  5
7D7C
  8
DEFPOINTS
  6
BYBLOCK
 62
     0
 10
4684.7128595819277
 20
4505.33696623986
 30
0.0
  0
POINT
  5
7D7D
  8
DEFPOINTS
  6
BYBLOCK
 62
     0
 10
5004.7128595819277
 20
3906.0137262398598
 30
0.0
  0
POINT
  5
7D7E
  8
DEFPOINTS
  6
BYBLOCK
 62
     0
 10
5004.7128595819277
 20
4538.6548732398587
 30
0.0
  0
ENDBLK
  5
7D7F
  8
0
  0
BLOCK
  8
0
  2
*D18
 70
     1
 10
0.0
 20
0.0
 30
0.0
  3
*D18
  1

  0
LINE
  5
7F8D
  8
3
 62
     0
 10
1975.4248760000009
 20
4301.0137262398603
 30
0.0
 11
1975.4248760000009
 21
4593.5707064067428
 31
0.0
  0
LINE
  5
7F8E
  8
3
 62
     0
 10
3435.4248759999991
 20
3161.0137262398598
 30
0.0
 11
3435.4248759999991
 21
4593.5707064067428
 31
0.0
  0
LINE
  5
7F8F
  8
3
 62
     0
 10
2035.4248760000009
 20
4563.5707064067428
 30
0.0
 11
3375.4248759999982
 21
4563.5707064067428
 31
0.0
  0
INSERT
  5
7F90
  8
3
 62
     0
  2
_OPEN
 10
1975.4248760000009
 20
4563.5707064067428
 30
0.0
 41
60.0
 42
60.0
 43
60.0
 50
180.0
  0
INSERT
  5
7F91
  8
3
 62
     0
  2
_OPEN
 10
3435.4248759999991
 20
4563.5707064067428
 30
0.0
 41
60.0
 42
60.0
 43
60.0
  0
TEXT
  8
3
  40
90
  5
7FA4
  62
0
  72
0
  71
0
 10
2568.37
 20
4479.27
 30
0.000000
  1
1460
  0
POINT
  5
7F93
  8
DEFPOINTS
 62
     0
 10
1975.4248760000009
 20
4286.0137262398603
 30
0.0
  0
POINT
  5
7F94
  8
DEFPOINTS
 62
     0
 10
3435.4248759999991
 20
3146.0137262398598
 30
0.0
  0
POINT
  5
7F95
  8
DEFPOINTS
 62
     0
 10
3435.4248759999991
 20
4563.5707064067428
 30
0.0
  0
ENDBLK
  5
7D26
  8
0
  0
ENDSEC
  0
SECTION
  2
ENTITIES
  0
LINE
  5
7A6D
  8
1
  6
CONTINUOUS
 10
2035.4248760000009
 20
3026.0137262398598
 30
0.0
 11
3435.4248759999991
 21
3026.0137262398598
 31
0.0
  0
LINE
  5
7A6E
  8
1
  6
CONTINUOUS
 10
2035.4248760000009
 20
2926.0137262398598
 30
0.0
 11
3435.4248759999991
 21
2926.0137262398598
 31
0.0
  0
LINE
  5
7A6F
  8
1
  6
CONTINUOUS
 10
2035.4248760000009
 20
3046.0137262398598
 30
0.0
 11
3435.4248759999991
 21
3046.0137262398598
 31
0.0
  0
ARC
  5
7A70
  8
1
  6
CONTINUOUS
 10
2388.4248760000009
 20
3598.0137262398612
 30
0.0
 40
596.89999999999998
 50
0.0
 51
85.5
  0
ARC
  5
7A71
  8
1
  6
CONTINUOUS
 10
2482.4248760000009
 20
3598.0137262398612
 30
0.0
 40
502.89999999999992
 50
264.0
 51
0.0
  0
LINE
  5
7A72
  8
1
  6
CONTINUOUS
 10
2035.4248760000009
 20
3146.0137262398598
 30
0.0
 11
3435.4248759999991
 21
3146.0137262398598
 31
0.0
  0
LINE
  5
7A73
  8
1
  6
CONTINUOUS
 10
1975.4248760000009
 20
5946.6484407385651
 30
0.0
 11
2985.3248760000001
 21
5946.6484407385651
 31
0.0
  0
LINE
  5
7A74
  8
1
  6
CONTINUOUS
 10
1975.4248760000009
 20
5471.6484407385651
 30
0.0
 11
2985.3248760000001
 21
5471.6484407385651
 31
0.0
  0
LINE
  5
7A75
  8
1
  6
CONTINUOUS
 10
2245.424876
 20
5229.1484407385651
 30
0.0
 11
3460.4248759999991
 21
5229.1484407385651
 31
0.0
  0
LINE
  5
7A76
  8
1
  6
CONTINUOUS
 10
2245.424876
 20
5389.148440738566
 30
0.0
 11
3460.4248759999991
 21
5389.148440738566
 31
0.0
  0
LINE
  5
7A77
  8
1
  6
CONTINUOUS
 10
2750.4248760000009
 20
5999.1484407385651
 30
0.0
 11
3435.4248759999991
 21
5999.1484407385651
 31
0.0
  0
LINE
  5
7A78
  8
1
  6
CONTINUOUS
 10
2525.4248760000009
 20
5309.1484407385651
 30
0.0
 11
3190.4248760000009
 21
5309.1484407385651
 31
0.0
  0
LINE
  5
7A79
  8
1
  6
CONTINUOUS
 10
3280.6248759999999
 20
3390.1137262398602
 30
0.0
 11
2461.4248760000009
 21
3637.2137262398601
 31
0.0
  0
LINE
  5
7A7A
  8
1
  6
CONTINUOUS
 10
3309.524875999999
 20
3485.8137262398591
 30
0.0
 11
2490.3248760000001
 21
3732.913726239859
 31
0.0
  0
LINE
  5
7A7B
  8
1
  6
CONTINUOUS
 10
3243.3248760000001
 20
3255.2137262398601
 30
0.0
 11
2413.524875999999
 21
3463.8137262398591
 31
0.0
  0
LINE
  5
7A7C
  8
1
  6
CONTINUOUS
 10
3219.024875999999
 20
3158.2137262398601
 30
0.0
 11
2389.1248759999989
 21
3366.8137262398591
 31
0.0
  0
LINE
  5
7A7D
  8
1
  6
CONTINUOUS
 10
2062.524875999999
 20
3579.0137262398598
 30
0.0
 11
1975.4248760000009
 21
3579.0137262398598
 31
0.0
  0
LINE
  5
7A7E
  8
1
  6
CONTINUOUS
 10
1975.4248760000009
 20
4229.0137262398603
 30
0.0
 11
2435.4248760000009
 21
4193.0137262398603
 31
0.0
  0
ARC
  5
7A7F
  8
1
  6
CONTINUOUS
 10
2473.4248760000009
 20
3513.0137262398598
 30
0.0
 40
417.39999999999992
 50
180.0
 51
264.0
  0
LINE
  5
7A80
  8
1
  6
CONTINUOUS
 10
1975.4248760000009
 20
3537.0137262398598
 30
0.0
 11
1975.4248760000009
 21
4271.0137262398603
 31
0.0
  0
LINE
  5
7A81
  8
1
  6
CONTINUOUS
 10
2015.424876
 20
3579.0137262398598
 30
0.0
 11
2015.424876
 21
4229.0137262398603
 31
0.0
  0
CIRCLE
  5
7A82
  8
1
  6
CONTINUOUS
 10
2435.4248760000009
 20
3551.0137262398598
 30
0.0
 40
315.0
  0
CIRCLE
  5
7A83
  8
1
  6
CONTINUOUS
 10
2435.4248760000009
 20
3551.0137262398598
 30
0.0
 40
355.0
  0
CIRCLE
  5
7A84
  8
1
  6
CONTINUOUS
 10
2435.4248760000009
 20
3551.0137262398598
 30
0.0
 40
90.0
  0
ARC
  5
7A85
  8
1
  6
CONTINUOUS
 10
2435.4248760000009
 20
3551.0137262398598
 30
0.0
 40
190.0
 50
73.200000000000003
 51
255.90000000000001
  0
LINE
  5
7A86
  8
2
  6
CENTER
 10
5074.8792465819288
 20
3551.0137262398598
 30
0.0
 11
4110.8430245819291
 21
3551.0137262398598
 31
0.0
  0
LINE
  5
7A87
  8
1
  6
CONTINUOUS
 10
2035.4248760000009
 20
3026.0137262398598
 30
0.0
 11
2035.4248760000009
 21
2926.0137262398598
 31
0.0
  0
LINE
  5
7A88
  8
1
  6
CONTINUOUS
 10
2035.4248760000009
 20
3146.0137262398598
 30
0.0
 11
2035.4248760000009
 21
3046.0137262398598
 31
0.0
  0
ARC
  5
7A89
  8
1
  6
CONTINUOUS
 10
2397.424876
 20
3513.0137262398598
 30
0.0
 40
341.39999999999992
 50
168.90000000000001
 51
180.0
  0
LINE
  5
7A8A
  8
2
  6
CENTER
 10
2435.4248760000009
 20
2853.1025452398599
 30
0.0
 11
2435.4248760000009
 21
4235.8845272398603
 31
0.0
  0
LINE
  5
7A8B
  8
1
  6
CONTINUOUS
 10
1975.4248760000009
 20
5431.6484407385651
 30
0.0
 11
1975.4248760000009
 21
5986.648440738566
 31
0.0
  0
LINE
  5
7A8C
  8
1
  6
CONTINUOUS
 10
2525.4248760000009
 20
5269.1484407385651
 30
0.0
 11
2345.424876
 21
5269.1484407385651
 31
0.0
  0
LINE
  5
7A8D
  8
1
  6
CONTINUOUS
 10
2525.4248760000009
 20
5349.148440738566
 30
0.0
 11
2345.424876
 21
5349.148440738566
 31
0.0
  0
LINE
  5
7A8E
  8
1
  6
CONTINUOUS
 10
2080.4248760000009
 20
6029.1484407385651
 30
0.0
 11
2790.4248760000009
 21
6029.1484407385651
 31
0.0
  0
LINE
  5
7A8F
  8
1
  6
CONTINUOUS
 10
2015.424876
 20
5471.6484407385651
 30
0.0
 11
2015.424876
 21
5946.6484407385651
 31
0.0
  0
LINE
  5
7A90
  8
1
  6
CONTINUOUS
 10
2035.4248760000009
 20
5309.1484407385651
 30
0.0
 11
2345.424876
 21
5309.1484407385651
 31
0.0
  0
LINE
  5
7A91
  8
1
  6
CONTINUOUS
 10
2035.4248760000009
 20
5471.6484407385651
 30
0.0
 11
2035.4248760000009
 21
5309.1484407385651
 31
0.0
  0
LINE
  5
7A92
  8
1
  6
CONTINUOUS
 10
2245.424876
 20
5229.1484407385651
 30
0.0
 11
2245.424876
 21
5389.148440738566
 31
0.0
  0
LINE
  5
7A93
  8
1
  6
CONTINUOUS
 10
2345.424876
 20
5269.1484407385651
 30
0.0
 11
2345.424876
 21
5349.148440738566
 31
0.0
  0
LINE
  5
7A94
  8
1
  6
CONTINUOUS
 10
2416.4248760000009
 20
5349.148440738566
 30
0.0
 11
2416.4248760000009
 21
5471.6484407385651
 31
0.0
  0
LINE
  5
7A95
  8
1
  6
CONTINUOUS
 10
2035.4248760000009
 20
5999.1484407385651
 30
0.0
 11
2035.4248760000009
 21
5946.6484407385651
 31
0.0
  0
LINE
  5
7A96
  8
1
  6
CONTINUOUS
 10
2035.4248760000009
 20
5999.1484407385651
 30
0.0
 11
2120.424876
 21
5999.1484407385651
 31
0.0
  0
LINE
  5
7A97
  8
1
  6
CONTINUOUS
 10
2120.424876
 20
6029.1484407385651
 30
0.0
 11
2120.424876
 21
5946.6484407385651
 31
0.0
  0
LINE
  5
7A98
  8
1
  6
CONTINUOUS
 10
2525.4248760000009
 20
5269.1484407385651
 30
0.0
 11
2525.4248760000009
 21
5349.148440738566
 31
0.0
  0
LINE
  5
7A99
  8
1
  6
CONTINUOUS
 10
2454.424876
 20
5349.148440738566
 30
0.0
 11
2454.424876
 21
5471.6484407385651
 31
0.0
  0
LINE
  5
7A9A
  8
1
  6
CONTINUOUS
 10
2750.4248760000009
 20
6029.1484407385651
 30
0.0
 11
2750.4248760000009
 21
5946.6484407385651
 31
0.0
  0
ARC
  5
7A9B
  8
1
  6
CONTINUOUS
 10
3260.4248760000009
 20
3323.0137262398598
 30
0.0
 40
142.0
 50
324.60000000000002
 51
215.39999999999989
  0
LINE
  5
7A9C
  8
1
  6
CONTINUOUS
 10
3095.424876
 20
3191.0137262398598
 30
0.0
 11
3425.4248759999991
 21
3191.0137262398598
 31
0.0
  0
ARC
  5
7A9D
  8
1
  6
CONTINUOUS
 10
3260.4248760000009
 20
3323.0137262398598
 30
0.0
 40
170.0
 50
255.90000000000001
 51
73.200000000000003
  0
CIRCLE
  5
7A9E
  8
1
  6
CONTINUOUS
 10
3260.4248760000009
 20
3323.0137262398598
 30
0.0
 40
70.0
  0
LINE
  5
7A9F
  8
2
  6
CENTER
 10
3260.4248760000009
 20
3253.0137262398598
 30
0.0
 11
3260.4248760000009
 21
3393.0137262398598
 31
0.0
  0
LINE
  5
7AA0
  8
1
  6
CONTINUOUS
 10
3130.4248760000009
 20
3206.0137262398598
 30
0.0
 11
3144.7248760000002
 21
3240.8137262398591
 31
0.0
  0
LINE
  5
7AA1
  8
1
  6
CONTINUOUS
 10
3130.4248760000009
 20
3191.0137262398598
 30
0.0
 11
3130.4248760000009
 21
3206.0137262398598
 31
0.0
  0
LINE
  5
7AA2
  8
1
  6
CONTINUOUS
 10
3085.4248760000009
 20
3146.0137262398598
 30
0.0
 11
3095.424876
 21
3191.0137262398598
 31
0.0
  0
LINE
  5
7AA3
  8
2
  6
CENTER
 10
3330.424876
 20
3323.0137262398598
 30
0.0
 11
3190.4248760000009
 21
3323.0137262398598
 31
0.0
  0
LINE
  5
7AA4
  8
1
  6
CONTINUOUS
 10
3435.4248759999991
 20
3026.0137262398598
 30
0.0
 11
3435.4248759999991
 21
2926.0137262398598
 31
0.0
  0
LINE
  5
7AA5
  8
1
  6
CONTINUOUS
 10
3435.4248759999991
 20
3146.0137262398598
 30
0.0
 11
3435.4248759999991
 21
3046.0137262398598
 31
0.0
  0
LINE
  5
7AA6
  8
1
  6
CONTINUOUS
 10
3390.4248759999991
 20
3206.0137262398598
 30
0.0
 11
3376.1248759999999
 21
3240.8137262398591
 31
0.0
  0
LINE
  5
7AA7
  8
1
  6
CONTINUOUS
 10
3390.4248759999991
 20
3191.0137262398598
 30
0.0
 11
3390.4248759999991
 21
3206.0137262398598
 31
0.0
  0
LINE
  5
7AA8
  8
1
  6
CONTINUOUS
 10
3425.4248759999991
 20
3191.0137262398598
 30
0.0
 11
3435.4248759999991
 21
3146.0137262398598
 31
0.0
  0
LINE
  5
7AA9
  8
1
  6
CONTINUOUS
 10
3402.4248759999991
 20
5441.7484407385664
 30
0.0
 11
3118.4248760000009
 21
5441.7484407385664
 31
0.0
  0
LINE
  5
7AAA
  8
1
  6
CONTINUOUS
 10
3402.4248759999991
 20
5841.7484407385664
 30
0.0
 11
3118.4248760000009
 21
5841.7484407385664
 31
0.0
  0
LINE
  5
7AAB
  8
1
  6
CONTINUOUS
 10
3330.424876
 20
5309.1484407385651
 30
0.0
 11
3435.4248759999991
 21
5309.1484407385651
 31
0.0
  0
LINE
  5
7AAC
  8
1
  6
CONTINUOUS
 10
3118.4248760000009
 20
5441.7484407385664
 30
0.0
 11
3118.4248760000009
 21
5841.7484407385664
 31
0.0
  0
LINE
  5
7AAD
  8
1
  6
CONTINUOUS
 10
2985.3248760000001
 20
5471.6484407385651
 30
0.0
 11
2985.3248760000001
 21
5946.6484407385651
 31
0.0
  0
LINE
  5
7AAE
  8
1
  6
CONTINUOUS
 10
3279.4248760000009
 20
5349.148440738566
 30
0.0
 11
3279.4248760000009
 21
5441.7484407385664
 31
0.0
  0
LINE
  5
7AAF
  8
1
  6
CONTINUOUS
 10
3241.424876
 20
5349.148440738566
 30
0.0
 11
3241.424876
 21
5441.7484407385664
 31
0.0
  0
LINE
  5
7AB0
  8
1
  6
CONTINUOUS
 10
3330.424876
 20
5349.148440738566
 30
0.0
 11
3190.4248760000009
 21
5349.148440738566
 31
0.0
  0
LINE
  5
7AB1
  8
1
  6
CONTINUOUS
 10
3330.424876
 20
5269.1484407385651
 30
0.0
 11
3190.4248760000009
 21
5269.1484407385651
 31
0.0
  0
LINE
  5
7AB2
  8
1
  6
CONTINUOUS
 10
3330.424876
 20
5269.1484407385651
 30
0.0
 11
3330.424876
 21
5349.148440738566
 31
0.0
  0
LINE
  5
7AB3
  8
1
  6
CONTINUOUS
 10
3190.4248760000009
 20
5269.1484407385651
 30
0.0
 11
3190.4248760000009
 21
5349.148440738566
 31
0.0
  0
LINE
  5
7AB4
  8
1
  6
CONTINUOUS
 10
3402.4248759999991
 20
5441.7484407385664
 30
0.0
 11
3402.4248759999991
 21
5841.7484407385664
 31
0.0
  0
LINE
  5
7AB5
  8
1
  6
CONTINUOUS
 10
3435.4248759999991
 20
5999.1484407385651
 30
0.0
 11
3435.4248759999991
 21
5309.1484407385651
 31
0.0
  0
LINE
  5
7AB6
  8
1
  6
CONTINUOUS
 10
3460.4248759999991
 20
5229.1484407385651
 30
0.0
 11
3460.4248759999991
 21
5389.148440738566
 31
0.0
  0
LINE
  5
7AB7
  8
1
  6
CONTINUOUS
 10
4447.2128595819277
 20
3579.0137262398598
 30
0.0
 11
4922.2128595819286
 21
4229.0137262398603
 31
0.0
  0
LINE
  5
7AB8
  8
1
  6
CONTINUOUS
 10
4447.2128595819277
 20
4229.0137262398603
 30
0.0
 11
4922.2128595819286
 21
3579.0137262398598
 31
0.0
  0
LINE
  5
7AB9
  8
1
  6
CONTINUOUS
 10
4447.2128595819277
 20
3579.0137262398598
 30
0.0
 11
4922.2128595819286
 21
3579.0137262398598
 31
0.0
  0
LINE
  5
7ABA
  8
1
  6
CONTINUOUS
 10
4447.2128595819277
 20
4229.0137262398603
 30
0.0
 11
4922.2128595819286
 21
4229.0137262398603
 31
0.0
  0
LINE
  5
7ABB
  8
1
  6
CONTINUOUS
 10
4974.7128595819277
 20
3046.0137262398598
 30
0.0
 11
4284.7128595819286
 21
3046.0137262398598
 31
0.0
  0
LINE
  5
7ABC
  8
1
  6
CONTINUOUS
 10
4974.7128595819277
 20
3146.0137262398598
 30
0.0
 11
4284.7128595819286
 21
3146.0137262398598
 31
0.0
  0
LINE
  5
7ABD
  8
1
  6
CONTINUOUS
 10
4974.7128595819277
 20
2926.0137262398598
 30
0.0
 11
4284.7128595819286
 21
2926.0137262398598
 31
0.0
  0
LINE
  5
7ABE
  8
1
  6
CONTINUOUS
 10
4974.7128595819277
 20
3026.0137262398598
 30
0.0
 11
4284.7128595819286
 21
3026.0137262398598
 31
0.0
  0
LINE
  5
7ABF
  8
1
  6
CONTINUOUS
 10
4447.2128595819277
 20
4229.0137262398603
 30
0.0
 11
4447.2128595819277
 21
3146.0137262398598
 31
0.0
  0
LINE
  5
7AC0
  8
1
  6
CONTINUOUS
 10
4244.7128595819286
 20
3253.0137262398598
 30
0.0
 11
4324.7128595819277
 21
3253.0137262398598
 31
0.0
  0
LINE
  5
7AC1
  8
1
  6
CONTINUOUS
 10
4244.7128595819286
 20
3393.0137262398598
 30
0.0
 11
4324.7128595819277
 21
3393.0137262398598
 31
0.0
  0
LINE
  5
7AC2
  8
1
  6
CONTINUOUS
 10
4244.7128595819286
 20
3461.0137262398598
 30
0.0
 11
4324.7128595819277
 21
3461.0137262398598
 31
0.0
  0
LINE
  5
7AC3
  8
1
  6
CONTINUOUS
 10
4244.7128595819286
 20
3641.0137262398598
 30
0.0
 11
4324.7128595819277
 21
3641.0137262398598
 31
0.0
  0
LINE
  5
7AC4
  8
1
  6
CONTINUOUS
 10
4204.7128595819277
 20
3741.0137262398598
 30
0.0
 11
4364.7128595819286
 21
3741.0137262398598
 31
0.0
  0
LINE
  5
7AC5
  8
1
  6
CONTINUOUS
 10
4204.7128595819277
 20
3153.0137262398598
 30
0.0
 11
4364.7128595819286
 21
3153.0137262398598
 31
0.0
  0
LINE
  5
7AC6
  8
1
  6
CONTINUOUS
 10
4244.7128595819286
 20
3393.0137262398598
 30
0.0
 11
4244.7128595819286
 21
3253.0137262398598
 31
0.0
  0
LINE
  5
7AC7
  8
1
  6
CONTINUOUS
 10
4204.7128595819277
 20
3741.0137262398598
 30
0.0
 11
4204.7128595819277
 21
3153.0137262398598
 31
0.0
  0
LINE
  5
7AC8
  8
1
  6
CONTINUOUS
 10
4244.7128595819286
 20
3641.0137262398598
 30
0.0
 11
4244.7128595819286
 21
3461.0137262398598
 31
0.0
  0
LINE
  5
7AC9
  8
1
  6
CONTINUOUS
 10
4324.7128595819277
 20
3393.0137262398598
 30
0.0
 11
4324.7128595819277
 21
3253.0137262398598
 31
0.0
  0
LINE
  5
7ACA
  8
1
  6
CONTINUOUS
 10
4364.7128595819286
 20
3741.0137262398598
 30
0.0
 11
4364.7128595819286
 21
3153.0137262398598
 31
0.0
  0
LINE
  5
7ACB
  8
1
  6
CONTINUOUS
 10
4447.2128595819277
 20
3342.0137262398598
 30
0.0
 11
4324.7128595819277
 21
3342.0137262398598
 31
0.0
  0
LINE
  5
7ACC
  8
1
  6
CONTINUOUS
 10
4447.2128595819277
 20
3304.0137262398598
 30
0.0
 11
4324.7128595819277
 21
3304.0137262398598
 31
0.0
  0
LINE
  5
7ACD
  8
1
  6
CONTINUOUS
 10
4284.7128595819286
 20
3146.0137262398598
 30
0.0
 11
4284.7128595819286
 21
3046.0137262398598
 31
0.0
  0
LINE
  5
7ACE
  8
1
  6
CONTINUOUS
 10
4284.7128595819286
 20
3026.0137262398598
 30
0.0
 11
4284.7128595819286
 21
2926.0137262398598
 31
0.0
  0
POINT
  5
7ACF
  8
1
  6
CONTINUOUS
 10
4284.7128595819286
 20
3046.0137262398598
 30
0.0
  0
POINT
  5
7AD0
  8
1
  6
CONTINUOUS
 10
4284.7128595819286
 20
3026.0137262398598
 30
0.0
  0
LINE
  5
7AD1
  8
1
  6
CONTINUOUS
 10
4447.2128595819277
 20
3532.0137262398598
 30
0.0
 11
4324.7128595819277
 21
3532.0137262398598
 31
0.0
  0
LINE
  5
7AD2
  8
1
  6
CONTINUOUS
 10
4447.2128595819277
 20
3570.0137262398598
 30
0.0
 11
4324.7128595819277
 21
3570.0137262398598
 31
0.0
  0
LINE
  5
7AD3
  8
1
  6
CONTINUOUS
 10
4324.7128595819277
 20
3641.0137262398598
 30
0.0
 11
4324.7128595819277
 21
3461.0137262398598
 31
0.0
  0
LINE
  5
7AD4
  8
1
  6
CONTINUOUS
 10
4922.2128595819286
 20
4229.0137262398603
 30
0.0
 11
4922.2128595819286
 21
3146.0137262398598
 31
0.0
  0
LINE
  5
7AD5
  8
1
  6
CONTINUOUS
 10
5004.7128595819277
 20
3906.0137262398598
 30
0.0
 11
5004.7128595819277
 21
3196.0137262398598
 31
0.0
  0
LINE
  5
7AD6
  8
1
  6
CONTINUOUS
 10
4922.2128595819286
 20
3236.0137262398598
 30
0.0
 11
5004.7128595819277
 21
3236.0137262398598
 31
0.0
  0
LINE
  5
7AD7
  8
1
  6
CONTINUOUS
 10
4974.7128595819277
 20
3146.0137262398598
 30
0.0
 11
4974.7128595819277
 21
3046.0137262398598
 31
0.0
  0
LINE
  5
7AD8
  8
1
  6
CONTINUOUS
 10
4974.7128595819277
 20
3026.0137262398598
 30
0.0
 11
4974.7128595819277
 21
2926.0137262398598
 31
0.0
  0
LINE
  5
7AD9
  8
1
  6
CONTINUOUS
 10
4922.2128595819286
 20
3866.0137262398598
 30
0.0
 11
5004.7128595819277
 21
3866.0137262398598
 31
0.0
  0
DIMENSION
  5
7AEF
  8
3
  6
CONTINUOUS
  2
*D1
 10
2435.4248760000009
 20
2688.4685032398588
 30
0.0
 11
2235.4248760000009
 21
2765.2944588768728
 31
0.0
 70
   128
 13
2035.4248760000009
 23
2926.0137262398598
 33
0.0
 14
2435.4248760000009
 24
2853.1025452398599
 34
0.0
1001
ACAD
1000
DSTYLE
1002
{
1070
   288
1070
     1
1070
   172
1070
     1
1070
    40
1040
30.0
1070
   271
1070
     0
1070
   143
1040
0.039
1002
}
  0
DIMENSION
  5
7AFB
  8
3
  6
CONTINUOUS
  2
*D2
 10
3435.4248759999991
 20
2688.4685032398588
 30
0.0
 11
2935.424876
 21
2763.4685032398588
 31
0.0
 70
     0
 13
2435.4248760000009
 23
2853.1025452398599
 33
0.0
 14
3435.4248759999991
 24
2926.0137262398598
 34
0.0
1001
ACAD
1000
DSTYLE
1002
{
1070
   287
1070
     3
1070
   287
1070
     3
1070
    40
1040
30.0
1070
   143
1040
0.039
1070
   172
1070
     1
1070
   271
1070
     0
1070
   279
1070
     0
1070
   288
1070
     1
1002
}
  0
DIMENSION
  5
7B08
  8
3
  6
CONTINUOUS
  2
*D3
 10
1771.2018399999999
 20
3579.0137262398598
 30
0.0
 11
1771.201839999999
 21
3929.15829423986
 31
0.0
 70
   128
 13
1975.4248760000009
 23
4229.0137262398603
 33
0.0
 14
1975.4248760000009
 24
3579.0137262398598
 34
0.0
 50
90.0
1001
ACAD
1000
DSTYLE
1002
{
1070
   287
1070
     3
1070
   287
1070
     3
1070
    40
1040
30.0
1070
   143
1040
0.039
1070
   172
1070
     1
1070
   271
1070
     0
1070
   279
1070
     0
1070
   288
1070
     1
1002
}
  0
DIMENSION
  5
7B15
  8
3
  6
CONTINUOUS
  2
*D4
 10
1577.642317
 20
3551.0137262398598
 30
0.0
 11
1577.642317
 21
3913.8070062398592
 31
0.0
 70
   128
 13
1975.4248760000009
 23
4229.0137262398603
 33
0.0
 14
2058.1462889999998
 24
3551.0137262398598
 34
0.0
 50
90.0
1001
ACAD
1000
DSTYLE
1002
{
1070
   287
1070
     3
1070
   287
1070
     3
1070
    40
1040
30.0
1070
   143
1040
0.039
1070
   172
1070
     1
1070
   271
1070
     0
1070
   279
1070
     0
1070
   288
1070
     1
1002
}
  0
DIMENSION
  5
7B21
  8
3
  6
CONTINUOUS
  2
*D5
 10
1577.642317
 20
3046.0137262398598
 30
0.0
 11
1502.6423169999989
 21
3298.5137262398598
 31
0.0
 70
     0
 13
2058.1462889999998
 23
3551.0137262398598
 33
0.0
 14
2035.4248760000009
 24
3046.0137262398598
 34
0.0
 50
90.0
1001
ACAD
1000
DSTYLE
1002
{
1070
   287
1070
     3
1070
   287
1070
     3
1070
    40
1040
30.0
1070
   143
1040
0.039
1070
   172
1070
     1
1070
   271
1070
     0
1070
   279
1070
     0
1070
   288
1070
     1
1002
}
  0
DIMENSION
  5
7B31
  8
3
  6
CONTINUOUS
  2
*D6
 10
1577.337888
 20
2926.0137262398598
 30
0.0
 11
1577.337888
 21
2668.8708690970029
 31
0.0
 70
   128
 13
2035.4248760000009
 23
3046.0137262398598
 33
0.0
 14
2035.4248760000009
 24
2926.0137262398598
 34
0.0
 50
90.0
1001
ACAD
1000
DSTYLE
1002
{
1070
   287
1070
     3
1070
   287
1070
     3
1070
    40
1040
30.0
1070
   143
1040
0.039
1070
   172
1070
     1
1070
   271
1070
     0
1070
   279
1070
     0
1070
   288
1070
     1
1002
}
  0
DIMENSION
  5
7B58
  8
3
  6
CONTINUOUS
  2
*D7
 10
1386.850738000001
 20
2926.0137262398598
 30
0.0
 11
1386.850738000001
 21
3542.305724239859
 31
0.0
 70
   128
 13
1975.4248760000009
 23
4271.0137262398603
 33
0.0
 14
2035.4248760000009
 24
2926.0137262398598
 34
0.0
 50
90.0
1001
ACAD
1000
DSTYLE
1002
{
1070
   287
1070
     3
1070
   287
1070
     3
1070
    40
1040
30.0
1070
   143
1040
0.039
1070
   172
1070
     1
1070
   271
1070
     0
1070
   279
1070
     0
1070
   288
1070
     1
1002
}
  0
DIMENSION
  5
7B67
  8
3
  6
CONTINUOUS
  2
*D8
 10
2435.4248760000009
 20
4381.0969862398588
 30
0.0
 11
2181.1391617142858
 21
4381.0969862398588
 31
0.0
 70
   128
 13
1975.4248760000009
 23
4271.0137262398603
 33
0.0
 14
2435.4248760000009
 24
4193.0137262398603
 34
0.0
1001
ACAD
1000
DSTYLE
1002
{
1070
   287
1070
     3
1070
   287
1070
     3
1070
    40
1040
30.0
1070
   143
1040
0.039
1070
   172
1070
     1
1070
   271
1070
     0
1070
   279
1070
     0
1070
   288
1070
     1
1002
}
  0
DIMENSION
  5
7B73
  8
3
  6
CONTINUOUS
  2
*D9
 10
2983.1237980000001
 20
4381.0969862398588
 30
0.0
 11
2709.2743369999998
 21
4456.0969862398597
 31
0.0
 70
     0
 13
2435.4248760000009
 23
4193.0137262398603
 33
0.0
 14
2983.1237980000001
 24
3551.0137262398598
 34
0.0
1001
ACAD
1000
DSTYLE
1002
{
1070
   287
1070
     3
1070
   287
1070
     3
1070
    40
1040
30.0
1070
   143
1040
0.039
1070
   172
1070
     1
1070
   271
1070
     0
1070
   279
1070
     0
1070
   288
1070
     1
1002
}
  0
DIMENSION
  5
7B80
  8
3
  6
CONTINUOUS
  2
*D10
 10
3435.4248759999991
 20
4984.6140837385656
 30
0.0
 11
2729.477871999999
 21
4984.6140837385656
 31
0.0
 70
   128
 13
2035.4248760000009
 23
5309.1484407385651
 33
0.0
 14
3435.4248759999991
 24
5309.1484407385651
 34
0.0
1001
ACAD
1000
DSTYLE
1002
{
1070
   287
1070
     3
1070
   287
1070
     3
1070
    40
1040
30.0
1070
   143
1040
0.039
1070
   172
1070
     1
1070
   271
1070
     0
1070
   279
1070
     0
1070
   288
1070
     1
1002
}
  0
DIMENSION
  5
7B8D
  8
3
  6
CONTINUOUS
  2
*D11
 10
3737.8250850000009
 20
5309.1484407385651
 30
0.0
 11
3737.8250849999999
 21
5637.6574937385658
 31
0.0
 70
   128
 13
3435.4248759999991
 23
5999.1484407385651
 33
0.0
 14
3435.4248759999991
 24
5309.1484407385651
 34
0.0
 50
90.0
1001
ACAD
1000
DSTYLE
1002
{
1070
   287
1070
     3
1070
   287
1070
     3
1070
    40
1040
30.0
1070
   143
1040
0.039
1070
   172
1070
     1
1070
   271
1070
     0
1070
   279
1070
     0
1070
   288
1070
     1
1002
}
  0
LINE
  5
7B8E
  8
2
  6
CENTER
 10
3025.2657299999992
 20
5709.1484407385651
 30
0.0
 11
1817.591791999999
 21
5709.1484407385651
 31
0.0
  0
LINE
  5
7B8F
  8
2
  6
CENTER
 10
2435.4248760000009
 20
5162.395109738567
 30
0.0
 11
2435.4248760000009
 21
6115.8449017385647
 31
0.0
  0
LINE
  5
7B90
  8
2
  6
CENTER
 10
4684.7128595819277
 20
4329.51953123986
 30
0.0
 11
4684.7128595819277
 21
2820.5122682398601
 31
0.0
  0
DIMENSION
  5
7B9F
  8
3
  6
CONTINUOUS
  2
*D12
 10
4684.7128595819277
 20
2722.2640362398602
 30
0.0
 11
4484.7128595819277
 21
2800.5547793818291
 31
0.0
 70
   128
 13
4284.7128595819286
 23
2926.0137262398598
 33
0.0
 14
4684.7128595819277
 24
2820.5122682398601
 34
0.0
1001
ACAD
1000
DSTYLE
1002
{
1070
   288
1070
     1
1070
   172
1070
     1
1070
    40
1040
30.0
1070
   271
1070
     0
1070
   143
1040
0.039
1002
}
  0
DIMENSION
  5
7BAD
  8
3
  6
CONTINUOUS
  2
*D13
 10
4974.7128595819277
 20
2722.2640362398602
 30
0.0
 11
4830.4472538450864
 21
2809.3698472302021
 31
0.0
 70
   128
 13
4684.7128595819277
 23
2820.5122682398601
 33
0.0
 14
4974.7128595819277
 24
2926.0137262398598
 34
0.0
1001
ACAD
1000
DSTYLE
1002
{
1070
   288
1070
     1
1070
   172
1070
     1
1070
    40
1040
30.0
1070
   271
1070
     0
1070
   143
1040
0.039
1002
}
  0
DIMENSION
  5
7BDC
  8
3
  6
CONTINUOUS
  2
*D14
 10
5199.6808025819291
 20
3236.0137262398589
 30
0.0
 11
5199.6808025819282
 21
3606.299440525574
 31
0.0
 70
   128
 13
5004.7128595819277
 23
3866.0137262398598
 33
0.0
 14
5004.7128595819277
 24
3236.0137262398598
 34
0.0
 50
90.0
1001
ACAD
1000
DSTYLE
1002
{
1070
   287
1070
     3
1070
   287
1070
     3
1070
     3
1000
φ<>
1070
    40
1040
30.0
1070
   143
1040
0.039
1070
   172
1070
     1
1070
   271
1070
     0
1070
   279
1070
     0
1070
   288
1070
     1
1002
}
  0
DIMENSION
  5
7BEB
  8
3
  6
CONTINUOUS
  2
*D15
 10
4922.2128595819286
 20
4319.7146942398595
 30
0.0
 11
4684.7128595819277
 21
4319.7146942398595
 31
0.0
 70
   128
 13
4447.2128595819277
 23
4229.0137262398603
 33
0.0
 14
4922.2128595819286
 24
4229.0137262398603
 34
0.0
1001
ACAD
1000
DSTYLE
1002
{
1070
   287
1070
     3
1070
   287
1070
     3
1070
    40
1040
30.0
1070
   143
1040
0.039
1070
   172
1070
     1
1070
   271
1070
     0
1070
   279
1070
     0
1070
   288
1070
     1
1002
}
  0
DIMENSION
  5
7BF8
  8
3
  6
CONTINUOUS
  2
*D16
 10
4684.7128595819277
 20
4538.3137252398601
 30
0.0
 11
4423.2842881533561
 21
4538.3137252398601
 31
0.0
 70
   128
  1
MAX\P550
 13
4204.7128595819277
 23
3741.0137262398598
 33
0.0
 14
4684.7128595819277
 24
4505.33696623986
 34
0.0
1001
ACAD
1000
DSTYLE
1002
{
1070
   287
1070
     3
1070
   287
1070
     3
1070
    40
1040
30.0
1070
   143
1040
0.039
1070
   172
1070
     1
1070
   271
1070
     0
1070
   279
1070
     0
1070
   288
1070
     1
1002
}
  0
DIMENSION
  5
7C06
  8
3
  6
CONTINUOUS
  2
*D17
 10
5004.7128595819277
 20
4538.6548732398587
 30
0.0
 11
4848.0919781735647
 21
4625.2762550125481
 31
0.0
 70
   128
 13
4684.7128595819277
 23
4505.33696623986
 33
0.0
 14
5004.7128595819277
 24
3906.0137262398598
 34
0.0
1001
ACAD
1000
DSTYLE
1002
{
1070
   288
1070
     1
1070
   172
1070
     1
1070
    40
1040
30.0
1070
   271
1070
     0
1070
   143
1040
0.039
1002
}
  0
LINE
  5
7C07
  8
2
  6
CENTER
 10
3250.8609629999992
 20
3551.0137262398598
 30
0.0
 11
2022.825709
 21
3551.0137262398598
 31
0.0
  0
LINE
  5
7C08
  8
4
  6
CONTINUOUS
 10
5550.0
 20
1500.0
 30
0.0
 11
5550.0
 21
900.0
 31
0.0
  0
LINE
  5
7C09
  8
4
  6
CONTINUOUS
 10
3450.0
 20
1500.0
 30
0.0
 11
3450.0
 21
900.0
 31
0.0
  0
LINE
  5
7C0A
  8
4
  6
CONTINUOUS
 10
1950.0
 20
1500.0
 30
0.0
 11
1950.0
 21
900.0
 31
0.0
  0
LINE
  5
7C0D
  8
4
  6
CONTINUOUS
 10
1950.0
 20
900.0
 30
0.0
 11
5550.0
 21
900.0
 31
0.0
  0
LINE
  5
7C0E
  8
4
  6
CONTINUOUS
 10
1950.0
 20
1200.0
 30
0.0
 11
5550.0
 21
1200.0
 31
0.0
  0
TEXT
  5
7C0F
  8
4
  6
CONTINUOUS
 10
2065.50624225
 20
1294.6290779999999
 30
0.0
 40
150.0
  1
機器名称
  0
TEXT
  5
7C10
  8
4
  6
CONTINUOUS
 10
2058.7743179999989
 20
964.93547024999998
 30
0.0
 40
150.0
  1
機器型番
  0
TEXT
  5
7C11
  8
4
  6
CONTINUOUS
 10
3533.0362365000001
 20
1267.715306249999
 30
0.0
 40
120.0
  1
ミツヤリミットロードファン
  0
TEXT
  5
7C12
  8
4
  6
CONTINUOUS
 10
3559.9634872500001
 20
951.4787527499999
 30
0.0
 40
150.0
  1
LLE#4-4
  0
TEXT
  5
7C14
  8
4
  6
CONTINUOUS
 10
2193.4105005000001
 20
7150.2865245000012
 30
0.0
 40
162.0
  1
床置防振ベット
  0
TEXT
  5
7C15
  8
4
  6
CONTINUOUS
 10
948.50278049999986
 20
7601.6429287499996
 30
0.0
 40
171.42857175
  1
ベルト駆動式片吸込両持排煙ファン
  0
LINE
  5
7C16
  8
4
  6
CONTINUOUS
 10
750.0
 20
7408.2262627500004
 30
0.0
 11
5550.0
 21
7408.2262627500004
 31
0.0
  0
LINE
  5
7C17
  8
4
  6
CONTINUOUS
 10
750.0
 20
8008.2262627500004
 30
0.0
 11
5550.0
 21
8008.2262627500004
 31
0.0
  0
LINE
  5
7C18
  8
4
  6
CONTINUOUS
 10
1950.0
 20
1500.0
 30
0.0
 11
5550.0
 21
1500.0
 31
0.0
  0
LINE
  5
7C19
  8
4
  6
CONTINUOUS
 10
750.0
 20
8008.2262627500004
 30
0.0
 11
750.0
 21
7408.2262627500004
 31
0.0
  0
TEXT
  5
7C1A
  8
4
  6
CONTINUOUS
 10
885.83400375000008
 20
7146.9584324999987
 30
0.0
 40
162.0
  1
左回転左横向
  0
TEXT
  5
7C1B
  8
4
  6
CONTINUOUS
 10
4406.9086777499988
 20
8118.1832445
 30
0.0
 40
168.0
  1
No.
  0
TEXT
  5
7C1C
  8
4
  6
CONTINUOUS
 10
3933.8881875000002
 20
7150.2865245000012
 30
0.0
 40
162.0
  1
縮尺：1/30
  0
LINE
  5
7C1D
  8
4
  6
CONTINUOUS
 10
5550.0
 20
8008.2262627500004
 30
0.0
 11
5550.0
 21
7408.2262627500004
 31
0.0
  0
LINE
  5
7C1F
  8
4
  6
CONTINUOUS
 10
4321.8522667500001
 20
8043.79074975
 30
0.0
 11
4321.8522667500001
 21
8359.9567845000001
 31
0.0
  0
LINE
  5
7C20
  8
4
  6
CONTINUOUS
 10
4321.8522667500001
 20
8359.9567845000001
 30
0.0
 11
5550.0
 21
8359.9567845000001
 31
0.0
  0
LINE
  5
7C21
  8
4
  6
CONTINUOUS
 10
5550.0
 20
8359.9567845000001
 30
0.0
 11
5550.0
 21
8043.79074975
 31
0.0
  0
LINE
  5
7C22
  8
4
  6
CONTINUOUS
 10
5550.0
 20
8043.79074975
 30
0.0
 11
4321.8522667500001
 21
8043.79074975
 31
0.0
  0
DIMENSION
  5
7D27
  8
3
  2
*D18
 10
3435.4248759999991
 20
4563.5707064067428
 30
0.0
 11
2748.3702897287649
 21
4563.5707064067428
 31
0.0
 70
   128
 13
1975.4248760000009
 23
4286.0137262398603
 33
0.0
 14
3435.4248759999991
 24
3146.0137262398598
 34
0.0
1001
ACAD
1000
DSTYLE
1002
{
1070
   287
1070
     3
1070
   287
1070
     3
1070
    40
1040
30.0
1070
   143
1040
0.039
1070
   172
1070
     1
1070
   271
1070
     0
1070
   279
1070
     0
1070
   288
1070
     1
1002
}
  0
ENDSEC
  0
EOF
