  0
SECTION
  2
HEADER
  9
$ACADVER
  1
AC1009
  9
$INSBASE
 10
0.0
 20
0.0
 30
0.0
  9
$EXTMIN
 10
750.0
 20
900.0
 30
0.0
  9
$EXTMAX
 10
5550.0
 20
8359.9567845000001
 30
0.0
  9
$LIMMIN
 10
0.0
 20
0.0
  9
$LIMMAX
 10
297.0
 20
210.0
  9
$ORTHOMODE
 70
     0
  9
$REGENMODE
 70
     1
  9
$FILLMODE
 70
     0
  9
$QTEXTMODE
 70
     0
  9
$MIRRTEXT
 70
     1
  9
$DRAGMODE
 70
     2
  9
$LTSCALE
 40
100.0
  9
$OSMODE
 70
    37
  9
$ATTMODE
 70
     1
  9
$TEXTSIZE
 40
180.0
  9
$TRACEWID
 40
0.05
  9
$TEXTSTYLE
  7
STANDARD
  9
$CLAYER
  8
3
  9
$CELTYPE
  6
BYLAYER
  9
$CECOLOR
 62
   256
  9
$DIMSCALE
 40
30.0
  9
$DIMASZ
 40
2.0
  9
$DIMEXO
 40
0.5
  9
$DIMDLI
 40
10.0
  9
$DIMRND
 40
0.0
  9
$DIMDLE
 40
0.0
  9
$DIMEXE
 40
1.0
  9
$DIMTP
 40
1.0
  9
$DIMTM
 40
1.0
  9
$DIMTXT
 40
3.0
  9
$DIMCEN
 40
0.0
  9
$DIMTSZ
 40
0.0
  9
$DIMTOL
 70
     0
  9
$DIMLIM
 70
     0
  9
$DIMTIH
 70
     0
  9
$DIMTOH
 70
     0
  9
$DIMSE1
 70
     0
  9
$DIMSE2
 70
     0
  9
$DIMTAD
 70
     1
  9
$DIMZIN
 70
     8
  9
$DIMBLK
  1

  9
$DIMASO
 70
     1
  9
$DIMSHO
 70
     1
  9
$DIMPOST
  1

  9
$DIMAPOST
  1

  9
$DIMALT
 70
     0
  9
$DIMALTD
 70
     2
  9
$DIMALTF
 40
0.039
  9
$DIMLFAC
 40
1.0
  9
$DIMTOFL
 70
     1
  9
$DIMTVP
 40
0.0
  9
$DIMTIX
 70
     0
  9
$DIMSOXD
 70
     0
  9
$DIMSAH
 70
     1
  9
$DIMBLK1
  1
OPEN
  9
$DIMBLK2
  1
OPEN
  9
$DIMSTYLE
  2
IGA
  9
$DIMCLRD
 70
     0
  9
$DIMCLRE
 70
     0
  9
$DIMCLRT
 70
     0
  9
$DIMTFAC
 40
10.0
  9
$DIMGAP
 40
1.0
  9
$LUNITS
 70
     2
  9
$LUPREC
 70
     3
  9
$SKETCHINC
 40
0.1
  9
$FILLETRAD
 40
50.0
  9
$AUNITS
 70
     0
  9
$AUPREC
 70
     0
  9
$MENU
  1
acad
  9
$ELEVATION
 40
0.0
  9
$PELEVATION
 40
0.0
  9
$THICKNESS
 40
0.0
  9
$LIMCHECK
 70
     0
  9
$BLIPMODE
 70
     0
  9
$CHAMFERA
 40
0.5
  9
$CHAMFERB
 40
0.5
  9
$SKPOLY
 70
     0
  9
$TDCREATE
 40
2450754.6571339122
  9
$TDUPDATE
 40
2454953.6831948031
  9
$TDINDWG
 40
0.0040114468
  9
$TDUSRTIMER
 40
0.0040114468
  9
$USRTIMER
 70
     1
  9
$ANGBASE
 50
0.0
  9
$ANGDIR
 70
     0
  9
$PDMODE
 70
     0
  9
$PDSIZE
 40
0.0
  9
$PLINEWID
 40
0.0
  9
$COORDS
 70
     1
  9
$SPLFRAME
 70
     0
  9
$SPLINETYPE
 70
     6
  9
$SPLINESEGS
 70
     8
  9
$ATTDIA
 70
     0
  9
$ATTREQ
 70
     1
  9
$HANDLING
 70
 10241
  9
$HANDSEED
  5
7FBE
  9
$SURFTAB1
 70
     6
  9
$SURFTAB2
 70
     6
  9
$SURFTYPE
 70
     6
  9
$SURFU
 70
     6
  9
$SURFV
 70
     6
  9
$UCSNAME
  2

  9
$UCSORG
 10
0.0
 20
0.0
 30
0.0
  9
$UCSXDIR
 10
1.0
 20
0.0
 30
0.0
  9
$UCSYDIR
 10
0.0
 20
1.0
 30
0.0
  9
$PUCSNAME
  2

  9
$PUCSORG
 10
0.0
 20
0.0
 30
0.0
  9
$PUCSXDIR
 10
1.0
 20
0.0
 30
0.0
  9
$PUCSYDIR
 10
0.0
 20
1.0
 30
0.0
  9
$USERI1
 70
     0
  9
$USERI2
 70
     0
  9
$USERI3
 70
     0
  9
$USERI4
 70
     0
  9
$USERI5
 70
     0
  9
$USERR1
 40
0.0
  9
$USERR2
 40
0.0
  9
$USERR3
 40
0.0
  9
$USERR4
 40
0.0
  9
$USERR5
 40
0.0
  9
$WORLDVIEW
 70
     1
  9
$SHADEDGE
 70
     3
  9
$SHADEDIF
 70
    70
  9
$TILEMODE
 70
     1
  9
$MAXACTVP
 70
    16
  9
$PLIMCHECK
 70
     0
  9
$PEXTMIN
 10
1.0000000000000000E+020
 20
1.0000000000000000E+020
 30
1.0000000000000000E+020
  9
$PEXTMAX
 10
-1.0000000000000000E+020
 20
-1.0000000000000000E+020
 30
-1.0000000000000000E+020
  9
$PLIMMIN
 10
0.0
 20
0.0
  9
$PLIMMAX
 10
12.0
 20
9.0
  9
$UNITMODE
 70
     0
  9
$VISRETAIN
 70
     0
  9
$PLINEGEN
 70
     0
  9
$PSLTSCALE
 70
     1
  0
ENDSEC
  0
SECTION
  2
TABLES
  0
TABLE
  2
VPORT
 70
     2
  0
VPORT
  2
*ACTIVE
 70
     0
 10
0.0
 20
0.0
 11
1.0
 21
1.0
 12
17711.5594486234
 22
3865.6542289485369
 13
0.0
 23
0.0
 14
10.0
 24
10.0
 15
10.0
 25
10.0
 16
0.0
 26
0.0
 36
1.0
 17
0.0
 27
0.0
 37
0.0
 40
12487.78046219329
 41
3.1666666666666661
 42
50.0
 43
0.0
 44
0.0
 50
0.0
 51
0.0
 71
     0
 72
   100
 73
     1
 74
     0
 75
     0
 76
     0
 77
     0
 78
     0
  0
ENDTAB
  0
TABLE
  2
LTYPE
 70
     2
  0
LTYPE
  2
CONTINUOUS
 70
     0
  3
Solid line
 72
    65
 73
     0
 40
0.0
  0
LTYPE
  2
CENTER
 70
     0
  3
____ _ ____ _ ____ _ ____ _ ____ _ ____ _ ____ 
 72
    65
 73
     4
 40
2.0
 49
1.25
 49
-0.25
 49
0.25
 49
-0.25
  0
ENDTAB
  0
TABLE
  2
LAYER
 70
     6
  0
LAYER
  2
0
 70
     0
 62
     7
  6
CONTINUOUS
  0
LAYER
  2
3
 70
     0
 62
     2
  6
CONTINUOUS
  0
LAYER
  2
2
 70
     0
 62
     3
  6
CENTER
  0
LAYER
  2
1
 70
     0
 62
     4
  6
CONTINUOUS
  0
LAYER
  2
4
 70
     0
 62
     7
  6
CONTINUOUS
  0
LAYER
  2
DEFPOINTS
 70
     0
 62
     7
  6
CONTINUOUS
  0
ENDTAB
  0
TABLE
  2
STYLE
 70
     1
  0
STYLE
  2
STANDARD
 70
     0
 40
0.0
 41
1.0
 50
0.0
 71
     0
 42
180.0
  3
simplex.shx
  4
extfont.shx
  0
ENDTAB
  0
TABLE
  2
VIEW
 70
     0
  0
ENDTAB
  0
TABLE
  2
UCS
 70
     0
  0
ENDTAB
  0
TABLE
  2
APPID
 70
     1
  0
APPID
  2
ACAD
 70
     0
  0
ENDTAB
  0
TABLE
  2
DIMSTYLE
 70
     1
  0
DIMSTYLE
  2
IGA
 70
     0
  3

  4

  5

  6
OPEN
  7
OPEN
 40
2.0
 41
2.0
 42
0.5
 43
10.0
 44
1.0
 45
0.0
 46
0.0
 47
1.0
 48
1.0
140
3.0
141
0.0
142
0.0
143
0.03937
144
1.0
145
0.0
146
10.0
147
1.0
 71
     0
 72
     0
 73
     0
 74
     0
 75
     0
 76
     0
 77
     1
 78
     8
170
     0
171
     2
172
     0
173
     1
174
     0
175
     0
176
     0
177
     0
178
     0
  0
ENDTAB
  0
ENDSEC
  0
SECTION
  2
BLOCKS
  0
BLOCK
  8
0
  2
$MODEL_SPACE
 70
     0
 10
0.0
 20
0.0
 30
0.0
  3
$MODEL_SPACE
  1

  0
ENDBLK
  5
1B
  8
0
  0
BLOCK
 67
     1
  8
0
  2
$PAPER_SPACE
 70
     0
 10
0.0
 20
0.0
 30
0.0
  3
$PAPER_SPACE
  1

  0
ENDBLK
  5
18
 67
     1
  8
0
  0
BLOCK
  8
0
  2
_OPEN
 70
     0
 10
0.0
 20
0.0
 30
0.0
  3
_OPEN
  1

  0
LINE
  5
7AE9
  8
0
  6
BYBLOCK
 62
     0
 10
-1.0
 20
0.166667
 30
0.0
 11
0.0
 21
0.0
 31
0.0
  0
LINE
  5
7AEA
  8
0
  6
BYBLOCK
 62
     0
 10
0.0
 20
0.0
 30
0.0
 11
-1.0
 21
-0.166667
 31
0.0
  0
LINE
  5
7AEB
  8
0
  6
BYBLOCK
 62
     0
 10
0.0
 20
0.0
 30
0.0
 11
-1.0
 21
0.0
 31
0.0
  0
ENDBLK
  5
7AEC
  8
0
  0
BLOCK
  8
0
  2
*D1
 70
     1
 10
0.0
 20
0.0
 30
0.0
  3
*D1
  1

  0
LINE
  5
7F31
  8
3
  6
CONTINUOUS
 62
     0
 10
2004.579542396162
 20
5593.176001346812
 30
0.0
 11
2004.579542396162
 21
5181.7909943468121
 31
0.0
  0
LINE
  5
7F32
  8
3
  6
CONTINUOUS
 62
     0
 10
3404.5795423961631
 20
5593.176001346812
 30
0.0
 11
3404.5795423961631
 21
5181.7909943468121
 31
0.0
  0
LINE
  5
7F33
  8
3
  6
CONTINUOUS
 62
     0
 10
2064.5795423961622
 20
5211.7909943468112
 30
0.0
 11
3344.5795423961631
 21
5211.7909943468112
 31
0.0
  0
INSERT
  5
7F34
  8
3
  6
CONTINUOUS
 62
     0
  2
_OPEN
 10
2004.579542396162
 20
5211.7909943468112
 30
0.0
 41
60.0
 42
60.0
 43
60.0
 50
180.0
  0
INSERT
  5
7F35
  8
3
  6
CONTINUOUS
 62
     0
  2
_OPEN
 10
3404.5795423961631
 20
5211.7909943468112
 30
0.0
 41
60.0
 42
60.0
 43
60.0
  0
TEXT
  8
3
  40
90
  5
7FAF
  62
0
  72
0
  71
0
 10
2439.70
 20
5127.49
 30
0.000000
  1
1400
  0
POINT
  5
7F37
  8
DEFPOINTS
  6
CONTINUOUS
 62
     0
 10
2004.579542396162
 20
5608.176001346812
 30
0.0
  0
POINT
  5
7F38
  8
DEFPOINTS
  6
CONTINUOUS
 62
     0
 10
3404.5795423961631
 20
5608.176001346812
 30
0.0
  0
POINT
  5
7F39
  8
DEFPOINTS
  6
CONTINUOUS
 62
     0
 10
3404.5795423961631
 20
5211.7909943468112
 30
0.0
  0
ENDBLK
  5
7DA1
  8
0
  0
BLOCK
  8
0
  2
*D2
 70
     1
 10
0.0
 20
0.0
 30
0.0
  3
*D2
  1

  0
LINE
  5
7F3A
  8
3
  6
CONTINUOUS
 62
     0
 10
3419.5795423961622
 20
6298.176001346812
 30
0.0
 11
3765.4732273961622
 21
6298.176001346812
 31
0.0
  0
LINE
  5
7F3B
  8
3
  6
CONTINUOUS
 62
     0
 10
3419.5795423961622
 20
5608.176001346812
 30
0.0
 11
3765.4732273961622
 21
5608.176001346812
 31
0.0
  0
LINE
  5
7F3C
  8
3
  6
CONTINUOUS
 62
     0
 10
3735.4732273961631
 20
6238.176001346812
 30
0.0
 11
3735.4732273961631
 21
5668.176001346812
 31
0.0
  0
INSERT
  5
7F3D
  8
3
  6
CONTINUOUS
 62
     0
  2
_OPEN
 10
3735.4732273961631
 20
6298.176001346812
 30
0.0
 41
60.0
 42
60.0
 43
60.0
 50
90.0
  0
INSERT
  5
7F3E
  8
3
  6
CONTINUOUS
 62
     0
  2
_OPEN
 10
3735.4732273961631
 20
5608.176001346812
 30
0.0
 41
60.0
 42
60.0
 43
60.0
 50
270.0
  0
TEXT
  8
3
  40
90
  5
7FB0
  62
0
  72
0
  71
0
 10
3480.47
 20
5808.96
 30
0.000000
  1
690
  0
POINT
  5
7F40
  8
DEFPOINTS
  6
CONTINUOUS
 62
     0
 10
3404.5795423961631
 20
6298.176001346812
 30
0.0
  0
POINT
  5
7F41
  8
DEFPOINTS
  6
CONTINUOUS
 62
     0
 10
3404.5795423961631
 20
5608.176001346812
 30
0.0
  0
POINT
  5
7F42
  8
DEFPOINTS
  6
CONTINUOUS
 62
     0
 10
3735.4732273961631
 20
5608.176001346812
 30
0.0
  0
ENDBLK
  5
7D96
  8
0
  0
BLOCK
  8
0
  2
*D3
 70
     1
 10
0.0
 20
0.0
 30
0.0
  3
*D3
  1

  0
LINE
  5
7DCF
  8
0
  6
BYBLOCK
 62
     0
 10
2510.082613
 20
2881.0760013468112
 30
0.0
 11
2510.082613
 21
2583.1205383468109
 31
0.0
  0
LINE
  5
7DD0
  8
0
  6
BYBLOCK
 62
     0
 10
2910.082613
 20
2751.2905273468118
 30
0.0
 11
2910.082613
 21
2583.1205383468109
 31
0.0
  0
LINE
  5
7DD1
  8
0
  6
BYBLOCK
 62
     0
 10
2570.082613
 20
2613.1205383468109
 30
0.0
 11
2850.0826130000009
 21
2613.1205383468109
 31
0.0
  0
TEXT
  5
7DD2
  8
3
 62
     0
 10
2594.3683272857138
 20
2642.4530894392619
 30
0.0
 40
90.0
  1
400
  0
INSERT
  5
7DD3
  8
0
  6
BYBLOCK
 62
     0
  2
_OPEN
 10
2510.082613
 20
2613.1205383468109
 30
0.0
 41
60.0
 42
60.0
 43
60.0
 50
180.0
  0
INSERT
  5
7DD4
  8
0
  6
BYBLOCK
 62
     0
  2
_OPEN
 10
2910.082613
 20
2613.1205383468109
 30
0.0
 41
60.0
 42
60.0
 43
60.0
  0
POINT
  5
7DD5
  8
DEFPOINTS
  6
BYBLOCK
 62
     0
 10
2510.082613
 20
2896.0760013468112
 30
0.0
  0
POINT
  5
7DD6
  8
DEFPOINTS
  6
BYBLOCK
 62
     0
 10
2910.082613
 20
2766.2905273468118
 30
0.0
  0
POINT
  5
7DD7
  8
DEFPOINTS
  6
BYBLOCK
 62
     0
 10
2910.082613
 20
2613.1205383468109
 30
0.0
  0
ENDBLK
  5
7DD8
  8
0
  0
BLOCK
  8
0
  2
*D4
 70
     1
 10
0.0
 20
0.0
 30
0.0
  3
*D4
  1

  0
LINE
  5
7F43
  8
3
  6
CONTINUOUS
 62
     0
 10
2404.5795423961631
 20
2751.2905273468118
 30
0.0
 11
2404.5795423961631
 21
2583.1205383468109
 31
0.0
  0
LINE
  5
7F44
  8
3
  6
CONTINUOUS
 62
     0
 10
3404.5795423961631
 20
2881.0760013468112
 30
0.0
 11
3404.5795423961631
 21
2583.1205383468109
 31
0.0
  0
LINE
  5
7F45
  8
3
  6
CONTINUOUS
 62
     0
 10
2464.5795423961622
 20
2613.1205383468109
 30
0.0
 11
3344.5795423961631
 21
2613.1205383468109
 31
0.0
  0
INSERT
  5
7F46
  8
3
  6
CONTINUOUS
 62
     0
  2
_OPEN
 10
2404.5795423961631
 20
2613.1205383468109
 30
0.0
 41
60.0
 42
60.0
 43
60.0
 50
180.0
  0
INSERT
  5
7F47
  8
3
  6
CONTINUOUS
 62
     0
  2
_OPEN
 10
3404.5795423961631
 20
2613.1205383468109
 30
0.0
 41
60.0
 42
60.0
 43
60.0
  0
TEXT
  8
3
  40
90
  5
7FB1
  62
0
  72
0
  71
0
 10
2724.58
 20
2528.82
 30
0.000000
  1
1000
  0
POINT
  5
7F49
  8
DEFPOINTS
  6
CONTINUOUS
 62
     0
 10
2404.5795423961631
 20
2766.2905273468118
 30
0.0
  0
POINT
  5
7F4A
  8
DEFPOINTS
  6
CONTINUOUS
 62
     0
 10
3404.5795423961631
 20
2896.0760013468112
 30
0.0
  0
POINT
  5
7F4B
  8
DEFPOINTS
  6
CONTINUOUS
 62
     0
 10
3404.5795423961631
 20
2613.1205383468109
 30
0.0
  0
ENDBLK
  5
7D7E
  8
0
  0
BLOCK
  8
0
  2
*D5
 70
     1
 10
0.0
 20
0.0
 30
0.0
  3
*D5
  1

  0
LINE
  5
7F4C
  8
3
  6
CONTINUOUS
 62
     0
 10
1929.5795423961631
 20
3668.0760013468112
 30
0.0
 11
1704.910345396162
 21
3668.0760013468112
 31
0.0
  0
LINE
  5
7F4D
  8
3
  6
CONTINUOUS
 62
     0
 10
1929.5795423961631
 20
3018.0760013468112
 30
0.0
 11
1704.910345396162
 21
3018.0760013468112
 31
0.0
  0
LINE
  5
7F4E
  8
3
  6
CONTINUOUS
 62
     0
 10
1734.910345396162
 20
3608.0760013468112
 30
0.0
 11
1734.910345396162
 21
3078.0760013468112
 31
0.0
  0
INSERT
  5
7F4F
  8
3
  6
CONTINUOUS
 62
     0
  2
_OPEN
 10
1734.910345396162
 20
3668.0760013468112
 30
0.0
 41
60.0
 42
60.0
 43
60.0
 50
90.0
  0
INSERT
  5
7F50
  8
3
  6
CONTINUOUS
 62
     0
  2
_OPEN
 10
1734.910345396162
 20
3018.0760013468112
 30
0.0
 41
60.0
 42
60.0
 43
60.0
 50
270.0
  0
TEXT
  8
3
  40
90
  5
7FB2
  62
0
  72
0
  71
0
 10
1479.91
 20
3268.78
 30
0.000000
  1
650
  0
POINT
  5
7F52
  8
DEFPOINTS
  6
CONTINUOUS
 62
     0
 10
1944.579542396162
 20
3668.0760013468112
 30
0.0
  0
POINT
  5
7F53
  8
DEFPOINTS
  6
CONTINUOUS
 62
     0
 10
1944.579542396162
 20
3018.0760013468112
 30
0.0
  0
POINT
  5
7F54
  8
DEFPOINTS
  6
CONTINUOUS
 62
     0
 10
1734.910345396162
 20
3018.0760013468112
 30
0.0
  0
ENDBLK
  5
7D73
  8
0
  0
BLOCK
  8
0
  2
*D6
 70
     1
 10
0.0
 20
0.0
 30
0.0
  3
*D6
  1

  0
LINE
  5
7F55
  8
3
  6
CONTINUOUS
 62
     0
 10
1929.5795423961631
 20
3018.0760013468112
 30
0.0
 11
1455.6721963961629
 21
3018.0760013468112
 31
0.0
  0
LINE
  5
7F56
  8
3
  6
CONTINUOUS
 62
     0
 10
2012.3009543961609
 20
3696.0760013468121
 30
0.0
 11
1455.6721963961629
 21
3696.0760013468121
 31
0.0
  0
LINE
  5
7F57
  8
3
  6
CONTINUOUS
 62
     0
 10
1485.6721963961629
 20
3078.0760013468112
 30
0.0
 11
1485.6721963961629
 21
3636.0760013468112
 31
0.0
  0
INSERT
  5
7F58
  8
3
  6
CONTINUOUS
 62
     0
  2
_OPEN
 10
1485.6721963961629
 20
3018.0760013468112
 30
0.0
 41
60.0
 42
60.0
 43
60.0
 50
270.0
  0
INSERT
  5
7F59
  8
3
  6
CONTINUOUS
 62
     0
  2
_OPEN
 10
1485.6721963961629
 20
3696.0760013468121
 30
0.0
 41
60.0
 42
60.0
 43
60.0
 50
90.0
  0
TEXT
  8
3
  40
90
  5
7FB3
  62
0
  72
0
  71
0
 10
1230.67
 20
3244.46
 30
0.000000
  1
678
  0
POINT
  5
7F5B
  8
DEFPOINTS
  6
CONTINUOUS
 62
     0
 10
1944.579542396162
 20
3018.0760013468112
 30
0.0
  0
POINT
  5
7F5C
  8
DEFPOINTS
  6
CONTINUOUS
 62
     0
 10
2027.3009543961609
 20
3696.0760013468121
 30
0.0
  0
POINT
  5
7F5D
  8
DEFPOINTS
  6
CONTINUOUS
 62
     0
 10
1485.6721963961629
 20
3696.0760013468121
 30
0.0
  0
ENDBLK
  5
7D68
  8
0
  0
BLOCK
  8
0
  2
*D7
 70
     1
 10
0.0
 20
0.0
 30
0.0
  3
*D7
  1

  0
LINE
  5
7F5E
  8
3
  6
CONTINUOUS
 62
     0
 10
2389.5795423961622
 20
4149.7749233468112
 30
0.0
 11
1296.2756923961631
 21
4149.7749233468121
 31
0.0
  0
LINE
  5
7F5F
  8
3
  6
CONTINUOUS
 62
     0
 10
2012.3009543961609
 20
3696.0760013468121
 30
0.0
 11
1296.2756923961631
 21
3696.0760013468121
 31
0.0
  0
LINE
  5
7F60
  8
3
  6
CONTINUOUS
 62
     0
 10
1326.2756923961631
 20
4089.7749233468112
 30
0.0
 11
1326.2756923961631
 21
3756.0760013468121
 31
0.0
  0
INSERT
  5
7F61
  8
3
  6
CONTINUOUS
 62
     0
  2
_OPEN
 10
1326.2756923961631
 20
4149.7749233468121
 30
0.0
 41
60.0
 42
60.0
 43
60.0
 50
90.0
  0
INSERT
  5
7F62
  8
3
  6
CONTINUOUS
 62
     0
  2
_OPEN
 10
1326.2756923961631
 20
3696.0760013468121
 30
0.0
 41
60.0
 42
60.0
 43
60.0
 50
270.0
  0
TEXT
  8
3
  40
90
  5
7FB4
  62
0
  72
0
  71
0
 10
1071.28
 20
3782.62
 30
0.000000
  1
454
  0
POINT
  5
7F64
  8
DEFPOINTS
  6
CONTINUOUS
 62
     0
 10
2404.5795423961631
 20
4149.7749233468112
 30
0.0
  0
POINT
  5
7F65
  8
DEFPOINTS
  6
CONTINUOUS
 62
     0
 10
2027.3009543961609
 20
3696.0760013468121
 30
0.0
  0
POINT
  5
7F66
  8
DEFPOINTS
  6
CONTINUOUS
 62
     0
 10
1326.2756923961631
 20
3696.0760013468121
 30
0.0
  0
ENDBLK
  5
7D5D
  8
0
  0
BLOCK
  8
0
  2
*D8
 70
     1
 10
0.0
 20
0.0
 30
0.0
  3
*D8
  1

  0
LINE
  5
7F67
  8
3
  6
CONTINUOUS
 62
     0
 10
2012.3009543961609
 20
3696.0760013468121
 30
0.0
 11
1296.275692396162
 21
3696.0760013468121
 31
0.0
  0
LINE
  5
7F68
  8
3
  6
CONTINUOUS
 62
     0
 10
1989.579542396162
 20
2896.0760013468112
 30
0.0
 11
1296.275692396162
 21
2896.0760013468112
 31
0.0
  0
LINE
  5
7F69
  8
3
  6
CONTINUOUS
 62
     0
 10
1326.275692396162
 20
3636.0760013468112
 30
0.0
 11
1326.275692396162
 21
2956.0760013468112
 31
0.0
  0
INSERT
  5
7F6A
  8
3
  6
CONTINUOUS
 62
     0
  2
_OPEN
 10
1326.275692396162
 20
3696.0760013468121
 30
0.0
 41
60.0
 42
60.0
 43
60.0
 50
90.0
  0
INSERT
  5
7F6B
  8
3
  6
CONTINUOUS
 62
     0
  2
_OPEN
 10
1326.275692396162
 20
2896.0760013468112
 30
0.0
 41
60.0
 42
60.0
 43
60.0
 50
270.0
  0
TEXT
  8
3
  40
90
  5
7FB5
  62
0
  72
0
  71
0
 10
1071.28
 20
3136.78
 30
0.000000
  1
800
  0
POINT
  5
7F6D
  8
DEFPOINTS
  6
CONTINUOUS
 62
     0
 10
2027.3009543961609
 20
3696.0760013468121
 30
0.0
  0
POINT
  5
7F6E
  8
DEFPOINTS
  6
CONTINUOUS
 62
     0
 10
2004.579542396162
 20
2896.0760013468112
 30
0.0
  0
POINT
  5
7F6F
  8
DEFPOINTS
  6
CONTINUOUS
 62
     0
 10
1326.275692396162
 20
2896.0760013468112
 30
0.0
  0
ENDBLK
  5
7D52
  8
0
  0
BLOCK
  8
0
  2
*D9
 70
     1
 10
0.0
 20
0.0
 30
0.0
  3
*D9
  1

  0
LINE
  5
7F70
  8
3
  6
CONTINUOUS
 62
     0
 10
2389.5795423961622
 20
4149.7749233468112
 30
0.0
 11
1089.9350633961619
 21
4149.7749233468121
 31
0.0
  0
LINE
  5
7F71
  8
3
  6
CONTINUOUS
 62
     0
 10
1989.579542396162
 20
2896.0760013468112
 30
0.0
 11
1089.9350633961619
 21
2896.0760013468112
 31
0.0
  0
LINE
  5
7F72
  8
3
  6
CONTINUOUS
 62
     0
 10
1119.9350633961619
 20
4089.7749233468112
 30
0.0
 11
1119.9350633961619
 21
2956.0760013468112
 31
0.0
  0
INSERT
  5
7F73
  8
3
  6
CONTINUOUS
 62
     0
  2
_OPEN
 10
1119.9350633961619
 20
4149.7749233468121
 30
0.0
 41
60.0
 42
60.0
 43
60.0
 50
90.0
  0
INSERT
  5
7F74
  8
3
  6
CONTINUOUS
 62
     0
  2
_OPEN
 10
1119.9350633961619
 20
2896.0760013468112
 30
0.0
 41
60.0
 42
60.0
 43
60.0
 50
270.0
  0
TEXT
  8
3
  40
90
  5
7FB6
  62
0
  72
0
  71
0
 10
864.935
 20
3467.75
 30
0.000000
  1
1254
  0
POINT
  5
7F76
  8
DEFPOINTS
  6
CONTINUOUS
 62
     0
 10
2404.5795423961631
 20
4149.7749233468112
 30
0.0
  0
POINT
  5
7F77
  8
DEFPOINTS
  6
CONTINUOUS
 62
     0
 10
2004.579542396162
 20
2896.0760013468112
 30
0.0
  0
POINT
  5
7F78
  8
DEFPOINTS
  6
CONTINUOUS
 62
     0
 10
1119.9350633961619
 20
2896.0760013468112
 30
0.0
  0
ENDBLK
  5
7D47
  8
0
  0
BLOCK
  8
0
  2
*D10
 70
     1
 10
0.0
 20
0.0
 30
0.0
  3
*D10
  1

  0
LINE
  5
7F79
  8
3
  6
CONTINUOUS
 62
     0
 10
1944.579542396162
 20
3725.0760013468121
 30
0.0
 11
1944.579542396162
 21
4315.0478033468116
 31
0.0
  0
LINE
  5
7F7A
  8
3
  6
CONTINUOUS
 62
     0
 10
2404.5795423961631
 20
4164.7749233468103
 30
0.0
 11
2404.5795423961631
 21
4315.0478033468116
 31
0.0
  0
LINE
  5
7F7B
  8
3
  6
CONTINUOUS
 62
     0
 10
2004.579542396162
 20
4285.0478033468107
 30
0.0
 11
2344.5795423961622
 21
4285.0478033468107
 31
0.0
  0
INSERT
  5
7F7C
  8
3
  6
CONTINUOUS
 62
     0
  2
_OPEN
 10
1944.579542396162
 20
4285.0478033468107
 30
0.0
 41
60.0
 42
60.0
 43
60.0
 50
180.0
  0
INSERT
  5
7F7D
  8
3
  6
CONTINUOUS
 62
     0
  2
_OPEN
 10
2404.5795423961631
 20
4285.0478033468107
 30
0.0
 41
60.0
 42
60.0
 43
60.0
  0
TEXT
  8
3
  40
90
  5
7FB7
  62
0
  72
0
  71
0
 10
1970.29
 20
4200.75
 30
0.000000
  1
460
  0
POINT
  5
7F7F
  8
DEFPOINTS
  6
CONTINUOUS
 62
     0
 10
1944.579542396162
 20
3710.0760013468112
 30
0.0
  0
POINT
  5
7F80
  8
DEFPOINTS
  6
CONTINUOUS
 62
     0
 10
2404.5795423961631
 20
4149.7749233468112
 30
0.0
  0
POINT
  5
7F81
  8
DEFPOINTS
  6
CONTINUOUS
 62
     0
 10
2404.5795423961631
 20
4285.0478033468107
 30
0.0
  0
ENDBLK
  5
7D3C
  8
0
  0
BLOCK
  8
0
  2
*D11
 70
     1
 10
0.0
 20
0.0
 30
0.0
  3
*D11
  1

  0
LINE
  5
7F82
  8
3
  6
CONTINUOUS
 62
     0
 10
2404.5795423961631
 20
4164.7749233468103
 30
0.0
 11
2404.5795423961631
 21
4315.0478033468116
 31
0.0
  0
LINE
  5
7F83
  8
3
  6
CONTINUOUS
 62
     0
 10
2952.2784633961619
 20
3711.0760013468112
 30
0.0
 11
2952.2784633961619
 21
4315.0478033468116
 31
0.0
  0
LINE
  5
7F84
  8
3
  6
CONTINUOUS
 62
     0
 10
2464.5795423961622
 20
4285.0478033468107
 30
0.0
 11
2892.278463396161
 21
4285.0478033468107
 31
0.0
  0
INSERT
  5
7F85
  8
3
  6
CONTINUOUS
 62
     0
  2
_OPEN
 10
2404.5795423961631
 20
4285.0478033468107
 30
0.0
 41
60.0
 42
60.0
 43
60.0
 50
180.0
  0
INSERT
  5
7F86
  8
3
  6
CONTINUOUS
 62
     0
  2
_OPEN
 10
2952.2784633961619
 20
4285.0478033468107
 30
0.0
 41
60.0
 42
60.0
 43
60.0
  0
TEXT
  8
3
  40
90
  5
7FB8
  62
0
  72
0
  71
0
 10
2498.43
 20
4200.75
 30
0.000000
  1
548
  0
POINT
  5
7F88
  8
DEFPOINTS
  6
CONTINUOUS
 62
     0
 10
2404.5795423961631
 20
4149.7749233468112
 30
0.0
  0
POINT
  5
7F89
  8
DEFPOINTS
  6
CONTINUOUS
 62
     0
 10
2952.2784633961619
 20
3696.0760013468121
 30
0.0
  0
POINT
  5
7F8A
  8
DEFPOINTS
  6
CONTINUOUS
 62
     0
 10
2952.2784633961619
 20
4285.0478033468107
 30
0.0
  0
ENDBLK
  5
7D31
  8
0
  0
BLOCK
  8
0
  2
*D12
 70
     1
 10
0.0
 20
0.0
 30
0.0
  3
*D12
  1

  0
LINE
  5
7F8B
  8
3
  6
CONTINUOUS
 62
     0
 10
4412.3948728375472
 20
4166.9760013468112
 30
0.0
 11
4412.3948728375472
 21
4300.855280346811
 31
0.0
  0
LINE
  5
7F8C
  8
3
  6
CONTINUOUS
 62
     0
 10
4887.3948728375481
 20
4166.9760013468112
 30
0.0
 11
4887.3948728375481
 21
4300.855280346811
 31
0.0
  0
LINE
  5
7F8D
  8
3
  6
CONTINUOUS
 62
     0
 10
4472.3948728375481
 20
4270.8552803468101
 30
0.0
 11
4827.3948728375472
 21
4270.8552803468101
 31
0.0
  0
INSERT
  5
7F8E
  8
3
  6
CONTINUOUS
 62
     0
  2
_OPEN
 10
4412.3948728375472
 20
4270.8552803468101
 30
0.0
 41
60.0
 42
60.0
 43
60.0
 50
180.0
  0
INSERT
  5
7F8F
  8
3
  6
CONTINUOUS
 62
     0
  2
_OPEN
 10
4887.3948728375481
 20
4270.8552803468101
 30
0.0
 41
60.0
 42
60.0
 43
60.0
  0
TEXT
  8
3
  40
90
  5
7FB9
  62
0
  72
0
  71
0
 10
4469.89
 20
4186.56
 30
0.000000
  1
475
  0
POINT
  5
7F91
  8
DEFPOINTS
  6
CONTINUOUS
 62
     0
 10
4412.3948728375472
 20
4151.9760013468112
 30
0.0
  0
POINT
  5
7F92
  8
DEFPOINTS
  6
CONTINUOUS
 62
     0
 10
4887.3948728375481
 20
4151.9760013468112
 30
0.0
  0
POINT
  5
7F93
  8
DEFPOINTS
  6
CONTINUOUS
 62
     0
 10
4887.3948728375481
 20
4270.8552803468101
 30
0.0
  0
ENDBLK
  5
7D26
  8
0
  0
BLOCK
  8
0
  2
*D13
 70
     1
 10
0.0
 20
0.0
 30
0.0
  3
*D13
  1

  0
LINE
  5
7F94
  8
3
  6
CONTINUOUS
 62
     0
 10
4169.8948728375481
 20
3901.0760013468112
 30
0.0
 11
4169.8948728375481
 21
4541.2576980289978
 31
0.0
  0
LINE
  5
7F95
  8
3
  6
CONTINUOUS
 62
     0
 10
4649.8948728375481
 20
4455.0080020702699
 30
0.0
 11
4649.8948728375481
 21
4541.2576980289978
 31
0.0
  0
LINE
  5
7F96
  8
3
  6
CONTINUOUS
 62
     0
 10
4229.8948728375472
 20
4511.2576980289978
 30
0.0
 11
4589.8948728375481
 21
4511.2576980289978
 31
0.0
  0
INSERT
  5
7F97
  8
3
  6
CONTINUOUS
 62
     0
  2
_OPEN
 10
4169.8948728375481
 20
4511.2576980289978
 30
0.0
 41
60.0
 42
60.0
 43
60.0
 50
180.0
  0
INSERT
  5
7F98
  8
3
  6
CONTINUOUS
 62
     0
  2
_OPEN
 10
4649.8948728375481
 20
4511.2576980289978
 30
0.0
 41
60.0
 42
60.0
 43
60.0
  0
TEXT
  8
3
  40
90
  5
7FBA
  62
0
  72
0
  71
0
 10
4208.47
 20
4501.96
 30
0.000000
  1
MAX
  0
TEXT
  8
3
  40
90
  5
7FBB
  62
0
  72
0
  71
0
 10
4208.47
 20
4384.96
 30
0.000000
  1
550
  0
POINT
  5
7F9A
  8
DEFPOINTS
  6
CONTINUOUS
 62
     0
 10
4169.8948728375481
 20
3886.0760013468112
 30
0.0
  0
POINT
  5
7F9B
  8
DEFPOINTS
  6
CONTINUOUS
 62
     0
 10
4649.8948728375481
 20
4440.0080020702699
 30
0.0
  0
POINT
  5
7F9C
  8
DEFPOINTS
  6
CONTINUOUS
 62
     0
 10
4649.8948728375481
 20
4511.2576980289978
 30
0.0
  0
ENDBLK
  5
7E62
  8
0
  0
BLOCK
  8
0
  2
*D14
 70
     1
 10
0.0
 20
0.0
 30
0.0
  3
*D14
  1

  0
LINE
  5
7E3D
  8
0
  6
BYBLOCK
 62
     0
 10
6197.0406830000002
 20
4444.9736436197463
 30
0.0
 11
6197.0406830000002
 21
4541.5457190289981
 31
0.0
  0
LINE
  5
7E3E
  8
0
  6
BYBLOCK
 62
     0
 10
6517.0406830000011
 20
4066.0760013468112
 30
0.0
 11
6517.0406830000011
 21
4541.5457190289981
 31
0.0
  0
LINE
  5
7E3F
  8
0
  6
BYBLOCK
 62
     0
 10
6257.0406830000002
 20
4511.5457190289981
 30
0.0
 11
6457.0406829999993
 21
4511.5457190289981
 31
0.0
  0
TEXT
  5
7E40
  8
3
 62
     0
 10
6229.7769230562744
 20
4549.9581205097711
 30
0.0
 40
90.0
  1
320
  0
INSERT
  5
7E41
  8
0
  6
BYBLOCK
 62
     0
  2
_OPEN
 10
6197.0406830000002
 20
4511.5457190289981
 30
0.0
 41
60.0
 42
60.0
 43
60.0
 50
180.0
  0
INSERT
  5
7E42
  8
0
  6
BYBLOCK
 62
     0
  2
_OPEN
 10
6517.0406830000011
 20
4511.5457190289981
 30
0.0
 41
60.0
 42
60.0
 43
60.0
  0
POINT
  5
7E43
  8
DEFPOINTS
  6
BYBLOCK
 62
     0
 10
6197.0406830000002
 20
4429.9736436197454
 30
0.0
  0
POINT
  5
7E44
  8
DEFPOINTS
  6
BYBLOCK
 62
     0
 10
6517.0406830000011
 20
4051.0760013468112
 30
0.0
  0
POINT
  5
7E45
  8
DEFPOINTS
  6
BYBLOCK
 62
     0
 10
6517.0406830000011
 20
4511.5457190289981
 30
0.0
  0
ENDBLK
  5
7E46
  8
0
  0
BLOCK
  8
0
  2
*D15
 70
     1
 10
0.0
 20
0.0
 30
0.0
  3
*D15
  1

  0
LINE
  5
7F9D
  8
3
  6
CONTINUOUS
 62
     0
 10
4984.8948728375481
 20
4011.0760013468112
 30
0.0
 11
5248.8463658375485
 21
4011.0760013468098
 31
0.0
  0
LINE
  5
7F9E
  8
3
  6
CONTINUOUS
 62
     0
 10
4984.8948728375481
 20
3381.0760013468121
 30
0.0
 11
5248.8463658375485
 21
3381.0760013468112
 31
0.0
  0
LINE
  5
7F9F
  8
3
  6
CONTINUOUS
 62
     0
 10
5218.8463658375485
 20
3951.0760013468112
 30
0.0
 11
5218.8463658375485
 21
3441.0760013468112
 31
0.0
  0
INSERT
  5
7FA0
  8
3
  6
CONTINUOUS
 62
     0
  2
_OPEN
 10
5218.8463658375485
 20
4011.0760013468098
 30
0.0
 41
60.0
 42
60.0
 43
60.0
 50
90.0
  0
INSERT
  5
7FA1
  8
3
  6
CONTINUOUS
 62
     0
  2
_OPEN
 10
5218.8463658375485
 20
3381.0760013468112
 30
0.0
 41
60.0
 42
60.0
 43
60.0
 50
270.0
  0
TEXT
  8
3
  40
90
  5
7FBC
  62
0
  72
0
  71
0
 10
4963.85
 20
3538.41
 30
0.000000
  1
φ630
  0
POINT
  5
7FA3
  8
DEFPOINTS
  6
CONTINUOUS
 62
     0
 10
4969.8948728375481
 20
4011.0760013468112
 30
0.0
  0
POINT
  5
7FA4
  8
DEFPOINTS
  6
CONTINUOUS
 62
     0
 10
4969.8948728375481
 20
3381.0760013468121
 30
0.0
  0
POINT
  5
7FA5
  8
DEFPOINTS
  6
CONTINUOUS
 62
     0
 10
5218.8463658375485
 20
3381.0760013468112
 30
0.0
  0
ENDBLK
  5
7E04
  8
0
  0
BLOCK
  8
0
  2
*D16
 70
     1
 10
0.0
 20
0.0
 30
0.0
  3
*D16
  1

  0
LINE
  5
7DDA
  8
0
  6
BYBLOCK
 62
     0
 10
5797.0406830000002
 20
2881.0760013468112
 30
0.0
 11
5797.0406830000002
 21
2646.547436346812
 31
0.0
  0
LINE
  5
7DDB
  8
0
  6
BYBLOCK
 62
     0
 10
6197.0406830000002
 20
2821.1221153468109
 30
0.0
 11
6197.0406830000002
 21
2646.547436346812
 31
0.0
  0
LINE
  5
7DDC
  8
0
  6
BYBLOCK
 62
     0
 10
5857.0406830000011
 20
2676.547436346812
 30
0.0
 11
6137.0406830000002
 21
2676.547436346812
 31
0.0
  0
TEXT
  5
7DDD
  8
3
 62
     0
 10
5881.3263972857148
 20
2702.498277281476
 30
0.0
 40
90.0
  1
400
  0
INSERT
  5
7DDE
  8
0
  6
BYBLOCK
 62
     0
  2
_OPEN
 10
5797.0406830000002
 20
2676.547436346812
 30
0.0
 41
60.0
 42
60.0
 43
60.0
 50
180.0
  0
INSERT
  5
7DDF
  8
0
  6
BYBLOCK
 62
     0
  2
_OPEN
 10
6197.0406830000002
 20
2676.547436346812
 30
0.0
 41
60.0
 42
60.0
 43
60.0
  0
POINT
  5
7DE0
  8
DEFPOINTS
  6
BYBLOCK
 62
     0
 10
5797.0406830000002
 20
2896.0760013468112
 30
0.0
  0
POINT
  5
7DE1
  8
DEFPOINTS
  6
BYBLOCK
 62
     0
 10
6197.0406830000002
 20
2836.1221153468109
 30
0.0
  0
POINT
  5
7DE2
  8
DEFPOINTS
  6
BYBLOCK
 62
     0
 10
6197.0406830000002
 20
2676.547436346812
 30
0.0
  0
ENDBLK
  5
7DE3
  8
0
  0
BLOCK
  8
0
  2
*D17
 70
     1
 10
0.0
 20
0.0
 30
0.0
  3
*D17
  1

  0
LINE
  5
7DE5
  8
0
  6
BYBLOCK
 62
     0
 10
6197.0406830000002
 20
2821.1221153468109
 30
0.0
 11
6197.0406830000002
 21
2643.651317346812
 31
0.0
  0
LINE
  5
7DE6
  8
0
  6
BYBLOCK
 62
     0
 10
6487.0406830000002
 20
2881.0760013468112
 30
0.0
 11
6487.0406830000002
 21
2643.651317346812
 31
0.0
  0
LINE
  5
7DE7
  8
0
  6
BYBLOCK
 62
     0
 10
6257.0406830000002
 20
2673.651317346812
 30
0.0
 11
6427.0406830000002
 21
2673.651317346812
 31
0.0
  0
TEXT
  5
7DE8
  8
3
 62
     0
 10
6229.7769230562744
 20
2715.8416441722802
 30
0.0
 40
90.0
  1
290
  0
INSERT
  5
7DE9
  8
0
  6
BYBLOCK
 62
     0
  2
_OPEN
 10
6197.0406830000002
 20
2673.651317346812
 30
0.0
 41
60.0
 42
60.0
 43
60.0
 50
180.0
  0
INSERT
  5
7DEA
  8
0
  6
BYBLOCK
 62
     0
  2
_OPEN
 10
6487.0406830000002
 20
2673.651317346812
 30
0.0
 41
60.0
 42
60.0
 43
60.0
  0
POINT
  5
7DEB
  8
DEFPOINTS
  6
BYBLOCK
 62
     0
 10
6197.0406830000002
 20
2836.1221153468109
 30
0.0
  0
POINT
  5
7DEC
  8
DEFPOINTS
  6
BYBLOCK
 62
     0
 10
6487.0406830000002
 20
2896.0760013468112
 30
0.0
  0
POINT
  5
7DED
  8
DEFPOINTS
  6
BYBLOCK
 62
     0
 10
6487.0406830000002
 20
2673.651317346812
 30
0.0
  0
ENDBLK
  5
7DEE
  8
0
  0
BLOCK
  8
0
  2
*D18
 70
     1
 10
0.0
 20
0.0
 30
0.0
  3
*D18
  1

  0
LINE
  5
7FA6
  8
3
 62
     0
 10
1944.579542396162
 20
3740.0760013468112
 30
0.0
 11
1944.579542396162
 21
4525.4802730945667
 31
0.0
  0
LINE
  5
7FA7
  8
3
 62
     0
 10
3404.5795423961631
 20
3011.0760013468112
 30
0.0
 11
3404.5795423961631
 21
4525.4802730945667
 31
0.0
  0
LINE
  5
7FA8
  8
3
 62
     0
 10
2004.579542396162
 20
4495.4802730945667
 30
0.0
 11
3344.5795423961631
 21
4495.4802730945667
 31
0.0
  0
INSERT
  5
7FA9
  8
3
 62
     0
  2
_OPEN
 10
1944.579542396162
 20
4495.4802730945667
 30
0.0
 41
60.0
 42
60.0
 43
60.0
 50
180.0
  0
INSERT
  5
7FAA
  8
3
 62
     0
  2
_OPEN
 10
3404.5795423961631
 20
4495.4802730945667
 30
0.0
 41
60.0
 42
60.0
 43
60.0
  0
TEXT
  8
3
  40
90
  5
7FBD
  62
0
  72
0
  71
0
 10
2555.09
 20
4411.18
 30
0.000000
  1
1460
  0
POINT
  5
7FAC
  8
DEFPOINTS
 62
     0
 10
1944.579542396162
 20
3725.0760013468121
 30
0.0
  0
POINT
  5
7FAD
  8
DEFPOINTS
 62
     0
 10
3404.5795423961631
 20
2996.0760013468112
 30
0.0
  0
POINT
  5
7FAE
  8
DEFPOINTS
 62
     0
 10
3404.5795423961631
 20
4495.4802730945667
 30
0.0
  0
ENDBLK
  5
7E52
  8
0
  0
ENDSEC
  0
SECTION
  2
ENTITIES
  0
LINE
  5
7A64
  8
1
  6
CONTINUOUS
 10
3141.4795423961618
 20
3027.6760013468111
 30
0.0
 11
2306.1795423961621
 21
3533.5760013468121
 31
0.0
  0
LINE
  5
7A65
  8
1
  6
CONTINUOUS
 10
3193.279542396162
 20
3113.276001346811
 30
0.0
 11
2357.9795423961618
 21
3619.1760013468111
 31
0.0
  0
LINE
  5
7A66
  8
1
  6
CONTINUOUS
 10
3323.4795423961618
 20
3314.776001346811
 30
0.0
 11
2509.5795423961622
 21
3854.4760013468108
 31
0.0
  0
LINE
  5
7A67
  8
1
  6
CONTINUOUS
 10
3268.279542396162
 20
3231.4760013468108
 30
0.0
 11
2454.2795423961611
 21
3771.0760013468112
 31
0.0
  0
LINE
  5
7A68
  8
1
  6
CONTINUOUS
 10
3299.5795423961622
 20
5608.176001346812
 30
0.0
 11
3404.5795423961631
 21
5608.176001346812
 31
0.0
  0
LINE
  5
7A69
  8
1
  6
CONTINUOUS
 10
2494.5795423961622
 20
5608.176001346812
 30
0.0
 11
3159.5795423961622
 21
5608.176001346812
 31
0.0
  0
LINE
  5
7A6A
  8
1
  6
CONTINUOUS
 10
2719.5795423961631
 20
6298.176001346812
 30
0.0
 11
3404.5795423961631
 21
6298.176001346812
 31
0.0
  0
LINE
  5
7A6B
  8
1
  6
CONTINUOUS
 10
2004.579542396162
 20
5770.676001346812
 30
0.0
 11
2004.579542396162
 21
5608.176001346812
 31
0.0
  0
LINE
  5
7A6C
  8
1
  6
CONTINUOUS
 10
2031.6795423961621
 20
3668.0760013468112
 30
0.0
 11
1944.579542396162
 21
3668.0760013468112
 31
0.0
  0
LINE
  5
7A6D
  8
1
  6
CONTINUOUS
 10
1944.579542396162
 20
3710.0760013468112
 30
0.0
 11
1944.579542396162
 21
2976.0760013468112
 31
0.0
  0
LINE
  5
7A6E
  8
1
  6
CONTINUOUS
 10
2004.579542396162
 20
2896.0760013468112
 30
0.0
 11
3404.5795423961631
 21
2896.0760013468112
 31
0.0
  0
LINE
  5
7A6F
  8
1
  6
CONTINUOUS
 10
1944.579542396162
 20
3018.0760013468112
 30
0.0
 11
2404.5795423961631
 21
3054.0760013468112
 31
0.0
  0
ARC
  5
7A70
  8
1
  6
CONTINUOUS
 10
2357.5795423961622
 20
3649.0760013468112
 30
0.0
 40
596.89999999999998
 50
274.5
 51
0.0
  0
ARC
  5
7A71
  8
1
  6
CONTINUOUS
 10
2451.5795423961622
 20
3649.0760013468112
 30
0.0
 40
502.89999999999992
 50
0.0
 51
96.0
  0
ARC
  5
7A72
  8
1
  6
CONTINUOUS
 10
2442.5795423961622
 20
3734.0760013468121
 30
0.0
 40
417.39999999999992
 50
96.0
 51
180.0
  0
ARC
  5
7A73
  8
1
  6
CONTINUOUS
 10
2366.5795423961622
 20
3734.0760013468121
 30
0.0
 40
341.39999999999992
 50
180.0
 51
191.09999999999999
  0
LINE
  5
7A74
  8
1
  6
CONTINUOUS
 10
1984.579542396162
 20
3668.0760013468112
 30
0.0
 11
1984.579542396162
 21
3018.0760013468112
 31
0.0
  0
LINE
  5
7A75
  8
1
  6
CONTINUOUS
 10
2004.579542396162
 20
2996.0760013468112
 30
0.0
 11
3404.5795423961631
 21
2996.0760013468112
 31
0.0
  0
LINE
  5
7A76
  8
1
  6
CONTINUOUS
 10
2004.579542396162
 20
2996.0760013468112
 30
0.0
 11
2004.579542396162
 21
2896.0760013468112
 31
0.0
  0
LINE
  5
7A77
  8
1
  6
CONTINUOUS
 10
3404.5795423961631
 20
2996.0760013468112
 30
0.0
 11
3404.5795423961631
 21
2896.0760013468112
 31
0.0
  0
ARC
  5
7A78
  8
1
  6
CONTINUOUS
 10
3229.5795423961622
 20
3173.0760013468121
 30
0.0
 40
142.0
 50
324.60000000000002
 51
215.39999999999989
  0
LINE
  5
7A79
  8
1
  6
CONTINUOUS
 10
3099.5795423961622
 20
3041.0760013468112
 30
0.0
 11
3099.5795423961622
 21
3056.0760013468112
 31
0.0
  0
LINE
  5
7A7A
  8
1
  6
CONTINUOUS
 10
3099.5795423961622
 20
3056.0760013468112
 30
0.0
 11
3113.8795423961619
 21
3090.8760013468118
 31
0.0
  0
LINE
  5
7A7B
  8
1
  6
CONTINUOUS
 10
3359.5795423961622
 20
3056.0760013468112
 30
0.0
 11
3345.279542396162
 21
3090.8760013468118
 31
0.0
  0
LINE
  5
7A7C
  8
1
  6
CONTINUOUS
 10
3359.5795423961622
 20
3041.0760013468112
 30
0.0
 11
3359.5795423961622
 21
3056.0760013468112
 31
0.0
  0
LINE
  5
7A7D
  8
1
  6
CONTINUOUS
 10
3371.5795423961631
 20
5740.7760013468123
 30
0.0
 11
3087.5795423961622
 21
5740.7760013468123
 31
0.0
  0
LINE
  5
7A7E
  8
1
  6
CONTINUOUS
 10
3248.5795423961622
 20
5648.1760013468111
 30
0.0
 11
3248.5795423961622
 21
5740.7760013468123
 31
0.0
  0
LINE
  5
7A7F
  8
1
  6
CONTINUOUS
 10
3210.5795423961622
 20
5648.1760013468111
 30
0.0
 11
3210.5795423961622
 21
5740.7760013468123
 31
0.0
  0
LINE
  5
7A80
  8
1
  6
CONTINUOUS
 10
3087.5795423961622
 20
5740.7760013468123
 30
0.0
 11
3087.5795423961622
 21
6140.7760013468132
 31
0.0
  0
LINE
  5
7A81
  8
1
  6
CONTINUOUS
 10
3371.5795423961631
 20
6140.7760013468132
 30
0.0
 11
3087.5795423961622
 21
6140.7760013468132
 31
0.0
  0
LINE
  5
7A82
  8
1
  6
CONTINUOUS
 10
3371.5795423961631
 20
5740.7760013468123
 30
0.0
 11
3371.5795423961631
 21
6140.7760013468132
 31
0.0
  0
LINE
  5
7A83
  8
1
  6
CONTINUOUS
 10
3054.5795423961631
 20
2996.0760013468112
 30
0.0
 11
3064.5795423961622
 21
3041.0760013468112
 31
0.0
  0
LINE
  5
7A84
  8
1
  6
CONTINUOUS
 10
3064.5795423961622
 20
3041.0760013468112
 30
0.0
 11
3394.5795423961622
 21
3041.0760013468112
 31
0.0
  0
LINE
  5
7A85
  8
1
  6
CONTINUOUS
 10
3394.5795423961622
 20
3041.0760013468112
 30
0.0
 11
3404.5795423961631
 21
2996.0760013468112
 31
0.0
  0
LINE
  5
7A86
  8
1
  6
CONTINUOUS
 10
3404.5795423961631
 20
6298.176001346812
 30
0.0
 11
3404.5795423961631
 21
5608.176001346812
 31
0.0
  0
LINE
  5
7A87
  8
1
  6
CONTINUOUS
 10
2004.579542396162
 20
6298.176001346812
 30
0.0
 11
2004.579542396162
 21
6245.676001346812
 31
0.0
  0
LINE
  5
7A88
  8
1
  6
CONTINUOUS
 10
2004.579542396162
 20
5608.176001346812
 30
0.0
 11
2314.5795423961622
 21
5608.176001346812
 31
0.0
  0
LINE
  5
7A89
  8
1
  6
CONTINUOUS
 10
2004.579542396162
 20
6298.176001346812
 30
0.0
 11
2089.5795423961622
 21
6298.176001346812
 31
0.0
  0
LINE
  5
7A8A
  8
1
  6
CONTINUOUS
 10
2954.4795423961618
 20
5770.676001346812
 30
0.0
 11
2954.4795423961618
 21
6245.676001346812
 31
0.0
  0
LINE
  5
7A8B
  8
1
  6
CONTINUOUS
 10
1984.579542396162
 20
5770.676001346812
 30
0.0
 11
1984.579542396162
 21
6245.676001346812
 31
0.0
  0
LINE
  5
7A8C
  8
1
  6
CONTINUOUS
 10
1944.579542396162
 20
5730.676001346812
 30
0.0
 11
1944.579542396162
 21
6285.676001346812
 31
0.0
  0
LINE
  5
7A8D
  8
1
  6
CONTINUOUS
 10
1944.579542396162
 20
6245.676001346812
 30
0.0
 11
2954.4795423961618
 21
6245.676001346812
 31
0.0
  0
LINE
  5
7A8E
  8
1
  6
CONTINUOUS
 10
1944.579542396162
 20
5770.676001346812
 30
0.0
 11
2954.4795423961618
 21
5770.676001346812
 31
0.0
  0
LINE
  5
7A8F
  8
1
  6
CONTINUOUS
 10
2214.5795423961622
 20
5528.176001346812
 30
0.0
 11
3429.5795423961631
 21
5528.176001346812
 31
0.0
  0
LINE
  5
7A90
  8
1
  6
CONTINUOUS
 10
2214.5795423961622
 20
5688.176001346812
 30
0.0
 11
3429.5795423961631
 21
5688.176001346812
 31
0.0
  0
CIRCLE
  5
7A91
  8
1
  6
CONTINUOUS
 10
2404.5795423961631
 20
3696.0760013468121
 30
0.0
 40
315.0
  0
CIRCLE
  5
7A92
  8
1
  6
CONTINUOUS
 10
2404.5795423961631
 20
3696.0760013468121
 30
0.0
 40
355.0
  0
CIRCLE
  5
7A93
  8
1
  6
CONTINUOUS
 10
2404.5795423961631
 20
3696.0760013468121
 30
0.0
 40
90.0
  0
CIRCLE
  5
7A94
  8
1
  6
CONTINUOUS
 10
3229.5795423961622
 20
3173.0760013468121
 30
0.0
 40
70.0
  0
ARC
  5
7A95
  8
1
  6
CONTINUOUS
 10
2404.5795423961631
 20
3696.0760013468121
 30
0.0
 40
190.0
 50
56.5
 51
238.80000000000001
  0
LINE
  5
7A96
  8
1
  6
CONTINUOUS
 10
3429.5795423961631
 20
5528.176001346812
 30
0.0
 11
3429.5795423961631
 21
5688.176001346812
 31
0.0
  0
LINE
  5
7A97
  8
1
  6
CONTINUOUS
 10
2214.5795423961622
 20
5528.176001346812
 30
0.0
 11
2214.5795423961622
 21
5688.176001346812
 31
0.0
  0
LINE
  5
7A98
  8
1
  6
CONTINUOUS
 10
3299.5795423961622
 20
5648.1760013468111
 30
0.0
 11
3159.5795423961622
 21
5648.1760013468111
 31
0.0
  0
LINE
  5
7A99
  8
1
  6
CONTINUOUS
 10
3299.5795423961622
 20
5568.176001346812
 30
0.0
 11
3159.5795423961622
 21
5568.176001346812
 31
0.0
  0
LINE
  5
7A9A
  8
1
  6
CONTINUOUS
 10
3299.5795423961622
 20
5568.176001346812
 30
0.0
 11
3299.5795423961622
 21
5648.1760013468111
 31
0.0
  0
LINE
  5
7A9B
  8
1
  6
CONTINUOUS
 10
3159.5795423961622
 20
5568.176001346812
 30
0.0
 11
3159.5795423961622
 21
5648.1760013468111
 31
0.0
  0
LINE
  5
7A9C
  8
1
  6
CONTINUOUS
 10
2314.5795423961622
 20
5568.176001346812
 30
0.0
 11
2314.5795423961622
 21
5648.1760013468111
 31
0.0
  0
LINE
  5
7A9D
  8
1
  6
CONTINUOUS
 10
2494.5795423961622
 20
5568.176001346812
 30
0.0
 11
2494.5795423961622
 21
5648.1760013468111
 31
0.0
  0
LINE
  5
7A9E
  8
1
  6
CONTINUOUS
 10
2494.5795423961622
 20
5568.176001346812
 30
0.0
 11
2314.5795423961622
 21
5568.176001346812
 31
0.0
  0
LINE
  5
7A9F
  8
1
  6
CONTINUOUS
 10
2494.5795423961622
 20
5648.1760013468111
 30
0.0
 11
2314.5795423961622
 21
5648.1760013468111
 31
0.0
  0
LINE
  5
7AA0
  8
1
  6
CONTINUOUS
 10
2385.5795423961622
 20
5648.1760013468111
 30
0.0
 11
2385.5795423961622
 21
5770.676001346812
 31
0.0
  0
LINE
  5
7AA1
  8
1
  6
CONTINUOUS
 10
2423.5795423961622
 20
5648.1760013468111
 30
0.0
 11
2423.5795423961622
 21
5770.676001346812
 31
0.0
  0
LINE
  5
7AA2
  8
1
  6
CONTINUOUS
 10
2049.5795423961622
 20
6328.176001346812
 30
0.0
 11
2759.5795423961622
 21
6328.176001346812
 31
0.0
  0
LINE
  5
7AA3
  8
1
  6
CONTINUOUS
 10
2089.5795423961622
 20
6328.176001346812
 30
0.0
 11
2089.5795423961622
 21
6245.676001346812
 31
0.0
  0
LINE
  5
7AA4
  8
1
  6
CONTINUOUS
 10
2719.5795423961631
 20
6328.176001346812
 30
0.0
 11
2719.5795423961631
 21
6245.676001346812
 31
0.0
  0
ARC
  5
7AA5
  8
1
  6
CONTINUOUS
 10
3229.5795423961622
 20
3173.0760013468121
 30
0.0
 40
170.0
 50
238.80000000000001
 51
56.5
  0
LINE
  5
7AA6
  8
2
  6
CENTER
 10
3229.5795423961622
 20
3103.0760013468121
 30
0.0
 11
3229.5795423961622
 21
3243.0760013468112
 31
0.0
  0
LINE
  5
7AA7
  8
2
  6
CENTER
 10
3299.5795423961622
 20
3173.0760013468121
 30
0.0
 11
3159.5795423961622
 21
3173.0760013468121
 31
0.0
  0
LINE
  5
7AA8
  8
2
  6
CENTER
 10
2404.5795423961631
 20
6381.8701713468108
 30
0.0
 11
2404.5795423961631
 21
5425.2401543468131
 31
0.0
  0
LINE
  5
7AA9
  8
2
  6
CENTER
 10
5053.2928598375483
 20
3696.0760013468121
 30
0.0
 11
4061.061586837548
 21
3696.0760013468121
 31
0.0
  0
LINE
  5
7AAA
  8
1
  6
CONTINUOUS
 10
4412.3948728375472
 20
3192.0760013468112
 30
0.0
 11
4289.8948728375481
 21
3192.0760013468112
 31
0.0
  0
LINE
  5
7AAB
  8
1
  6
CONTINUOUS
 10
4412.3948728375472
 20
3154.0760013468112
 30
0.0
 11
4289.8948728375481
 21
3154.0760013468112
 31
0.0
  0
LINE
  5
7AAC
  8
1
  6
CONTINUOUS
 10
4412.3948728375472
 20
3677.0760013468121
 30
0.0
 11
4289.8948728375481
 21
3677.0760013468121
 31
0.0
  0
LINE
  5
7AAD
  8
1
  6
CONTINUOUS
 10
4412.3948728375472
 20
3715.0760013468112
 30
0.0
 11
4289.8948728375481
 21
3715.0760013468112
 31
0.0
  0
LINE
  5
7AAE
  8
1
  6
CONTINUOUS
 10
4289.8948728375481
 20
3243.0760013468112
 30
0.0
 11
4289.8948728375481
 21
3103.0760013468121
 31
0.0
  0
LINE
  5
7AAF
  8
1
  6
CONTINUOUS
 10
4209.8948728375481
 20
3243.0760013468112
 30
0.0
 11
4209.8948728375481
 21
3103.0760013468121
 31
0.0
  0
LINE
  5
7AB0
  8
1
  6
CONTINUOUS
 10
4289.8948728375481
 20
3786.0760013468112
 30
0.0
 11
4289.8948728375481
 21
3606.0760013468121
 31
0.0
  0
LINE
  5
7AB1
  8
1
  6
CONTINUOUS
 10
4209.8948728375481
 20
3786.0760013468112
 30
0.0
 11
4209.8948728375481
 21
3606.0760013468121
 31
0.0
  0
LINE
  5
7AB2
  8
1
  6
CONTINUOUS
 10
4209.8948728375481
 20
3103.0760013468121
 30
0.0
 11
4289.8948728375481
 21
3103.0760013468121
 31
0.0
  0
LINE
  5
7AB3
  8
1
  6
CONTINUOUS
 10
4209.8948728375481
 20
3243.0760013468112
 30
0.0
 11
4289.8948728375481
 21
3243.0760013468112
 31
0.0
  0
LINE
  5
7AB4
  8
1
  6
CONTINUOUS
 10
4209.8948728375481
 20
3606.0760013468121
 30
0.0
 11
4289.8948728375481
 21
3606.0760013468121
 31
0.0
  0
LINE
  5
7AB5
  8
1
  6
CONTINUOUS
 10
4209.8948728375481
 20
3786.0760013468112
 30
0.0
 11
4289.8948728375481
 21
3786.0760013468112
 31
0.0
  0
LINE
  5
7AB6
  8
1
  6
CONTINUOUS
 10
4169.8948728375481
 20
3886.0760013468112
 30
0.0
 11
4329.8948728375481
 21
3886.0760013468112
 31
0.0
  0
LINE
  5
7AB7
  8
1
  6
CONTINUOUS
 10
4169.8948728375481
 20
3003.0760013468121
 30
0.0
 11
4329.8948728375481
 21
3003.0760013468121
 31
0.0
  0
LINE
  5
7AB8
  8
1
  6
CONTINUOUS
 10
4329.8948728375481
 20
3886.0760013468112
 30
0.0
 11
4329.8948728375481
 21
3003.0760013468121
 31
0.0
  0
LINE
  5
7AB9
  8
1
  6
CONTINUOUS
 10
4169.8948728375481
 20
3886.0760013468112
 30
0.0
 11
4169.8948728375481
 21
3003.0760013468121
 31
0.0
  0
LINE
  5
7ABA
  8
1
  6
CONTINUOUS
 10
4412.3948728375472
 20
3018.0760013468112
 30
0.0
 11
4887.3948728375481
 21
3668.0760013468112
 31
0.0
  0
LINE
  5
7ABB
  8
1
  6
CONTINUOUS
 10
4412.3948728375472
 20
3668.0760013468112
 30
0.0
 11
4887.3948728375481
 21
3018.0760013468112
 31
0.0
  0
LINE
  5
7ABC
  8
1
  6
CONTINUOUS
 10
4887.3948728375481
 20
3381.0760013468121
 30
0.0
 11
4969.8948728375481
 21
3381.0760013468121
 31
0.0
  0
LINE
  5
7ABD
  8
1
  6
CONTINUOUS
 10
4887.3948728375481
 20
4011.0760013468112
 30
0.0
 11
4969.8948728375481
 21
4011.0760013468112
 31
0.0
  0
LINE
  5
7ABE
  8
1
  6
CONTINUOUS
 10
4969.8948728375481
 20
4051.0760013468112
 30
0.0
 11
4969.8948728375481
 21
3341.0760013468112
 31
0.0
  0
LINE
  5
7ABF
  8
1
  6
CONTINUOUS
 10
4412.3948728375472
 20
3018.0760013468112
 30
0.0
 11
4887.3948728375481
 21
3018.0760013468112
 31
0.0
  0
LINE
  5
7AC0
  8
1
  6
CONTINUOUS
 10
4412.3948728375472
 20
4151.9760013468112
 30
0.0
 11
4887.3948728375481
 21
4151.9760013468112
 31
0.0
  0
LINE
  5
7AC1
  8
1
  6
CONTINUOUS
 10
4887.3948728375481
 20
4151.9760013468112
 30
0.0
 11
4887.3948728375481
 21
2996.0760013468112
 31
0.0
  0
LINE
  5
7AC2
  8
1
  6
CONTINUOUS
 10
4412.3948728375472
 20
4151.9760013468112
 30
0.0
 11
4412.3948728375472
 21
2996.0760013468112
 31
0.0
  0
LINE
  5
7AC3
  8
1
  6
CONTINUOUS
 10
4249.8948728375481
 20
2996.0760013468112
 30
0.0
 11
4249.8948728375481
 21
2896.0760013468112
 31
0.0
  0
LINE
  5
7AC4
  8
1
  6
CONTINUOUS
 10
4939.8948728375481
 20
2996.0760013468112
 30
0.0
 11
4939.8948728375481
 21
2896.0760013468112
 31
0.0
  0
LINE
  5
7AC5
  8
1
  6
CONTINUOUS
 10
4939.8948728375481
 20
2896.0760013468112
 30
0.0
 11
4249.8948728375481
 21
2896.0760013468112
 31
0.0
  0
LINE
  5
7AC6
  8
1
  6
CONTINUOUS
 10
4939.8948728375481
 20
2996.0760013468112
 30
0.0
 11
4249.8948728375481
 21
2996.0760013468112
 31
0.0
  0
LINE
  5
7AC7
  8
1
  6
CONTINUOUS
 10
4412.3948728375472
 20
3668.0760013468112
 30
0.0
 11
4887.3948728375481
 21
3668.0760013468112
 31
0.0
  0
LINE
  5
7AC8
  8
4
  6
CONTINUOUS
 10
5550.0
 20
1500.0
 30
0.0
 11
5550.0
 21
900.0
 31
0.0
  0
LINE
  5
7AC9
  8
4
  6
CONTINUOUS
 10
3450.0
 20
1500.0
 30
0.0
 11
3450.0
 21
900.0
 31
0.0
  0
LINE
  5
7ACA
  8
4
  6
CONTINUOUS
 10
1950.0
 20
1500.0
 30
0.0
 11
1950.0
 21
900.0
 31
0.0
  0
LINE
  5
7ACD
  8
4
  6
CONTINUOUS
 10
1950.0
 20
900.0
 30
0.0
 11
5550.0
 21
900.0
 31
0.0
  0
LINE
  5
7ACE
  8
4
  6
CONTINUOUS
 10
1950.0
 20
1200.0
 30
0.0
 11
5550.0
 21
1200.0
 31
0.0
  0
TEXT
  5
7ACF
  8
4
  6
CONTINUOUS
 10
2065.50624225
 20
1294.6290779999999
 30
0.0
 40
150.0
  1
機器名称
  0
TEXT
  5
7AD0
  8
4
  6
CONTINUOUS
 10
2058.7743179999989
 20
964.93547024999998
 30
0.0
 40
150.0
  1
機器型番
  0
TEXT
  5
7AD1
  8
4
  6
CONTINUOUS
 10
3533.0362365000001
 20
1267.715306249999
 30
0.0
 40
120.0
  1
ミツヤリミットロードファン
  0
TEXT
  5
7AD2
  8
4
  6
CONTINUOUS
 10
3559.9634872500001
 20
951.4787527499999
 30
0.0
 40
150.0
  1
LLE#4-4
  0
TEXT
  5
7AD4
  8
4
  6
CONTINUOUS
 10
2714.3572964999998
 20
7150.2865245000012
 30
0.0
 40
162.0
  1
床置ベット
  0
TEXT
  5
7AD5
  8
4
  6
CONTINUOUS
 10
948.50278049999986
 20
7601.6429287499996
 30
0.0
 40
171.42857175
  1
ベルト駆動式片吸込両持排煙ファン
  0
LINE
  5
7AD6
  8
4
  6
CONTINUOUS
 10
750.0
 20
7408.2262627500004
 30
0.0
 11
5550.0
 21
7408.2262627500004
 31
0.0
  0
LINE
  5
7AD7
  8
4
  6
CONTINUOUS
 10
750.0
 20
8008.2262627500004
 30
0.0
 11
5550.0
 21
8008.2262627500004
 31
0.0
  0
LINE
  5
7AD8
  8
4
  6
CONTINUOUS
 10
1950.0
 20
1500.0
 30
0.0
 11
5550.0
 21
1500.0
 31
0.0
  0
LINE
  5
7AD9
  8
4
  6
CONTINUOUS
 10
750.0
 20
8008.2262627500004
 30
0.0
 11
750.0
 21
7408.2262627500004
 31
0.0
  0
TEXT
  5
7ADA
  8
4
  6
CONTINUOUS
 10
1406.780799749999
 20
7146.9584324999987
 30
0.0
 40
162.0
  1
右回転左横向
  0
TEXT
  5
7ADB
  8
4
  6
CONTINUOUS
 10
4406.9086777499988
 20
8118.1832445
 30
0.0
 40
168.0
  1
No.
  0
TEXT
  5
7ADC
  8
4
  6
CONTINUOUS
 10
3933.8881875000002
 20
7150.2865245000012
 30
0.0
 40
162.0
  1
縮尺：1/30
  0
LINE
  5
7ADD
  8
4
  6
CONTINUOUS
 10
5550.0
 20
8008.2262627500004
 30
0.0
 11
5550.0
 21
7408.2262627500004
 31
0.0
  0
LINE
  5
7ADF
  8
4
  6
CONTINUOUS
 10
4321.8522667500001
 20
8043.79074975
 30
0.0
 11
4321.8522667500001
 21
8359.9567845000001
 31
0.0
  0
LINE
  5
7AE0
  8
4
  6
CONTINUOUS
 10
4321.8522667500001
 20
8359.9567845000001
 30
0.0
 11
5550.0
 21
8359.9567845000001
 31
0.0
  0
LINE
  5
7AE1
  8
4
  6
CONTINUOUS
 10
5550.0
 20
8359.9567845000001
 30
0.0
 11
5550.0
 21
8043.79074975
 31
0.0
  0
LINE
  5
7AE2
  8
4
  6
CONTINUOUS
 10
5550.0
 20
8043.79074975
 30
0.0
 11
4321.8522667500001
 21
8043.79074975
 31
0.0
  0
DIMENSION
  5
7AFA
  8
3
  6
CONTINUOUS
  2
*D1
 10
3404.5795423961631
 20
5211.7909943468112
 30
0.0
 11
2619.6977773961621
 21
5211.7909943468112
 31
0.0
 70
   128
 13
2004.579542396162
 23
5608.176001346812
 33
0.0
 14
3404.5795423961631
 24
5608.176001346812
 34
0.0
1001
ACAD
1000
DSTYLE
1002
{
1070
   287
1070
     3
1070
   287
1070
     3
1070
    40
1040
30.0
1070
   143
1040
0.039
1070
   172
1070
     1
1070
   271
1070
     0
1070
   279
1070
     0
1070
   288
1070
     1
1002
}
  0
DIMENSION
  5
7B07
  8
3
  6
CONTINUOUS
  2
*D2
 10
3735.4732273961631
 20
5608.176001346812
 30
0.0
 11
3735.4732273961608
 21
5968.2552233468123
 31
0.0
 70
   128
 13
3404.5795423961631
 23
6298.176001346812
 33
0.0
 14
3404.5795423961631
 24
5608.176001346812
 34
0.0
 50
90.0
1001
ACAD
1000
DSTYLE
1002
{
1070
   287
1070
     3
1070
   287
1070
     3
1070
    40
1040
30.0
1070
   143
1040
0.039
1070
   172
1070
     1
1070
   271
1070
     0
1070
   279
1070
     0
1070
   288
1070
     1
1002
}
  0
LINE
  5
7B08
  8
2
  6
CENTER
 10
2974.766367396162
 20
6008.176001346812
 30
0.0
 11
1927.0475643961611
 21
6008.176001346812
 31
0.0
  0
LINE
  5
7B09
  8
2
  6
CENTER
 10
2404.5795423961631
 20
4177.0109883468122
 30
0.0
 11
2404.5795423961631
 21
2766.2905273468118
 31
0.0
  0
DIMENSION
  5
7B18
  8
3
  6
CONTINUOUS
  2
*D3
 10
2404.5795423961631
 20
2613.1205383468109
 30
0.0
 11
2204.5795423961622
 21
2687.4530894392619
 31
0.0
 12
-505.50307060383778
 22
0.0
 32
0.0
 70
   128
 13
2004.579542396162
 23
2896.0760013468112
 33
0.0
 14
2404.5795423961631
 24
2766.2905273468118
 34
0.0
1001
ACAD
1000
DSTYLE
1002
{
1070
   288
1070
     1
1070
   172
1070
     1
1070
    40
1040
30.0
1070
   271
1070
     0
1070
   143
1040
0.039
1002
}
  0
DIMENSION
  5
7B24
  8
3
  6
CONTINUOUS
  2
*D4
 10
3404.5795423961631
 20
2613.1205383468109
 30
0.0
 11
2904.5795423961631
 21
2688.1205383468109
 31
0.0
 70
     0
 13
2404.5795423961631
 23
2766.2905273468118
 33
0.0
 14
3404.5795423961631
 24
2896.0760013468112
 34
0.0
1001
ACAD
1000
DSTYLE
1002
{
1070
   287
1070
     3
1070
   287
1070
     3
1070
    40
1040
30.0
1070
   143
1040
0.039
1070
   172
1070
     1
1070
   271
1070
     0
1070
   279
1070
     0
1070
   288
1070
     1
1002
}
  0
DIMENSION
  5
7B31
  8
3
  6
CONTINUOUS
  2
*D5
 10
1734.910345396162
 20
3018.0760013468112
 30
0.0
 11
1734.9103453961609
 21
3428.0760013468112
 31
0.0
 70
   128
 13
1944.579542396162
 23
3668.0760013468112
 33
0.0
 14
1944.579542396162
 24
3018.0760013468112
 34
0.0
 50
90.0
1001
ACAD
1000
DSTYLE
1002
{
1070
   287
1070
     3
1070
   287
1070
     3
1070
    40
1040
30.0
1070
   143
1040
0.039
1070
   172
1070
     1
1070
   271
1070
     0
1070
   279
1070
     0
1070
   288
1070
     1
1002
}
  0
DIMENSION
  5
7B3E
  8
3
  6
CONTINUOUS
  2
*D6
 10
1485.6721963961629
 20
3696.0760013468121
 30
0.0
 11
1485.672196396162
 21
3403.7622203468109
 31
0.0
 70
   128
 13
1944.579542396162
 23
3018.0760013468112
 33
0.0
 14
2027.3009543961609
 24
3696.0760013468121
 34
0.0
 50
90.0
1001
ACAD
1000
DSTYLE
1002
{
1070
   287
1070
     3
1070
   287
1070
     3
1070
    40
1040
30.0
1070
   143
1040
0.039
1070
   172
1070
     1
1070
   271
1070
     0
1070
   279
1070
     0
1070
   288
1070
     1
1002
}
  0
DIMENSION
  5
7B4D
  8
3
  6
CONTINUOUS
  2
*D7
 10
1326.2756923961631
 20
3696.0760013468121
 30
0.0
 11
1326.275692396162
 21
3941.9177804896681
 31
0.0
 70
   128
 13
2404.5795423961631
 23
4149.7749233468112
 33
0.0
 14
2027.3009543961609
 24
3696.0760013468121
 34
0.0
 50
90.0
1001
ACAD
1000
DSTYLE
1002
{
1070
   287
1070
     3
1070
   287
1070
     3
1070
    40
1040
30.0
1070
   143
1040
0.039
1070
   172
1070
     1
1070
   271
1070
     0
1070
   279
1070
     0
1070
   288
1070
     1
1002
}
  0
DIMENSION
  5
7B59
  8
3
  6
CONTINUOUS
  2
*D8
 10
1326.275692396162
 20
2896.0760013468112
 30
0.0
 11
1251.275692396162
 21
3296.0760013468112
 31
0.0
 70
     0
 13
2027.3009543961609
 23
3696.0760013468121
 33
0.0
 14
2004.579542396162
 24
2896.0760013468112
 34
0.0
 50
90.0
1001
ACAD
1000
DSTYLE
1002
{
1070
   287
1070
     3
1070
   287
1070
     3
1070
    40
1040
30.0
1070
   143
1040
0.039
1070
   172
1070
     1
1070
   271
1070
     0
1070
   279
1070
     0
1070
   288
1070
     1
1002
}
  0
DIMENSION
  5
7B66
  8
3
  6
CONTINUOUS
  2
*D9
 10
1119.9350633961619
 20
2896.0760013468112
 30
0.0
 11
1119.9350633961619
 21
3627.0517453468119
 31
0.0
 70
   128
 13
2404.5795423961631
 23
4149.7749233468112
 33
0.0
 14
2004.579542396162
 24
2896.0760013468112
 34
0.0
 50
90.0
1001
ACAD
1000
DSTYLE
1002
{
1070
   287
1070
     3
1070
   287
1070
     3
1070
    40
1040
30.0
1070
   143
1040
0.039
1070
   172
1070
     1
1070
   271
1070
     0
1070
   279
1070
     0
1070
   288
1070
     1
1002
}
  0
DIMENSION
  5
7B75
  8
3
  6
CONTINUOUS
  2
*D10
 10
2404.5795423961631
 20
4285.0478033468107
 30
0.0
 11
2150.293828110448
 21
4285.0478033468107
 31
0.0
 70
   128
 13
1944.579542396162
 23
3710.0760013468112
 33
0.0
 14
2404.5795423961631
 24
4149.7749233468112
 34
0.0
1001
ACAD
1000
DSTYLE
1002
{
1070
   287
1070
     3
1070
   287
1070
     3
1070
    40
1040
30.0
1070
   143
1040
0.039
1070
   172
1070
     1
1070
   271
1070
     0
1070
   279
1070
     0
1070
   288
1070
     1
1002
}
  0
DIMENSION
  5
7B81
  8
3
  6
CONTINUOUS
  2
*D11
 10
2952.2784633961619
 20
4285.0478033468107
 30
0.0
 11
2678.4290028961618
 21
4360.0478033468107
 31
0.0
 70
     0
 13
2404.5795423961631
 23
4149.7749233468112
 33
0.0
 14
2952.2784633961619
 24
3696.0760013468121
 34
0.0
1001
ACAD
1000
DSTYLE
1002
{
1070
   287
1070
     3
1070
   287
1070
     3
1070
    40
1040
30.0
1070
   143
1040
0.039
1070
   172
1070
     1
1070
   271
1070
     0
1070
   279
1070
     0
1070
   288
1070
     1
1002
}
  0
LINE
  5
7B82
  8
2
  6
CENTER
 10
4649.8948728375481
 20
4292.3915443468113
 30
0.0
 11
4649.8948728375481
 21
2836.1221153468109
 31
0.0
  0
DIMENSION
  5
7B91
  8
3
  6
CONTINUOUS
  2
*D12
 10
4887.3948728375481
 20
4270.8552803468101
 30
0.0
 11
4649.8948728375481
 21
4270.8552803468101
 31
0.0
 70
   128
 13
4412.3948728375472
 23
4151.9760013468112
 33
0.0
 14
4887.3948728375481
 24
4151.9760013468112
 34
0.0
1001
ACAD
1000
DSTYLE
1002
{
1070
   287
1070
     3
1070
   287
1070
     3
1070
    40
1040
30.0
1070
   143
1040
0.039
1070
   172
1070
     1
1070
   271
1070
     0
1070
   279
1070
     0
1070
   288
1070
     1
1002
}
  0
DIMENSION
  5
7B9E
  8
3
  6
CONTINUOUS
  2
*D13
 10
4649.8948728375481
 20
4511.2576980289978
 30
0.0
 11
4388.4663014089774
 21
4511.2576980289978
 31
0.0
 70
   128
  1
MAX\P550
 13
4169.8948728375481
 23
3886.0760013468112
 33
0.0
 14
4649.8948728375481
 24
4440.0080020702699
 34
0.0
1001
ACAD
1000
DSTYLE
1002
{
1070
   287
1070
     3
1070
   287
1070
     3
1070
    40
1040
30.0
1070
   143
1040
0.039
1070
   172
1070
     1
1070
   271
1070
     0
1070
   279
1070
     0
1070
   288
1070
     1
1002
}
  0
DIMENSION
  5
7BAC
  8
3
  6
CONTINUOUS
  2
*D14
 10
4969.8948728375481
 20
4511.5457190289981
 30
0.0
 11
4798.3453986081076
 21
4594.958120509772
 31
0.0
 12
-1547.1458101624521
 22
0.0
 32
0.0
 70
   128
 13
4649.8948728375481
 23
4429.9736436197454
 33
0.0
 14
4969.8948728375481
 24
4051.0760013468112
 34
0.0
1001
ACAD
1000
DSTYLE
1002
{
1070
   288
1070
     1
1070
   172
1070
     1
1070
    40
1040
30.0
1070
   271
1070
     0
1070
   143
1040
0.039
1002
}
  0
DIMENSION
  5
7BCF
  8
3
  6
CONTINUOUS
  2
*D15
 10
5218.8463658375485
 20
3381.0760013468112
 30
0.0
 11
5218.8463658375485
 21
3697.7108623468112
 31
0.0
 70
   128
 13
4969.8948728375481
 23
4011.0760013468112
 33
0.0
 14
4969.8948728375481
 24
3381.0760013468121
 34
0.0
 50
90.0
1001
ACAD
1000
DSTYLE
1002
{
1070
   287
1070
     3
1070
   287
1070
     3
1070
     3
1000
φ<>
1070
    40
1040
30.0
1070
   143
1040
0.039
1070
   172
1070
     1
1070
   271
1070
     0
1070
   279
1070
     0
1070
   288
1070
     1
1002
}
  0
DIMENSION
  5
7BDE
  8
3
  6
CONTINUOUS
  2
*D16
 10
4649.8948728375481
 20
2676.547436346812
 30
0.0
 11
4449.8948728375481
 21
2747.498277281476
 31
0.0
 12
-1547.1458101624521
 22
0.0
 32
0.0
 70
   128
 13
4249.8948728375481
 23
2896.0760013468112
 33
0.0
 14
4649.8948728375481
 24
2836.1221153468109
 34
0.0
1001
ACAD
1000
DSTYLE
1002
{
1070
   288
1070
     1
1070
   172
1070
     1
1070
    40
1040
30.0
1070
   271
1070
     0
1070
   143
1040
0.039
1002
}
  0
DIMENSION
  5
7BEC
  8
3
  6
CONTINUOUS
  2
*D17
 10
4939.8948728375481
 20
2673.651317346812
 30
0.0
 11
4798.3453986081076
 21
2760.8416441722802
 31
0.0
 12
-1547.1458101624521
 22
0.0
 32
0.0
 70
   128
 13
4649.8948728375481
 23
2836.1221153468109
 33
0.0
 14
4939.8948728375481
 24
2896.0760013468112
 34
0.0
1001
ACAD
1000
DSTYLE
1002
{
1070
   288
1070
     1
1070
   172
1070
     1
1070
    40
1040
30.0
1070
   271
1070
     0
1070
   143
1040
0.039
1002
}
  0
LINE
  5
7C03
  8
2
  6
CENTER
 10
3026.6029303961618
 20
3696.0760013468121
 30
0.0
 11
1926.2734473961621
 21
3696.0760013468121
 31
0.0
  0
DIMENSION
  5
7E53
  8
3
  2
*D18
 10
3404.5795423961631
 20
4495.4802730945667
 30
0.0
 11
2735.0914440580159
 21
4495.4802730945667
 31
0.0
 70
   128
 13
1944.579542396162
 23
3725.0760013468121
 33
0.0
 14
3404.5795423961631
 24
2996.0760013468112
 34
0.0
1001
ACAD
1000
DSTYLE
1002
{
1070
   287
1070
     3
1070
   287
1070
     3
1070
    40
1040
30.0
1070
   143
1040
0.039
1070
   172
1070
     1
1070
   271
1070
     0
1070
   279
1070
     0
1070
   288
1070
     1
1002
}
  0
ENDSEC
  0
EOF
