  0
SECTION
  2
HEADER
  9
$ACADVER
  1
AC1009
  9
$INSBASE
 10
0.0
 20
0.0
 30
0.0
  9
$EXTMIN
 10
750.0
 20
900.0
 30
0.0
  9
$EXTMAX
 10
5550.0
 20
8359.9567845000001
 30
0.0
  9
$LIMMIN
 10
0.0
 20
0.0
  9
$LIMMAX
 10
297.0
 20
210.0
  9
$ORTHOMODE
 70
     0
  9
$REGENMODE
 70
     1
  9
$FILLMODE
 70
     0
  9
$QTEXTMODE
 70
     0
  9
$MIRRTEXT
 70
     1
  9
$DRAGMODE
 70
     2
  9
$LTSCALE
 40
100.0
  9
$OSMODE
 70
    37
  9
$ATTMODE
 70
     1
  9
$TEXTSIZE
 40
180.0
  9
$TRACEWID
 40
0.05
  9
$TEXTSTYLE
  7
STANDARD
  9
$CLAYER
  8
3
  9
$CELTYPE
  6
BYLAYER
  9
$CECOLOR
 62
   256
  9
$DIMSCALE
 40
30.0
  9
$DIMASZ
 40
2.0
  9
$DIMEXO
 40
0.5
  9
$DIMDLI
 40
10.0
  9
$DIMRND
 40
0.0
  9
$DIMDLE
 40
0.0
  9
$DIMEXE
 40
1.0
  9
$DIMTP
 40
1.0
  9
$DIMTM
 40
1.0
  9
$DIMTXT
 40
3.0
  9
$DIMCEN
 40
0.0
  9
$DIMTSZ
 40
0.0
  9
$DIMTOL
 70
     0
  9
$DIMLIM
 70
     0
  9
$DIMTIH
 70
     0
  9
$DIMTOH
 70
     0
  9
$DIMSE1
 70
     0
  9
$DIMSE2
 70
     0
  9
$DIMTAD
 70
     1
  9
$DIMZIN
 70
     8
  9
$DIMBLK
  1

  9
$DIMASO
 70
     1
  9
$DIMSHO
 70
     1
  9
$DIMPOST
  1

  9
$DIMAPOST
  1

  9
$DIMALT
 70
     0
  9
$DIMALTD
 70
     2
  9
$DIMALTF
 40
0.039
  9
$DIMLFAC
 40
1.0
  9
$DIMTOFL
 70
     1
  9
$DIMTVP
 40
0.0
  9
$DIMTIX
 70
     0
  9
$DIMSOXD
 70
     0
  9
$DIMSAH
 70
     1
  9
$DIMBLK1
  1
OPEN
  9
$DIMBLK2
  1
OPEN
  9
$DIMSTYLE
  2
IGA
  9
$DIMCLRD
 70
     0
  9
$DIMCLRE
 70
     0
  9
$DIMCLRT
 70
     0
  9
$DIMTFAC
 40
10.0
  9
$DIMGAP
 40
1.0
  9
$LUNITS
 70
     2
  9
$LUPREC
 70
     3
  9
$SKETCHINC
 40
0.1
  9
$FILLETRAD
 40
50.0
  9
$AUNITS
 70
     0
  9
$AUPREC
 70
     0
  9
$MENU
  1
acad
  9
$ELEVATION
 40
0.0
  9
$PELEVATION
 40
0.0
  9
$THICKNESS
 40
0.0
  9
$LIMCHECK
 70
     0
  9
$BLIPMODE
 70
     0
  9
$CHAMFERA
 40
0.5
  9
$CHAMFERB
 40
0.5
  9
$SKPOLY
 70
     0
  9
$TDCREATE
 40
2450757.3373130788
  9
$TDUPDATE
 40
2454953.683141273
  9
$TDINDWG
 40
0.004753125
  9
$TDUSRTIMER
 40
0.004753125
  9
$USRTIMER
 70
     1
  9
$ANGBASE
 50
0.0
  9
$ANGDIR
 70
     0
  9
$PDMODE
 70
     0
  9
$PDSIZE
 40
0.0
  9
$PLINEWID
 40
0.0
  9
$COORDS
 70
     1
  9
$SPLFRAME
 70
     0
  9
$SPLINETYPE
 70
     6
  9
$SPLINESEGS
 70
     8
  9
$ATTDIA
 70
     0
  9
$ATTREQ
 70
     1
  9
$HANDLING
 70
 10241
  9
$HANDSEED
  5
7F2D
  9
$SURFTAB1
 70
     6
  9
$SURFTAB2
 70
     6
  9
$SURFTYPE
 70
     6
  9
$SURFU
 70
     6
  9
$SURFV
 70
     6
  9
$UCSNAME
  2

  9
$UCSORG
 10
0.0
 20
0.0
 30
0.0
  9
$UCSXDIR
 10
1.0
 20
0.0
 30
0.0
  9
$UCSYDIR
 10
0.0
 20
1.0
 30
0.0
  9
$PUCSNAME
  2

  9
$PUCSORG
 10
0.0
 20
0.0
 30
0.0
  9
$PUCSXDIR
 10
1.0
 20
0.0
 30
0.0
  9
$PUCSYDIR
 10
0.0
 20
1.0
 30
0.0
  9
$USERI1
 70
     0
  9
$USERI2
 70
     0
  9
$USERI3
 70
     0
  9
$USERI4
 70
     0
  9
$USERI5
 70
     0
  9
$USERR1
 40
0.0
  9
$USERR2
 40
0.0
  9
$USERR3
 40
0.0
  9
$USERR4
 40
0.0
  9
$USERR5
 40
0.0
  9
$WORLDVIEW
 70
     1
  9
$SHADEDGE
 70
     3
  9
$SHADEDIF
 70
    70
  9
$TILEMODE
 70
     1
  9
$MAXACTVP
 70
    16
  9
$PLIMCHECK
 70
     0
  9
$PEXTMIN
 10
1.0000000000000000E+020
 20
1.0000000000000000E+020
 30
1.0000000000000000E+020
  9
$PEXTMAX
 10
-1.0000000000000000E+020
 20
-1.0000000000000000E+020
 30
-1.0000000000000000E+020
  9
$PLIMMIN
 10
0.0
 20
0.0
  9
$PLIMMAX
 10
12.0
 20
9.0
  9
$UNITMODE
 70
     0
  9
$VISRETAIN
 70
     0
  9
$PLINEGEN
 70
     0
  9
$PSLTSCALE
 70
     1
  0
ENDSEC
  0
SECTION
  2
TABLES
  0
TABLE
  2
VPORT
 70
     2
  0
VPORT
  2
*ACTIVE
 70
     0
 10
0.0
 20
0.0
 11
1.0
 21
1.0
 12
13609.970293460759
 22
3068.1331715116662
 13
0.0
 23
0.0
 14
10.0
 24
10.0
 15
10.0
 25
10.0
 16
0.0
 26
0.0
 36
1.0
 17
0.0
 27
0.0
 37
0.0
 40
11756.735511956809
 41
3.1666666666666661
 42
50.0
 43
0.0
 44
0.0
 50
0.0
 51
0.0
 71
     0
 72
   100
 73
     1
 74
     0
 75
     0
 76
     0
 77
     0
 78
     0
  0
ENDTAB
  0
TABLE
  2
LTYPE
 70
     2
  0
LTYPE
  2
CONTINUOUS
 70
     0
  3
Solid line
 72
    65
 73
     0
 40
0.0
  0
LTYPE
  2
CENTER
 70
     0
  3
____ _ ____ _ ____ _ ____ _ ____ _ ____ _ ____ 
 72
    65
 73
     4
 40
2.0
 49
1.25
 49
-0.25
 49
0.25
 49
-0.25
  0
ENDTAB
  0
TABLE
  2
LAYER
 70
     6
  0
LAYER
  2
0
 70
     0
 62
     7
  6
CONTINUOUS
  0
LAYER
  2
3
 70
     0
 62
     2
  6
CONTINUOUS
  0
LAYER
  2
2
 70
     0
 62
     3
  6
CENTER
  0
LAYER
  2
1
 70
     0
 62
     4
  6
CONTINUOUS
  0
LAYER
  2
4
 70
     0
 62
     7
  6
CONTINUOUS
  0
LAYER
  2
DEFPOINTS
 70
     0
 62
     7
  6
CONTINUOUS
  0
ENDTAB
  0
TABLE
  2
STYLE
 70
     1
  0
STYLE
  2
STANDARD
 70
     0
 40
0.0
 41
1.0
 50
0.0
 71
     0
 42
180.0
  3
simplex.shx
  4
extfont.shx
  0
ENDTAB
  0
TABLE
  2
VIEW
 70
     0
  0
ENDTAB
  0
TABLE
  2
UCS
 70
     0
  0
ENDTAB
  0
TABLE
  2
APPID
 70
     1
  0
APPID
  2
ACAD
 70
     0
  0
ENDTAB
  0
TABLE
  2
DIMSTYLE
 70
     1
  0
DIMSTYLE
  2
IGA
 70
     0
  3

  4

  5

  6
OPEN
  7
OPEN
 40
2.0
 41
2.0
 42
0.5
 43
10.0
 44
1.0
 45
0.0
 46
0.0
 47
1.0
 48
1.0
140
3.0
141
0.0
142
0.0
143
0.03937
144
1.0
145
0.0
146
10.0
147
1.0
 71
     0
 72
     0
 73
     0
 74
     0
 75
     0
 76
     0
 77
     1
 78
     8
170
     0
171
     2
172
     0
173
     1
174
     0
175
     0
176
     0
177
     0
178
     0
  0
ENDTAB
  0
ENDSEC
  0
SECTION
  2
BLOCKS
  0
BLOCK
  8
0
  2
$MODEL_SPACE
 70
     0
 10
0.0
 20
0.0
 30
0.0
  3
$MODEL_SPACE
  1

  0
ENDBLK
  5
1B
  8
0
  0
BLOCK
 67
     1
  8
0
  2
$PAPER_SPACE
 70
     0
 10
0.0
 20
0.0
 30
0.0
  3
$PAPER_SPACE
  1

  0
ENDBLK
  5
18
 67
     1
  8
0
  0
BLOCK
  8
0
  2
_OPEN
 70
     0
 10
0.0
 20
0.0
 30
0.0
  3
_OPEN
  1

  0
LINE
  5
7AC8
  8
0
  6
BYBLOCK
 62
     0
 10
-1.0
 20
0.166667
 30
0.0
 11
0.0
 21
0.0
 31
0.0
  0
LINE
  5
7AC9
  8
0
  6
BYBLOCK
 62
     0
 10
0.0
 20
0.0
 30
0.0
 11
-1.0
 21
-0.166667
 31
0.0
  0
LINE
  5
7ACA
  8
0
  6
BYBLOCK
 62
     0
 10
0.0
 20
0.0
 30
0.0
 11
-1.0
 21
0.0
 31
0.0
  0
ENDBLK
  5
7ACB
  8
0
  0
BLOCK
  8
0
  2
*D1
 70
     1
 10
0.0
 20
0.0
 30
0.0
  3
*D1
  1

  0
LINE
  5
7EAA
  8
3
  6
CONTINUOUS
 62
     0
 10
834.55452487416005
 20
2832.3579437721619
 30
0.0
 11
834.55452487416005
 21
2587.7447707721608
 31
0.0
  0
LINE
  5
7EAB
  8
3
  6
CONTINUOUS
 62
     0
 10
1834.5545248741601
 20
2679.3605827721608
 30
0.0
 11
1834.5545248741601
 21
2587.7447707721608
 31
0.0
  0
LINE
  5
7EAC
  8
3
  6
CONTINUOUS
 62
     0
 10
894.55452487416005
 20
2617.7447707721622
 30
0.0
 11
1774.5545248741601
 21
2617.7447707721622
 31
0.0
  0
INSERT
  5
7EAD
  8
3
  6
CONTINUOUS
 62
     0
  2
_OPEN
 10
834.55452487416005
 20
2617.7447707721622
 30
0.0
 41
60.0
 42
60.0
 43
60.0
 50
180.0
  0
INSERT
  5
7EAE
  8
3
  6
CONTINUOUS
 62
     0
  2
_OPEN
 10
1834.5545248741601
 20
2617.7447707721622
 30
0.0
 41
60.0
 42
60.0
 43
60.0
  0
TEXT
  8
3
  40
90
  5
7F1F
  62
0
  72
0
  71
0
 10
1161.95
 20
2533.44
 30
0.000000
  1
1000
  0
POINT
  5
7EB0
  8
DEFPOINTS
  6
CONTINUOUS
 62
     0
 10
834.55452487416005
 20
2847.357943772161
 30
0.0
  0
POINT
  5
7EB1
  8
DEFPOINTS
  6
CONTINUOUS
 62
     0
 10
1834.5545248741601
 20
2694.3605827721608
 30
0.0
  0
POINT
  5
7EB2
  8
DEFPOINTS
  6
CONTINUOUS
 62
     0
 10
1834.5545248741601
 20
2617.7447707721622
 30
0.0
  0
ENDBLK
  5
7D23
  8
0
  0
BLOCK
  8
0
  2
*D2
 70
     1
 10
0.0
 20
0.0
 30
0.0
  3
*D2
  1

  0
LINE
  5
7D51
  8
0
  6
BYBLOCK
 62
     0
 10
1834.5545248741601
 20
2679.3605827721608
 30
0.0
 11
1834.5545248741601
 21
2587.7447707721608
 31
0.0
  0
LINE
  5
7D52
  8
0
  6
BYBLOCK
 62
     0
 10
2234.5545248741601
 20
2832.3579437721619
 30
0.0
 11
2234.5545248741601
 21
2587.7447707721608
 31
0.0
  0
LINE
  5
7D53
  8
0
  6
BYBLOCK
 62
     0
 10
1894.5545248741601
 20
2617.7447707721622
 30
0.0
 11
2174.5545248741601
 21
2617.7447707721622
 31
0.0
  0
TEXT
  5
7D54
  8
3
 62
     0
 10
1918.840239159874
 20
2637.3658526942049
 30
0.0
 40
90.0
  1
400
  0
INSERT
  5
7D55
  8
0
  6
BYBLOCK
 62
     0
  2
_OPEN
 10
1834.5545248741601
 20
2617.7447707721622
 30
0.0
 41
60.0
 42
60.0
 43
60.0
 50
180.0
  0
INSERT
  5
7D56
  8
0
  6
BYBLOCK
 62
     0
  2
_OPEN
 10
2234.5545248741601
 20
2617.7447707721622
 30
0.0
 41
60.0
 42
60.0
 43
60.0
  0
POINT
  5
7D57
  8
DEFPOINTS
  6
BYBLOCK
 62
     0
 10
1834.5545248741601
 20
2694.3605827721608
 30
0.0
  0
POINT
  5
7D58
  8
DEFPOINTS
  6
BYBLOCK
 62
     0
 10
2234.5545248741601
 20
2847.357943772161
 30
0.0
  0
POINT
  5
7D59
  8
DEFPOINTS
  6
BYBLOCK
 62
     0
 10
2234.5545248741601
 20
2617.7447707721622
 30
0.0
  0
ENDBLK
  5
7D5A
  8
0
  0
BLOCK
  8
0
  2
*D3
 70
     1
 10
0.0
 20
0.0
 30
0.0
  3
*D3
  1

  0
LINE
  5
7EB3
  8
3
  6
CONTINUOUS
 62
     0
 10
1156.5545248741589
 20
3902.3579437721619
 30
0.0
 11
1156.5545248741589
 21
4071.1757127721621
 31
0.0
  0
LINE
  5
7EB4
  8
3
  6
CONTINUOUS
 62
     0
 10
1806.5545248741601
 20
3902.3579437721619
 30
0.0
 11
1806.5545248741601
 21
4071.1757127721621
 31
0.0
  0
LINE
  5
7EB5
  8
3
  6
CONTINUOUS
 62
     0
 10
1216.5545248741601
 20
4041.1757127721621
 30
0.0
 11
1746.5545248741601
 21
4041.1757127721621
 31
0.0
  0
INSERT
  5
7EB6
  8
3
  6
CONTINUOUS
 62
     0
  2
_OPEN
 10
1156.5545248741589
 20
4041.1757127721621
 30
0.0
 41
60.0
 42
60.0
 43
60.0
 50
180.0
  0
INSERT
  5
7EB7
  8
3
  6
CONTINUOUS
 62
     0
  2
_OPEN
 10
1806.5545248741601
 20
4041.1757127721621
 30
0.0
 41
60.0
 42
60.0
 43
60.0
  0
TEXT
  8
3
  40
90
  5
7F20
  62
0
  72
0
  71
0
 10
1306.72
 20
3956.88
 30
0.000000
  1
650
  0
POINT
  5
7EB9
  8
DEFPOINTS
  6
CONTINUOUS
 62
     0
 10
1156.5545248741589
 20
3887.3579437721619
 30
0.0
  0
POINT
  5
7EBA
  8
DEFPOINTS
  6
CONTINUOUS
 62
     0
 10
1806.5545248741601
 20
3887.3579437721619
 30
0.0
  0
POINT
  5
7EBB
  8
DEFPOINTS
  6
CONTINUOUS
 62
     0
 10
1806.5545248741601
 20
4041.1757127721621
 30
0.0
  0
ENDBLK
  5
7D0B
  8
0
  0
BLOCK
  8
0
  2
*D4
 70
     1
 10
0.0
 20
0.0
 30
0.0
  3
*D4
  1

  0
LINE
  5
7EBC
  8
3
  6
CONTINUOUS
 62
     0
 10
1156.5545248741589
 20
3902.3579437721619
 30
0.0
 11
1156.5545248741589
 21
4264.0749137721614
 31
0.0
  0
LINE
  5
7EBD
  8
3
  6
CONTINUOUS
 62
     0
 10
1834.5545248741601
 20
3819.6365307721621
 30
0.0
 11
1834.5545248741601
 21
4264.0749137721614
 31
0.0
  0
LINE
  5
7EBE
  8
3
  6
CONTINUOUS
 62
     0
 10
1216.5545248741601
 20
4234.0749137721614
 30
0.0
 11
1774.5545248741601
 21
4234.0749137721614
 31
0.0
  0
INSERT
  5
7EBF
  8
3
  6
CONTINUOUS
 62
     0
  2
_OPEN
 10
1156.5545248741589
 20
4234.0749137721614
 30
0.0
 41
60.0
 42
60.0
 43
60.0
 50
180.0
  0
INSERT
  5
7EC0
  8
3
  6
CONTINUOUS
 62
     0
  2
_OPEN
 10
1834.5545248741601
 20
4234.0749137721614
 30
0.0
 41
60.0
 42
60.0
 43
60.0
  0
TEXT
  8
3
  40
90
  5
7F21
  62
0
  72
0
  71
0
 10
1318.79
 20
4149.77
 30
0.000000
  1
678
  0
POINT
  5
7EC2
  8
DEFPOINTS
  6
CONTINUOUS
 62
     0
 10
1156.5545248741589
 20
3887.3579437721619
 30
0.0
  0
POINT
  5
7EC3
  8
DEFPOINTS
  6
CONTINUOUS
 62
     0
 10
1834.5545248741601
 20
3804.6365307721612
 30
0.0
  0
POINT
  5
7EC4
  8
DEFPOINTS
  6
CONTINUOUS
 62
     0
 10
1834.5545248741601
 20
4234.0749137721614
 30
0.0
  0
ENDBLK
  5
7D00
  8
0
  0
BLOCK
  8
0
  2
*D5
 70
     1
 10
0.0
 20
0.0
 30
0.0
  3
*D5
  1

  0
LINE
  5
7EC5
  8
3
  6
CONTINUOUS
 62
     0
 10
1834.5545248741601
 20
3819.6365307721621
 30
0.0
 11
1834.5545248741601
 21
4264.0749137721614
 31
0.0
  0
LINE
  5
7EC6
  8
3
  6
CONTINUOUS
 62
     0
 10
2288.2534458741611
 20
3442.3579437721619
 30
0.0
 11
2288.2534458741611
 21
4264.0749137721614
 31
0.0
  0
LINE
  5
7EC7
  8
3
  6
CONTINUOUS
 62
     0
 10
1894.5545248741601
 20
4234.0749137721614
 30
0.0
 11
2228.2534458741611
 21
4234.0749137721614
 31
0.0
  0
INSERT
  5
7EC8
  8
3
  6
CONTINUOUS
 62
     0
  2
_OPEN
 10
1834.5545248741601
 20
4234.0749137721614
 30
0.0
 41
60.0
 42
60.0
 43
60.0
 50
180.0
  0
INSERT
  5
7EC9
  8
3
  6
CONTINUOUS
 62
     0
  2
_OPEN
 10
2288.2534458741611
 20
4234.0749137721614
 30
0.0
 41
60.0
 42
60.0
 43
60.0
  0
TEXT
  8
3
  40
90
  5
7F22
  62
0
  72
0
  71
0
 10
1900.40
 20
4149.77
 30
0.000000
  1
454
  0
POINT
  5
7ECB
  8
DEFPOINTS
  6
CONTINUOUS
 62
     0
 10
1834.5545248741601
 20
3804.6365307721612
 30
0.0
  0
POINT
  5
7ECC
  8
DEFPOINTS
  6
CONTINUOUS
 62
     0
 10
2288.2534458741611
 20
3427.3579437721619
 30
0.0
  0
POINT
  5
7ECD
  8
DEFPOINTS
  6
CONTINUOUS
 62
     0
 10
2288.2534458741611
 20
4234.0749137721614
 30
0.0
  0
ENDBLK
  5
7CF5
  8
0
  0
BLOCK
  8
0
  2
*D6
 70
     1
 10
0.0
 20
0.0
 30
0.0
  3
*D6
  1

  0
LINE
  5
7ECE
  8
3
  6
CONTINUOUS
 62
     0
 10
1863.5545248741601
 20
3887.3579437721619
 30
0.0
 11
2699.838994874161
 21
3887.3579437721619
 31
0.0
  0
LINE
  5
7ECF
  8
3
  6
CONTINUOUS
 62
     0
 10
2303.2534458741611
 20
3427.3579437721619
 30
0.0
 11
2699.838994874161
 21
3427.3579437721619
 31
0.0
  0
LINE
  5
7ED0
  8
3
  6
CONTINUOUS
 62
     0
 10
2669.838994874161
 20
3827.3579437721619
 30
0.0
 11
2669.838994874161
 21
3487.3579437721619
 31
0.0
  0
INSERT
  5
7ED1
  8
3
  6
CONTINUOUS
 62
     0
  2
_OPEN
 10
2669.838994874161
 20
3887.3579437721619
 30
0.0
 41
60.0
 42
60.0
 43
60.0
 50
90.0
  0
INSERT
  5
7ED2
  8
3
  6
CONTINUOUS
 62
     0
  2
_OPEN
 10
2669.838994874161
 20
3427.3579437721619
 30
0.0
 41
60.0
 42
60.0
 43
60.0
 50
270.0
  0
TEXT
  8
3
  40
90
  5
7F23
  62
0
  72
0
  71
0
 10
2414.84
 20
3522.34
 30
0.000000
  1
460
  0
POINT
  5
7ED4
  8
DEFPOINTS
  6
CONTINUOUS
 62
     0
 10
1848.5545248741601
 20
3887.3579437721619
 30
0.0
  0
POINT
  5
7ED5
  8
DEFPOINTS
  6
CONTINUOUS
 62
     0
 10
2288.2534458741611
 20
3427.3579437721619
 30
0.0
  0
POINT
  5
7ED6
  8
DEFPOINTS
  6
CONTINUOUS
 62
     0
 10
2669.838994874161
 20
3427.3579437721619
 30
0.0
  0
ENDBLK
  5
7CEA
  8
0
  0
BLOCK
  8
0
  2
*D7
 70
     1
 10
0.0
 20
0.0
 30
0.0
  3
*D7
  1

  0
LINE
  5
7ED7
  8
3
  6
CONTINUOUS
 62
     0
 10
2303.2534458741611
 20
3427.3579437721619
 30
0.0
 11
2699.838994874161
 21
3427.3579437721619
 31
0.0
  0
LINE
  5
7ED8
  8
3
  6
CONTINUOUS
 62
     0
 10
2249.5545248741591
 20
2847.357943772161
 30
0.0
 11
2699.838994874161
 21
2847.357943772161
 31
0.0
  0
LINE
  5
7ED9
  8
3
  6
CONTINUOUS
 62
     0
 10
2669.838994874161
 20
3367.3579437721619
 30
0.0
 11
2669.8389948741601
 21
2907.357943772161
 31
0.0
  0
INSERT
  5
7EDA
  8
3
  6
CONTINUOUS
 62
     0
  2
_OPEN
 10
2669.838994874161
 20
3427.3579437721619
 30
0.0
 41
60.0
 42
60.0
 43
60.0
 50
90.0
  0
INSERT
  5
7EDB
  8
3
  6
CONTINUOUS
 62
     0
  2
_OPEN
 10
2669.8389948741601
 20
2847.357943772161
 30
0.0
 41
60.0
 42
60.0
 43
60.0
 50
270.0
  0
TEXT
  8
3
  40
90
  5
7F24
  62
0
  72
0
  71
0
 10
2414.84
 20
2978.06
 30
0.000000
  1
580
  0
POINT
  5
7EDD
  8
DEFPOINTS
  6
CONTINUOUS
 62
     0
 10
2288.2534458741611
 20
3427.3579437721619
 30
0.0
  0
POINT
  5
7EDE
  8
DEFPOINTS
  6
CONTINUOUS
 62
     0
 10
2234.5545248741601
 20
2847.357943772161
 30
0.0
  0
POINT
  5
7EDF
  8
DEFPOINTS
  6
CONTINUOUS
 62
     0
 10
2669.8389948741601
 20
2847.357943772161
 30
0.0
  0
ENDBLK
  5
7CDF
  8
0
  0
BLOCK
  8
0
  2
*D8
 70
     1
 10
0.0
 20
0.0
 30
0.0
  3
*D8
  1

  0
LINE
  5
7EE0
  8
3
  6
CONTINUOUS
 62
     0
 10
1863.5545248741601
 20
3887.3579437721619
 30
0.0
 11
2908.957060874161
 21
3887.3579437721619
 31
0.0
  0
LINE
  5
7EE1
  8
3
  6
CONTINUOUS
 62
     0
 10
2249.5545248741591
 20
2847.357943772161
 30
0.0
 11
2908.957060874161
 21
2847.357943772161
 31
0.0
  0
LINE
  5
7EE2
  8
3
  6
CONTINUOUS
 62
     0
 10
2878.9570608741619
 20
3827.3579437721619
 30
0.0
 11
2878.9570608741601
 21
2907.357943772161
 31
0.0
  0
INSERT
  5
7EE3
  8
3
  6
CONTINUOUS
 62
     0
  2
_OPEN
 10
2878.9570608741619
 20
3887.3579437721619
 30
0.0
 41
60.0
 42
60.0
 43
60.0
 50
90.0
  0
INSERT
  5
7EE4
  8
3
  6
CONTINUOUS
 62
     0
  2
_OPEN
 10
2878.9570608741601
 20
2847.357943772161
 30
0.0
 41
60.0
 42
60.0
 43
60.0
 50
270.0
  0
TEXT
  8
3
  40
90
  5
7F25
  62
0
  72
0
  71
0
 10
2623.96
 20
3271.03
 30
0.000000
  1
1040
  0
POINT
  5
7EE6
  8
DEFPOINTS
  6
CONTINUOUS
 62
     0
 10
1848.5545248741601
 20
3887.3579437721619
 30
0.0
  0
POINT
  5
7EE7
  8
DEFPOINTS
  6
CONTINUOUS
 62
     0
 10
2234.5545248741601
 20
2847.357943772161
 30
0.0
  0
POINT
  5
7EE8
  8
DEFPOINTS
  6
CONTINUOUS
 62
     0
 10
2878.9570608741601
 20
2847.357943772161
 30
0.0
  0
ENDBLK
  5
7CD4
  8
0
  0
BLOCK
  8
0
  2
*D9
 70
     1
 10
0.0
 20
0.0
 30
0.0
  3
*D9
  1

  0
LINE
  5
7EE9
  8
3
  6
CONTINUOUS
 62
     0
 10
834.55452487416005
 20
5544.4579437721623
 30
0.0
 11
834.55452487416005
 21
5187.8579247721618
 31
0.0
  0
LINE
  5
7EEA
  8
3
  6
CONTINUOUS
 62
     0
 10
2234.5545248741601
 20
5544.4579437721623
 30
0.0
 11
2234.5545248741601
 21
5187.8579247721618
 31
0.0
  0
LINE
  5
7EEB
  8
3
  6
CONTINUOUS
 62
     0
 10
894.55452487416005
 20
5217.8579247721618
 30
0.0
 11
2174.5545248741601
 21
5217.8579247721618
 31
0.0
  0
INSERT
  5
7EEC
  8
3
  6
CONTINUOUS
 62
     0
  2
_OPEN
 10
834.55452487416005
 20
5217.8579247721618
 30
0.0
 41
60.0
 42
60.0
 43
60.0
 50
180.0
  0
INSERT
  5
7EED
  8
3
  6
CONTINUOUS
 62
     0
  2
_OPEN
 10
2234.5545248741601
 20
5217.8579247721618
 30
0.0
 41
60.0
 42
60.0
 43
60.0
  0
TEXT
  8
3
  40
90
  5
7F26
  62
0
  72
0
  71
0
 10
1355.78
 20
5133.56
 30
0.000000
  1
1400
  0
POINT
  5
7EEF
  8
DEFPOINTS
  6
CONTINUOUS
 62
     0
 10
834.55452487416005
 20
5559.4579437721623
 30
0.0
  0
POINT
  5
7EF0
  8
DEFPOINTS
  6
CONTINUOUS
 62
     0
 10
2234.5545248741601
 20
5559.4579437721623
 30
0.0
  0
POINT
  5
7EF1
  8
DEFPOINTS
  6
CONTINUOUS
 62
     0
 10
2234.5545248741601
 20
5217.8579247721618
 30
0.0
  0
ENDBLK
  5
7CC9
  8
0
  0
BLOCK
  8
0
  2
*D10
 70
     1
 10
0.0
 20
0.0
 30
0.0
  3
*D10
  1

  0
LINE
  5
7EF2
  8
3
  6
CONTINUOUS
 62
     0
 10
2249.5545248741591
 20
6249.4579437721632
 30
0.0
 11
2611.3659698741621
 21
6249.4579437721632
 31
0.0
  0
LINE
  5
7EF3
  8
3
  6
CONTINUOUS
 62
     0
 10
2249.5545248741591
 20
5559.4579437721623
 30
0.0
 11
2611.3659698741621
 21
5559.4579437721623
 31
0.0
  0
LINE
  5
7EF4
  8
3
  6
CONTINUOUS
 62
     0
 10
2581.3659698741621
 20
6189.4579437721623
 30
0.0
 11
2581.3659698741621
 21
5619.4579437721623
 31
0.0
  0
INSERT
  5
7EF5
  8
3
  6
CONTINUOUS
 62
     0
  2
_OPEN
 10
2581.3659698741621
 20
6249.4579437721632
 30
0.0
 41
60.0
 42
60.0
 43
60.0
 50
90.0
  0
INSERT
  5
7EF6
  8
3
  6
CONTINUOUS
 62
     0
  2
_OPEN
 10
2581.3659698741621
 20
5559.4579437721623
 30
0.0
 41
60.0
 42
60.0
 43
60.0
 50
270.0
  0
TEXT
  8
3
  40
90
  5
7F27
  62
0
  72
0
  71
0
 10
2326.37
 20
5737.72
 30
0.000000
  1
690
  0
POINT
  5
7EF8
  8
DEFPOINTS
  6
CONTINUOUS
 62
     0
 10
2234.5545248741601
 20
6249.4579437721632
 30
0.0
  0
POINT
  5
7EF9
  8
DEFPOINTS
  6
CONTINUOUS
 62
     0
 10
2234.5545248741601
 20
5559.4579437721623
 30
0.0
  0
POINT
  5
7EFA
  8
DEFPOINTS
  6
CONTINUOUS
 62
     0
 10
2581.3659698741621
 20
5559.4579437721623
 30
0.0
  0
ENDBLK
  5
7CBE
  8
0
  0
BLOCK
  8
0
  2
*D11
 70
     1
 10
0.0
 20
0.0
 30
0.0
  3
*D11
  1

  0
LINE
  5
7D5C
  8
0
  6
BYBLOCK
 62
     0
 10
4285.2256758741596
 20
2832.3579437721619
 30
0.0
 11
4285.2256758741596
 21
2599.8158337721611
 31
0.0
  0
LINE
  5
7D5D
  8
0
  6
BYBLOCK
 62
     0
 10
4685.2256758741596
 20
2711.265457772161
 30
0.0
 11
4685.2256758741596
 21
2599.8158337721611
 31
0.0
  0
LINE
  5
7D5E
  8
0
  6
BYBLOCK
 62
     0
 10
4345.2256758741596
 20
2629.8158337721611
 30
0.0
 11
4625.2256758741614
 21
2629.8158337721611
 31
0.0
  0
TEXT
  5
7D5F
  8
3
 62
     0
 10
4369.5113901598752
 20
2642.8484613727478
 30
0.0
 40
90.0
  1
400
  0
INSERT
  5
7D60
  8
0
  6
BYBLOCK
 62
     0
  2
_OPEN
 10
4285.2256758741596
 20
2629.8158337721611
 30
0.0
 41
60.0
 42
60.0
 43
60.0
 50
180.0
  0
INSERT
  5
7D61
  8
0
  6
BYBLOCK
 62
     0
  2
_OPEN
 10
4685.2256758741596
 20
2629.8158337721611
 30
0.0
 41
60.0
 42
60.0
 43
60.0
  0
POINT
  5
7D62
  8
DEFPOINTS
  6
BYBLOCK
 62
     0
 10
4285.2256758741596
 20
2847.357943772161
 30
0.0
  0
POINT
  5
7D63
  8
DEFPOINTS
  6
BYBLOCK
 62
     0
 10
4685.2256758741596
 20
2726.265457772161
 30
0.0
  0
POINT
  5
7D64
  8
DEFPOINTS
  6
BYBLOCK
 62
     0
 10
4685.2256758741596
 20
2629.8158337721611
 30
0.0
  0
ENDBLK
  5
7D65
  8
0
  0
BLOCK
  8
0
  2
*D12
 70
     1
 10
0.0
 20
0.0
 30
0.0
  3
*D12
  1

  0
LINE
  5
7D67
  8
0
  6
BYBLOCK
 62
     0
 10
4685.2256758741596
 20
2711.265457772161
 30
0.0
 11
4685.2256758741596
 21
2599.8158337721611
 31
0.0
  0
LINE
  5
7D68
  8
0
  6
BYBLOCK
 62
     0
 10
4975.2256758741614
 20
2832.3579437721619
 30
0.0
 11
4975.2256758741614
 21
2599.8158337721611
 31
0.0
  0
LINE
  5
7D69
  8
0
  6
BYBLOCK
 62
     0
 10
4745.2256758741596
 20
2629.8158337721611
 30
0.0
 11
4915.2256758741614
 21
2629.8158337721611
 31
0.0
  0
TEXT
  5
7D6A
  8
3
 62
     0
 10
4715.0057959653386
 20
2664.7789206426642
 30
0.0
 40
90.0
  1
290
  0
INSERT
  5
7D6B
  8
0
  6
BYBLOCK
 62
     0
  2
_OPEN
 10
4685.2256758741596
 20
2629.8158337721611
 30
0.0
 41
60.0
 42
60.0
 43
60.0
 50
180.0
  0
INSERT
  5
7D6C
  8
0
  6
BYBLOCK
 62
     0
  2
_OPEN
 10
4975.2256758741614
 20
2629.8158337721611
 30
0.0
 41
60.0
 42
60.0
 43
60.0
  0
POINT
  5
7D6D
  8
DEFPOINTS
  6
BYBLOCK
 62
     0
 10
4685.2256758741596
 20
2726.265457772161
 30
0.0
  0
POINT
  5
7D6E
  8
DEFPOINTS
  6
BYBLOCK
 62
     0
 10
4975.2256758741614
 20
2847.357943772161
 30
0.0
  0
POINT
  5
7D6F
  8
DEFPOINTS
  6
BYBLOCK
 62
     0
 10
4975.2256758741614
 20
2629.8158337721611
 30
0.0
  0
ENDBLK
  5
7D70
  8
0
  0
BLOCK
  8
0
  2
*D13
 70
     1
 10
0.0
 20
0.0
 30
0.0
  3
*D13
  1

  0
LINE
  5
7EFB
  8
3
  6
CONTINUOUS
 62
     0
 10
5020.2256758741614
 20
3742.3579437721619
 30
0.0
 11
5300.9165478741606
 21
3742.357943772161
 31
0.0
  0
LINE
  5
7EFC
  8
3
  6
CONTINUOUS
 62
     0
 10
5020.2256758741614
 20
3112.3579437721619
 30
0.0
 11
5300.9165478741606
 21
3112.3579437721619
 31
0.0
  0
LINE
  5
7EFD
  8
3
  6
CONTINUOUS
 62
     0
 10
5270.9165478741606
 20
3682.357943772161
 30
0.0
 11
5270.9165478741606
 21
3172.357943772161
 31
0.0
  0
INSERT
  5
7EFE
  8
3
  6
CONTINUOUS
 62
     0
  2
_OPEN
 10
5270.9165478741606
 20
3742.357943772161
 30
0.0
 41
60.0
 42
60.0
 43
60.0
 50
90.0
  0
INSERT
  5
7EFF
  8
3
  6
CONTINUOUS
 62
     0
  2
_OPEN
 10
5270.9165478741606
 20
3112.3579437721619
 30
0.0
 41
60.0
 42
60.0
 43
60.0
 50
270.0
  0
TEXT
  8
3
  40
90
  5
7F28
  62
0
  72
0
  71
0
 10
5015.92
 20
3282.30
 30
0.000000
  1
φ630
  0
POINT
  5
7F01
  8
DEFPOINTS
  6
CONTINUOUS
 62
     0
 10
5005.2256758741614
 20
3742.3579437721619
 30
0.0
  0
POINT
  5
7F02
  8
DEFPOINTS
  6
CONTINUOUS
 62
     0
 10
5005.2256758741614
 20
3112.3579437721619
 30
0.0
  0
POINT
  5
7F03
  8
DEFPOINTS
  6
CONTINUOUS
 62
     0
 10
5270.9165478741606
 20
3112.3579437721619
 30
0.0
  0
ENDBLK
  5
7D86
  8
0
  0
BLOCK
  8
0
  2
*D14
 70
     1
 10
0.0
 20
0.0
 30
0.0
  3
*D14
  1

  0
LINE
  5
7F04
  8
3
  6
CONTINUOUS
 62
     0
 10
4447.7256758741596
 20
3902.3579437721619
 30
0.0
 11
4447.7256758741596
 21
4008.504359772161
 31
0.0
  0
LINE
  5
7F05
  8
3
  6
CONTINUOUS
 62
     0
 10
4922.7256758741596
 20
3902.3579437721619
 30
0.0
 11
4922.7256758741596
 21
4008.504359772161
 31
0.0
  0
LINE
  5
7F06
  8
3
  6
CONTINUOUS
 62
     0
 10
4507.7256758741596
 20
3978.504359772161
 30
0.0
 11
4862.7256758741614
 21
3978.504359772161
 31
0.0
  0
INSERT
  5
7F07
  8
3
  6
CONTINUOUS
 62
     0
  2
_OPEN
 10
4447.7256758741596
 20
3978.504359772161
 30
0.0
 41
60.0
 42
60.0
 43
60.0
 50
180.0
  0
INSERT
  5
7F08
  8
3
  6
CONTINUOUS
 62
     0
  2
_OPEN
 10
4922.7256758741596
 20
3978.504359772161
 30
0.0
 41
60.0
 42
60.0
 43
60.0
  0
TEXT
  8
3
  40
90
  5
7F29
  62
0
  72
0
  71
0
 10
4505.23
 20
3894.20
 30
0.000000
  1
475
  0
POINT
  5
7F0A
  8
DEFPOINTS
  6
CONTINUOUS
 62
     0
 10
4447.7256758741596
 20
3887.3579437721619
 30
0.0
  0
POINT
  5
7F0B
  8
DEFPOINTS
  6
CONTINUOUS
 62
     0
 10
4922.7256758741596
 20
3887.3579437721619
 30
0.0
  0
POINT
  5
7F0C
  8
DEFPOINTS
  6
CONTINUOUS
 62
     0
 10
4922.7256758741596
 20
3978.504359772161
 30
0.0
  0
ENDBLK
  5
7C8F
  8
0
  0
BLOCK
  8
0
  2
*D15
 70
     1
 10
0.0
 20
0.0
 30
0.0
  3
*D15
  1

  0
LINE
  5
7F0D
  8
3
  6
CONTINUOUS
 62
     0
 10
4205.2256758741596
 20
3632.3579437721619
 30
0.0
 11
4205.2256758741596
 21
4235.3902510420767
 31
0.0
  0
LINE
  5
7F0E
  8
3
  6
CONTINUOUS
 62
     0
 10
4685.2256758741596
 20
4150.2589450774276
 30
0.0
 11
4685.2256758741596
 21
4235.3902510420767
 31
0.0
  0
LINE
  5
7F0F
  8
3
  6
CONTINUOUS
 62
     0
 10
4265.2256758741614
 20
4205.3902510420776
 30
0.0
 11
4625.2256758741614
 21
4205.3902510420776
 31
0.0
  0
INSERT
  5
7F10
  8
3
  6
CONTINUOUS
 62
     0
  2
_OPEN
 10
4205.2256758741596
 20
4205.3902510420776
 30
0.0
 41
60.0
 42
60.0
 43
60.0
 50
180.0
  0
INSERT
  5
7F11
  8
3
  6
CONTINUOUS
 62
     0
  2
_OPEN
 10
4685.2256758741596
 20
4205.3902510420776
 30
0.0
 41
60.0
 42
60.0
 43
60.0
  0
TEXT
  8
3
  40
90
  5
7F2A
  62
0
  72
0
  71
0
 10
4243.80
 20
4196.09
 30
0.000000
  1
MAX
  0
TEXT
  8
3
  40
90
  5
7F2B
  62
0
  72
0
  71
0
 10
4243.80
 20
4079.09
 30
0.000000
  1
550
  0
POINT
  5
7F13
  8
DEFPOINTS
  6
CONTINUOUS
 62
     0
 10
4205.2256758741596
 20
3617.3579437721619
 30
0.0
  0
POINT
  5
7F14
  8
DEFPOINTS
  6
CONTINUOUS
 62
     0
 10
4685.2256758741596
 20
4135.2589450774294
 30
0.0
  0
POINT
  5
7F15
  8
DEFPOINTS
  6
CONTINUOUS
 62
     0
 10
4685.2256758741596
 20
4205.3902510420776
 30
0.0
  0
ENDBLK
  5
7DE4
  8
0
  0
BLOCK
  8
0
  2
*D16
 70
     1
 10
0.0
 20
0.0
 30
0.0
  3
*D16
  1

  0
LINE
  5
7DB4
  8
0
  6
BYBLOCK
 62
     0
 10
4685.2256758741596
 20
4150.2589450774276
 30
0.0
 11
4685.2256758741596
 21
4235.3902510420767
 31
0.0
  0
LINE
  5
7DB5
  8
0
  6
BYBLOCK
 62
     0
 10
5005.2256758741614
 20
3757.3579437721619
 30
0.0
 11
5005.2256758741614
 21
4235.3902510420767
 31
0.0
  0
LINE
  5
7DB6
  8
0
  6
BYBLOCK
 62
     0
 10
4745.2256758741596
 20
4205.3902510420776
 30
0.0
 11
4945.2256758741596
 21
4205.3902510420776
 31
0.0
  0
TEXT
  5
7DB7
  8
3
 62
     0
 10
4742.4415014893211
 20
4249.2547932011248
 30
0.0
 40
90.0
  1
320
  0
INSERT
  5
7DB8
  8
0
  6
BYBLOCK
 62
     0
  2
_OPEN
 10
4685.2256758741596
 20
4205.3902510420776
 30
0.0
 41
60.0
 42
60.0
 43
60.0
 50
180.0
  0
INSERT
  5
7DB9
  8
0
  6
BYBLOCK
 62
     0
  2
_OPEN
 10
5005.2256758741614
 20
4205.3902510420776
 30
0.0
 41
60.0
 42
60.0
 43
60.0
  0
POINT
  5
7DBA
  8
DEFPOINTS
  6
BYBLOCK
 62
     0
 10
4685.2256758741596
 20
4135.2589450774294
 30
0.0
  0
POINT
  5
7DBB
  8
DEFPOINTS
  6
BYBLOCK
 62
     0
 10
5005.2256758741614
 20
3742.3579437721619
 30
0.0
  0
POINT
  5
7DBC
  8
DEFPOINTS
  6
BYBLOCK
 62
     0
 10
5005.2256758741614
 20
4205.3902510420776
 30
0.0
  0
ENDBLK
  5
7DBD
  8
0
  0
BLOCK
  8
0
  2
*D17
 70
     1
 10
0.0
 20
0.0
 30
0.0
  3
*D17
  1

  0
LINE
  5
7F16
  8
3
 62
     0
 10
2288.2534458741611
 20
3457.3579437721619
 30
0.0
 11
2288.2534458741611
 21
4466.8027907334581
 31
0.0
  0
LINE
  5
7F17
  8
3
 62
     0
 10
834.55452487416005
 20
2962.3579437721619
 30
0.0
 11
834.55452487416005
 21
4466.8027907334581
 31
0.0
  0
LINE
  5
7F18
  8
3
 62
     0
 10
2228.2534458741611
 20
4436.8027907334581
 30
0.0
 11
894.55452487416017
 21
4436.8027907334581
 31
0.0
  0
INSERT
  5
7F19
  8
3
 62
     0
  2
_OPEN
 10
2288.2534458741611
 20
4436.8027907334581
 30
0.0
 41
60.0
 42
60.0
 43
60.0
  0
INSERT
  5
7F1A
  8
3
 62
     0
  2
_OPEN
 10
834.55452487416005
 20
4436.8027907334581
 30
0.0
 41
60.0
 42
60.0
 43
60.0
 50
180.0
  0
TEXT
  8
3
  40
90
  5
7F2C
  62
0
  72
0
  71
0
 10
1287.10
 20
4352.50
 30
0.000000
  1
1454
  0
POINT
  5
7F1C
  8
DEFPOINTS
 62
     0
 10
2288.2534458741611
 20
3442.3579437721619
 30
0.0
  0
POINT
  5
7F1D
  8
DEFPOINTS
 62
     0
 10
834.55452487416005
 20
2947.357943772161
 30
0.0
  0
POINT
  5
7F1E
  8
DEFPOINTS
 62
     0
 10
834.55452487416005
 20
4436.8027907334581
 30
0.0
  0
ENDBLK
  5
7DD4
  8
0
  0
ENDSEC
  0
SECTION
  2
ENTITIES
  0
LINE
  5
7A63
  8
1
  6
CONTINUOUS
 10
4205.2256758741596
 20
3617.3579437721619
 30
0.0
 11
4365.2256758741596
 21
3617.3579437721619
 31
0.0
  0
LINE
  5
7A64
  8
1
  6
CONTINUOUS
 10
4447.7256758741596
 20
3143.3579437721619
 30
0.0
 11
4325.2256758741596
 21
3143.3579437721619
 31
0.0
  0
LINE
  5
7A65
  8
1
  6
CONTINUOUS
 10
4447.7256758741596
 20
3105.3579437721619
 30
0.0
 11
4325.2256758741596
 21
3105.3579437721619
 31
0.0
  0
LINE
  5
7A66
  8
1
  6
CONTINUOUS
 10
4447.7256758741596
 20
3408.357943772161
 30
0.0
 11
4325.2256758741596
 21
3408.357943772161
 31
0.0
  0
LINE
  5
7A67
  8
1
  6
CONTINUOUS
 10
4447.7256758741596
 20
3446.3579437721619
 30
0.0
 11
4325.2256758741596
 21
3446.3579437721619
 31
0.0
  0
LINE
  5
7A68
  8
1
  6
CONTINUOUS
 10
4205.2256758741596
 20
2954.3579437721619
 30
0.0
 11
4365.2256758741596
 21
2954.3579437721619
 31
0.0
  0
LINE
  5
7A69
  8
1
  6
CONTINUOUS
 10
4975.2256758741614
 20
2847.357943772161
 30
0.0
 11
4285.2256758741596
 21
2847.357943772161
 31
0.0
  0
LINE
  5
7A6A
  8
1
  6
CONTINUOUS
 10
4975.2256758741614
 20
2947.357943772161
 30
0.0
 11
4285.2256758741596
 21
2947.357943772161
 31
0.0
  0
CIRCLE
  5
7A6B
  8
1
  6
CONTINUOUS
 10
1834.5545248741601
 20
3427.3579437721619
 30
0.0
 40
355.0
  0
CIRCLE
  5
7A6C
  8
1
  6
CONTINUOUS
 10
1834.5545248741601
 20
3427.3579437721619
 30
0.0
 40
315.0
  0
LINE
  5
7A6D
  8
1
  6
CONTINUOUS
 10
2234.5545248741601
 20
2947.357943772161
 30
0.0
 11
834.55452487416005
 21
2947.357943772161
 31
0.0
  0
LINE
  5
7A6E
  8
1
  6
CONTINUOUS
 10
1806.5545248741601
 20
3847.357943772161
 30
0.0
 11
1156.5545248741589
 21
3847.357943772161
 31
0.0
  0
ARC
  5
7A6F
  8
1
  6
CONTINUOUS
 10
1787.5545248741601
 20
3474.3579437721619
 30
0.0
 40
596.89999999999998
 50
184.49999999999989
 51
270.0
  0
LINE
  5
7A70
  8
1
  6
CONTINUOUS
 10
2234.5545248741601
 20
2847.357943772161
 30
0.0
 11
834.55452487416005
 21
2847.357943772161
 31
0.0
  0
LINE
  5
7A71
  8
1
  6
CONTINUOUS
 10
1848.5545248741601
 20
3887.3579437721619
 30
0.0
 11
1114.5545248741589
 21
3887.3579437721619
 31
0.0
  0
LINE
  5
7A72
  8
1
  6
CONTINUOUS
 10
983.95452487415969
 20
3189.5579437721608
 30
0.0
 11
1801.65452487416
 21
3511.1579437721612
 31
0.0
  0
LINE
  5
7A73
  8
1
  6
CONTINUOUS
 10
947.35452487416114
 20
3282.5579437721608
 30
0.0
 11
1765.0545248741601
 21
3604.2579437721611
 31
0.0
  0
LINE
  5
7A74
  8
1
  6
CONTINUOUS
 10
1032.15452487416
 20
3058.1579437721612
 30
0.0
 11
1863.65452487416
 21
3342.2579437721611
 31
0.0
  0
LINE
  5
7A75
  8
1
  6
CONTINUOUS
 10
1064.5545248741601
 20
2963.5579437721622
 30
0.0
 11
1895.9545248741599
 21
3247.5579437721622
 31
0.0
  0
LINE
  5
7A76
  8
1
  6
CONTINUOUS
 10
1184.5545248741601
 20
2947.357943772161
 30
0.0
 11
1174.5545248741601
 21
2992.3579437721619
 31
0.0
  0
LINE
  5
7A77
  8
1
  6
CONTINUOUS
 10
1156.5545248741589
 20
3887.3579437721619
 30
0.0
 11
1192.5545248741601
 21
3427.3579437721619
 31
0.0
  0
LINE
  5
7A78
  8
2
  6
CENTER
 10
939.55452487416005
 20
3124.3579437721619
 30
0.0
 11
1079.5545248741601
 21
3124.3579437721619
 31
0.0
  0
ARC
  5
7A79
  8
1
  6
CONTINUOUS
 10
1009.5545248741601
 20
3124.3579437721619
 30
0.0
 40
170.0
 50
111.4999999999999
 51
288.89999999999992
  0
CIRCLE
  5
7A7A
  8
1
  6
CONTINUOUS
 10
1009.5545248741601
 20
3124.3579437721619
 30
0.0
 40
70.0
  0
LINE
  5
7A7B
  8
1
  6
CONTINUOUS
 10
1174.5545248741601
 20
2992.3579437721619
 30
0.0
 11
844.55452487416005
 21
2992.3579437721619
 31
0.0
  0
ARC
  5
7A7C
  8
1
  6
CONTINUOUS
 10
1009.5545248741601
 20
3124.3579437721619
 30
0.0
 40
142.0
 50
324.60000000000002
 51
215.39999999999989
  0
LINE
  5
7A7D
  8
1
  6
CONTINUOUS
 10
844.55452487416005
 20
2992.3579437721619
 30
0.0
 11
834.55452487416005
 21
2947.357943772161
 31
0.0
  0
LINE
  5
7A7E
  8
1
  6
CONTINUOUS
 10
879.55452487416005
 20
2992.3579437721619
 30
0.0
 11
879.55452487416005
 21
3007.3579437721619
 31
0.0
  0
LINE
  5
7A7F
  8
1
  6
CONTINUOUS
 10
879.55452487416005
 20
3007.3579437721619
 30
0.0
 11
893.85452487416114
 21
3042.1579437721612
 31
0.0
  0
LINE
  5
7A80
  8
1
  6
CONTINUOUS
 10
834.55452487416005
 20
2947.357943772161
 30
0.0
 11
834.55452487416005
 21
2847.357943772161
 31
0.0
  0
LINE
  5
7A81
  8
2
  6
CENTER
 10
1009.5545248741601
 20
3054.3579437721619
 30
0.0
 11
1009.5545248741601
 21
3194.3579437721619
 31
0.0
  0
LINE
  5
7A82
  8
1
  6
CONTINUOUS
 10
1139.5545248741601
 20
3007.3579437721619
 30
0.0
 11
1125.2545248741601
 21
3042.1579437721612
 31
0.0
  0
LINE
  5
7A83
  8
1
  6
CONTINUOUS
 10
1139.5545248741601
 20
2992.3579437721619
 30
0.0
 11
1139.5545248741601
 21
3007.3579437721619
 31
0.0
  0
ARC
  5
7A84
  8
1
  6
CONTINUOUS
 10
1872.5545248741601
 20
3389.3579437721619
 30
0.0
 40
417.39999999999992
 50
6.0
 51
90.0
  0
ARC
  5
7A85
  8
1
  6
CONTINUOUS
 10
1787.5545248741601
 20
3380.357943772161
 30
0.0
 40
502.89999999999992
 50
270.0
 51
6.0
  0
ARC
  5
7A86
  8
1
  6
CONTINUOUS
 10
1834.5545248741601
 20
3427.3579437721619
 30
0.0
 40
190.0
 50
288.89999999999992
 51
111.4999999999999
  0
LINE
  5
7A87
  8
2
  6
CENTER
 10
5035.5658228741604
 20
3427.3579437721619
 30
0.0
 11
4155.801438691502
 21
3427.3579437721619
 31
0.0
  0
CIRCLE
  5
7A88
  8
1
  6
CONTINUOUS
 10
1834.5545248741601
 20
3427.3579437721619
 30
0.0
 40
90.0
  0
ARC
  5
7A89
  8
1
  6
CONTINUOUS
 10
1872.5545248741601
 20
3465.357943772161
 30
0.0
 40
341.39999999999992
 50
90.0
 51
101.09999999999989
  0
LINE
  5
7A8A
  8
2
  6
CENTER
 10
1834.5545248741601
 20
2687.8484613727451
 30
0.0
 11
1834.5545248741601
 21
3774.9968147281261
 31
0.0
  0
LINE
  5
7A8B
  8
1
  6
CONTINUOUS
 10
1806.5545248741601
 20
3800.3579437721619
 30
0.0
 11
1806.5545248741601
 21
3887.3579437721619
 31
0.0
  0
LINE
  5
7A8C
  8
1
  6
CONTINUOUS
 10
2234.5545248741601
 20
2947.357943772161
 30
0.0
 11
2234.5545248741601
 21
2847.357943772161
 31
0.0
  0
LINE
  5
7A8D
  8
1
  6
CONTINUOUS
 10
4205.2256758741596
 20
3617.3579437721619
 30
0.0
 11
4205.2256758741596
 21
2954.3579437721619
 31
0.0
  0
LINE
  5
7A8E
  8
1
  6
CONTINUOUS
 10
4325.2256758741596
 20
3194.3579437721619
 30
0.0
 11
4325.2256758741596
 21
3054.3579437721619
 31
0.0
  0
LINE
  5
7A8F
  8
1
  6
CONTINUOUS
 10
4245.2256758741596
 20
3194.3579437721619
 30
0.0
 11
4245.2256758741596
 21
3054.3579437721619
 31
0.0
  0
LINE
  5
7A90
  8
1
  6
CONTINUOUS
 10
4245.2256758741596
 20
3054.3579437721619
 30
0.0
 11
4325.2256758741596
 21
3054.3579437721619
 31
0.0
  0
LINE
  5
7A91
  8
1
  6
CONTINUOUS
 10
4245.2256758741596
 20
3194.3579437721619
 30
0.0
 11
4325.2256758741596
 21
3194.3579437721619
 31
0.0
  0
LINE
  5
7A92
  8
1
  6
CONTINUOUS
 10
4285.2256758741596
 20
2947.357943772161
 30
0.0
 11
4285.2256758741596
 21
2847.357943772161
 31
0.0
  0
LINE
  5
7A93
  8
1
  6
CONTINUOUS
 10
4325.2256758741596
 20
3517.3579437721619
 30
0.0
 11
4325.2256758741596
 21
3337.357943772161
 31
0.0
  0
LINE
  5
7A94
  8
1
  6
CONTINUOUS
 10
4245.2256758741596
 20
3517.3579437721619
 30
0.0
 11
4245.2256758741596
 21
3337.357943772161
 31
0.0
  0
LINE
  5
7A95
  8
1
  6
CONTINUOUS
 10
4245.2256758741596
 20
3337.357943772161
 30
0.0
 11
4325.2256758741596
 21
3337.357943772161
 31
0.0
  0
LINE
  5
7A96
  8
1
  6
CONTINUOUS
 10
4245.2256758741596
 20
3517.3579437721619
 30
0.0
 11
4325.2256758741596
 21
3517.3579437721619
 31
0.0
  0
LINE
  5
7A97
  8
1
  6
CONTINUOUS
 10
4407.7256758741596
 20
3887.3579437721619
 30
0.0
 11
4962.7256758741596
 21
3887.3579437721619
 31
0.0
  0
LINE
  5
7A98
  8
1
  6
CONTINUOUS
 10
4447.7256758741596
 20
3847.357943772161
 30
0.0
 11
4922.7256758741596
 21
3847.357943772161
 31
0.0
  0
LINE
  5
7A99
  8
1
  6
CONTINUOUS
 10
4365.2256758741596
 20
3617.3579437721619
 30
0.0
 11
4365.2256758741596
 21
2954.3579437721619
 31
0.0
  0
LINE
  5
7A9A
  8
1
  6
CONTINUOUS
 10
4447.7256758741596
 20
3887.3579437721619
 30
0.0
 11
4447.7256758741596
 21
2947.357943772161
 31
0.0
  0
LINE
  5
7A9B
  8
1
  6
CONTINUOUS
 10
5005.2256758741614
 20
3782.357943772161
 30
0.0
 11
5005.2256758741614
 21
3072.357943772161
 31
0.0
  0
LINE
  5
7A9C
  8
1
  6
CONTINUOUS
 10
4922.7256758741596
 20
3887.3579437721619
 30
0.0
 11
4922.7256758741596
 21
2947.357943772161
 31
0.0
  0
LINE
  5
7A9D
  8
1
  6
CONTINUOUS
 10
4922.7256758741596
 20
3112.3579437721619
 30
0.0
 11
5005.2256758741614
 21
3112.3579437721619
 31
0.0
  0
LINE
  5
7A9E
  8
1
  6
CONTINUOUS
 10
4975.2256758741614
 20
2947.357943772161
 30
0.0
 11
4975.2256758741614
 21
2847.357943772161
 31
0.0
  0
LINE
  5
7A9F
  8
1
  6
CONTINUOUS
 10
4922.7256758741596
 20
3742.3579437721619
 30
0.0
 11
5005.2256758741614
 21
3742.3579437721619
 31
0.0
  0
LINE
  5
7AA0
  8
1
  6
CONTINUOUS
 10
2189.5545248741601
 20
6279.4579437721623
 30
0.0
 11
1479.5545248741601
 21
6279.4579437721623
 31
0.0
  0
LINE
  5
7AA1
  8
1
  6
CONTINUOUS
 10
2024.5545248741589
 20
5639.4579437721623
 30
0.0
 11
839.55452487416005
 21
5639.4579437721623
 31
0.0
  0
LINE
  5
7AA2
  8
1
  6
CONTINUOUS
 10
2024.5545248741589
 20
5479.4579437721623
 30
0.0
 11
839.55452487416005
 21
5479.4579437721623
 31
0.0
  0
LINE
  5
7AA3
  8
1
  6
CONTINUOUS
 10
2290.4545248741601
 20
5721.9579437721623
 30
0.0
 11
1156.5545248741589
 21
5721.9579437721623
 31
0.0
  0
LINE
  5
7AA4
  8
1
  6
CONTINUOUS
 10
2290.4545248741601
 20
6196.9579437721623
 30
0.0
 11
1156.5545248741589
 21
6196.9579437721623
 31
0.0
  0
LINE
  5
7AA5
  8
1
  6
CONTINUOUS
 10
1156.5545248741589
 20
6196.9579437721623
 30
0.0
 11
1806.5545248741601
 21
5721.9579437721623
 31
0.0
  0
LINE
  5
7AA6
  8
1
  6
CONTINUOUS
 10
1806.5545248741601
 20
6196.9579437721623
 30
0.0
 11
1156.5545248741589
 21
5721.9579437721623
 31
0.0
  0
LINE
  5
7AA7
  8
1
  6
CONTINUOUS
 10
1744.5545248741601
 20
5559.4579437721623
 30
0.0
 11
1079.5545248741601
 21
5559.4579437721623
 31
0.0
  0
LINE
  5
7AA8
  8
1
  6
CONTINUOUS
 10
1519.5545248741601
 20
6249.4579437721632
 30
0.0
 11
834.55452487416005
 21
6249.4579437721632
 31
0.0
  0
LINE
  5
7AA9
  8
1
  6
CONTINUOUS
 10
1156.5545248741589
 20
5721.9579437721623
 30
0.0
 11
1156.5545248741589
 21
6196.9579437721623
 31
0.0
  0
LINE
  5
7AAA
  8
1
  6
CONTINUOUS
 10
834.55452487416005
 20
6249.4579437721632
 30
0.0
 11
834.55452487416005
 21
5559.4579437721623
 31
0.0
  0
LINE
  5
7AAB
  8
1
  6
CONTINUOUS
 10
867.55452487416005
 20
5692.0579437721617
 30
0.0
 11
867.55452487416005
 21
6092.0579437721626
 31
0.0
  0
LINE
  5
7AAC
  8
1
  6
CONTINUOUS
 10
1151.5545248741601
 20
5692.0579437721617
 30
0.0
 11
1151.5545248741601
 21
6092.0579437721626
 31
0.0
  0
LINE
  5
7AAD
  8
1
  6
CONTINUOUS
 10
939.55452487416005
 20
5519.4579437721623
 30
0.0
 11
1079.5545248741601
 21
5519.4579437721623
 31
0.0
  0
LINE
  5
7AAE
  8
1
  6
CONTINUOUS
 10
939.55452487416005
 20
5599.4579437721623
 30
0.0
 11
1079.5545248741601
 21
5599.4579437721623
 31
0.0
  0
LINE
  5
7AAF
  8
1
  6
CONTINUOUS
 10
867.55452487416005
 20
5692.0579437721617
 30
0.0
 11
1151.5545248741601
 21
5692.0579437721617
 31
0.0
  0
LINE
  5
7AB0
  8
1
  6
CONTINUOUS
 10
939.55452487416005
 20
5519.4579437721623
 30
0.0
 11
939.55452487416005
 21
5599.4579437721623
 31
0.0
  0
LINE
  5
7AB1
  8
1
  6
CONTINUOUS
 10
839.55452487416005
 20
5479.4579437721623
 30
0.0
 11
839.55452487416005
 21
5639.4579437721623
 31
0.0
  0
LINE
  5
7AB2
  8
1
  6
CONTINUOUS
 10
939.55452487416005
 20
5559.4579437721623
 30
0.0
 11
834.55452487416005
 21
5559.4579437721623
 31
0.0
  0
LINE
  5
7AB3
  8
1
  6
CONTINUOUS
 10
1079.5545248741601
 20
5519.4579437721623
 30
0.0
 11
1079.5545248741601
 21
5599.4579437721623
 31
0.0
  0
LINE
  5
7AB4
  8
1
  6
CONTINUOUS
 10
1028.5545248741601
 20
5599.4579437721623
 30
0.0
 11
1028.5545248741601
 21
5692.0579437721617
 31
0.0
  0
LINE
  5
7AB5
  8
1
  6
CONTINUOUS
 10
990.55452487416005
 20
5599.4579437721623
 30
0.0
 11
990.55452487416005
 21
5692.0579437721617
 31
0.0
  0
LINE
  5
7AB6
  8
1
  6
CONTINUOUS
 10
867.55452487416005
 20
6092.0579437721626
 30
0.0
 11
1151.5545248741601
 21
6092.0579437721626
 31
0.0
  0
LINE
  5
7AB7
  8
1
  6
CONTINUOUS
 10
1519.5545248741601
 20
6279.4579437721623
 30
0.0
 11
1519.5545248741601
 21
6196.9579437721623
 31
0.0
  0
LINE
  5
7AB8
  8
1
  6
CONTINUOUS
 10
2234.5545248741601
 20
5559.4579437721623
 30
0.0
 11
1924.5545248741589
 21
5559.4579437721623
 31
0.0
  0
LINE
  5
7AB9
  8
1
  6
CONTINUOUS
 10
1806.5545248741601
 20
5721.9579437721623
 30
0.0
 11
1806.5545248741601
 21
6196.9579437721623
 31
0.0
  0
LINE
  5
7ABA
  8
1
  6
CONTINUOUS
 10
1744.5545248741601
 20
5599.4579437721623
 30
0.0
 11
1924.5545248741589
 21
5599.4579437721623
 31
0.0
  0
LINE
  5
7ABB
  8
1
  6
CONTINUOUS
 10
1744.5545248741601
 20
5519.4579437721623
 30
0.0
 11
1924.5545248741589
 21
5519.4579437721623
 31
0.0
  0
LINE
  5
7ABC
  8
1
  6
CONTINUOUS
 10
1815.5545248741589
 20
5599.4579437721623
 30
0.0
 11
1815.5545248741589
 21
5721.9579437721623
 31
0.0
  0
LINE
  5
7ABD
  8
1
  6
CONTINUOUS
 10
1853.5545248741601
 20
5599.4579437721623
 30
0.0
 11
1853.5545248741601
 21
5721.9579437721623
 31
0.0
  0
LINE
  5
7ABE
  8
1
  6
CONTINUOUS
 10
1744.5545248741601
 20
5519.4579437721623
 30
0.0
 11
1744.5545248741601
 21
5599.4579437721623
 31
0.0
  0
LINE
  5
7ABF
  8
1
  6
CONTINUOUS
 10
1924.5545248741589
 20
5519.4579437721623
 30
0.0
 11
1924.5545248741589
 21
5599.4579437721623
 31
0.0
  0
LINE
  5
7AC0
  8
1
  6
CONTINUOUS
 10
2024.5545248741589
 20
5479.4579437721623
 30
0.0
 11
2024.5545248741589
 21
5639.4579437721623
 31
0.0
  0
LINE
  5
7AC1
  8
1
  6
CONTINUOUS
 10
2290.4545248741601
 20
5721.9579437721623
 30
0.0
 11
2290.4545248741601
 21
6196.9579437721623
 31
0.0
  0
LINE
  5
7AC2
  8
1
  6
CONTINUOUS
 10
2234.5545248741601
 20
5721.9579437721623
 30
0.0
 11
2234.5545248741601
 21
5559.4579437721623
 31
0.0
  0
LINE
  5
7AC3
  8
1
  6
CONTINUOUS
 10
2149.5545248741591
 20
6279.4579437721623
 30
0.0
 11
2149.5545248741591
 21
6196.9579437721623
 31
0.0
  0
LINE
  5
7AC4
  8
1
  6
CONTINUOUS
 10
2234.5545248741601
 20
6249.4579437721632
 30
0.0
 11
2149.5545248741591
 21
6249.4579437721632
 31
0.0
  0
LINE
  5
7AC5
  8
1
  6
CONTINUOUS
 10
2234.5545248741601
 20
6249.4579437721632
 30
0.0
 11
2234.5545248741601
 21
6196.9579437721623
 31
0.0
  0
DIMENSION
  5
7AFE
  8
3
  6
CONTINUOUS
  2
*D1
 10
1834.5545248741601
 20
2617.7447707721622
 30
0.0
 11
1341.9465028741611
 21
2617.7447707721622
 31
0.0
 70
   128
 13
834.55452487416005
 23
2847.357943772161
 33
0.0
 14
1834.5545248741601
 24
2694.3605827721608
 34
0.0
1001
ACAD
1000
DSTYLE
1002
{
1070
   287
1070
     3
1070
   287
1070
     3
1070
    40
1040
30.0
1070
   143
1040
0.039
1070
   172
1070
     1
1070
   271
1070
     0
1070
   279
1070
     0
1070
   288
1070
     1
1002
}
  0
DIMENSION
  5
7B0C
  8
3
  6
CONTINUOUS
  2
*D2
 10
2234.5545248741601
 20
2617.7447707721622
 30
0.0
 11
2034.5545248741601
 21
2682.3658526942049
 31
0.0
 70
   128
 13
1834.5545248741601
 23
2694.3605827721608
 33
0.0
 14
2234.5545248741601
 24
2847.357943772161
 34
0.0
1001
ACAD
1000
DSTYLE
1002
{
1070
   288
1070
     1
1070
   172
1070
     1
1070
    40
1040
30.0
1070
   271
1070
     0
1070
   143
1040
0.039
1002
}
  0
DIMENSION
  5
7B2F
  8
3
  6
CONTINUOUS
  2
*D3
 10
1806.5545248741601
 20
4041.1757127721621
 30
0.0
 11
1486.720574874159
 21
4041.1757127721621
 31
0.0
 70
   128
 13
1156.5545248741589
 23
3887.3579437721619
 33
0.0
 14
1806.5545248741601
 24
3887.3579437721619
 34
0.0
1001
ACAD
1000
DSTYLE
1002
{
1070
   287
1070
     3
1070
   287
1070
     3
1070
    40
1040
30.0
1070
   143
1040
0.039
1070
   172
1070
     1
1070
   271
1070
     0
1070
   279
1070
     0
1070
   288
1070
     1
1002
}
  0
DIMENSION
  5
7B3C
  8
3
  6
CONTINUOUS
  2
*D4
 10
1834.5545248741601
 20
4234.0749137721614
 30
0.0
 11
1498.785109874161
 21
4234.0749137721614
 31
0.0
 70
   128
 13
1156.5545248741589
 23
3887.3579437721619
 33
0.0
 14
1834.5545248741601
 24
3804.6365307721612
 34
0.0
1001
ACAD
1000
DSTYLE
1002
{
1070
   287
1070
     3
1070
   287
1070
     3
1070
    40
1040
30.0
1070
   143
1040
0.039
1070
   172
1070
     1
1070
   271
1070
     0
1070
   279
1070
     0
1070
   288
1070
     1
1002
}
  0
DIMENSION
  5
7B4A
  8
3
  6
CONTINUOUS
  2
*D5
 10
2288.2534458741611
 20
4234.0749137721614
 30
0.0
 11
2080.396303017018
 21
4234.0749137721614
 31
0.0
 70
   128
 13
1834.5545248741601
 23
3804.6365307721612
 33
0.0
 14
2288.2534458741611
 24
3427.3579437721619
 34
0.0
1001
ACAD
1000
DSTYLE
1002
{
1070
   287
1070
     3
1070
   287
1070
     3
1070
    40
1040
30.0
1070
   143
1040
0.039
1070
   172
1070
     1
1070
   271
1070
     0
1070
   279
1070
     0
1070
   288
1070
     1
1002
}
  0
DIMENSION
  5
7B6F
  8
3
  6
CONTINUOUS
  2
*D6
 10
2669.838994874161
 20
3427.3579437721619
 30
0.0
 11
2669.8389948741601
 21
3681.6436580578752
 31
0.0
 70
   128
 13
1848.5545248741601
 23
3887.3579437721619
 33
0.0
 14
2288.2534458741611
 24
3427.3579437721619
 34
0.0
 50
90.0
1001
ACAD
1000
DSTYLE
1002
{
1070
   287
1070
     3
1070
   287
1070
     3
1070
    40
1040
30.0
1070
   143
1040
0.039
1070
   172
1070
     1
1070
   271
1070
     0
1070
   279
1070
     0
1070
   288
1070
     1
1002
}
  0
DIMENSION
  5
7B7B
  8
3
  6
CONTINUOUS
  2
*D7
 10
2669.8389948741601
 20
2847.357943772161
 30
0.0
 11
2594.8389948741601
 21
3137.3579437721619
 31
0.0
 70
     0
 13
2288.2534458741611
 23
3427.3579437721619
 33
0.0
 14
2234.5545248741601
 24
2847.357943772161
 34
0.0
 50
90.0
1001
ACAD
1000
DSTYLE
1002
{
1070
   287
1070
     3
1070
   287
1070
     3
1070
    40
1040
30.0
1070
   143
1040
0.039
1070
   172
1070
     1
1070
   271
1070
     0
1070
   279
1070
     0
1070
   288
1070
     1
1002
}
  0
DIMENSION
  5
7B88
  8
3
  6
CONTINUOUS
  2
*D8
 10
2878.9570608741601
 20
2847.357943772161
 30
0.0
 11
2878.9570608741601
 21
3430.3281707721621
 31
0.0
 70
   128
 13
1848.5545248741601
 23
3887.3579437721619
 33
0.0
 14
2234.5545248741601
 24
2847.357943772161
 34
0.0
 50
90.0
1001
ACAD
1000
DSTYLE
1002
{
1070
   287
1070
     3
1070
   287
1070
     3
1070
    40
1040
30.0
1070
   143
1040
0.039
1070
   172
1070
     1
1070
   271
1070
     0
1070
   279
1070
     0
1070
   288
1070
     1
1002
}
  0
DIMENSION
  5
7B95
  8
3
  6
CONTINUOUS
  2
*D9
 10
2234.5545248741601
 20
5217.8579247721618
 30
0.0
 11
1535.775561874161
 21
5217.8579247721618
 31
0.0
 70
   128
 13
834.55452487416005
 23
5559.4579437721623
 33
0.0
 14
2234.5545248741601
 24
5559.4579437721623
 34
0.0
1001
ACAD
1000
DSTYLE
1002
{
1070
   287
1070
     3
1070
   287
1070
     3
1070
    40
1040
30.0
1070
   143
1040
0.039
1070
   172
1070
     1
1070
   271
1070
     0
1070
   279
1070
     0
1070
   288
1070
     1
1002
}
  0
DIMENSION
  5
7BA2
  8
3
  6
CONTINUOUS
  2
*D10
 10
2581.3659698741621
 20
5559.4579437721623
 30
0.0
 11
2581.3659698741608
 21
5897.0239037721612
 31
0.0
 70
   128
 13
2234.5545248741601
 23
6249.4579437721632
 33
0.0
 14
2234.5545248741601
 24
5559.4579437721623
 34
0.0
 50
90.0
1001
ACAD
1000
DSTYLE
1002
{
1070
   287
1070
     3
1070
   287
1070
     3
1070
    40
1040
30.0
1070
   143
1040
0.039
1070
   172
1070
     1
1070
   271
1070
     0
1070
   279
1070
     0
1070
   288
1070
     1
1002
}
  0
LINE
  5
7BA3
  8
2
  6
CENTER
 10
2362.8415418741602
 20
5959.4579437721623
 30
0.0
 11
1025.0448158741599
 21
5959.4579437721623
 31
0.0
  0
LINE
  5
7BA4
  8
2
  6
CENTER
 10
1834.5545248741601
 20
5393.4832817721617
 30
0.0
 11
1834.5545248741601
 21
6197.4461037721612
 31
0.0
  0
LINE
  5
7BA5
  8
2
  6
CENTER
 10
4685.2256758741596
 20
3938.3170387721611
 30
0.0
 11
4685.2256758741596
 21
2726.265457772161
 31
0.0
  0
DIMENSION
  5
7BB4
  8
3
  6
CONTINUOUS
  2
*D11
 10
4685.2256758741596
 20
2629.8158337721611
 30
0.0
 11
4485.2256758741596
 21
2687.8484613727478
 31
0.0
 70
   128
 13
4285.2256758741596
 23
2847.357943772161
 33
0.0
 14
4685.2256758741596
 24
2726.265457772161
 34
0.0
1001
ACAD
1000
DSTYLE
1002
{
1070
   288
1070
     1
1070
   172
1070
     1
1070
    40
1040
30.0
1070
   271
1070
     0
1070
   143
1040
0.039
1002
}
  0
DIMENSION
  5
7BC2
  8
3
  6
CONTINUOUS
  2
*D12
 10
4975.2256758741614
 20
2629.8158337721611
 30
0.0
 11
4830.7200816796249
 21
2709.7789206426642
 31
0.0
 70
   128
 13
4685.2256758741596
 23
2726.265457772161
 33
0.0
 14
4975.2256758741614
 24
2847.357943772161
 34
0.0
1001
ACAD
1000
DSTYLE
1002
{
1070
   288
1070
     1
1070
   172
1070
     1
1070
    40
1040
30.0
1070
   271
1070
     0
1070
   143
1040
0.039
1002
}
  0
DIMENSION
  5
7BF1
  8
3
  6
CONTINUOUS
  2
*D13
 10
5270.9165478741606
 20
3112.3579437721619
 30
0.0
 11
5270.9165478741588
 21
3441.6000307721611
 31
0.0
 70
   128
 13
5005.2256758741614
 23
3742.3579437721619
 33
0.0
 14
5005.2256758741614
 24
3112.3579437721619
 34
0.0
 50
90.0
1001
ACAD
1000
DSTYLE
1002
{
1070
   287
1070
     3
1070
   287
1070
     3
1070
     3
1000
φ<>
1070
    40
1040
30.0
1070
   143
1040
0.039
1070
   172
1070
     1
1070
   271
1070
     0
1070
   279
1070
     0
1070
   288
1070
     1
1002
}
  0
DIMENSION
  5
7C00
  8
3
  6
CONTINUOUS
  2
*D14
 10
4922.7256758741596
 20
3978.504359772161
 30
0.0
 11
4685.2256758741596
 21
3978.504359772161
 31
0.0
 70
   128
 13
4447.7256758741596
 23
3887.3579437721619
 33
0.0
 14
4922.7256758741596
 24
3887.3579437721619
 34
0.0
1001
ACAD
1000
DSTYLE
1002
{
1070
   287
1070
     3
1070
   287
1070
     3
1070
    40
1040
30.0
1070
   143
1040
0.039
1070
   172
1070
     1
1070
   271
1070
     0
1070
   279
1070
     0
1070
   288
1070
     1
1002
}
  0
DIMENSION
  5
7C0D
  8
3
  6
CONTINUOUS
  2
*D15
 10
4685.2256758741596
 20
4205.3902510420776
 30
0.0
 11
4423.797104445589
 21
4205.3902510420776
 31
0.0
 70
   128
  1
MAX\P550
 13
4205.2256758741596
 23
3617.3579437721619
 33
0.0
 14
4685.2256758741596
 24
4135.2589450774294
 34
0.0
1001
ACAD
1000
DSTYLE
1002
{
1070
   287
1070
     3
1070
   287
1070
     3
1070
    40
1040
30.0
1070
   143
1040
0.039
1070
   172
1070
     1
1070
   271
1070
     0
1070
   279
1070
     0
1070
   288
1070
     1
1002
}
  0
DIMENSION
  5
7C1B
  8
3
  6
CONTINUOUS
  2
*D16
 10
5005.2256758741614
 20
4205.3902510420776
 30
0.0
 11
4858.1557872036074
 21
4294.2547932011248
 31
0.0
 70
   128
 13
4685.2256758741596
 23
4135.2589450774294
 33
0.0
 14
5005.2256758741614
 24
3742.3579437721619
 34
0.0
1001
ACAD
1000
DSTYLE
1002
{
1070
   288
1070
     1
1070
   172
1070
     1
1070
    40
1040
30.0
1070
   271
1070
     0
1070
   143
1040
0.039
1002
}
  0
LINE
  5
7C33
  8
2
  6
CENTER
 10
2419.7465858741589
 20
3427.3579437721619
 30
0.0
 11
1040.79175887416
 21
3427.3579437721619
 31
0.0
  0
LINE
  5
7C34
  8
4
  6
CONTINUOUS
 10
5550.0
 20
1500.0
 30
0.0
 11
5550.0
 21
900.0
 31
0.0
  0
LINE
  5
7C35
  8
4
  6
CONTINUOUS
 10
3450.0
 20
1500.0
 30
0.0
 11
3450.0
 21
900.0
 31
0.0
  0
LINE
  5
7C36
  8
4
  6
CONTINUOUS
 10
1950.0
 20
1500.0
 30
0.0
 11
1950.0
 21
900.0
 31
0.0
  0
LINE
  5
7C39
  8
4
  6
CONTINUOUS
 10
1950.0
 20
900.0
 30
0.0
 11
5550.0
 21
900.0
 31
0.0
  0
LINE
  5
7C3A
  8
4
  6
CONTINUOUS
 10
1950.0
 20
1200.0
 30
0.0
 11
5550.0
 21
1200.0
 31
0.0
  0
TEXT
  5
7C3B
  8
4
  6
CONTINUOUS
 10
2065.50624225
 20
1294.6290779999999
 30
0.0
 40
150.0
  1
機器名称
  0
TEXT
  5
7C3C
  8
4
  6
CONTINUOUS
 10
2058.7743179999989
 20
964.93547024999998
 30
0.0
 40
150.0
  1
機器型番
  0
TEXT
  5
7C3D
  8
4
  6
CONTINUOUS
 10
3533.0362365000001
 20
1267.715306249999
 30
0.0
 40
120.0
  1
ミツヤリミットロードファン
  0
TEXT
  5
7C3E
  8
4
  6
CONTINUOUS
 10
3559.9634872500001
 20
951.4787527499999
 30
0.0
 40
150.0
  1
LLE#4-4
  0
TEXT
  5
7C40
  8
4
  6
CONTINUOUS
 10
2714.3572964999998
 20
7150.2865245000012
 30
0.0
 40
162.0
  1
床置ベット
  0
TEXT
  5
7C41
  8
4
  6
CONTINUOUS
 10
948.50278049999986
 20
7601.6429287499996
 30
0.0
 40
171.42857175
  1
ベルト駆動式片吸込両持排煙ファン
  0
LINE
  5
7C42
  8
4
  6
CONTINUOUS
 10
750.0
 20
7408.2262627500004
 30
0.0
 11
5550.0
 21
7408.2262627500004
 31
0.0
  0
LINE
  5
7C43
  8
4
  6
CONTINUOUS
 10
750.0
 20
8008.2262627500004
 30
0.0
 11
5550.0
 21
8008.2262627500004
 31
0.0
  0
LINE
  5
7C44
  8
4
  6
CONTINUOUS
 10
1950.0
 20
1500.0
 30
0.0
 11
5550.0
 21
1500.0
 31
0.0
  0
LINE
  5
7C45
  8
4
  6
CONTINUOUS
 10
750.0
 20
8008.2262627500004
 30
0.0
 11
750.0
 21
7408.2262627500004
 31
0.0
  0
TEXT
  5
7C46
  8
4
  6
CONTINUOUS
 10
1406.780799749999
 20
7146.9584324999987
 30
0.0
 40
162.0
  1
右回転上向
  0
TEXT
  5
7C47
  8
4
  6
CONTINUOUS
 10
4406.9086777499988
 20
8118.1832445
 30
0.0
 40
168.0
  1
No.
  0
TEXT
  5
7C48
  8
4
  6
CONTINUOUS
 10
3933.8881875000002
 20
7150.2865245000012
 30
0.0
 40
162.0
  1
縮尺：1/30
  0
LINE
  5
7C49
  8
4
  6
CONTINUOUS
 10
5550.0
 20
8008.2262627500004
 30
0.0
 11
5550.0
 21
7408.2262627500004
 31
0.0
  0
LINE
  5
7C4B
  8
4
  6
CONTINUOUS
 10
4321.8522667500001
 20
8043.79074975
 30
0.0
 11
4321.8522667500001
 21
8359.9567845000001
 31
0.0
  0
LINE
  5
7C4C
  8
4
  6
CONTINUOUS
 10
4321.8522667500001
 20
8359.9567845000001
 30
0.0
 11
5550.0
 21
8359.9567845000001
 31
0.0
  0
LINE
  5
7C4D
  8
4
  6
CONTINUOUS
 10
5550.0
 20
8359.9567845000001
 30
0.0
 11
5550.0
 21
8043.79074975
 31
0.0
  0
LINE
  5
7C4E
  8
4
  6
CONTINUOUS
 10
5550.0
 20
8043.79074975
 30
0.0
 11
4321.8522667500001
 21
8043.79074975
 31
0.0
  0
DIMENSION
  5
7DD5
  8
3
  2
*D17
 10
834.55452487416005
 20
4436.8027907334581
 30
0.0
 11
1467.1010729519689
 21
4436.8027907334581
 31
0.0
 70
   128
 13
2288.2534458741611
 23
3442.3579437721619
 33
0.0
 14
834.55452487416005
 24
2947.357943772161
 34
0.0
1001
ACAD
1000
DSTYLE
1002
{
1070
   287
1070
     3
1070
   287
1070
     3
1070
    40
1040
30.0
1070
   143
1040
0.039
1070
   172
1070
     1
1070
   271
1070
     0
1070
   279
1070
     0
1070
   288
1070
     1
1002
}
  0
ENDSEC
  0
EOF
