  0
SECTION
  2
HEADER
  9
$ACADVER
  1
AC1009
  9
$INSBASE
 10
0.0
 20
0.0
 30
0.0
  9
$EXTMIN
 10
750.0
 20
900.0
 30
0.0
  9
$EXTMAX
 10
5550.0
 20
8359.9567845000001
 30
0.0
  9
$LIMMIN
 10
0.0
 20
0.0
  9
$LIMMAX
 10
297.0
 20
210.0
  9
$ORTHOMODE
 70
     0
  9
$REGENMODE
 70
     1
  9
$FILLMODE
 70
     0
  9
$QTEXTMODE
 70
     0
  9
$MIRRTEXT
 70
     1
  9
$DRAGMODE
 70
     2
  9
$LTSCALE
 40
100.0
  9
$OSMODE
 70
    37
  9
$ATTMODE
 70
     1
  9
$TEXTSIZE
 40
180.0
  9
$TRACEWID
 40
0.05
  9
$TEXTSTYLE
  7
STANDARD
  9
$CLAYER
  8
3
  9
$CELTYPE
  6
BYLAYER
  9
$CECOLOR
 62
   256
  9
$DIMSCALE
 40
30.0
  9
$DIMASZ
 40
2.0
  9
$DIMEXO
 40
0.5
  9
$DIMDLI
 40
10.0
  9
$DIMRND
 40
0.0
  9
$DIMDLE
 40
0.0
  9
$DIMEXE
 40
1.0
  9
$DIMTP
 40
1.0
  9
$DIMTM
 40
1.0
  9
$DIMTXT
 40
3.0
  9
$DIMCEN
 40
0.0
  9
$DIMTSZ
 40
0.0
  9
$DIMTOL
 70
     0
  9
$DIMLIM
 70
     0
  9
$DIMTIH
 70
     0
  9
$DIMTOH
 70
     0
  9
$DIMSE1
 70
     0
  9
$DIMSE2
 70
     0
  9
$DIMTAD
 70
     1
  9
$DIMZIN
 70
     8
  9
$DIMBLK
  1

  9
$DIMASO
 70
     1
  9
$DIMSHO
 70
     1
  9
$DIMPOST
  1

  9
$DIMAPOST
  1

  9
$DIMALT
 70
     0
  9
$DIMALTD
 70
     2
  9
$DIMALTF
 40
0.039
  9
$DIMLFAC
 40
1.0
  9
$DIMTOFL
 70
     1
  9
$DIMTVP
 40
0.0
  9
$DIMTIX
 70
     0
  9
$DIMSOXD
 70
     0
  9
$DIMSAH
 70
     1
  9
$DIMBLK1
  1
OPEN
  9
$DIMBLK2
  1
OPEN
  9
$DIMSTYLE
  2
IGA
  9
$DIMCLRD
 70
     0
  9
$DIMCLRE
 70
     0
  9
$DIMCLRT
 70
     0
  9
$DIMTFAC
 40
10.0
  9
$DIMGAP
 40
1.0
  9
$LUNITS
 70
     2
  9
$LUPREC
 70
     3
  9
$SKETCHINC
 40
0.1
  9
$FILLETRAD
 40
50.0
  9
$AUNITS
 70
     0
  9
$AUPREC
 70
     0
  9
$MENU
  1
acad
  9
$ELEVATION
 40
0.0
  9
$PELEVATION
 40
0.0
  9
$THICKNESS
 40
0.0
  9
$LIMCHECK
 70
     0
  9
$BLIPMODE
 70
     0
  9
$CHAMFERA
 40
0.5
  9
$CHAMFERB
 40
0.5
  9
$SKPOLY
 70
     0
  9
$TDCREATE
 40
2450754.5689886571
  9
$TDUPDATE
 40
2454953.6830920829
  9
$TDINDWG
 40
0.0447860185
  9
$TDUSRTIMER
 40
0.0447860185
  9
$USRTIMER
 70
     1
  9
$ANGBASE
 50
0.0
  9
$ANGDIR
 70
     0
  9
$PDMODE
 70
     0
  9
$PDSIZE
 40
0.0
  9
$PLINEWID
 40
0.0
  9
$COORDS
 70
     1
  9
$SPLFRAME
 70
     0
  9
$SPLINETYPE
 70
     6
  9
$SPLINESEGS
 70
     8
  9
$ATTDIA
 70
     0
  9
$ATTREQ
 70
     1
  9
$HANDLING
 70
 10241
  9
$HANDSEED
  5
7FBA
  9
$SURFTAB1
 70
     6
  9
$SURFTAB2
 70
     6
  9
$SURFTYPE
 70
     6
  9
$SURFU
 70
     6
  9
$SURFV
 70
     6
  9
$UCSNAME
  2

  9
$UCSORG
 10
0.0
 20
0.0
 30
0.0
  9
$UCSXDIR
 10
1.0
 20
0.0
 30
0.0
  9
$UCSYDIR
 10
0.0
 20
1.0
 30
0.0
  9
$PUCSNAME
  2

  9
$PUCSORG
 10
0.0
 20
0.0
 30
0.0
  9
$PUCSXDIR
 10
1.0
 20
0.0
 30
0.0
  9
$PUCSYDIR
 10
0.0
 20
1.0
 30
0.0
  9
$USERI1
 70
     0
  9
$USERI2
 70
     0
  9
$USERI3
 70
     0
  9
$USERI4
 70
     0
  9
$USERI5
 70
     0
  9
$USERR1
 40
0.0
  9
$USERR2
 40
0.0
  9
$USERR3
 40
0.0
  9
$USERR4
 40
0.0
  9
$USERR5
 40
0.0
  9
$WORLDVIEW
 70
     1
  9
$SHADEDGE
 70
     3
  9
$SHADEDIF
 70
    70
  9
$TILEMODE
 70
     1
  9
$MAXACTVP
 70
    16
  9
$PLIMCHECK
 70
     0
  9
$PEXTMIN
 10
1.0000000000000000E+020
 20
1.0000000000000000E+020
 30
1.0000000000000000E+020
  9
$PEXTMAX
 10
-1.0000000000000000E+020
 20
-1.0000000000000000E+020
 30
-1.0000000000000000E+020
  9
$PLIMMIN
 10
0.0
 20
0.0
  9
$PLIMMAX
 10
12.0
 20
9.0
  9
$UNITMODE
 70
     0
  9
$VISRETAIN
 70
     0
  9
$PLINEGEN
 70
     0
  9
$PSLTSCALE
 70
     1
  0
ENDSEC
  0
SECTION
  2
TABLES
  0
TABLE
  2
VPORT
 70
     2
  0
VPORT
  2
*ACTIVE
 70
     0
 10
0.0
 20
0.0
 11
1.0
 21
1.0
 12
15493.18183436467
 22
2687.8487911624838
 13
0.0
 23
0.0
 14
10.0
 24
10.0
 15
10.0
 25
10.0
 16
0.0
 26
0.0
 36
1.0
 17
0.0
 27
0.0
 37
0.0
 40
13367.581765433661
 41
3.1666666666666661
 42
50.0
 43
0.0
 44
0.0
 50
0.0
 51
0.0
 71
     0
 72
   100
 73
     1
 74
     0
 75
     0
 76
     0
 77
     0
 78
     0
  0
ENDTAB
  0
TABLE
  2
LTYPE
 70
     2
  0
LTYPE
  2
CONTINUOUS
 70
     0
  3
Solid line
 72
    65
 73
     0
 40
0.0
  0
LTYPE
  2
CENTER
 70
     0
  3
____ _ ____ _ ____ _ ____ _ ____ _ ____ _ ____ 
 72
    65
 73
     4
 40
2.0
 49
1.25
 49
-0.25
 49
0.25
 49
-0.25
  0
ENDTAB
  0
TABLE
  2
LAYER
 70
     6
  0
LAYER
  2
0
 70
     0
 62
     7
  6
CONTINUOUS
  0
LAYER
  2
3
 70
     0
 62
     2
  6
CONTINUOUS
  0
LAYER
  2
2
 70
     0
 62
     3
  6
CENTER
  0
LAYER
  2
1
 70
     0
 62
     4
  6
CONTINUOUS
  0
LAYER
  2
4
 70
     0
 62
     7
  6
CONTINUOUS
  0
LAYER
  2
DEFPOINTS
 70
     0
 62
     7
  6
CONTINUOUS
  0
ENDTAB
  0
TABLE
  2
STYLE
 70
     1
  0
STYLE
  2
STANDARD
 70
     0
 40
0.0
 41
1.0
 50
0.0
 71
     0
 42
180.0
  3
simplex.shx
  4
extfont.shx
  0
ENDTAB
  0
TABLE
  2
VIEW
 70
     0
  0
ENDTAB
  0
TABLE
  2
UCS
 70
     0
  0
ENDTAB
  0
TABLE
  2
APPID
 70
     1
  0
APPID
  2
ACAD
 70
     0
  0
ENDTAB
  0
TABLE
  2
DIMSTYLE
 70
     1
  0
DIMSTYLE
  2
IGA
 70
     0
  3

  4

  5

  6
OPEN
  7
OPEN
 40
2.0
 41
2.0
 42
0.5
 43
10.0
 44
1.0
 45
0.0
 46
0.0
 47
1.0
 48
1.0
140
3.0
141
0.0
142
0.0
143
0.03937
144
1.0
145
0.0
146
10.0
147
1.0
 71
     0
 72
     0
 73
     0
 74
     0
 75
     0
 76
     0
 77
     1
 78
     8
170
     0
171
     2
172
     0
173
     1
174
     0
175
     0
176
     0
177
     0
178
     0
  0
ENDTAB
  0
ENDSEC
  0
SECTION
  2
BLOCKS
  0
BLOCK
  8
0
  2
$MODEL_SPACE
 70
     0
 10
0.0
 20
0.0
 30
0.0
  3
$MODEL_SPACE
  1

  0
ENDBLK
  5
1B
  8
0
  0
BLOCK
 67
     1
  8
0
  2
$PAPER_SPACE
 70
     0
 10
0.0
 20
0.0
 30
0.0
  3
$PAPER_SPACE
  1

  0
ENDBLK
  5
18
 67
     1
  8
0
  0
BLOCK
  8
0
  2
_OPEN
 70
     0
 10
0.0
 20
0.0
 30
0.0
  3
_OPEN
  1

  0
LINE
  5
7AC8
  8
0
  6
BYBLOCK
 62
     0
 10
-1.0
 20
0.166667
 30
0.0
 11
0.0
 21
0.0
 31
0.0
  0
LINE
  5
7AC9
  8
0
  6
BYBLOCK
 62
     0
 10
0.0
 20
0.0
 30
0.0
 11
-1.0
 21
-0.166667
 31
0.0
  0
LINE
  5
7ACA
  8
0
  6
BYBLOCK
 62
     0
 10
0.0
 20
0.0
 30
0.0
 11
-1.0
 21
0.0
 31
0.0
  0
ENDBLK
  5
7ACB
  8
0
  0
BLOCK
  8
0
  2
*D1
 70
     1
 10
0.0
 20
0.0
 30
0.0
  3
*D1
  1

  0
LINE
  5
7F37
  8
3
  6
CONTINUOUS
 62
     0
 10
805.06961035585107
 20
2731.7999061958731
 30
0.0
 11
805.06961035585107
 21
2408.1006221958728
 31
0.0
  0
LINE
  5
7F38
  8
3
  6
CONTINUOUS
 62
     0
 10
1805.069610355851
 20
2625.3444081958728
 30
0.0
 11
1805.069610355851
 21
2408.1006221958728
 31
0.0
  0
LINE
  5
7F39
  8
3
  6
CONTINUOUS
 62
     0
 10
865.06961035585118
 20
2438.1006221958728
 30
0.0
 11
1745.069610355851
 21
2438.1006221958728
 31
0.0
  0
INSERT
  5
7F3A
  8
3
  6
CONTINUOUS
 62
     0
  2
_OPEN
 10
805.06961035585107
 20
2438.1006221958728
 30
0.0
 41
60.0
 42
60.0
 43
60.0
 50
180.0
  0
INSERT
  5
7F3B
  8
3
  6
CONTINUOUS
 62
     0
  2
_OPEN
 10
1805.069610355851
 20
2438.1006221958728
 30
0.0
 41
60.0
 42
60.0
 43
60.0
  0
TEXT
  8
3
  40
90
  5
7FAC
  62
0
  72
0
  71
0
 10
1143.11
 20
2353.80
 30
0.000000
  1
1000
  0
POINT
  5
7F3D
  8
DEFPOINTS
  6
CONTINUOUS
 62
     0
 10
805.06961035585107
 20
2746.7999061958731
 30
0.0
  0
POINT
  5
7F3E
  8
DEFPOINTS
  6
CONTINUOUS
 62
     0
 10
1805.069610355851
 20
2640.3444081958728
 30
0.0
  0
POINT
  5
7F3F
  8
DEFPOINTS
  6
CONTINUOUS
 62
     0
 10
1805.069610355851
 20
2438.1006221958728
 30
0.0
  0
ENDBLK
  5
7CFC
  8
0
  0
BLOCK
  8
0
  2
*D2
 70
     1
 10
0.0
 20
0.0
 30
0.0
  3
*D2
  1

  0
LINE
  5
7D1F
  8
0
  6
BYBLOCK
 62
     0
 10
1805.069610355851
 20
2625.3444081958728
 30
0.0
 11
1805.069610355851
 21
2404.8210121958732
 31
0.0
  0
LINE
  5
7D20
  8
0
  6
BYBLOCK
 62
     0
 10
2205.0696103558498
 20
2731.7999061958731
 30
0.0
 11
2205.0696103558498
 21
2404.8210121958732
 31
0.0
  0
LINE
  5
7D21
  8
0
  6
BYBLOCK
 62
     0
 10
1865.069610355851
 20
2434.8210121958732
 30
0.0
 11
2145.0696103558498
 21
2434.8210121958732
 31
0.0
  0
TEXT
  5
7D22
  8
3
 62
     0
 10
1889.3553246415649
 20
2458.1665994479008
 30
0.0
 40
90.0
  1
400
  0
INSERT
  5
7D23
  8
0
  6
BYBLOCK
 62
     0
  2
_OPEN
 10
1805.069610355851
 20
2434.8210121958732
 30
0.0
 41
60.0
 42
60.0
 43
60.0
 50
180.0
  0
INSERT
  5
7D24
  8
0
  6
BYBLOCK
 62
     0
  2
_OPEN
 10
2205.0696103558498
 20
2434.8210121958732
 30
0.0
 41
60.0
 42
60.0
 43
60.0
  0
POINT
  5
7D25
  8
DEFPOINTS
  6
BYBLOCK
 62
     0
 10
1805.069610355851
 20
2640.3444081958728
 30
0.0
  0
POINT
  5
7D26
  8
DEFPOINTS
  6
BYBLOCK
 62
     0
 10
2205.0696103558498
 20
2746.7999061958731
 30
0.0
  0
POINT
  5
7D27
  8
DEFPOINTS
  6
BYBLOCK
 62
     0
 10
2205.0696103558498
 20
2434.8210121958732
 30
0.0
  0
ENDBLK
  5
7D28
  8
0
  0
BLOCK
  8
0
  2
*D3
 70
     1
 10
0.0
 20
0.0
 30
0.0
  3
*D3
  1

  0
LINE
  5
7F40
  8
3
  6
CONTINUOUS
 62
     0
 10
2280.0696103558498
 20
3929.7999061958731
 30
0.0
 11
2570.7266353558512
 21
3929.7999061958731
 31
0.0
  0
LINE
  5
7F41
  8
3
  6
CONTINUOUS
 62
     0
 10
2280.0696103558498
 20
3279.7999061958731
 30
0.0
 11
2570.7266353558512
 21
3279.7999061958731
 31
0.0
  0
LINE
  5
7F42
  8
3
  6
CONTINUOUS
 62
     0
 10
2540.7266353558498
 20
3869.7999061958731
 30
0.0
 11
2540.7266353558498
 21
3339.7999061958731
 31
0.0
  0
INSERT
  5
7F43
  8
3
  6
CONTINUOUS
 62
     0
  2
_OPEN
 10
2540.7266353558498
 20
3929.7999061958731
 30
0.0
 41
60.0
 42
60.0
 43
60.0
 50
90.0
  0
INSERT
  5
7F44
  8
3
  6
CONTINUOUS
 62
     0
  2
_OPEN
 10
2540.7266353558498
 20
3279.7999061958731
 30
0.0
 41
60.0
 42
60.0
 43
60.0
 50
270.0
  0
TEXT
  8
3
  40
90
  5
7FAD
  62
0
  72
0
  71
0
 10
2285.73
 20
3463.06
 30
0.000000
  1
650
  0
POINT
  5
7F46
  8
DEFPOINTS
  6
CONTINUOUS
 62
     0
 10
2265.0696103558498
 20
3929.7999061958731
 30
0.0
  0
POINT
  5
7F47
  8
DEFPOINTS
  6
CONTINUOUS
 62
     0
 10
2265.0696103558498
 20
3279.7999061958731
 30
0.0
  0
POINT
  5
7F48
  8
DEFPOINTS
  6
CONTINUOUS
 62
     0
 10
2540.7266353558498
 20
3279.7999061958731
 30
0.0
  0
ENDBLK
  5
7CE4
  8
0
  0
BLOCK
  8
0
  2
*D4
 70
     1
 10
0.0
 20
0.0
 30
0.0
  3
*D4
  1

  0
LINE
  5
7F49
  8
3
  6
CONTINUOUS
 62
     0
 10
2280.0696103558498
 20
3929.7999061958731
 30
0.0
 11
2820.157977355851
 21
3929.7999061958731
 31
0.0
  0
LINE
  5
7F4A
  8
3
  6
CONTINUOUS
 62
     0
 10
2197.3481983558499
 20
3251.7999061958731
 30
0.0
 11
2820.157977355851
 21
3251.7999061958731
 31
0.0
  0
LINE
  5
7F4B
  8
3
  6
CONTINUOUS
 62
     0
 10
2790.1579773558519
 20
3869.7999061958731
 30
0.0
 11
2790.1579773558519
 21
3311.7999061958731
 31
0.0
  0
INSERT
  5
7F4C
  8
3
  6
CONTINUOUS
 62
     0
  2
_OPEN
 10
2790.1579773558519
 20
3929.7999061958731
 30
0.0
 41
60.0
 42
60.0
 43
60.0
 50
90.0
  0
INSERT
  5
7F4D
  8
3
  6
CONTINUOUS
 62
     0
  2
_OPEN
 10
2790.1579773558519
 20
3251.7999061958731
 30
0.0
 41
60.0
 42
60.0
 43
60.0
 50
270.0
  0
TEXT
  8
3
  40
90
  5
7FAE
  62
0
  72
0
  71
0
 10
2535.16
 20
3407.31
 30
0.000000
  1
678
  0
POINT
  5
7F4F
  8
DEFPOINTS
  6
CONTINUOUS
 62
     0
 10
2265.0696103558498
 20
3929.7999061958731
 30
0.0
  0
POINT
  5
7F50
  8
DEFPOINTS
  6
CONTINUOUS
 62
     0
 10
2182.3481983558499
 20
3251.7999061958731
 30
0.0
  0
POINT
  5
7F51
  8
DEFPOINTS
  6
CONTINUOUS
 62
     0
 10
2790.1579773558519
 20
3251.7999061958731
 30
0.0
  0
ENDBLK
  5
7CD9
  8
0
  0
BLOCK
  8
0
  2
*D5
 70
     1
 10
0.0
 20
0.0
 30
0.0
  3
*D5
  1

  0
LINE
  5
7F52
  8
3
  6
CONTINUOUS
 62
     0
 10
2197.3481983558499
 20
3251.7999061958731
 30
0.0
 11
2820.157977355851
 21
3251.7999061958731
 31
0.0
  0
LINE
  5
7F53
  8
3
  6
CONTINUOUS
 62
     0
 10
2220.0696103558498
 20
2746.7999061958731
 30
0.0
 11
2820.157977355851
 21
2746.7999061958731
 31
0.0
  0
LINE
  5
7F54
  8
3
  6
CONTINUOUS
 62
     0
 10
2790.157977355851
 20
3191.7999061958731
 30
0.0
 11
2790.1579773558501
 21
2806.7999061958731
 31
0.0
  0
INSERT
  5
7F55
  8
3
  6
CONTINUOUS
 62
     0
  2
_OPEN
 10
2790.157977355851
 20
3251.7999061958731
 30
0.0
 41
60.0
 42
60.0
 43
60.0
 50
90.0
  0
INSERT
  5
7F56
  8
3
  6
CONTINUOUS
 62
     0
  2
_OPEN
 10
2790.1579773558501
 20
2746.7999061958731
 30
0.0
 41
60.0
 42
60.0
 43
60.0
 50
270.0
  0
TEXT
  8
3
  40
90
  5
7FAF
  62
0
  72
0
  71
0
 10
2535.16
 20
2840.00
 30
0.000000
  1
505
  0
POINT
  5
7F58
  8
DEFPOINTS
  6
CONTINUOUS
 62
     0
 10
2182.3481983558499
 20
3251.7999061958731
 30
0.0
  0
POINT
  5
7F59
  8
DEFPOINTS
  6
CONTINUOUS
 62
     0
 10
2205.0696103558498
 20
2746.7999061958731
 30
0.0
  0
POINT
  5
7F5A
  8
DEFPOINTS
  6
CONTINUOUS
 62
     0
 10
2790.1579773558501
 20
2746.7999061958731
 30
0.0
  0
ENDBLK
  5
7CCE
  8
0
  0
BLOCK
  8
0
  2
*D6
 70
     1
 10
0.0
 20
0.0
 30
0.0
  3
*D6
  1

  0
LINE
  5
7F5B
  8
3
  6
CONTINUOUS
 62
     0
 10
2280.0696103558498
 20
3971.7999061958731
 30
0.0
 11
3079.763161355851
 21
3971.7999061958722
 31
0.0
  0
LINE
  5
7F5C
  8
3
  6
CONTINUOUS
 62
     0
 10
2220.0696103558498
 20
2746.7999061958731
 30
0.0
 11
3079.763161355851
 21
2746.7999061958731
 31
0.0
  0
LINE
  5
7F5D
  8
3
  6
CONTINUOUS
 62
     0
 10
3049.763161355851
 20
3911.7999061958731
 30
0.0
 11
3049.763161355851
 21
2806.7999061958731
 31
0.0
  0
INSERT
  5
7F5E
  8
3
  6
CONTINUOUS
 62
     0
  2
_OPEN
 10
3049.763161355851
 20
3971.7999061958731
 30
0.0
 41
60.0
 42
60.0
 43
60.0
 50
90.0
  0
INSERT
  5
7F5F
  8
3
  6
CONTINUOUS
 62
     0
  2
_OPEN
 10
3049.763161355851
 20
2746.7999061958731
 30
0.0
 41
60.0
 42
60.0
 43
60.0
 50
270.0
  0
TEXT
  8
3
  40
90
  5
7FB0
  62
0
  72
0
  71
0
 10
2794.76
 20
3164.62
 30
0.000000
  1
1225
  0
POINT
  5
7F61
  8
DEFPOINTS
  6
CONTINUOUS
 62
     0
 10
2265.0696103558498
 20
3971.7999061958731
 30
0.0
  0
POINT
  5
7F62
  8
DEFPOINTS
  6
CONTINUOUS
 62
     0
 10
2205.0696103558498
 20
2746.7999061958731
 30
0.0
  0
POINT
  5
7F63
  8
DEFPOINTS
  6
CONTINUOUS
 62
     0
 10
3049.763161355851
 20
2746.7999061958731
 30
0.0
  0
ENDBLK
  5
7CC3
  8
0
  0
BLOCK
  8
0
  2
*D7
 70
     1
 10
0.0
 20
0.0
 30
0.0
  3
*D7
  1

  0
LINE
  5
7F64
  8
3
  6
CONTINUOUS
 62
     0
 10
1257.3706883558491
 20
3266.799906195874
 30
0.0
 11
1257.3706883558491
 21
4089.1986401958729
 31
0.0
  0
LINE
  5
7F65
  8
3
  6
CONTINUOUS
 62
     0
 10
1805.069610355851
 20
3908.7999061958731
 30
0.0
 11
1805.069610355851
 21
4089.1986401958729
 31
0.0
  0
LINE
  5
7F66
  8
3
  6
CONTINUOUS
 62
     0
 10
1317.37068835585
 20
4059.198640195872
 30
0.0
 11
1745.069610355851
 21
4059.198640195872
 31
0.0
  0
INSERT
  5
7F67
  8
3
  6
CONTINUOUS
 62
     0
  2
_OPEN
 10
1257.3706883558491
 20
4059.198640195872
 30
0.0
 41
60.0
 42
60.0
 43
60.0
 50
180.0
  0
INSERT
  5
7F68
  8
3
  6
CONTINUOUS
 62
     0
  2
_OPEN
 10
1805.069610355851
 20
4059.198640195872
 30
0.0
 41
60.0
 42
60.0
 43
60.0
  0
TEXT
  8
3
  40
90
  5
7FB1
  62
0
  72
0
  71
0
 10
1385.07
 20
3974.90
 30
0.000000
  1
548
  0
POINT
  5
7F6A
  8
DEFPOINTS
  6
CONTINUOUS
 62
     0
 10
1257.3706883558491
 20
3251.7999061958731
 30
0.0
  0
POINT
  5
7F6B
  8
DEFPOINTS
  6
CONTINUOUS
 62
     0
 10
1805.069610355851
 20
3893.7999061958731
 30
0.0
  0
POINT
  5
7F6C
  8
DEFPOINTS
  6
CONTINUOUS
 62
     0
 10
1805.069610355851
 20
4059.198640195872
 30
0.0
  0
ENDBLK
  5
7CB8
  8
0
  0
BLOCK
  8
0
  2
*D8
 70
     1
 10
0.0
 20
0.0
 30
0.0
  3
*D8
  1

  0
LINE
  5
7F6D
  8
3
  6
CONTINUOUS
 62
     0
 10
1805.069610355851
 20
3908.7999061958731
 30
0.0
 11
1805.069610355851
 21
4085.9190551958718
 31
0.0
  0
LINE
  5
7F6E
  8
3
  6
CONTINUOUS
 62
     0
 10
2265.0696103558498
 20
3986.7999061958731
 30
0.0
 11
2265.0696103558498
 21
4085.9190551958718
 31
0.0
  0
LINE
  5
7F6F
  8
3
  6
CONTINUOUS
 62
     0
 10
1865.069610355851
 20
4055.9190551958732
 30
0.0
 11
2205.0696103558498
 21
4055.9190551958732
 31
0.0
  0
INSERT
  5
7F70
  8
3
  6
CONTINUOUS
 62
     0
  2
_OPEN
 10
1805.069610355851
 20
4055.9190551958732
 30
0.0
 41
60.0
 42
60.0
 43
60.0
 50
180.0
  0
INSERT
  5
7F71
  8
3
  6
CONTINUOUS
 62
     0
  2
_OPEN
 10
2265.0696103558498
 20
4055.9190551958732
 30
0.0
 41
60.0
 42
60.0
 43
60.0
  0
TEXT
  8
3
  40
90
  5
7FB2
  62
0
  72
0
  71
0
 10
1830.78
 20
3971.62
 30
0.000000
  1
460
  0
POINT
  5
7F73
  8
DEFPOINTS
  6
CONTINUOUS
 62
     0
 10
1805.069610355851
 20
3893.7999061958731
 30
0.0
  0
POINT
  5
7F74
  8
DEFPOINTS
  6
CONTINUOUS
 62
     0
 10
2265.0696103558498
 20
3971.7999061958731
 30
0.0
  0
POINT
  5
7F75
  8
DEFPOINTS
  6
CONTINUOUS
 62
     0
 10
2265.0696103558498
 20
4055.9190551958732
 30
0.0
  0
ENDBLK
  5
7CAD
  8
0
  0
BLOCK
  8
0
  2
*D9
 70
     1
 10
0.0
 20
0.0
 30
0.0
  3
*D9
  1

  0
LINE
  5
7F76
  8
3
  6
CONTINUOUS
 62
     0
 10
805.06961035585107
 20
5728.5966071958737
 30
0.0
 11
805.06961035585107
 21
5314.7814311958718
 31
0.0
  0
LINE
  5
7F77
  8
3
  6
CONTINUOUS
 62
     0
 10
2205.0696103558498
 20
5728.5966071958737
 30
0.0
 11
2205.0696103558498
 21
5314.7814311958718
 31
0.0
  0
LINE
  5
7F78
  8
3
  6
CONTINUOUS
 62
     0
 10
865.06961035585118
 20
5344.7814311958728
 30
0.0
 11
2145.0696103558498
 21
5344.7814311958728
 31
0.0
  0
INSERT
  5
7F79
  8
3
  6
CONTINUOUS
 62
     0
  2
_OPEN
 10
805.06961035585107
 20
5344.7814311958728
 30
0.0
 41
60.0
 42
60.0
 43
60.0
 50
180.0
  0
INSERT
  5
7F7A
  8
3
  6
CONTINUOUS
 62
     0
  2
_OPEN
 10
2205.0696103558498
 20
5344.7814311958728
 30
0.0
 41
60.0
 42
60.0
 43
60.0
  0
TEXT
  8
3
  40
90
  5
7FB3
  62
0
  72
0
  71
0
 10
1258.31
 20
5260.48
 30
0.000000
  1
1400
  0
POINT
  5
7F7C
  8
DEFPOINTS
  6
CONTINUOUS
 62
     0
 10
805.06961035585107
 20
5743.5966071958737
 30
0.0
  0
POINT
  5
7F7D
  8
DEFPOINTS
  6
CONTINUOUS
 62
     0
 10
2205.0696103558498
 20
5743.5966071958737
 30
0.0
  0
POINT
  5
7F7E
  8
DEFPOINTS
  6
CONTINUOUS
 62
     0
 10
2205.0696103558498
 20
5344.7814311958728
 30
0.0
  0
ENDBLK
  5
7CA2
  8
0
  0
BLOCK
  8
0
  2
*D10
 70
     1
 10
0.0
 20
0.0
 30
0.0
  3
*D10
  1

  0
LINE
  5
7F7F
  8
3
  6
CONTINUOUS
 62
     0
 10
2220.0696103558498
 20
6433.5966071958728
 30
0.0
 11
2594.0284583558509
 21
6433.5966071958728
 31
0.0
  0
LINE
  5
7F80
  8
3
  6
CONTINUOUS
 62
     0
 10
2220.0696103558498
 20
5743.5966071958737
 30
0.0
 11
2594.0284583558509
 21
5743.5966071958737
 31
0.0
  0
LINE
  5
7F81
  8
3
  6
CONTINUOUS
 62
     0
 10
2564.0284583558509
 20
6373.5966071958737
 30
0.0
 11
2564.0284583558509
 21
5803.5966071958737
 31
0.0
  0
INSERT
  5
7F82
  8
3
  6
CONTINUOUS
 62
     0
  2
_OPEN
 10
2564.0284583558509
 20
6433.5966071958728
 30
0.0
 41
60.0
 42
60.0
 43
60.0
 50
90.0
  0
INSERT
  5
7F83
  8
3
  6
CONTINUOUS
 62
     0
  2
_OPEN
 10
2564.0284583558509
 20
5743.5966071958737
 30
0.0
 41
60.0
 42
60.0
 43
60.0
 50
270.0
  0
TEXT
  8
3
  40
90
  5
7FB4
  62
0
  72
0
  71
0
 10
2309.03
 20
5904.69
 30
0.000000
  1
690
  0
POINT
  5
7F85
  8
DEFPOINTS
  6
CONTINUOUS
 62
     0
 10
2205.0696103558498
 20
6433.5966071958728
 30
0.0
  0
POINT
  5
7F86
  8
DEFPOINTS
  6
CONTINUOUS
 62
     0
 10
2205.0696103558498
 20
5743.5966071958737
 30
0.0
  0
POINT
  5
7F87
  8
DEFPOINTS
  6
CONTINUOUS
 62
     0
 10
2564.0284583558509
 20
5743.5966071958737
 30
0.0
  0
ENDBLK
  5
7C97
  8
0
  0
BLOCK
  8
0
  2
*D11
 70
     1
 10
0.0
 20
0.0
 30
0.0
  3
*D11
  1

  0
LINE
  5
7D35
  8
0
  6
BYBLOCK
 62
     0
 10
4312.7585893558489
 20
2731.7999061958731
 30
0.0
 11
4312.7585893558489
 21
2480.5778221958731
 31
0.0
  0
LINE
  5
7D36
  8
0
  6
BYBLOCK
 62
     0
 10
4712.7585893558489
 20
2689.0738721958728
 30
0.0
 11
4712.7585893558489
 21
2480.5778221958731
 31
0.0
  0
LINE
  5
7D37
  8
0
  6
BYBLOCK
 62
     0
 10
4372.7585893558489
 20
2510.5778221958731
 30
0.0
 11
4652.7585893558498
 21
2510.5778221958731
 31
0.0
  0
TEXT
  5
7D38
  8
3
 62
     0
 10
4398.6387006303521
 20
2532.5513804613688
 30
0.0
 40
90.0
  1
400
  0
INSERT
  5
7D39
  8
0
  6
BYBLOCK
 62
     0
  2
_OPEN
 10
4312.7585893558489
 20
2510.5778221958731
 30
0.0
 41
60.0
 42
60.0
 43
60.0
 50
180.0
  0
INSERT
  5
7D3A
  8
0
  6
BYBLOCK
 62
     0
  2
_OPEN
 10
4712.7585893558489
 20
2510.5778221958731
 30
0.0
 41
60.0
 42
60.0
 43
60.0
  0
POINT
  5
7D3B
  8
DEFPOINTS
  6
BYBLOCK
 62
     0
 10
4312.7585893558489
 20
2746.7999061958731
 30
0.0
  0
POINT
  5
7D3C
  8
DEFPOINTS
  6
BYBLOCK
 62
     0
 10
4712.7585893558489
 20
2704.0738721958728
 30
0.0
  0
POINT
  5
7D3D
  8
DEFPOINTS
  6
BYBLOCK
 62
     0
 10
4712.7585893558489
 20
2510.5778221958731
 30
0.0
  0
ENDBLK
  5
7D3E
  8
0
  0
BLOCK
  8
0
  2
*D12
 70
     1
 10
0.0
 20
0.0
 30
0.0
  3
*D12
  1

  0
LINE
  5
7D2A
  8
0
  6
BYBLOCK
 62
     0
 10
4712.7585893558489
 20
2689.0738721958728
 30
0.0
 11
4712.7585893558489
 21
2480.5778221958731
 31
0.0
  0
LINE
  5
7D2B
  8
0
  6
BYBLOCK
 62
     0
 10
5002.7585893558498
 20
2731.7999061958731
 30
0.0
 11
5002.7585893558498
 21
2480.5778221958731
 31
0.0
  0
LINE
  5
7D2C
  8
0
  6
BYBLOCK
 62
     0
 10
4772.7585893558489
 20
2510.5778221958731
 30
0.0
 11
4942.7585893558498
 21
2510.5778221958731
 31
0.0
  0
TEXT
  5
7D2D
  8
3
 62
     0
 10
4737.0305849856486
 20
2539.3136377454539
 30
0.0
 40
90.0
  1
290
  0
INSERT
  5
7D2E
  8
0
  6
BYBLOCK
 62
     0
  2
_OPEN
 10
4712.7585893558489
 20
2510.5778221958731
 30
0.0
 41
60.0
 42
60.0
 43
60.0
 50
180.0
  0
INSERT
  5
7D2F
  8
0
  6
BYBLOCK
 62
     0
  2
_OPEN
 10
5002.7585893558498
 20
2510.5778221958731
 30
0.0
 41
60.0
 42
60.0
 43
60.0
  0
POINT
  5
7D30
  8
DEFPOINTS
  6
BYBLOCK
 62
     0
 10
4712.7585893558489
 20
2704.0738721958728
 30
0.0
  0
POINT
  5
7D31
  8
DEFPOINTS
  6
BYBLOCK
 62
     0
 10
5002.7585893558498
 20
2746.7999061958731
 30
0.0
  0
POINT
  5
7D32
  8
DEFPOINTS
  6
BYBLOCK
 62
     0
 10
5002.7585893558498
 20
2510.5778221958731
 30
0.0
  0
ENDBLK
  5
7D33
  8
0
  0
BLOCK
  8
0
  2
*D13
 70
     1
 10
0.0
 20
0.0
 30
0.0
  3
*D13
  1

  0
LINE
  5
7F88
  8
3
  6
CONTINUOUS
 62
     0
 10
5047.7585893558498
 20
3566.7999061958731
 30
0.0
 11
5330.2223263558508
 21
3566.7999061958731
 31
0.0
  0
LINE
  5
7F89
  8
3
  6
CONTINUOUS
 62
     0
 10
5047.7585893558498
 20
2936.7999061958731
 30
0.0
 11
5330.2223263558508
 21
2936.7999061958731
 31
0.0
  0
LINE
  5
7F8A
  8
3
  6
CONTINUOUS
 62
     0
 10
5300.2223263558517
 20
3506.7999061958731
 30
0.0
 11
5300.2223263558517
 21
2996.7999061958731
 31
0.0
  0
INSERT
  5
7F8B
  8
3
  6
CONTINUOUS
 62
     0
  2
_OPEN
 10
5300.2223263558517
 20
3566.7999061958731
 30
0.0
 41
60.0
 42
60.0
 43
60.0
 50
90.0
  0
INSERT
  5
7F8C
  8
3
  6
CONTINUOUS
 62
     0
  2
_OPEN
 10
5300.2223263558517
 20
2936.7999061958731
 30
0.0
 41
60.0
 42
60.0
 43
60.0
 50
270.0
  0
TEXT
  8
3
  40
90
  5
7FB5
  62
0
  72
0
  71
0
 10
5045.22
 20
3037.21
 30
0.000000
  1
φ630
  0
POINT
  5
7F8E
  8
DEFPOINTS
  6
CONTINUOUS
 62
     0
 10
5032.7585893558498
 20
3566.7999061958731
 30
0.0
  0
POINT
  5
7F8F
  8
DEFPOINTS
  6
CONTINUOUS
 62
     0
 10
5032.7585893558498
 20
2936.7999061958731
 30
0.0
  0
POINT
  5
7F90
  8
DEFPOINTS
  6
CONTINUOUS
 62
     0
 10
5300.2223263558517
 20
2936.7999061958731
 30
0.0
  0
ENDBLK
  5
7D49
  8
0
  0
BLOCK
  8
0
  2
*D14
 70
     1
 10
0.0
 20
0.0
 30
0.0
  3
*D14
  1

  0
LINE
  5
7F91
  8
3
  6
CONTINUOUS
 62
     0
 10
4475.2585893558489
 20
3944.7999061958731
 30
0.0
 11
4475.2585893558489
 21
4062.961979195873
 31
0.0
  0
LINE
  5
7F92
  8
3
  6
CONTINUOUS
 62
     0
 10
4950.2585893558498
 20
3944.7999061958731
 30
0.0
 11
4950.2585893558498
 21
4062.961979195873
 31
0.0
  0
LINE
  5
7F93
  8
3
  6
CONTINUOUS
 62
     0
 10
4535.2585893558498
 20
4032.961979195873
 30
0.0
 11
4890.2585893558498
 21
4032.961979195873
 31
0.0
  0
INSERT
  5
7F94
  8
3
  6
CONTINUOUS
 62
     0
  2
_OPEN
 10
4475.2585893558489
 20
4032.961979195873
 30
0.0
 41
60.0
 42
60.0
 43
60.0
 50
180.0
  0
INSERT
  5
7F95
  8
3
  6
CONTINUOUS
 62
     0
  2
_OPEN
 10
4950.2585893558498
 20
4032.961979195873
 30
0.0
 41
60.0
 42
60.0
 43
60.0
  0
TEXT
  8
3
  40
90
  5
7FB6
  62
0
  72
0
  71
0
 10
4532.76
 20
3948.66
 30
0.000000
  1
475
  0
POINT
  5
7F97
  8
DEFPOINTS
  6
CONTINUOUS
 62
     0
 10
4475.2585893558489
 20
3929.7999061958731
 30
0.0
  0
POINT
  5
7F98
  8
DEFPOINTS
  6
CONTINUOUS
 62
     0
 10
4950.2585893558498
 20
3929.7999061958731
 30
0.0
  0
POINT
  5
7F99
  8
DEFPOINTS
  6
CONTINUOUS
 62
     0
 10
4950.2585893558498
 20
4032.961979195873
 30
0.0
  0
ENDBLK
  5
7C68
  8
0
  0
BLOCK
  8
0
  2
*D15
 70
     1
 10
0.0
 20
0.0
 30
0.0
  3
*D15
  1

  0
LINE
  5
7F9A
  8
3
  6
CONTINUOUS
 62
     0
 10
4232.7585893558489
 20
3456.799906195874
 30
0.0
 11
4232.7585893558489
 21
4264.6901365909098
 31
0.0
  0
LINE
  5
7F9B
  8
3
  6
CONTINUOUS
 62
     0
 10
4712.7585893558489
 20
4178.7193219024794
 30
0.0
 11
4712.7585893558489
 21
4264.6901365909098
 31
0.0
  0
LINE
  5
7F9C
  8
3
  6
CONTINUOUS
 62
     0
 10
4292.7585893558498
 20
4234.6901365909098
 30
0.0
 11
4652.7585893558498
 21
4234.6901365909098
 31
0.0
  0
INSERT
  5
7F9D
  8
3
  6
CONTINUOUS
 62
     0
  2
_OPEN
 10
4232.7585893558489
 20
4234.6901365909098
 30
0.0
 41
60.0
 42
60.0
 43
60.0
 50
180.0
  0
INSERT
  5
7F9E
  8
3
  6
CONTINUOUS
 62
     0
  2
_OPEN
 10
4712.7585893558489
 20
4234.6901365909098
 30
0.0
 41
60.0
 42
60.0
 43
60.0
  0
TEXT
  8
3
  40
90
  5
7FB7
  62
0
  72
0
  71
0
 10
4271.33
 20
4225.39
 30
0.000000
  1
MAX
  0
TEXT
  8
3
  40
90
  5
7FB8
  62
0
  72
0
  71
0
 10
4271.33
 20
4108.39
 30
0.000000
  1
550
  0
POINT
  5
7FA0
  8
DEFPOINTS
  6
CONTINUOUS
 62
     0
 10
4232.7585893558489
 20
3441.7999061958731
 30
0.0
  0
POINT
  5
7FA1
  8
DEFPOINTS
  6
CONTINUOUS
 62
     0
 10
4712.7585893558489
 20
4163.7193219024803
 30
0.0
  0
POINT
  5
7FA2
  8
DEFPOINTS
  6
CONTINUOUS
 62
     0
 10
4712.7585893558489
 20
4234.6901365909098
 30
0.0
  0
ENDBLK
  5
7DC5
  8
0
  0
BLOCK
  8
0
  2
*D16
 70
     1
 10
0.0
 20
0.0
 30
0.0
  3
*D16
  1

  0
LINE
  5
7D98
  8
0
  6
BYBLOCK
 62
     0
 10
4712.7585893558489
 20
4178.7193219024794
 30
0.0
 11
4712.7585893558489
 21
4264.6901365909098
 31
0.0
  0
LINE
  5
7D99
  8
0
  6
BYBLOCK
 62
     0
 10
5032.7585893558498
 20
3621.7999061958731
 30
0.0
 11
5032.7585893558498
 21
4264.6901365909098
 31
0.0
  0
LINE
  5
7D9A
  8
0
  6
BYBLOCK
 62
     0
 10
4772.7585893558489
 20
4234.6901365909098
 30
0.0
 11
4972.7585893558498
 21
4234.6901365909098
 31
0.0
  0
TEXT
  5
7D9B
  8
3
 62
     0
 10
4764.7693903276559
 20
4261.8741832758969
 30
0.0
 40
90.0
  1
320
  0
INSERT
  5
7D9C
  8
0
  6
BYBLOCK
 62
     0
  2
_OPEN
 10
4712.7585893558489
 20
4234.6901365909098
 30
0.0
 41
60.0
 42
60.0
 43
60.0
 50
180.0
  0
INSERT
  5
7D9D
  8
0
  6
BYBLOCK
 62
     0
  2
_OPEN
 10
5032.7585893558498
 20
4234.6901365909098
 30
0.0
 41
60.0
 42
60.0
 43
60.0
  0
POINT
  5
7D9E
  8
DEFPOINTS
  6
BYBLOCK
 62
     0
 10
4712.7585893558489
 20
4163.7193219024803
 30
0.0
  0
POINT
  5
7D9F
  8
DEFPOINTS
  6
BYBLOCK
 62
     0
 10
5032.7585893558498
 20
3606.7999061958731
 30
0.0
  0
POINT
  5
7DA0
  8
DEFPOINTS
  6
BYBLOCK
 62
     0
 10
5032.7585893558498
 20
4234.6901365909098
 30
0.0
  0
ENDBLK
  5
7DA1
  8
0
  0
BLOCK
  8
0
  2
*D17
 70
     1
 10
0.0
 20
0.0
 30
0.0
  3
*D17
  1

  0
LINE
  5
7FA3
  8
3
 62
     0
 10
2265.0696103558498
 20
3986.7999061958731
 30
0.0
 11
2265.0696103558498
 21
4269.690863471882
 31
0.0
  0
LINE
  5
7FA4
  8
3
 62
     0
 10
805.06961035585107
 20
2861.7999061958731
 30
0.0
 11
805.0696103558513
 21
4269.690863471882
 31
0.0
  0
LINE
  5
7FA5
  8
3
 62
     0
 10
2205.0696103558498
 20
4239.6908634718811
 30
0.0
 11
865.06961035585118
 21
4239.6908634718811
 31
0.0
  0
INSERT
  5
7FA6
  8
3
 62
     0
  2
_OPEN
 10
2265.0696103558498
 20
4239.6908634718811
 30
0.0
 41
60.0
 42
60.0
 43
60.0
  0
INSERT
  5
7FA7
  8
3
 62
     0
  2
_OPEN
 10
805.0696103558513
 20
4239.6908634718811
 30
0.0
 41
60.0
 42
60.0
 43
60.0
 50
180.0
  0
TEXT
  8
3
  40
90
  5
7FB9
  62
0
  72
0
  71
0
 10
1285.28
 20
4155.39
 30
0.000000
  1
1460
  0
POINT
  5
7FA9
  8
DEFPOINTS
 62
     0
 10
2265.0696103558498
 20
3971.7999061958731
 30
0.0
  0
POINT
  5
7FAA
  8
DEFPOINTS
 62
     0
 10
805.06961035585107
 20
2846.7999061958731
 30
0.0
  0
POINT
  5
7FAB
  8
DEFPOINTS
 62
     0
 10
805.0696103558513
 20
4239.6908634718811
 30
0.0
  0
ENDBLK
  5
7DB8
  8
0
  0
ENDSEC
  0
SECTION
  2
ENTITIES
  0
LINE
  5
7A63
  8
1
  6
CONTINUOUS
 10
2205.0696103558498
 20
2746.7999061958731
 30
0.0
 11
805.06961035585107
 21
2746.7999061958731
 31
0.0
  0
LINE
  5
7A64
  8
1
  6
CONTINUOUS
 10
2205.0696103558498
 20
2846.7999061958731
 30
0.0
 11
805.06961035585107
 21
2846.7999061958731
 31
0.0
  0
ARC
  5
7A65
  8
1
  6
CONTINUOUS
 10
980.06961035585107
 20
3023.7999061958731
 30
0.0
 40
142.0
 50
324.60000000000002
 51
215.39999999999989
  0
LINE
  5
7A66
  8
1
  6
CONTINUOUS
 10
1145.069610355851
 20
2891.7999061958731
 30
0.0
 11
815.06961035585118
 21
2891.7999061958731
 31
0.0
  0
LINE
  5
7A67
  8
1
  6
CONTINUOUS
 10
959.86961035585045
 20
3090.8999061958739
 30
0.0
 11
1779.069610355851
 21
3337.9999061958729
 31
0.0
  0
LINE
  5
7A68
  8
1
  6
CONTINUOUS
 10
930.96961035585082
 20
3186.5999061958742
 30
0.0
 11
1750.16961035585
 21
3433.6999061958732
 31
0.0
  0
LINE
  5
7A69
  8
1
  6
CONTINUOUS
 10
997.16961035585075
 20
2955.9999061958729
 30
0.0
 11
1826.969610355851
 21
3164.5999061958728
 31
0.0
  0
LINE
  5
7A6A
  8
1
  6
CONTINUOUS
 10
1021.46961035585
 20
2858.9999061958729
 30
0.0
 11
1851.36961035585
 21
3067.5999061958728
 31
0.0
  0
LINE
  5
7A6B
  8
1
  6
CONTINUOUS
 10
850.06961035585118
 20
2906.7999061958731
 30
0.0
 11
864.36961035585045
 21
2941.5999061958728
 31
0.0
  0
ARC
  5
7A6C
  8
1
  6
CONTINUOUS
 10
980.06961035585107
 20
3023.7999061958731
 30
0.0
 40
170.0
 50
106.8
 51
284.10000000000002
  0
LINE
  5
7A6D
  8
1
  6
CONTINUOUS
 10
805.06961035585107
 20
2846.7999061958731
 30
0.0
 11
805.06961035585107
 21
2746.7999061958731
 31
0.0
  0
LINE
  5
7A6E
  8
1
  6
CONTINUOUS
 10
850.06961035585118
 20
2891.7999061958731
 30
0.0
 11
850.06961035585118
 21
2906.7999061958731
 31
0.0
  0
LINE
  5
7A6F
  8
1
  6
CONTINUOUS
 10
815.06961035585118
 20
2891.7999061958731
 30
0.0
 11
805.06961035585107
 21
2846.7999061958731
 31
0.0
  0
CIRCLE
  5
7A70
  8
1
  6
CONTINUOUS
 10
980.06961035585107
 20
3023.7999061958731
 30
0.0
 40
70.0
  0
LINE
  5
7A71
  8
2
  6
CENTER
 10
980.06961035585107
 20
2953.7999061958731
 30
0.0
 11
980.06961035585107
 21
3093.7999061958731
 31
0.0
  0
LINE
  5
7A72
  8
2
  6
CENTER
 10
910.06961035585118
 20
3023.7999061958731
 30
0.0
 11
1050.069610355851
 21
3023.7999061958731
 31
0.0
  0
LINE
  5
7A73
  8
1
  6
CONTINUOUS
 10
2265.0696103558498
 20
3929.7999061958731
 30
0.0
 11
1805.069610355851
 21
3893.7999061958731
 31
0.0
  0
ARC
  5
7A74
  8
1
  6
CONTINUOUS
 10
1767.069610355851
 20
3213.7999061958731
 30
0.0
 40
417.39999999999992
 50
276.0
 51
0.0
  0
CIRCLE
  5
7A75
  8
1
  6
CONTINUOUS
 10
1805.069610355851
 20
3251.7999061958731
 30
0.0
 40
315.0
  0
CIRCLE
  5
7A76
  8
1
  6
CONTINUOUS
 10
1805.069610355851
 20
3251.7999061958731
 30
0.0
 40
355.0
  0
ARC
  5
7A77
  8
1
  6
CONTINUOUS
 10
1852.069610355851
 20
3298.799906195874
 30
0.0
 40
596.89999999999998
 50
94.500000000000014
 51
180.0
  0
ARC
  5
7A78
  8
1
  6
CONTINUOUS
 10
1758.069610355851
 20
3298.799906195874
 30
0.0
 40
502.89999999999992
 50
180.0
 51
276.0
  0
LINE
  5
7A79
  8
1
  6
CONTINUOUS
 10
1110.069610355851
 20
2891.7999061958731
 30
0.0
 11
1110.069610355851
 21
2906.7999061958731
 31
0.0
  0
LINE
  5
7A7A
  8
1
  6
CONTINUOUS
 10
1110.069610355851
 20
2906.7999061958731
 30
0.0
 11
1095.7696103558501
 21
2941.5999061958728
 31
0.0
  0
LINE
  5
7A7B
  8
1
  6
CONTINUOUS
 10
1155.069610355851
 20
2846.7999061958731
 30
0.0
 11
1145.069610355851
 21
2891.7999061958731
 31
0.0
  0
CIRCLE
  5
7A7C
  8
1
  6
CONTINUOUS
 10
1805.069610355851
 20
3251.7999061958731
 30
0.0
 40
90.0
  0
ARC
  5
7A7D
  8
1
  6
CONTINUOUS
 10
1805.069610355851
 20
3251.7999061958731
 30
0.0
 40
190.0
 50
284.10000000000002
 51
106.8
  0
LINE
  5
7A7E
  8
2
  6
CENTER
 10
1805.069610355851
 20
2640.3444081958728
 30
0.0
 11
1805.069610355851
 21
3989.0051261958729
 31
0.0
  0
LINE
  5
7A7F
  8
2
  6
CENTER
 10
1061.95329035585
 20
3251.7999061958731
 30
0.0
 11
2376.2354183558509
 21
3251.7999061958731
 31
0.0
  0
LINE
  5
7A80
  8
1
  6
CONTINUOUS
 10
2265.0696103558498
 20
3237.7999061958731
 30
0.0
 11
2265.0696103558498
 21
3971.7999061958731
 31
0.0
  0
LINE
  5
7A81
  8
1
  6
CONTINUOUS
 10
2225.0696103558498
 20
3279.7999061958731
 30
0.0
 11
2225.0696103558498
 21
3929.7999061958731
 31
0.0
  0
LINE
  5
7A82
  8
1
  6
CONTINUOUS
 10
2205.0696103558498
 20
2846.7999061958731
 30
0.0
 11
2205.0696103558498
 21
2746.7999061958731
 31
0.0
  0
LINE
  5
7A83
  8
1
  6
CONTINUOUS
 10
2177.9696103558499
 20
3279.7999061958731
 30
0.0
 11
2265.0696103558498
 21
3279.7999061958731
 31
0.0
  0
ARC
  5
7A84
  8
1
  6
CONTINUOUS
 10
1843.069610355851
 20
3213.7999061958731
 30
0.0
 40
341.39999999999992
 50
0.0
 51
11.1
  0
LINE
  5
7A85
  8
1
  6
CONTINUOUS
 10
5002.7585893558498
 20
2846.7999061958731
 30
0.0
 11
4312.7585893558489
 21
2846.7999061958731
 31
0.0
  0
LINE
  5
7A86
  8
1
  6
CONTINUOUS
 10
5002.7585893558498
 20
2746.7999061958731
 30
0.0
 11
4312.7585893558489
 21
2746.7999061958731
 31
0.0
  0
LINE
  5
7A87
  8
1
  6
CONTINUOUS
 10
4475.2585893558489
 20
3929.7999061958731
 30
0.0
 11
4950.2585893558498
 21
3929.7999061958731
 31
0.0
  0
LINE
  5
7A88
  8
1
  6
CONTINUOUS
 10
4475.2585893558489
 20
3279.7999061958731
 30
0.0
 11
4950.2585893558498
 21
3279.7999061958731
 31
0.0
  0
LINE
  5
7A89
  8
1
  6
CONTINUOUS
 10
4475.2585893558489
 20
3929.7999061958731
 30
0.0
 11
4950.2585893558498
 21
3279.7999061958731
 31
0.0
  0
LINE
  5
7A8A
  8
1
  6
CONTINUOUS
 10
4475.2585893558489
 20
3279.7999061958731
 30
0.0
 11
4950.2585893558498
 21
3929.7999061958731
 31
0.0
  0
LINE
  5
7A8B
  8
1
  6
CONTINUOUS
 10
4475.2585893558489
 20
3929.7999061958731
 30
0.0
 11
4475.2585893558489
 21
2846.7999061958731
 31
0.0
  0
LINE
  5
7A8C
  8
1
  6
CONTINUOUS
 10
4232.7585893558489
 20
2853.7999061958731
 30
0.0
 11
4392.7585893558498
 21
2853.7999061958731
 31
0.0
  0
LINE
  5
7A8D
  8
1
  6
CONTINUOUS
 10
4232.7585893558489
 20
3441.7999061958731
 30
0.0
 11
4392.7585893558498
 21
3441.7999061958731
 31
0.0
  0
LINE
  5
7A8E
  8
1
  6
CONTINUOUS
 10
4272.7585893558489
 20
3341.7999061958731
 30
0.0
 11
4352.7585893558498
 21
3341.7999061958731
 31
0.0
  0
LINE
  5
7A8F
  8
1
  6
CONTINUOUS
 10
4272.7585893558489
 20
3161.7999061958731
 30
0.0
 11
4352.7585893558498
 21
3161.7999061958731
 31
0.0
  0
LINE
  5
7A90
  8
1
  6
CONTINUOUS
 10
4272.7585893558489
 20
3093.7999061958731
 30
0.0
 11
4352.7585893558498
 21
3093.7999061958731
 31
0.0
  0
LINE
  5
7A91
  8
1
  6
CONTINUOUS
 10
4272.7585893558489
 20
2953.7999061958731
 30
0.0
 11
4352.7585893558498
 21
2953.7999061958731
 31
0.0
  0
LINE
  5
7A92
  8
1
  6
CONTINUOUS
 10
4232.7585893558489
 20
3441.7999061958731
 30
0.0
 11
4232.7585893558489
 21
2853.7999061958731
 31
0.0
  0
LINE
  5
7A93
  8
1
  6
CONTINUOUS
 10
4272.7585893558489
 20
3341.7999061958731
 30
0.0
 11
4272.7585893558489
 21
3161.7999061958731
 31
0.0
  0
LINE
  5
7A94
  8
1
  6
CONTINUOUS
 10
4272.7585893558489
 20
3093.7999061958731
 30
0.0
 11
4272.7585893558489
 21
2953.7999061958731
 31
0.0
  0
LINE
  5
7A95
  8
1
  6
CONTINUOUS
 10
4392.7585893558498
 20
3441.7999061958731
 30
0.0
 11
4392.7585893558498
 21
2853.7999061958731
 31
0.0
  0
LINE
  5
7A96
  8
1
  6
CONTINUOUS
 10
4352.7585893558498
 20
3341.7999061958731
 30
0.0
 11
4352.7585893558498
 21
3161.7999061958731
 31
0.0
  0
LINE
  5
7A97
  8
1
  6
CONTINUOUS
 10
4312.7585893558489
 20
2846.7999061958731
 30
0.0
 11
4312.7585893558489
 21
2746.7999061958731
 31
0.0
  0
LINE
  5
7A98
  8
1
  6
CONTINUOUS
 10
4352.7585893558498
 20
3093.7999061958731
 30
0.0
 11
4352.7585893558498
 21
2953.7999061958731
 31
0.0
  0
LINE
  5
7A99
  8
1
  6
CONTINUOUS
 10
4475.2585893558489
 20
3004.7999061958731
 30
0.0
 11
4352.7585893558498
 21
3004.7999061958731
 31
0.0
  0
LINE
  5
7A9A
  8
1
  6
CONTINUOUS
 10
4475.2585893558489
 20
3042.7999061958731
 30
0.0
 11
4352.7585893558498
 21
3042.7999061958731
 31
0.0
  0
LINE
  5
7A9B
  8
1
  6
CONTINUOUS
 10
4475.2585893558489
 20
3270.799906195874
 30
0.0
 11
4352.7585893558498
 21
3270.799906195874
 31
0.0
  0
LINE
  5
7A9C
  8
1
  6
CONTINUOUS
 10
4475.2585893558489
 20
3232.7999061958731
 30
0.0
 11
4352.7585893558498
 21
3232.7999061958731
 31
0.0
  0
LINE
  5
7A9D
  8
1
  6
CONTINUOUS
 10
4950.2585893558498
 20
3929.7999061958731
 30
0.0
 11
4950.2585893558498
 21
2846.7999061958731
 31
0.0
  0
LINE
  5
7A9E
  8
1
  6
CONTINUOUS
 10
5032.7585893558498
 20
3606.7999061958731
 30
0.0
 11
5032.7585893558498
 21
2896.7999061958731
 31
0.0
  0
LINE
  5
7A9F
  8
1
  6
CONTINUOUS
 10
4950.2585893558498
 20
2936.7999061958731
 30
0.0
 11
5032.7585893558498
 21
2936.7999061958731
 31
0.0
  0
LINE
  5
7AA0
  8
1
  6
CONTINUOUS
 10
5002.7585893558498
 20
2846.7999061958731
 30
0.0
 11
5002.7585893558498
 21
2746.7999061958731
 31
0.0
  0
LINE
  5
7AA1
  8
1
  6
CONTINUOUS
 10
4950.2585893558498
 20
3566.7999061958731
 30
0.0
 11
5032.7585893558498
 21
3566.7999061958731
 31
0.0
  0
LINE
  5
7AA2
  8
1
  6
CONTINUOUS
 10
838.06961035585107
 20
5876.1966071958732
 30
0.0
 11
1122.069610355851
 21
5876.1966071958732
 31
0.0
  0
LINE
  5
7AA3
  8
1
  6
CONTINUOUS
 10
838.06961035585107
 20
6276.1966071958732
 30
0.0
 11
1122.069610355851
 21
6276.1966071958732
 31
0.0
  0
LINE
  5
7AA4
  8
1
  6
CONTINUOUS
 10
1995.069610355851
 20
5663.5966071958737
 30
0.0
 11
780.06961035585118
 21
5663.5966071958737
 31
0.0
  0
LINE
  5
7AA5
  8
1
  6
CONTINUOUS
 10
1995.069610355851
 20
5823.5966071958737
 30
0.0
 11
780.06961035585118
 21
5823.5966071958737
 31
0.0
  0
LINE
  5
7AA6
  8
1
  6
CONTINUOUS
 10
1490.069610355851
 20
6433.5966071958728
 30
0.0
 11
805.06961035585107
 21
6433.5966071958728
 31
0.0
  0
LINE
  5
7AA7
  8
1
  6
CONTINUOUS
 10
1715.069610355851
 20
5743.5966071958737
 30
0.0
 11
1050.069610355851
 21
5743.5966071958737
 31
0.0
  0
LINE
  5
7AA8
  8
1
  6
CONTINUOUS
 10
838.06961035585107
 20
5876.1966071958732
 30
0.0
 11
838.06961035585107
 21
6276.1966071958732
 31
0.0
  0
LINE
  5
7AA9
  8
1
  6
CONTINUOUS
 10
805.06961035585107
 20
6433.5966071958728
 30
0.0
 11
805.06961035585107
 21
5743.5966071958737
 31
0.0
  0
LINE
  5
7AAA
  8
1
  6
CONTINUOUS
 10
910.06961035585118
 20
5743.5966071958737
 30
0.0
 11
805.06961035585107
 21
5743.5966071958737
 31
0.0
  0
LINE
  5
7AAB
  8
1
  6
CONTINUOUS
 10
780.06961035585118
 20
5663.5966071958737
 30
0.0
 11
780.06961035585118
 21
5823.5966071958737
 31
0.0
  0
LINE
  5
7AAC
  8
1
  6
CONTINUOUS
 10
961.06961035585107
 20
5783.5966071958737
 30
0.0
 11
961.06961035585107
 21
5876.1966071958732
 31
0.0
  0
LINE
  5
7AAD
  8
1
  6
CONTINUOUS
 10
999.06961035585118
 20
5783.5966071958737
 30
0.0
 11
999.06961035585118
 21
5876.1966071958732
 31
0.0
  0
LINE
  5
7AAE
  8
1
  6
CONTINUOUS
 10
910.06961035585118
 20
5783.5966071958737
 30
0.0
 11
1050.069610355851
 21
5783.5966071958737
 31
0.0
  0
LINE
  5
7AAF
  8
1
  6
CONTINUOUS
 10
910.06961035585118
 20
5703.5966071958737
 30
0.0
 11
1050.069610355851
 21
5703.5966071958737
 31
0.0
  0
LINE
  5
7AB0
  8
1
  6
CONTINUOUS
 10
910.06961035585118
 20
5703.5966071958737
 30
0.0
 11
910.06961035585118
 21
5783.5966071958737
 31
0.0
  0
LINE
  5
7AB1
  8
1
  6
CONTINUOUS
 10
1050.069610355851
 20
5703.5966071958737
 30
0.0
 11
1050.069610355851
 21
5783.5966071958737
 31
0.0
  0
LINE
  5
7AB2
  8
1
  6
CONTINUOUS
 10
2205.0696103558498
 20
5743.5966071958737
 30
0.0
 11
1895.069610355851
 21
5743.5966071958737
 31
0.0
  0
LINE
  5
7AB3
  8
1
  6
CONTINUOUS
 10
2265.0696103558498
 20
6381.0966071958737
 30
0.0
 11
1255.16961035585
 21
6381.0966071958737
 31
0.0
  0
LINE
  5
7AB4
  8
1
  6
CONTINUOUS
 10
2265.0696103558498
 20
5906.0966071958728
 30
0.0
 11
1255.16961035585
 21
5906.0966071958728
 31
0.0
  0
LINE
  5
7AB5
  8
1
  6
CONTINUOUS
 10
2160.0696103558498
 20
6463.5966071958728
 30
0.0
 11
1450.069610355851
 21
6463.5966071958728
 31
0.0
  0
LINE
  5
7AB6
  8
1
  6
CONTINUOUS
 10
1122.069610355851
 20
5876.1966071958732
 30
0.0
 11
1122.069610355851
 21
6276.1966071958732
 31
0.0
  0
LINE
  5
7AB7
  8
1
  6
CONTINUOUS
 10
1255.16961035585
 20
5906.0966071958728
 30
0.0
 11
1255.16961035585
 21
6381.0966071958737
 31
0.0
  0
LINE
  5
7AB8
  8
1
  6
CONTINUOUS
 10
1490.069610355851
 20
6463.5966071958728
 30
0.0
 11
1490.069610355851
 21
6381.0966071958737
 31
0.0
  0
LINE
  5
7AB9
  8
1
  6
CONTINUOUS
 10
1715.069610355851
 20
5703.5966071958737
 30
0.0
 11
1895.069610355851
 21
5703.5966071958737
 31
0.0
  0
LINE
  5
7ABA
  8
1
  6
CONTINUOUS
 10
1715.069610355851
 20
5783.5966071958737
 30
0.0
 11
1895.069610355851
 21
5783.5966071958737
 31
0.0
  0
LINE
  5
7ABB
  8
1
  6
CONTINUOUS
 10
1715.069610355851
 20
5703.5966071958737
 30
0.0
 11
1715.069610355851
 21
5783.5966071958737
 31
0.0
  0
LINE
  5
7ABC
  8
1
  6
CONTINUOUS
 10
1995.069610355851
 20
5663.5966071958737
 30
0.0
 11
1995.069610355851
 21
5823.5966071958737
 31
0.0
  0
LINE
  5
7ABD
  8
1
  6
CONTINUOUS
 10
1895.069610355851
 20
5703.5966071958737
 30
0.0
 11
1895.069610355851
 21
5783.5966071958737
 31
0.0
  0
LINE
  5
7ABE
  8
1
  6
CONTINUOUS
 10
1824.069610355851
 20
5783.5966071958737
 30
0.0
 11
1824.069610355851
 21
5906.0966071958728
 31
0.0
  0
LINE
  5
7ABF
  8
1
  6
CONTINUOUS
 10
1786.069610355851
 20
5783.5966071958737
 30
0.0
 11
1786.069610355851
 21
5906.0966071958728
 31
0.0
  0
LINE
  5
7AC0
  8
1
  6
CONTINUOUS
 10
2225.0696103558498
 20
5906.0966071958728
 30
0.0
 11
2225.0696103558498
 21
6381.0966071958737
 31
0.0
  0
LINE
  5
7AC1
  8
1
  6
CONTINUOUS
 10
2265.0696103558498
 20
5866.0966071958737
 30
0.0
 11
2265.0696103558498
 21
6421.0966071958737
 31
0.0
  0
LINE
  5
7AC2
  8
1
  6
CONTINUOUS
 10
2205.0696103558498
 20
5906.0966071958728
 30
0.0
 11
2205.0696103558498
 21
5743.5966071958737
 31
0.0
  0
LINE
  5
7AC3
  8
1
  6
CONTINUOUS
 10
2205.0696103558498
 20
6433.5966071958728
 30
0.0
 11
2205.0696103558498
 21
6381.0966071958737
 31
0.0
  0
LINE
  5
7AC4
  8
1
  6
CONTINUOUS
 10
2205.0696103558498
 20
6433.5966071958728
 30
0.0
 11
2120.0696103558498
 21
6433.5966071958728
 31
0.0
  0
LINE
  5
7AC5
  8
1
  6
CONTINUOUS
 10
2120.0696103558498
 20
6463.5966071958728
 30
0.0
 11
2120.0696103558498
 21
6381.0966071958737
 31
0.0
  0
DIMENSION
  5
7AD9
  8
3
  6
CONTINUOUS
  2
*D1
 10
1805.069610355851
 20
2438.1006221958728
 30
0.0
 11
1323.1077703558501
 21
2438.1006221958728
 31
0.0
 70
   128
 13
805.06961035585107
 23
2746.7999061958731
 33
0.0
 14
1805.069610355851
 24
2640.3444081958728
 34
0.0
1001
ACAD
1000
DSTYLE
1002
{
1070
   287
1070
     3
1070
   287
1070
     3
1070
    40
1040
30.0
1070
   143
1040
0.039
1070
   172
1070
     1
1070
   271
1070
     0
1070
   279
1070
     0
1070
   288
1070
     1
1002
}
  0
DIMENSION
  5
7AE7
  8
3
  6
CONTINUOUS
  2
*D2
 10
2205.0696103558498
 20
2434.8210121958732
 30
0.0
 11
2005.06961035585
 21
2503.1665994479008
 31
0.0
 70
   128
 13
1805.069610355851
 23
2640.3444081958728
 33
0.0
 14
2205.0696103558498
 24
2746.7999061958731
 34
0.0
1001
ACAD
1000
DSTYLE
1002
{
1070
   288
1070
     1
1070
   172
1070
     1
1070
    40
1040
30.0
1070
   271
1070
     0
1070
   143
1040
0.039
1002
}
  0
DIMENSION
  5
7B0A
  8
3
  6
CONTINUOUS
  2
*D3
 10
2540.7266353558498
 20
3279.7999061958731
 30
0.0
 11
2540.7266353558489
 21
3622.3603231958732
 31
0.0
 70
   128
 13
2265.0696103558498
 23
3929.7999061958731
 33
0.0
 14
2265.0696103558498
 24
3279.7999061958731
 34
0.0
 50
90.0
1001
ACAD
1000
DSTYLE
1002
{
1070
   287
1070
     3
1070
   287
1070
     3
1070
    40
1040
30.0
1070
   143
1040
0.039
1070
   172
1070
     1
1070
   271
1070
     0
1070
   279
1070
     0
1070
   288
1070
     1
1002
}
  0
DIMENSION
  5
7B17
  8
3
  6
CONTINUOUS
  2
*D4
 10
2790.1579773558519
 20
3251.7999061958731
 30
0.0
 11
2790.1579773558501
 21
3566.6072081958732
 31
0.0
 70
   128
 13
2265.0696103558498
 23
3929.7999061958731
 33
0.0
 14
2182.3481983558499
 24
3251.7999061958731
 34
0.0
 50
90.0
1001
ACAD
1000
DSTYLE
1002
{
1070
   287
1070
     3
1070
   287
1070
     3
1070
    40
1040
30.0
1070
   143
1040
0.039
1070
   172
1070
     1
1070
   271
1070
     0
1070
   279
1070
     0
1070
   288
1070
     1
1002
}
  0
DIMENSION
  5
7B23
  8
3
  6
CONTINUOUS
  2
*D5
 10
2790.1579773558501
 20
2746.7999061958731
 30
0.0
 11
2715.1579773558501
 21
2999.299906195874
 31
0.0
 70
     0
 13
2182.3481983558499
 23
3251.7999061958731
 33
0.0
 14
2205.0696103558498
 24
2746.7999061958731
 34
0.0
 50
90.0
1001
ACAD
1000
DSTYLE
1002
{
1070
   287
1070
     3
1070
   287
1070
     3
1070
    40
1040
30.0
1070
   143
1040
0.039
1070
   172
1070
     1
1070
   271
1070
     0
1070
   279
1070
     0
1070
   288
1070
     1
1002
}
  0
DIMENSION
  5
7B30
  8
3
  6
CONTINUOUS
  2
*D6
 10
3049.763161355851
 20
2746.7999061958731
 30
0.0
 11
3049.7631613558501
 21
3323.917237195873
 31
0.0
 70
   128
 13
2265.0696103558498
 23
3971.7999061958731
 33
0.0
 14
2205.0696103558498
 24
2746.7999061958731
 34
0.0
 50
90.0
1001
ACAD
1000
DSTYLE
1002
{
1070
   287
1070
     3
1070
   287
1070
     3
1070
    40
1040
30.0
1070
   143
1040
0.039
1070
   172
1070
     1
1070
   271
1070
     0
1070
   279
1070
     0
1070
   288
1070
     1
1002
}
  0
DIMENSION
  5
7B3D
  8
3
  6
CONTINUOUS
  2
*D7
 10
1805.069610355851
 20
4059.198640195872
 30
0.0
 11
1565.069610355851
 21
4059.198640195872
 31
0.0
 70
   128
 13
1257.3706883558491
 23
3251.7999061958731
 33
0.0
 14
1805.069610355851
 24
3893.7999061958731
 34
0.0
1001
ACAD
1000
DSTYLE
1002
{
1070
   287
1070
     3
1070
   287
1070
     3
1070
    40
1040
30.0
1070
   143
1040
0.039
1070
   172
1070
     1
1070
   271
1070
     0
1070
   279
1070
     0
1070
   288
1070
     1
1002
}
  0
DIMENSION
  5
7B4B
  8
3
  6
CONTINUOUS
  2
*D8
 10
2265.0696103558498
 20
4055.9190551958732
 30
0.0
 11
2010.7838960701361
 21
4055.9190551958732
 31
0.0
 70
   128
 13
1805.069610355851
 23
3893.7999061958731
 33
0.0
 14
2265.0696103558498
 24
3971.7999061958731
 34
0.0
1001
ACAD
1000
DSTYLE
1002
{
1070
   287
1070
     3
1070
   287
1070
     3
1070
    40
1040
30.0
1070
   143
1040
0.039
1070
   172
1070
     1
1070
   271
1070
     0
1070
   279
1070
     0
1070
   288
1070
     1
1002
}
  0
DIMENSION
  5
7B6E
  8
3
  6
CONTINUOUS
  2
*D9
 10
2205.0696103558498
 20
5344.7814311958728
 30
0.0
 11
1438.305333355851
 21
5344.7814311958728
 31
0.0
 70
   128
 13
805.06961035585107
 23
5743.5966071958737
 33
0.0
 14
2205.0696103558498
 24
5743.5966071958737
 34
0.0
1001
ACAD
1000
DSTYLE
1002
{
1070
   287
1070
     3
1070
   287
1070
     3
1070
    40
1040
30.0
1070
   143
1040
0.039
1070
   172
1070
     1
1070
   271
1070
     0
1070
   279
1070
     0
1070
   288
1070
     1
1002
}
  0
DIMENSION
  5
7B7B
  8
3
  6
CONTINUOUS
  2
*D10
 10
2564.0284583558509
 20
5743.5966071958737
 30
0.0
 11
2564.02845835585
 21
6063.9910211958741
 31
0.0
 70
   128
 13
2205.0696103558498
 23
6433.5966071958728
 33
0.0
 14
2205.0696103558498
 24
5743.5966071958737
 34
0.0
 50
90.0
1001
ACAD
1000
DSTYLE
1002
{
1070
   287
1070
     3
1070
   287
1070
     3
1070
    40
1040
30.0
1070
   143
1040
0.039
1070
   172
1070
     1
1070
   271
1070
     0
1070
   279
1070
     0
1070
   288
1070
     1
1002
}
  0
LINE
  5
7B7C
  8
2
  6
CENTER
 10
1146.863884355851
 20
6143.5966071958737
 30
0.0
 11
2370.3909213558509
 21
6143.5966071958737
 31
0.0
  0
LINE
  5
7B7D
  8
2
  6
CENTER
 10
4712.7585893558489
 20
4049.3049971958731
 30
0.0
 11
4712.7585893558489
 21
2704.0738721958728
 31
0.0
  0
DIMENSION
  5
7B8C
  8
3
  6
CONTINUOUS
  2
*D11
 10
4712.7585893558489
 20
2510.5778221958731
 30
0.0
 11
4514.3529863446383
 21
2577.5513804613688
 31
0.0
 70
   128
 13
4312.7585893558489
 23
2746.7999061958731
 33
0.0
 14
4712.7585893558489
 24
2704.0738721958728
 34
0.0
1001
ACAD
1000
DSTYLE
1002
{
1070
   288
1070
     1
1070
   172
1070
     1
1070
    40
1040
30.0
1070
   271
1070
     0
1070
   143
1040
0.039
1002
}
  0
DIMENSION
  5
7B9A
  8
3
  6
CONTINUOUS
  2
*D12
 10
5002.7585893558498
 20
2510.5778221958731
 30
0.0
 11
4852.7448706999348
 21
2584.3136377454539
 31
0.0
 70
   128
 13
4712.7585893558489
 23
2704.0738721958728
 33
0.0
 14
5002.7585893558498
 24
2746.7999061958731
 34
0.0
1001
ACAD
1000
DSTYLE
1002
{
1070
   288
1070
     1
1070
   172
1070
     1
1070
    40
1040
30.0
1070
   271
1070
     0
1070
   143
1040
0.039
1002
}
  0
DIMENSION
  5
7BC9
  8
3
  6
CONTINUOUS
  2
*D13
 10
5300.2223263558517
 20
2936.7999061958731
 30
0.0
 11
5300.2223263558499
 21
3196.5141919101588
 31
0.0
 70
   128
 13
5032.7585893558498
 23
3566.7999061958731
 33
0.0
 14
5032.7585893558498
 24
2936.7999061958731
 34
0.0
 50
90.0
1001
ACAD
1000
DSTYLE
1002
{
1070
   287
1070
     3
1070
   287
1070
     3
1070
     3
1000
φ<>
1070
    40
1040
30.0
1070
   143
1040
0.039
1070
   172
1070
     1
1070
   271
1070
     0
1070
   279
1070
     0
1070
   288
1070
     1
1002
}
  0
DIMENSION
  5
7BD8
  8
3
  6
CONTINUOUS
  2
*D14
 10
4950.2585893558498
 20
4032.961979195873
 30
0.0
 11
4712.7585893558489
 21
4032.961979195873
 31
0.0
 70
   128
 13
4475.2585893558489
 23
3929.7999061958731
 33
0.0
 14
4950.2585893558498
 24
3929.7999061958731
 34
0.0
1001
ACAD
1000
DSTYLE
1002
{
1070
   287
1070
     3
1070
   287
1070
     3
1070
    40
1040
30.0
1070
   143
1040
0.039
1070
   172
1070
     1
1070
   271
1070
     0
1070
   279
1070
     0
1070
   288
1070
     1
1002
}
  0
DIMENSION
  5
7BE5
  8
3
  6
CONTINUOUS
  2
*D15
 10
4712.7585893558489
 20
4234.6901365909098
 30
0.0
 11
4451.3300179272783
 21
4234.6901365909098
 31
0.0
 70
   128
  1
MAX\P550
 13
4232.7585893558489
 23
3441.7999061958731
 33
0.0
 14
4712.7585893558489
 24
4163.7193219024803
 34
0.0
1001
ACAD
1000
DSTYLE
1002
{
1070
   287
1070
     3
1070
   287
1070
     3
1070
    40
1040
30.0
1070
   143
1040
0.039
1070
   172
1070
     1
1070
   271
1070
     0
1070
   279
1070
     0
1070
   288
1070
     1
1002
}
  0
DIMENSION
  5
7BF3
  8
3
  6
CONTINUOUS
  2
*D16
 10
5032.7585893558498
 20
4234.6901365909098
 30
0.0
 11
4880.4836760419421
 21
4306.8741832758969
 31
0.0
 70
   128
 13
4712.7585893558489
 23
4163.7193219024803
 33
0.0
 14
5032.7585893558498
 24
3606.7999061958731
 34
0.0
1001
ACAD
1000
DSTYLE
1002
{
1070
   288
1070
     1
1070
   172
1070
     1
1070
    40
1040
30.0
1070
   271
1070
     0
1070
   143
1040
0.039
1002
}
  0
LINE
  5
7C0A
  8
2
  6
CENTER
 10
1805.069610355851
 20
5475.4837391958727
 30
0.0
 11
1805.069610355851
 21
6530.5258521958731
 31
0.0
  0
LINE
  5
7C0B
  8
2
  6
CENTER
 10
4085.1087343558502
 20
3251.7999061958731
 30
0.0
 11
5130.126151355852
 21
3251.7999061958731
 31
0.0
  0
LINE
  5
7C0C
  8
4
  6
CONTINUOUS
 10
5550.0
 20
1500.0
 30
0.0
 11
5550.0
 21
900.0
 31
0.0
  0
LINE
  5
7C0D
  8
4
  6
CONTINUOUS
 10
3450.0
 20
1500.0
 30
0.0
 11
3450.0
 21
900.0
 31
0.0
  0
LINE
  5
7C0E
  8
4
  6
CONTINUOUS
 10
1950.0
 20
1500.0
 30
0.0
 11
1950.0
 21
900.0
 31
0.0
  0
LINE
  5
7C11
  8
4
  6
CONTINUOUS
 10
1950.0
 20
900.0
 30
0.0
 11
5550.0
 21
900.0
 31
0.0
  0
LINE
  5
7C12
  8
4
  6
CONTINUOUS
 10
1950.0
 20
1200.0
 30
0.0
 11
5550.0
 21
1200.0
 31
0.0
  0
TEXT
  5
7C13
  8
4
  6
CONTINUOUS
 10
2065.50624225
 20
1294.6290779999999
 30
0.0
 40
150.0
  1
機器名称
  0
TEXT
  5
7C14
  8
4
  6
CONTINUOUS
 10
2058.7743179999989
 20
964.93547024999998
 30
0.0
 40
150.0
  1
機器型番
  0
TEXT
  5
7C15
  8
4
  6
CONTINUOUS
 10
3533.0362365000001
 20
1267.715306249999
 30
0.0
 40
120.0
  1
ミツヤリミットロードファン
  0
TEXT
  5
7C16
  8
4
  6
CONTINUOUS
 10
3559.9634872500001
 20
951.4787527499999
 30
0.0
 40
150.0
  1
LLE#4-4
  0
TEXT
  5
7C18
  8
4
  6
CONTINUOUS
 10
2714.3572964999998
 20
7150.2865245000012
 30
0.0
 40
162.0
  1
床置ベット
  0
TEXT
  5
7C19
  8
4
  6
CONTINUOUS
 10
948.50278049999986
 20
7601.6429287499996
 30
0.0
 40
171.42857175
  1
ベルト駆動式片吸込両持排煙ファン
  0
LINE
  5
7C1A
  8
4
  6
CONTINUOUS
 10
750.0
 20
7408.2262627500004
 30
0.0
 11
5550.0
 21
7408.2262627500004
 31
0.0
  0
LINE
  5
7C1B
  8
4
  6
CONTINUOUS
 10
750.0
 20
8008.2262627500004
 30
0.0
 11
5550.0
 21
8008.2262627500004
 31
0.0
  0
LINE
  5
7C1C
  8
4
  6
CONTINUOUS
 10
1950.0
 20
1500.0
 30
0.0
 11
5550.0
 21
1500.0
 31
0.0
  0
LINE
  5
7C1D
  8
4
  6
CONTINUOUS
 10
750.0
 20
8008.2262627500004
 30
0.0
 11
750.0
 21
7408.2262627500004
 31
0.0
  0
TEXT
  5
7C1E
  8
4
  6
CONTINUOUS
 10
1406.780799749999
 20
7146.9584324999987
 30
0.0
 40
162.0
  1
右回転右横向
  0
TEXT
  5
7C1F
  8
4
  6
CONTINUOUS
 10
4406.9086777499988
 20
8118.1832445
 30
0.0
 40
168.0
  1
No.
  0
TEXT
  5
7C20
  8
4
  6
CONTINUOUS
 10
3933.8881875000002
 20
7150.2865245000012
 30
0.0
 40
162.0
  1
縮尺：1/30
  0
LINE
  5
7C21
  8
4
  6
CONTINUOUS
 10
5550.0
 20
8008.2262627500004
 30
0.0
 11
5550.0
 21
7408.2262627500004
 31
0.0
  0
LINE
  5
7C23
  8
4
  6
CONTINUOUS
 10
4321.8522667500001
 20
8043.79074975
 30
0.0
 11
4321.8522667500001
 21
8359.9567845000001
 31
0.0
  0
LINE
  5
7C24
  8
4
  6
CONTINUOUS
 10
4321.8522667500001
 20
8359.9567845000001
 30
0.0
 11
5550.0
 21
8359.9567845000001
 31
0.0
  0
LINE
  5
7C25
  8
4
  6
CONTINUOUS
 10
5550.0
 20
8359.9567845000001
 30
0.0
 11
5550.0
 21
8043.79074975
 31
0.0
  0
LINE
  5
7C26
  8
4
  6
CONTINUOUS
 10
5550.0
 20
8043.79074975
 30
0.0
 11
4321.8522667500001
 21
8043.79074975
 31
0.0
  0
DIMENSION
  5
7DB9
  8
3
  2
*D17
 10
805.0696103558513
 20
4239.6908634718811
 30
0.0
 11
1465.276774297897
 21
4239.6908634718811
 31
0.0
 70
   128
 13
2265.0696103558498
 23
3971.7999061958731
 33
0.0
 14
805.06961035585107
 24
2846.7999061958731
 34
0.0
1001
ACAD
1000
DSTYLE
1002
{
1070
   287
1070
     3
1070
   287
1070
     3
1070
    40
1040
30.0
1070
   143
1040
0.039
1070
   172
1070
     1
1070
   271
1070
     0
1070
   279
1070
     0
1070
   288
1070
     1
1002
}
  0
ENDSEC
  0
EOF
