  0
SECTION
  2
HEADER
  9
$ACADVER
  1
AC1009
  9
$INSBASE
 10
0.0
 20
0.0
 30
0.0
  9
$EXTMIN
 10
750.0
 20
900.0
 30
0.0
  9
$EXTMAX
 10
5550.0
 20
8359.9567845000001
 30
0.0
  9
$LIMMIN
 10
0.0
 20
0.0
  9
$LIMMAX
 10
297.0
 20
210.0
  9
$ORTHOMODE
 70
     0
  9
$REGENMODE
 70
     1
  9
$FILLMODE
 70
     0
  9
$QTEXTMODE
 70
     0
  9
$MIRRTEXT
 70
     1
  9
$DRAGMODE
 70
     2
  9
$LTSCALE
 40
100.0
  9
$OSMODE
 70
    37
  9
$ATTMODE
 70
     1
  9
$TEXTSIZE
 40
180.0
  9
$TRACEWID
 40
0.05
  9
$TEXTSTYLE
  7
STANDARD
  9
$CLAYER
  8
3
  9
$CELTYPE
  6
BYLAYER
  9
$CECOLOR
 62
   256
  9
$DIMSCALE
 40
30.0
  9
$DIMASZ
 40
2.0
  9
$DIMEXO
 40
0.5
  9
$DIMDLI
 40
10.0
  9
$DIMRND
 40
0.0
  9
$DIMDLE
 40
0.0
  9
$DIMEXE
 40
1.0
  9
$DIMTP
 40
1.0
  9
$DIMTM
 40
1.0
  9
$DIMTXT
 40
3.0
  9
$DIMCEN
 40
0.0
  9
$DIMTSZ
 40
0.0
  9
$DIMTOL
 70
     0
  9
$DIMLIM
 70
     0
  9
$DIMTIH
 70
     0
  9
$DIMTOH
 70
     0
  9
$DIMSE1
 70
     0
  9
$DIMSE2
 70
     0
  9
$DIMTAD
 70
     1
  9
$DIMZIN
 70
     8
  9
$DIMBLK
  1

  9
$DIMASO
 70
     1
  9
$DIMSHO
 70
     1
  9
$DIMPOST
  1

  9
$DIMAPOST
  1

  9
$DIMALT
 70
     0
  9
$DIMALTD
 70
     2
  9
$DIMALTF
 40
0.039
  9
$DIMLFAC
 40
1.0
  9
$DIMTOFL
 70
     1
  9
$DIMTVP
 40
0.0
  9
$DIMTIX
 70
     0
  9
$DIMSOXD
 70
     0
  9
$DIMSAH
 70
     1
  9
$DIMBLK1
  1
OPEN
  9
$DIMBLK2
  1
OPEN
  9
$DIMSTYLE
  2
IGA
  9
$DIMCLRD
 70
     0
  9
$DIMCLRE
 70
     0
  9
$DIMCLRT
 70
     0
  9
$DIMTFAC
 40
10.0
  9
$DIMGAP
 40
1.0
  9
$LUNITS
 70
     2
  9
$LUPREC
 70
     3
  9
$SKETCHINC
 40
0.1
  9
$FILLETRAD
 40
50.0
  9
$AUNITS
 70
     0
  9
$AUPREC
 70
     0
  9
$MENU
  1
acad
  9
$ELEVATION
 40
0.0
  9
$PELEVATION
 40
0.0
  9
$THICKNESS
 40
0.0
  9
$LIMCHECK
 70
     0
  9
$BLIPMODE
 70
     0
  9
$CHAMFERA
 40
0.5
  9
$CHAMFERB
 40
0.5
  9
$SKPOLY
 70
     0
  9
$TDCREATE
 40
2450754.6752891201
  9
$TDUPDATE
 40
2454953.6830423488
  9
$TDINDWG
 40
0.005645544
  9
$TDUSRTIMER
 40
0.005645544
  9
$USRTIMER
 70
     1
  9
$ANGBASE
 50
0.0
  9
$ANGDIR
 70
     0
  9
$PDMODE
 70
     0
  9
$PDSIZE
 40
0.0
  9
$PLINEWID
 40
0.0
  9
$COORDS
 70
     1
  9
$SPLFRAME
 70
     0
  9
$SPLINETYPE
 70
     6
  9
$SPLINESEGS
 70
     8
  9
$ATTDIA
 70
     0
  9
$ATTREQ
 70
     1
  9
$HANDLING
 70
 10241
  9
$HANDSEED
  5
7F7D
  9
$SURFTAB1
 70
     6
  9
$SURFTAB2
 70
     6
  9
$SURFTYPE
 70
     6
  9
$SURFU
 70
     6
  9
$SURFV
 70
     6
  9
$UCSNAME
  2

  9
$UCSORG
 10
0.0
 20
0.0
 30
0.0
  9
$UCSXDIR
 10
1.0
 20
0.0
 30
0.0
  9
$UCSYDIR
 10
0.0
 20
1.0
 30
0.0
  9
$PUCSNAME
  2

  9
$PUCSORG
 10
0.0
 20
0.0
 30
0.0
  9
$PUCSXDIR
 10
1.0
 20
0.0
 30
0.0
  9
$PUCSYDIR
 10
0.0
 20
1.0
 30
0.0
  9
$USERI1
 70
     0
  9
$USERI2
 70
     0
  9
$USERI3
 70
     0
  9
$USERI4
 70
     0
  9
$USERI5
 70
     0
  9
$USERR1
 40
0.0
  9
$USERR2
 40
0.0
  9
$USERR3
 40
0.0
  9
$USERR4
 40
0.0
  9
$USERR5
 40
0.0
  9
$WORLDVIEW
 70
     1
  9
$SHADEDGE
 70
     3
  9
$SHADEDIF
 70
    70
  9
$TILEMODE
 70
     1
  9
$MAXACTVP
 70
    16
  9
$PLIMCHECK
 70
     0
  9
$PEXTMIN
 10
1.0000000000000000E+020
 20
1.0000000000000000E+020
 30
1.0000000000000000E+020
  9
$PEXTMAX
 10
-1.0000000000000000E+020
 20
-1.0000000000000000E+020
 30
-1.0000000000000000E+020
  9
$PLIMMIN
 10
0.0
 20
0.0
  9
$PLIMMAX
 10
12.0
 20
9.0
  9
$UNITMODE
 70
     0
  9
$VISRETAIN
 70
     0
  9
$PLINEGEN
 70
     0
  9
$PSLTSCALE
 70
     1
  0
ENDSEC
  0
SECTION
  2
TABLES
  0
TABLE
  2
VPORT
 70
     2
  0
VPORT
  2
*ACTIVE
 70
     0
 10
0.0
 20
0.0
 11
1.0
 21
1.0
 12
13100.67656316079
 22
3875.4095142764618
 13
0.0
 23
0.0
 14
10.0
 24
10.0
 15
10.0
 25
10.0
 16
0.0
 26
0.0
 36
1.0
 17
0.0
 27
0.0
 37
0.0
 40
10275.999611833709
 41
3.1666666666666661
 42
50.0
 43
0.0
 44
0.0
 50
0.0
 51
0.0
 71
     0
 72
   100
 73
     1
 74
     0
 75
     0
 76
     0
 77
     0
 78
     0
  0
ENDTAB
  0
TABLE
  2
LTYPE
 70
     2
  0
LTYPE
  2
CONTINUOUS
 70
     0
  3
Solid line
 72
    65
 73
     0
 40
0.0
  0
LTYPE
  2
CENTER
 70
     0
  3
____ _ ____ _ ____ _ ____ _ ____ _ ____ _ ____ 
 72
    65
 73
     4
 40
2.0
 49
1.25
 49
-0.25
 49
0.25
 49
-0.25
  0
ENDTAB
  0
TABLE
  2
LAYER
 70
     6
  0
LAYER
  2
0
 70
     0
 62
     7
  6
CONTINUOUS
  0
LAYER
  2
3
 70
     0
 62
     2
  6
CONTINUOUS
  0
LAYER
  2
2
 70
     0
 62
     3
  6
CENTER
  0
LAYER
  2
1
 70
     0
 62
     4
  6
CONTINUOUS
  0
LAYER
  2
4
 70
     0
 62
     7
  6
CONTINUOUS
  0
LAYER
  2
DEFPOINTS
 70
     0
 62
     7
  6
CONTINUOUS
  0
ENDTAB
  0
TABLE
  2
STYLE
 70
     1
  0
STYLE
  2
STANDARD
 70
     0
 40
0.0
 41
1.0
 50
0.0
 71
     0
 42
180.0
  3
simplex.shx
  4
extfont.shx
  0
ENDTAB
  0
TABLE
  2
VIEW
 70
     0
  0
ENDTAB
  0
TABLE
  2
UCS
 70
     0
  0
ENDTAB
  0
TABLE
  2
APPID
 70
     1
  0
APPID
  2
ACAD
 70
     0
  0
ENDTAB
  0
TABLE
  2
DIMSTYLE
 70
     1
  0
DIMSTYLE
  2
IGA
 70
     0
  3

  4

  5

  6
OPEN
  7
OPEN
 40
2.0
 41
2.0
 42
0.5
 43
10.0
 44
1.0
 45
0.0
 46
0.0
 47
1.0
 48
1.0
140
3.0
141
0.0
142
0.0
143
0.03937
144
1.0
145
0.0
146
10.0
147
1.0
 71
     0
 72
     0
 73
     0
 74
     0
 75
     0
 76
     0
 77
     1
 78
     8
170
     0
171
     2
172
     0
173
     1
174
     0
175
     0
176
     0
177
     0
178
     0
  0
ENDTAB
  0
ENDSEC
  0
SECTION
  2
BLOCKS
  0
BLOCK
  8
0
  2
$MODEL_SPACE
 70
     0
 10
0.0
 20
0.0
 30
0.0
  3
$MODEL_SPACE
  1

  0
ENDBLK
  5
1B
  8
0
  0
BLOCK
 67
     1
  8
0
  2
$PAPER_SPACE
 70
     0
 10
0.0
 20
0.0
 30
0.0
  3
$PAPER_SPACE
  1

  0
ENDBLK
  5
18
 67
     1
  8
0
  0
BLOCK
  8
0
  2
_OPEN
 70
     0
 10
0.0
 20
0.0
 30
0.0
  3
_OPEN
  1

  0
LINE
  5
7AE9
  8
0
  6
BYBLOCK
 62
     0
 10
-1.0
 20
0.166667
 30
0.0
 11
0.0
 21
0.0
 31
0.0
  0
LINE
  5
7AEA
  8
0
  6
BYBLOCK
 62
     0
 10
0.0
 20
0.0
 30
0.0
 11
-1.0
 21
-0.166667
 31
0.0
  0
LINE
  5
7AEB
  8
0
  6
BYBLOCK
 62
     0
 10
0.0
 20
0.0
 30
0.0
 11
-1.0
 21
0.0
 31
0.0
  0
ENDBLK
  5
7AEC
  8
0
  0
BLOCK
  8
0
  2
*D1
 70
     1
 10
0.0
 20
0.0
 30
0.0
  3
*D1
  1

  0
LINE
  5
7EF0
  8
3
  6
CONTINUOUS
 62
     0
 10
1123.710106522878
 20
2888.1453229214649
 30
0.0
 11
1123.710106522878
 21
2626.2385571657601
 31
0.0
  0
LINE
  5
7EF1
  8
3
  6
CONTINUOUS
 62
     0
 10
2123.710106522878
 20
2796.807844921464
 30
0.0
 11
2123.710106522878
 21
2626.2385571657601
 31
0.0
  0
LINE
  5
7EF2
  8
3
  6
CONTINUOUS
 62
     0
 10
1183.710106522878
 20
2656.2385571657601
 30
0.0
 11
2063.710106522878
 21
2656.2385571657601
 31
0.0
  0
INSERT
  5
7EF3
  8
3
  6
CONTINUOUS
 62
     0
  2
_OPEN
 10
1123.710106522878
 20
2656.2385571657601
 30
0.0
 41
60.0
 42
60.0
 43
60.0
 50
180.0
  0
INSERT
  5
7EF4
  8
3
  6
CONTINUOUS
 62
     0
  2
_OPEN
 10
2123.710106522878
 20
2656.2385571657601
 30
0.0
 41
60.0
 42
60.0
 43
60.0
  0
TEXT
  8
3
  40
90
  5
7F6E
  62
0
  72
0
  71
0
 10
1449.23
 20
2571.94
 30
0.000000
  1
1000
  0
POINT
  5
7EF6
  8
DEFPOINTS
  6
CONTINUOUS
 62
     0
 10
1123.710106522878
 20
2903.145322921464
 30
0.0
  0
POINT
  5
7EF7
  8
DEFPOINTS
  6
CONTINUOUS
 62
     0
 10
2123.710106522878
 20
2811.807844921464
 30
0.0
  0
POINT
  5
7EF8
  8
DEFPOINTS
  6
CONTINUOUS
 62
     0
 10
2123.710106522878
 20
2656.2385571657601
 30
0.0
  0
ENDBLK
  5
7DBD
  8
0
  0
BLOCK
  8
0
  2
*D2
 70
     1
 10
0.0
 20
0.0
 30
0.0
  3
*D2
  1

  0
LINE
  5
7DBF
  8
0
  6
BYBLOCK
 62
     0
 10
2123.710106522878
 20
2796.807844921464
 30
0.0
 11
2123.710106522878
 21
2625.55162116576
 31
0.0
  0
LINE
  5
7DC0
  8
0
  6
BYBLOCK
 62
     0
 10
2523.710106522878
 20
2888.1453229214649
 30
0.0
 11
2523.710106522878
 21
2625.55162116576
 31
0.0
  0
LINE
  5
7DC1
  8
0
  6
BYBLOCK
 62
     0
 10
2183.710106522878
 20
2655.55162116576
 30
0.0
 11
2463.710106522878
 21
2655.55162116576
 31
0.0
  0
TEXT
  5
7DC2
  8
3
 62
     0
 10
2207.9958208085918
 20
2687.7662343095321
 30
0.0
 40
90.0
  1
400
  0
INSERT
  5
7DC3
  8
0
  6
BYBLOCK
 62
     0
  2
_OPEN
 10
2123.710106522878
 20
2655.55162116576
 30
0.0
 41
60.0
 42
60.0
 43
60.0
 50
180.0
  0
INSERT
  5
7DC4
  8
0
  6
BYBLOCK
 62
     0
  2
_OPEN
 10
2523.710106522878
 20
2655.55162116576
 30
0.0
 41
60.0
 42
60.0
 43
60.0
  0
POINT
  5
7DC5
  8
DEFPOINTS
  6
BYBLOCK
 62
     0
 10
2123.710106522878
 20
2811.807844921464
 30
0.0
  0
POINT
  5
7DC6
  8
DEFPOINTS
  6
BYBLOCK
 62
     0
 10
2523.710106522878
 20
2903.145322921464
 30
0.0
  0
POINT
  5
7DC7
  8
DEFPOINTS
  6
BYBLOCK
 62
     0
 10
2523.710106522878
 20
2655.55162116576
 30
0.0
  0
ENDBLK
  5
7DC8
  8
0
  0
BLOCK
  8
0
  2
*D3
 70
     1
 10
0.0
 20
0.0
 30
0.0
  3
*D3
  1

  0
LINE
  5
7EF9
  8
3
  6
CONTINUOUS
 62
     0
 10
2598.710106522878
 20
3675.145322921464
 30
0.0
 11
2879.3431465228769
 21
3675.145322921464
 31
0.0
  0
LINE
  5
7EFA
  8
3
  6
CONTINUOUS
 62
     0
 10
2598.710106522878
 20
3025.1453229214649
 30
0.0
 11
2879.3431465228769
 21
3025.1453229214649
 31
0.0
  0
LINE
  5
7EFB
  8
3
  6
CONTINUOUS
 62
     0
 10
2849.3431465228782
 20
3615.1453229214649
 30
0.0
 11
2849.3431465228782
 21
3085.145322921464
 31
0.0
  0
INSERT
  5
7EFC
  8
3
  6
CONTINUOUS
 62
     0
  2
_OPEN
 10
2849.3431465228782
 20
3675.145322921464
 30
0.0
 41
60.0
 42
60.0
 43
60.0
 50
90.0
  0
INSERT
  5
7EFD
  8
3
  6
CONTINUOUS
 62
     0
  2
_OPEN
 10
2849.3431465228769
 20
3025.1453229214649
 30
0.0
 41
60.0
 42
60.0
 43
60.0
 50
270.0
  0
TEXT
  8
3
  40
90
  5
7F6F
  62
0
  72
0
  71
0
 10
2594.34
 20
3184.56
 30
0.000000
  1
650
  0
POINT
  5
7EFF
  8
DEFPOINTS
  6
CONTINUOUS
 62
     0
 10
2583.710106522878
 20
3675.145322921464
 30
0.0
  0
POINT
  5
7F00
  8
DEFPOINTS
  6
CONTINUOUS
 62
     0
 10
2583.710106522878
 20
3025.1453229214649
 30
0.0
  0
POINT
  5
7F01
  8
DEFPOINTS
  6
CONTINUOUS
 62
     0
 10
2849.3431465228769
 20
3025.1453229214649
 30
0.0
  0
ENDBLK
  5
7CF3
  8
0
  0
BLOCK
  8
0
  2
*D4
 70
     1
 10
0.0
 20
0.0
 30
0.0
  3
*D4
  1

  0
LINE
  5
7F02
  8
3
  6
CONTINUOUS
 62
     0
 10
2515.9886945228768
 20
3703.145322921464
 30
0.0
 11
3056.9680121001461
 21
3703.145322921464
 31
0.0
  0
LINE
  5
7F03
  8
3
  6
CONTINUOUS
 62
     0
 10
2598.710106522878
 20
3025.1453229214649
 30
0.0
 11
3056.9680121001461
 21
3025.1453229214649
 31
0.0
  0
LINE
  5
7F04
  8
3
  6
CONTINUOUS
 62
     0
 10
3026.9680121001461
 20
3643.145322921464
 30
0.0
 11
3026.9680121001461
 21
3085.145322921464
 31
0.0
  0
INSERT
  5
7F05
  8
3
  6
CONTINUOUS
 62
     0
  2
_OPEN
 10
3026.9680121001461
 20
3703.145322921464
 30
0.0
 41
60.0
 42
60.0
 43
60.0
 50
90.0
  0
INSERT
  5
7F06
  8
3
  6
CONTINUOUS
 62
     0
  2
_OPEN
 10
3026.9680121001461
 20
3025.1453229214649
 30
0.0
 41
60.0
 42
60.0
 43
60.0
 50
270.0
  0
TEXT
  8
3
  40
90
  5
7F70
  62
0
  72
0
  71
0
 10
2771.97
 20
3201.83
 30
0.000000
  1
678
  0
POINT
  5
7F08
  8
DEFPOINTS
  6
CONTINUOUS
 62
     0
 10
2500.9886945228768
 20
3703.145322921464
 30
0.0
  0
POINT
  5
7F09
  8
DEFPOINTS
  6
CONTINUOUS
 62
     0
 10
2583.710106522878
 20
3025.1453229214649
 30
0.0
  0
POINT
  5
7F0A
  8
DEFPOINTS
  6
CONTINUOUS
 62
     0
 10
3026.9680121001461
 20
3025.1453229214649
 30
0.0
  0
ENDBLK
  5
7E20
  8
0
  0
BLOCK
  8
0
  2
*D5
 70
     1
 10
0.0
 20
0.0
 30
0.0
  3
*D5
  1

  0
LINE
  5
7F0B
  8
3
  6
CONTINUOUS
 62
     0
 10
2138.710106522878
 20
4156.8442439214641
 30
0.0
 11
3245.3045866774219
 21
4156.8442439214641
 31
0.0
  0
LINE
  5
7F0C
  8
3
  6
CONTINUOUS
 62
     0
 10
2515.9886945228768
 20
3703.145322921464
 30
0.0
 11
3245.3045866774219
 21
3703.145322921464
 31
0.0
  0
LINE
  5
7F0D
  8
3
  6
CONTINUOUS
 62
     0
 10
3215.304586677421
 20
4096.844243921465
 30
0.0
 11
3215.304586677421
 21
3763.145322921464
 31
0.0
  0
INSERT
  5
7F0E
  8
3
  6
CONTINUOUS
 62
     0
  2
_OPEN
 10
3215.304586677421
 20
4156.8442439214641
 30
0.0
 41
60.0
 42
60.0
 43
60.0
 50
90.0
  0
INSERT
  5
7F0F
  8
3
  6
CONTINUOUS
 62
     0
  2
_OPEN
 10
3215.304586677421
 20
3703.145322921464
 30
0.0
 41
60.0
 42
60.0
 43
60.0
 50
270.0
  0
TEXT
  8
3
  40
90
  5
7F71
  62
0
  72
0
  71
0
 10
2960.30
 20
3789.69
 30
0.000000
  1
454
  0
POINT
  5
7F11
  8
DEFPOINTS
  6
CONTINUOUS
 62
     0
 10
2123.710106522878
 20
4156.8442439214641
 30
0.0
  0
POINT
  5
7F12
  8
DEFPOINTS
  6
CONTINUOUS
 62
     0
 10
2500.9886945228768
 20
3703.145322921464
 30
0.0
  0
POINT
  5
7F13
  8
DEFPOINTS
  6
CONTINUOUS
 62
     0
 10
3215.304586677421
 20
3703.145322921464
 30
0.0
  0
ENDBLK
  5
7E0A
  8
0
  0
BLOCK
  8
0
  2
*D6
 70
     1
 10
0.0
 20
0.0
 30
0.0
  3
*D6
  1

  0
LINE
  5
7F14
  8
3
  6
CONTINUOUS
 62
     0
 10
2515.9886945228768
 20
3703.145322921464
 30
0.0
 11
3245.3045866774219
 21
3703.145322921464
 31
0.0
  0
LINE
  5
7F15
  8
3
  6
CONTINUOUS
 62
     0
 10
2538.710106522878
 20
2903.145322921464
 30
0.0
 11
3245.304586677421
 21
2903.145322921464
 31
0.0
  0
LINE
  5
7F16
  8
3
  6
CONTINUOUS
 62
     0
 10
3215.304586677421
 20
3643.145322921464
 30
0.0
 11
3215.304586677421
 21
2963.145322921464
 31
0.0
  0
INSERT
  5
7F17
  8
3
  6
CONTINUOUS
 62
     0
  2
_OPEN
 10
3215.304586677421
 20
3703.145322921464
 30
0.0
 41
60.0
 42
60.0
 43
60.0
 50
90.0
  0
INSERT
  5
7F18
  8
3
  6
CONTINUOUS
 62
     0
  2
_OPEN
 10
3215.304586677421
 20
2903.145322921464
 30
0.0
 41
60.0
 42
60.0
 43
60.0
 50
270.0
  0
TEXT
  8
3
  40
90
  5
7F72
  62
0
  72
0
  71
0
 10
2960.30
 20
3143.85
 30
0.000000
  1
800
  0
POINT
  5
7F1A
  8
DEFPOINTS
  6
CONTINUOUS
 62
     0
 10
2500.9886945228768
 20
3703.145322921464
 30
0.0
  0
POINT
  5
7F1B
  8
DEFPOINTS
  6
CONTINUOUS
 62
     0
 10
2523.710106522878
 20
2903.145322921464
 30
0.0
  0
POINT
  5
7F1C
  8
DEFPOINTS
  6
CONTINUOUS
 62
     0
 10
3215.304586677421
 20
2903.145322921464
 30
0.0
  0
ENDBLK
  5
7DFF
  8
0
  0
BLOCK
  8
0
  2
*D7
 70
     1
 10
0.0
 20
0.0
 30
0.0
  3
*D7
  1

  0
LINE
  5
7F1D
  8
3
  6
CONTINUOUS
 62
     0
 10
2138.710106522878
 20
4156.8442439214641
 30
0.0
 11
3443.0938432451221
 21
4156.8442439214641
 31
0.0
  0
LINE
  5
7F1E
  8
3
  6
CONTINUOUS
 62
     0
 10
2538.710106522878
 20
2903.145322921464
 30
0.0
 11
3443.0938432451221
 21
2903.145322921464
 31
0.0
  0
LINE
  5
7F1F
  8
3
  6
CONTINUOUS
 62
     0
 10
3413.093843245123
 20
4096.844243921465
 30
0.0
 11
3413.0938432451221
 21
2963.145322921464
 31
0.0
  0
INSERT
  5
7F20
  8
3
  6
CONTINUOUS
 62
     0
  2
_OPEN
 10
3413.093843245123
 20
4156.8442439214641
 30
0.0
 41
60.0
 42
60.0
 43
60.0
 50
90.0
  0
INSERT
  5
7F21
  8
3
  6
CONTINUOUS
 62
     0
  2
_OPEN
 10
3413.0938432451221
 20
2903.145322921464
 30
0.0
 41
60.0
 42
60.0
 43
60.0
 50
270.0
  0
TEXT
  8
3
  40
90
  5
7F73
  62
0
  72
0
  71
0
 10
3158.09
 20
3378.33
 30
0.000000
  1
1254
  0
POINT
  5
7F23
  8
DEFPOINTS
  6
CONTINUOUS
 62
     0
 10
2123.710106522878
 20
4156.8442439214641
 30
0.0
  0
POINT
  5
7F24
  8
DEFPOINTS
  6
CONTINUOUS
 62
     0
 10
2523.710106522878
 20
2903.145322921464
 30
0.0
  0
POINT
  5
7F25
  8
DEFPOINTS
  6
CONTINUOUS
 62
     0
 10
3413.0938432451221
 20
2903.145322921464
 30
0.0
  0
ENDBLK
  5
7E15
  8
0
  0
BLOCK
  8
0
  2
*D8
 70
     1
 10
0.0
 20
0.0
 30
0.0
  3
*D8
  1

  0
LINE
  5
7F26
  8
3
  6
CONTINUOUS
 62
     0
 10
1576.011185522877
 20
3718.145322921464
 30
0.0
 11
1576.011185522877
 21
4273.2806089214637
 31
0.0
  0
LINE
  5
7F27
  8
3
  6
CONTINUOUS
 62
     0
 10
2123.710106522878
 20
4171.844243921465
 30
0.0
 11
2123.710106522878
 21
4273.2806089214637
 31
0.0
  0
LINE
  5
7F28
  8
3
  6
CONTINUOUS
 62
     0
 10
1636.0111855228761
 20
4243.2806089214637
 30
0.0
 11
2063.710106522878
 21
4243.2806089214637
 31
0.0
  0
INSERT
  5
7F29
  8
3
  6
CONTINUOUS
 62
     0
  2
_OPEN
 10
1576.011185522877
 20
4243.2806089214637
 30
0.0
 41
60.0
 42
60.0
 43
60.0
 50
180.0
  0
INSERT
  5
7F2A
  8
3
  6
CONTINUOUS
 62
     0
  2
_OPEN
 10
2123.710106522878
 20
4243.2806089214637
 30
0.0
 41
60.0
 42
60.0
 43
60.0
  0
TEXT
  8
3
  40
90
  5
7F74
  62
0
  72
0
  71
0
 10
1703.71
 20
4158.98
 30
0.000000
  1
548
  0
POINT
  5
7F2C
  8
DEFPOINTS
  6
CONTINUOUS
 62
     0
 10
1576.011185522877
 20
3703.145322921464
 30
0.0
  0
POINT
  5
7F2D
  8
DEFPOINTS
  6
CONTINUOUS
 62
     0
 10
2123.710106522878
 20
4156.8442439214641
 30
0.0
  0
POINT
  5
7F2E
  8
DEFPOINTS
  6
CONTINUOUS
 62
     0
 10
2123.710106522878
 20
4243.2806089214637
 30
0.0
  0
ENDBLK
  5
7CBC
  8
0
  0
BLOCK
  8
0
  2
*D9
 70
     1
 10
0.0
 20
0.0
 30
0.0
  3
*D9
  1

  0
LINE
  5
7F2F
  8
3
  6
CONTINUOUS
 62
     0
 10
2123.710106522878
 20
4171.844243921465
 30
0.0
 11
2123.710106522878
 21
4273.2806089214637
 31
0.0
  0
LINE
  5
7F30
  8
3
  6
CONTINUOUS
 62
     0
 10
2583.710106522878
 20
3732.145322921464
 30
0.0
 11
2583.710106522878
 21
4273.2806089214637
 31
0.0
  0
LINE
  5
7F31
  8
3
  6
CONTINUOUS
 62
     0
 10
2183.710106522878
 20
4243.2806089214637
 30
0.0
 11
2523.710106522878
 21
4243.2806089214637
 31
0.0
  0
INSERT
  5
7F32
  8
3
  6
CONTINUOUS
 62
     0
  2
_OPEN
 10
2123.710106522878
 20
4243.2806089214637
 30
0.0
 41
60.0
 42
60.0
 43
60.0
 50
180.0
  0
INSERT
  5
7F33
  8
3
  6
CONTINUOUS
 62
     0
  2
_OPEN
 10
2583.710106522878
 20
4243.2806089214637
 30
0.0
 41
60.0
 42
60.0
 43
60.0
  0
TEXT
  8
3
  40
90
  5
7F75
  62
0
  72
0
  71
0
 10
2149.42
 20
4158.98
 30
0.000000
  1
460
  0
POINT
  5
7F35
  8
DEFPOINTS
  6
CONTINUOUS
 62
     0
 10
2123.710106522878
 20
4156.8442439214641
 30
0.0
  0
POINT
  5
7F36
  8
DEFPOINTS
  6
CONTINUOUS
 62
     0
 10
2583.710106522878
 20
3717.1453229214649
 30
0.0
  0
POINT
  5
7F37
  8
DEFPOINTS
  6
CONTINUOUS
 62
     0
 10
2583.710106522878
 20
4243.2806089214637
 30
0.0
  0
ENDBLK
  5
7CB1
  8
0
  0
BLOCK
  8
0
  2
*D10
 70
     1
 10
0.0
 20
0.0
 30
0.0
  3
*D10
  1

  0
LINE
  5
7F38
  8
3
  6
CONTINUOUS
 62
     0
 10
1123.710106522878
 20
5600.2453229214661
 30
0.0
 11
1123.710106522878
 21
5245.3454669214652
 31
0.0
  0
LINE
  5
7F39
  8
3
  6
CONTINUOUS
 62
     0
 10
2523.710106522878
 20
5600.2453229214661
 30
0.0
 11
2523.710106522878
 21
5245.3454669214652
 31
0.0
  0
LINE
  5
7F3A
  8
3
  6
CONTINUOUS
 62
     0
 10
1183.710106522878
 20
5275.3454669214652
 30
0.0
 11
2463.710106522878
 21
5275.3454669214652
 31
0.0
  0
INSERT
  5
7F3B
  8
3
  6
CONTINUOUS
 62
     0
  2
_OPEN
 10
1123.710106522878
 20
5275.3454669214652
 30
0.0
 41
60.0
 42
60.0
 43
60.0
 50
180.0
  0
INSERT
  5
7F3C
  8
3
  6
CONTINUOUS
 62
     0
  2
_OPEN
 10
2523.710106522878
 20
5275.3454669214652
 30
0.0
 41
60.0
 42
60.0
 43
60.0
  0
TEXT
  8
3
  40
90
  5
7F76
  62
0
  72
0
  71
0
 10
1553.26
 20
5191.05
 30
0.000000
  1
1400
  0
POINT
  5
7F3E
  8
DEFPOINTS
  6
CONTINUOUS
 62
     0
 10
1123.710106522878
 20
5615.2453229214671
 30
0.0
  0
POINT
  5
7F3F
  8
DEFPOINTS
  6
CONTINUOUS
 62
     0
 10
2523.710106522878
 20
5615.2453229214671
 30
0.0
  0
POINT
  5
7F40
  8
DEFPOINTS
  6
CONTINUOUS
 62
     0
 10
2523.710106522878
 20
5275.3454669214652
 30
0.0
  0
ENDBLK
  5
7CA6
  8
0
  0
BLOCK
  8
0
  2
*D11
 70
     1
 10
0.0
 20
0.0
 30
0.0
  3
*D11
  1

  0
LINE
  5
7F41
  8
3
  6
CONTINUOUS
 62
     0
 10
2538.710106522878
 20
6305.2453229214661
 30
0.0
 11
2921.1626785228768
 21
6305.2453229214661
 31
0.0
  0
LINE
  5
7F42
  8
3
  6
CONTINUOUS
 62
     0
 10
2538.710106522878
 20
5615.2453229214671
 30
0.0
 11
2921.1626785228768
 21
5615.2453229214671
 31
0.0
  0
LINE
  5
7F43
  8
3
  6
CONTINUOUS
 62
     0
 10
2891.1626785228768
 20
6245.2453229214661
 30
0.0
 11
2891.1626785228768
 21
5675.2453229214661
 31
0.0
  0
INSERT
  5
7F44
  8
3
  6
CONTINUOUS
 62
     0
  2
_OPEN
 10
2891.1626785228768
 20
6305.2453229214661
 30
0.0
 41
60.0
 42
60.0
 43
60.0
 50
90.0
  0
INSERT
  5
7F45
  8
3
  6
CONTINUOUS
 62
     0
  2
_OPEN
 10
2891.1626785228768
 20
5615.2453229214671
 30
0.0
 41
60.0
 42
60.0
 43
60.0
 50
270.0
  0
TEXT
  8
3
  40
90
  5
7F77
  62
0
  72
0
  71
0
 10
2636.16
 20
5821.01
 30
0.000000
  1
690
  0
POINT
  5
7F47
  8
DEFPOINTS
  6
CONTINUOUS
 62
     0
 10
2523.710106522878
 20
6305.2453229214661
 30
0.0
  0
POINT
  5
7F48
  8
DEFPOINTS
  6
CONTINUOUS
 62
     0
 10
2523.710106522878
 20
5615.2453229214671
 30
0.0
  0
POINT
  5
7F49
  8
DEFPOINTS
  6
CONTINUOUS
 62
     0
 10
2891.1626785228768
 20
5615.2453229214671
 30
0.0
  0
ENDBLK
  5
7C9B
  8
0
  0
BLOCK
  8
0
  2
*D12
 70
     1
 10
0.0
 20
0.0
 30
0.0
  3
*D12
  1

  0
LINE
  5
7F4A
  8
3
  6
CONTINUOUS
 62
     0
 10
4299.7636465941787
 20
4174.0453229214663
 30
0.0
 11
4299.7636465941787
 21
4290.2201809214648
 31
0.0
  0
LINE
  5
7F4B
  8
3
  6
CONTINUOUS
 62
     0
 10
4774.7636465941796
 20
4174.0453229214663
 30
0.0
 11
4774.7636465941796
 21
4290.2201809214648
 31
0.0
  0
LINE
  5
7F4C
  8
3
  6
CONTINUOUS
 62
     0
 10
4359.7636465941796
 20
4260.2201809214648
 30
0.0
 11
4714.7636465941787
 21
4260.2201809214648
 31
0.0
  0
INSERT
  5
7F4D
  8
3
  6
CONTINUOUS
 62
     0
  2
_OPEN
 10
4299.7636465941787
 20
4260.2201809214648
 30
0.0
 41
60.0
 42
60.0
 43
60.0
 50
180.0
  0
INSERT
  5
7F4E
  8
3
  6
CONTINUOUS
 62
     0
  2
_OPEN
 10
4774.7636465941796
 20
4260.2201809214648
 30
0.0
 41
60.0
 42
60.0
 43
60.0
  0
TEXT
  8
3
  40
90
  5
7F78
  62
0
  72
0
  71
0
 10
4357.26
 20
4175.92
 30
0.000000
  1
475
  0
POINT
  5
7F50
  8
DEFPOINTS
  6
CONTINUOUS
 62
     0
 10
4299.7636465941787
 20
4159.0453229214654
 30
0.0
  0
POINT
  5
7F51
  8
DEFPOINTS
  6
CONTINUOUS
 62
     0
 10
4774.7636465941796
 20
4159.0453229214654
 30
0.0
  0
POINT
  5
7F52
  8
DEFPOINTS
  6
CONTINUOUS
 62
     0
 10
4774.7636465941796
 20
4260.2201809214648
 30
0.0
  0
ENDBLK
  5
7C90
  8
0
  0
BLOCK
  8
0
  2
*D13
 70
     1
 10
0.0
 20
0.0
 30
0.0
  3
*D13
  1

  0
LINE
  5
7F53
  8
3
  6
CONTINUOUS
 62
     0
 10
4057.2636465941791
 20
3908.1453229214649
 30
0.0
 11
4057.2636465941791
 21
4482.9853506242453
 31
0.0
  0
LINE
  5
7F54
  8
3
  6
CONTINUOUS
 62
     0
 10
4537.2636465941787
 20
4411.7044187233196
 30
0.0
 11
4537.2636465941787
 21
4482.9853506242453
 31
0.0
  0
LINE
  5
7F55
  8
3
  6
CONTINUOUS
 62
     0
 10
4117.2636465941796
 20
4452.9853506242453
 30
0.0
 11
4477.2636465941787
 21
4452.9853506242453
 31
0.0
  0
INSERT
  5
7F56
  8
3
  6
CONTINUOUS
 62
     0
  2
_OPEN
 10
4057.2636465941791
 20
4452.9853506242453
 30
0.0
 41
60.0
 42
60.0
 43
60.0
 50
180.0
  0
INSERT
  5
7F57
  8
3
  6
CONTINUOUS
 62
     0
  2
_OPEN
 10
4537.2636465941787
 20
4452.9853506242453
 30
0.0
 41
60.0
 42
60.0
 43
60.0
  0
TEXT
  8
3
  40
90
  5
7F79
  62
0
  72
0
  71
0
 10
4095.84
 20
4443.69
 30
0.000000
  1
MAX
  0
TEXT
  8
3
  40
90
  5
7F7A
  62
0
  72
0
  71
0
 10
4095.84
 20
4326.69
 30
0.000000
  1
550
  0
POINT
  5
7F59
  8
DEFPOINTS
  6
CONTINUOUS
 62
     0
 10
4057.2636465941791
 20
3893.145322921464
 30
0.0
  0
POINT
  5
7F5A
  8
DEFPOINTS
  6
CONTINUOUS
 62
     0
 10
4537.2636465941787
 20
4396.7044187233187
 30
0.0
  0
POINT
  5
7F5B
  8
DEFPOINTS
  6
CONTINUOUS
 62
     0
 10
4537.2636465941787
 20
4452.9853506242453
 30
0.0
  0
ENDBLK
  5
7DB2
  8
0
  0
BLOCK
  8
0
  2
*D14
 70
     1
 10
0.0
 20
0.0
 30
0.0
  3
*D14
  1

  0
LINE
  5
7D93
  8
0
  6
BYBLOCK
 62
     0
 10
4537.2636465941787
 20
4411.7044187233196
 30
0.0
 11
4537.2636465941787
 21
4483.3288546242447
 31
0.0
  0
LINE
  5
7D94
  8
0
  6
BYBLOCK
 62
     0
 10
4857.2636465941796
 20
4073.145322921464
 30
0.0
 11
4857.2636465941796
 21
4483.3288546242447
 31
0.0
  0
LINE
  5
7D95
  8
0
  6
BYBLOCK
 62
     0
 10
4597.2636465941787
 20
4453.3288546242447
 30
0.0
 11
4797.2636465941796
 21
4453.3288546242447
 31
0.0
  0
TEXT
  5
7D96
  8
3
 62
     0
 10
4579.0891498556284
 20
4495.6726528465879
 30
0.0
 40
90.0
  1
320
  0
INSERT
  5
7D97
  8
0
  6
BYBLOCK
 62
     0
  2
_OPEN
 10
4537.2636465941787
 20
4453.3288546242447
 30
0.0
 41
60.0
 42
60.0
 43
60.0
 50
180.0
  0
INSERT
  5
7D98
  8
0
  6
BYBLOCK
 62
     0
  2
_OPEN
 10
4857.2636465941796
 20
4453.3288546242447
 30
0.0
 41
60.0
 42
60.0
 43
60.0
  0
POINT
  5
7D99
  8
DEFPOINTS
  6
BYBLOCK
 62
     0
 10
4537.2636465941787
 20
4396.7044187233187
 30
0.0
  0
POINT
  5
7D9A
  8
DEFPOINTS
  6
BYBLOCK
 62
     0
 10
4857.2636465941796
 20
4058.1453229214649
 30
0.0
  0
POINT
  5
7D9B
  8
DEFPOINTS
  6
BYBLOCK
 62
     0
 10
4857.2636465941796
 20
4453.3288546242447
 30
0.0
  0
ENDBLK
  5
7D9C
  8
0
  0
BLOCK
  8
0
  2
*D15
 70
     1
 10
0.0
 20
0.0
 30
0.0
  3
*D15
  1

  0
LINE
  5
7F5C
  8
3
  6
CONTINUOUS
 62
     0
 10
4872.2636465941796
 20
4018.1453229214649
 30
0.0
 11
5144.7784125941807
 21
4018.1453229214649
 31
0.0
  0
LINE
  5
7F5D
  8
3
  6
CONTINUOUS
 62
     0
 10
4872.2636465941796
 20
3388.1453229214649
 30
0.0
 11
5144.7784125941807
 21
3388.145322921464
 31
0.0
  0
LINE
  5
7F5E
  8
3
  6
CONTINUOUS
 62
     0
 10
5114.7784125941807
 20
3958.1453229214649
 30
0.0
 11
5114.7784125941807
 21
3448.1453229214649
 31
0.0
  0
INSERT
  5
7F5F
  8
3
  6
CONTINUOUS
 62
     0
  2
_OPEN
 10
5114.7784125941807
 20
4018.1453229214649
 30
0.0
 41
60.0
 42
60.0
 43
60.0
 50
90.0
  0
INSERT
  5
7F60
  8
3
  6
CONTINUOUS
 62
     0
  2
_OPEN
 10
5114.7784125941807
 20
3388.1453229214649
 30
0.0
 41
60.0
 42
60.0
 43
60.0
 50
270.0
  0
TEXT
  8
3
  40
90
  5
7F7B
  62
0
  72
0
  71
0
 10
4859.78
 20
3562.78
 30
0.000000
  1
φ630
  0
POINT
  5
7F62
  8
DEFPOINTS
  6
CONTINUOUS
 62
     0
 10
4857.2636465941796
 20
4018.1453229214649
 30
0.0
  0
POINT
  5
7F63
  8
DEFPOINTS
  6
CONTINUOUS
 62
     0
 10
4857.2636465941796
 20
3388.1453229214649
 30
0.0
  0
POINT
  5
7F64
  8
DEFPOINTS
  6
CONTINUOUS
 62
     0
 10
5114.7784125941807
 20
3388.1453229214649
 30
0.0
  0
ENDBLK
  5
7D63
  8
0
  0
BLOCK
  8
0
  2
*D16
 70
     1
 10
0.0
 20
0.0
 30
0.0
  3
*D16
  1

  0
LINE
  5
7D44
  8
0
  6
BYBLOCK
 62
     0
 10
4137.2636465941787
 20
2888.1453229214649
 30
0.0
 11
4137.2636465941787
 21
2654.834034921465
 31
0.0
  0
LINE
  5
7D45
  8
0
  6
BYBLOCK
 62
     0
 10
4537.2636465941787
 20
2801.0875649214649
 30
0.0
 11
4537.2636465941787
 21
2654.834034921465
 31
0.0
  0
LINE
  5
7D46
  8
0
  6
BYBLOCK
 62
     0
 10
4197.2636465941787
 20
2684.834034921465
 30
0.0
 11
4477.2636465941787
 21
2684.834034921465
 31
0.0
  0
TEXT
  5
7D47
  8
3
 62
     0
 10
4221.5493608798943
 20
2712.3397749677279
 30
0.0
 40
90.0
  1
400
  0
INSERT
  5
7D48
  8
0
  6
BYBLOCK
 62
     0
  2
_OPEN
 10
4137.2636465941787
 20
2684.834034921465
 30
0.0
 41
60.0
 42
60.0
 43
60.0
 50
180.0
  0
INSERT
  5
7D49
  8
0
  6
BYBLOCK
 62
     0
  2
_OPEN
 10
4537.2636465941787
 20
2684.834034921465
 30
0.0
 41
60.0
 42
60.0
 43
60.0
  0
POINT
  5
7D4A
  8
DEFPOINTS
  6
BYBLOCK
 62
     0
 10
4137.2636465941787
 20
2903.145322921464
 30
0.0
  0
POINT
  5
7D4B
  8
DEFPOINTS
  6
BYBLOCK
 62
     0
 10
4537.2636465941787
 20
2816.0875649214649
 30
0.0
  0
POINT
  5
7D4C
  8
DEFPOINTS
  6
BYBLOCK
 62
     0
 10
4537.2636465941787
 20
2684.834034921465
 30
0.0
  0
ENDBLK
  5
7D4D
  8
0
  0
BLOCK
  8
0
  2
*D17
 70
     1
 10
0.0
 20
0.0
 30
0.0
  3
*D17
  1

  0
LINE
  5
7D4F
  8
0
  6
BYBLOCK
 62
     0
 10
4537.2636465941787
 20
2801.0875649214649
 30
0.0
 11
4537.2636465941787
 21
2654.834034921465
 31
0.0
  0
LINE
  5
7D50
  8
0
  6
BYBLOCK
 62
     0
 10
4827.2636465941787
 20
2888.1453229214649
 30
0.0
 11
4827.2636465941787
 21
2654.834034921465
 31
0.0
  0
LINE
  5
7D51
  8
0
  6
BYBLOCK
 62
     0
 10
4597.2636465941787
 20
2684.834034921465
 30
0.0
 11
4767.2636465941787
 21
2684.834034921465
 31
0.0
  0
TEXT
  5
7D52
  8
3
 62
     0
 10
4579.0891498556284
 20
2724.5963540172629
 30
0.0
 40
90.0
  1
290
  0
INSERT
  5
7D53
  8
0
  6
BYBLOCK
 62
     0
  2
_OPEN
 10
4537.2636465941787
 20
2684.834034921465
 30
0.0
 41
60.0
 42
60.0
 43
60.0
 50
180.0
  0
INSERT
  5
7D54
  8
0
  6
BYBLOCK
 62
     0
  2
_OPEN
 10
4827.2636465941787
 20
2684.834034921465
 30
0.0
 41
60.0
 42
60.0
 43
60.0
  0
POINT
  5
7D55
  8
DEFPOINTS
  6
BYBLOCK
 62
     0
 10
4537.2636465941787
 20
2816.0875649214649
 30
0.0
  0
POINT
  5
7D56
  8
DEFPOINTS
  6
BYBLOCK
 62
     0
 10
4827.2636465941787
 20
2903.145322921464
 30
0.0
  0
POINT
  5
7D57
  8
DEFPOINTS
  6
BYBLOCK
 62
     0
 10
4827.2636465941787
 20
2684.834034921465
 30
0.0
  0
ENDBLK
  5
7D58
  8
0
  0
BLOCK
  8
0
  2
*D18
 70
     1
 10
0.0
 20
0.0
 30
0.0
  3
*D18
  1

  0
LINE
  5
7F65
  8
3
 62
     0
 10
2583.710106522878
 20
3747.1453229214649
 30
0.0
 11
2583.710106522878
 21
4454.2350904866498
 31
0.0
  0
LINE
  5
7F66
  8
3
 62
     0
 10
1123.710106522878
 20
3018.1453229214649
 30
0.0
 11
1123.710106522878
 21
4454.2350904866498
 31
0.0
  0
LINE
  5
7F67
  8
3
 62
     0
 10
2523.710106522878
 20
4424.2350904866498
 30
0.0
 11
1183.710106522878
 21
4424.2350904866498
 31
0.0
  0
INSERT
  5
7F68
  8
3
 62
     0
  2
_OPEN
 10
2583.710106522878
 20
4424.2350904866498
 30
0.0
 41
60.0
 42
60.0
 43
60.0
  0
INSERT
  5
7F69
  8
3
 62
     0
  2
_OPEN
 10
1123.710106522878
 20
4424.2350904866498
 30
0.0
 41
60.0
 42
60.0
 43
60.0
 50
180.0
  0
TEXT
  8
3
  40
90
  5
7F7C
  62
0
  72
0
  71
0
 10
1674.45
 20
4339.94
 30
0.000000
  1
1460
  0
POINT
  5
7F6B
  8
DEFPOINTS
 62
     0
 10
2583.710106522878
 20
3732.145322921464
 30
0.0
  0
POINT
  5
7F6C
  8
DEFPOINTS
 62
     0
 10
1123.710106522878
 20
3003.1453229214649
 30
0.0
  0
POINT
  5
7F6D
  8
DEFPOINTS
 62
     0
 10
1123.710106522878
 20
4424.2350904866498
 30
0.0
  0
ENDBLK
  5
7D90
  8
0
  0
ENDSEC
  0
SECTION
  2
ENTITIES
  0
LINE
  5
7A64
  8
2
  6
CENTER
 10
1532.529231522878
 20
3703.145322921464
 30
0.0
 11
2533.407391522876
 21
3703.145322921464
 31
0.0
  0
LINE
  5
7A65
  8
2
  6
CENTER
 10
2123.710106522878
 20
6394.0317879214635
 30
0.0
 11
2123.710106522878
 21
5471.1953809214647
 31
0.0
  0
LINE
  5
7A66
  8
2
  6
CENTER
 10
1228.710106522878
 20
3180.1453229214649
 30
0.0
 11
1368.710106522878
 21
3180.1453229214649
 31
0.0
  0
LINE
  5
7A67
  8
2
  6
CENTER
 10
1298.710106522878
 20
3110.145322921464
 30
0.0
 11
1298.710106522878
 21
3250.145322921464
 31
0.0
  0
LINE
  5
7A68
  8
1
  6
CONTINUOUS
 10
4299.7636465941787
 20
3199.1453229214649
 30
0.0
 11
4177.2636465941787
 21
3199.1453229214649
 31
0.0
  0
LINE
  5
7A69
  8
1
  6
CONTINUOUS
 10
4299.7636465941787
 20
3161.145322921464
 30
0.0
 11
4177.2636465941787
 21
3161.145322921464
 31
0.0
  0
LINE
  5
7A6A
  8
1
  6
CONTINUOUS
 10
4299.7636465941787
 20
3684.1453229214649
 30
0.0
 11
4177.2636465941787
 21
3684.1453229214649
 31
0.0
  0
LINE
  5
7A6B
  8
1
  6
CONTINUOUS
 10
4299.7636465941787
 20
3722.1453229214649
 30
0.0
 11
4177.2636465941787
 21
3722.1453229214649
 31
0.0
  0
LINE
  5
7A6C
  8
1
  6
CONTINUOUS
 10
4177.2636465941787
 20
3250.145322921464
 30
0.0
 11
4177.2636465941787
 21
3110.145322921464
 31
0.0
  0
LINE
  5
7A6D
  8
1
  6
CONTINUOUS
 10
4097.2636465941787
 20
3250.145322921464
 30
0.0
 11
4097.2636465941787
 21
3110.145322921464
 31
0.0
  0
LINE
  5
7A6E
  8
1
  6
CONTINUOUS
 10
4177.2636465941787
 20
3793.145322921464
 30
0.0
 11
4177.2636465941787
 21
3613.145322921464
 31
0.0
  0
LINE
  5
7A6F
  8
1
  6
CONTINUOUS
 10
4097.2636465941787
 20
3793.145322921464
 30
0.0
 11
4097.2636465941787
 21
3613.145322921464
 31
0.0
  0
LINE
  5
7A70
  8
1
  6
CONTINUOUS
 10
4097.2636465941787
 20
3110.145322921464
 30
0.0
 11
4177.2636465941787
 21
3110.145322921464
 31
0.0
  0
LINE
  5
7A71
  8
1
  6
CONTINUOUS
 10
4097.2636465941787
 20
3250.145322921464
 30
0.0
 11
4177.2636465941787
 21
3250.145322921464
 31
0.0
  0
LINE
  5
7A72
  8
1
  6
CONTINUOUS
 10
4097.2636465941787
 20
3613.145322921464
 30
0.0
 11
4177.2636465941787
 21
3613.145322921464
 31
0.0
  0
LINE
  5
7A73
  8
1
  6
CONTINUOUS
 10
4097.2636465941787
 20
3793.145322921464
 30
0.0
 11
4177.2636465941787
 21
3793.145322921464
 31
0.0
  0
LINE
  5
7A74
  8
1
  6
CONTINUOUS
 10
4057.2636465941791
 20
3893.145322921464
 30
0.0
 11
4217.2636465941787
 21
3893.145322921464
 31
0.0
  0
LINE
  5
7A75
  8
1
  6
CONTINUOUS
 10
4057.2636465941791
 20
3010.1453229214649
 30
0.0
 11
4217.2636465941787
 21
3010.1453229214649
 31
0.0
  0
ARC
  5
7A76
  8
1
  6
CONTINUOUS
 10
1298.710106522878
 20
3180.1453229214649
 30
0.0
 40
170.0
 50
123.5
 51
301.19999999999999
  0
LINE
  5
7A77
  8
1
  6
CONTINUOUS
 10
4217.2636465941787
 20
3893.145322921464
 30
0.0
 11
4217.2636465941787
 21
3010.1453229214649
 31
0.0
  0
LINE
  5
7A78
  8
1
  6
CONTINUOUS
 10
4057.2636465941791
 20
3893.145322921464
 30
0.0
 11
4057.2636465941791
 21
3010.1453229214649
 31
0.0
  0
LINE
  5
7A79
  8
1
  6
CONTINUOUS
 10
4299.7636465941787
 20
3025.1453229214649
 30
0.0
 11
4774.7636465941796
 21
3675.145322921464
 31
0.0
  0
LINE
  5
7A7A
  8
1
  6
CONTINUOUS
 10
4299.7636465941787
 20
3675.145322921464
 30
0.0
 11
4774.7636465941796
 21
3025.1453229214649
 31
0.0
  0
LINE
  5
7A7B
  8
1
  6
CONTINUOUS
 10
4774.7636465941796
 20
3388.1453229214649
 30
0.0
 11
4857.2636465941796
 21
3388.1453229214649
 31
0.0
  0
LINE
  5
7A7C
  8
1
  6
CONTINUOUS
 10
4774.7636465941796
 20
4018.1453229214649
 30
0.0
 11
4857.2636465941796
 21
4018.1453229214649
 31
0.0
  0
LINE
  5
7A7D
  8
1
  6
CONTINUOUS
 10
4857.2636465941796
 20
4058.1453229214649
 30
0.0
 11
4857.2636465941796
 21
3348.1453229214649
 31
0.0
  0
LINE
  5
7A7E
  8
1
  6
CONTINUOUS
 10
4299.7636465941787
 20
3025.1453229214649
 30
0.0
 11
4774.7636465941796
 21
3025.1453229214649
 31
0.0
  0
LINE
  5
7A7F
  8
1
  6
CONTINUOUS
 10
4299.7636465941787
 20
4159.0453229214654
 30
0.0
 11
4774.7636465941796
 21
4159.0453229214654
 31
0.0
  0
LINE
  5
7A80
  8
1
  6
CONTINUOUS
 10
4774.7636465941796
 20
4159.0453229214654
 30
0.0
 11
4774.7636465941796
 21
3003.1453229214649
 31
0.0
  0
LINE
  5
7A81
  8
1
  6
CONTINUOUS
 10
4299.7636465941787
 20
4159.0453229214654
 30
0.0
 11
4299.7636465941787
 21
3003.1453229214649
 31
0.0
  0
LINE
  5
7A82
  8
1
  6
CONTINUOUS
 10
4137.2636465941787
 20
3003.1453229214649
 30
0.0
 11
4137.2636465941787
 21
2903.145322921464
 31
0.0
  0
LINE
  5
7A83
  8
1
  6
CONTINUOUS
 10
4827.2636465941787
 20
3003.1453229214649
 30
0.0
 11
4827.2636465941787
 21
2903.145322921464
 31
0.0
  0
LINE
  5
7A84
  8
1
  6
CONTINUOUS
 10
4827.2636465941787
 20
2903.145322921464
 30
0.0
 11
4137.2636465941787
 21
2903.145322921464
 31
0.0
  0
LINE
  5
7A85
  8
1
  6
CONTINUOUS
 10
4827.2636465941787
 20
3003.1453229214649
 30
0.0
 11
4137.2636465941787
 21
3003.1453229214649
 31
0.0
  0
LINE
  5
7A86
  8
1
  6
CONTINUOUS
 10
1808.710106522878
 20
6335.2453229214661
 30
0.0
 11
1808.710106522878
 21
6252.7453229214661
 31
0.0
  0
LINE
  5
7A87
  8
1
  6
CONTINUOUS
 10
2438.710106522878
 20
6335.2453229214661
 30
0.0
 11
2438.710106522878
 21
6252.7453229214661
 31
0.0
  0
LINE
  5
7A88
  8
1
  6
CONTINUOUS
 10
2478.710106522878
 20
6335.2453229214661
 30
0.0
 11
1768.710106522878
 21
6335.2453229214661
 31
0.0
  0
LINE
  5
7A89
  8
1
  6
CONTINUOUS
 10
2104.7101065228771
 20
5655.2453229214661
 30
0.0
 11
2104.7101065228771
 21
5777.7453229214661
 31
0.0
  0
LINE
  5
7A8A
  8
1
  6
CONTINUOUS
 10
2142.710106522878
 20
5655.2453229214661
 30
0.0
 11
2142.710106522878
 21
5777.7453229214661
 31
0.0
  0
LINE
  5
7A8B
  8
1
  6
CONTINUOUS
 10
2033.710106522878
 20
5655.2453229214661
 30
0.0
 11
2213.7101065228771
 21
5655.2453229214661
 31
0.0
  0
LINE
  5
7A8C
  8
1
  6
CONTINUOUS
 10
2033.710106522878
 20
5575.2453229214671
 30
0.0
 11
2213.7101065228771
 21
5575.2453229214671
 31
0.0
  0
LINE
  5
7A8D
  8
1
  6
CONTINUOUS
 10
2033.710106522878
 20
5575.2453229214671
 30
0.0
 11
2033.710106522878
 21
5655.2453229214661
 31
0.0
  0
LINE
  5
7A8E
  8
1
  6
CONTINUOUS
 10
2213.7101065228771
 20
5575.2453229214671
 30
0.0
 11
2213.7101065228771
 21
5655.2453229214661
 31
0.0
  0
LINE
  5
7A8F
  8
1
  6
CONTINUOUS
 10
1368.710106522878
 20
5575.2453229214671
 30
0.0
 11
1368.710106522878
 21
5655.2453229214661
 31
0.0
  0
LINE
  5
7A90
  8
1
  6
CONTINUOUS
 10
1228.710106522878
 20
5575.2453229214671
 30
0.0
 11
1228.710106522878
 21
5655.2453229214661
 31
0.0
  0
LINE
  5
7A91
  8
1
  6
CONTINUOUS
 10
1228.710106522878
 20
5575.2453229214671
 30
0.0
 11
1368.710106522878
 21
5575.2453229214671
 31
0.0
  0
LINE
  5
7A92
  8
1
  6
CONTINUOUS
 10
1228.710106522878
 20
5655.2453229214661
 30
0.0
 11
1368.710106522878
 21
5655.2453229214661
 31
0.0
  0
LINE
  5
7A93
  8
1
  6
CONTINUOUS
 10
2313.710106522878
 20
5535.2453229214661
 30
0.0
 11
2313.710106522878
 21
5695.2453229214661
 31
0.0
  0
LINE
  5
7A94
  8
1
  6
CONTINUOUS
 10
1098.710106522878
 20
5535.2453229214661
 30
0.0
 11
1098.710106522878
 21
5695.2453229214661
 31
0.0
  0
ARC
  5
7A95
  8
1
  6
CONTINUOUS
 10
2123.710106522878
 20
3703.145322921464
 30
0.0
 40
190.0
 50
301.19999999999999
 51
123.5
  0
CIRCLE
  5
7A96
  8
1
  6
CONTINUOUS
 10
1298.710106522878
 20
3180.1453229214649
 30
0.0
 40
70.0
  0
CIRCLE
  5
7A97
  8
1
  6
CONTINUOUS
 10
2123.710106522878
 20
3703.145322921464
 30
0.0
 40
90.0
  0
CIRCLE
  5
7A98
  8
1
  6
CONTINUOUS
 10
2123.710106522878
 20
3703.145322921464
 30
0.0
 40
355.0
  0
CIRCLE
  5
7A99
  8
1
  6
CONTINUOUS
 10
2123.710106522878
 20
3703.145322921464
 30
0.0
 40
315.0
  0
LINE
  5
7A9A
  8
1
  6
CONTINUOUS
 10
2313.710106522878
 20
5695.2453229214661
 30
0.0
 11
1098.710106522878
 21
5695.2453229214661
 31
0.0
  0
LINE
  5
7A9B
  8
1
  6
CONTINUOUS
 10
2313.710106522878
 20
5535.2453229214661
 30
0.0
 11
1098.710106522878
 21
5535.2453229214661
 31
0.0
  0
LINE
  5
7A9C
  8
1
  6
CONTINUOUS
 10
2583.710106522878
 20
5777.7453229214661
 30
0.0
 11
1573.8101065228759
 21
5777.7453229214661
 31
0.0
  0
LINE
  5
7A9D
  8
1
  6
CONTINUOUS
 10
2583.710106522878
 20
6252.7453229214661
 30
0.0
 11
1573.8101065228759
 21
6252.7453229214661
 31
0.0
  0
LINE
  5
7A9E
  8
1
  6
CONTINUOUS
 10
2583.710106522878
 20
5737.7453229214661
 30
0.0
 11
2583.710106522878
 21
6292.7453229214661
 31
0.0
  0
LINE
  5
7A9F
  8
1
  6
CONTINUOUS
 10
2543.710106522878
 20
5777.7453229214661
 30
0.0
 11
2543.710106522878
 21
6252.7453229214661
 31
0.0
  0
LINE
  5
7AA0
  8
1
  6
CONTINUOUS
 10
1573.8101065228759
 20
5777.7453229214661
 30
0.0
 11
1573.8101065228759
 21
6252.7453229214661
 31
0.0
  0
LINE
  5
7AA1
  8
1
  6
CONTINUOUS
 10
2523.710106522878
 20
6305.2453229214661
 30
0.0
 11
2438.710106522878
 21
6305.2453229214661
 31
0.0
  0
LINE
  5
7AA2
  8
1
  6
CONTINUOUS
 10
2523.710106522878
 20
5615.2453229214671
 30
0.0
 11
2213.7101065228771
 21
5615.2453229214671
 31
0.0
  0
LINE
  5
7AA3
  8
1
  6
CONTINUOUS
 10
2523.710106522878
 20
6305.2453229214661
 30
0.0
 11
2523.710106522878
 21
6252.7453229214661
 31
0.0
  0
LINE
  5
7AA4
  8
1
  6
CONTINUOUS
 10
1123.710106522878
 20
6305.2453229214661
 30
0.0
 11
1123.710106522878
 21
5615.2453229214671
 31
0.0
  0
LINE
  5
7AA5
  8
1
  6
CONTINUOUS
 10
1133.710106522878
 20
3048.1453229214649
 30
0.0
 11
1123.710106522878
 21
3003.1453229214649
 31
0.0
  0
LINE
  5
7AA6
  8
1
  6
CONTINUOUS
 10
1463.710106522878
 20
3048.1453229214649
 30
0.0
 11
1133.710106522878
 21
3048.1453229214649
 31
0.0
  0
LINE
  5
7AA7
  8
1
  6
CONTINUOUS
 10
1473.710106522878
 20
3003.1453229214649
 30
0.0
 11
1463.710106522878
 21
3048.1453229214649
 31
0.0
  0
LINE
  5
7AA8
  8
1
  6
CONTINUOUS
 10
1156.710106522878
 20
5747.8453229214656
 30
0.0
 11
1156.710106522878
 21
6147.8453229214647
 31
0.0
  0
LINE
  5
7AA9
  8
1
  6
CONTINUOUS
 10
1156.710106522878
 20
6147.8453229214647
 30
0.0
 11
1440.710106522878
 21
6147.8453229214647
 31
0.0
  0
LINE
  5
7AAA
  8
1
  6
CONTINUOUS
 10
1440.710106522878
 20
5747.8453229214656
 30
0.0
 11
1440.710106522878
 21
6147.8453229214647
 31
0.0
  0
LINE
  5
7AAB
  8
1
  6
CONTINUOUS
 10
1317.710106522878
 20
5655.2453229214661
 30
0.0
 11
1317.710106522878
 21
5747.8453229214656
 31
0.0
  0
LINE
  5
7AAC
  8
1
  6
CONTINUOUS
 10
1279.710106522878
 20
5655.2453229214661
 30
0.0
 11
1279.710106522878
 21
5747.8453229214656
 31
0.0
  0
LINE
  5
7AAD
  8
1
  6
CONTINUOUS
 10
1156.710106522878
 20
5747.8453229214656
 30
0.0
 11
1440.710106522878
 21
5747.8453229214656
 31
0.0
  0
LINE
  5
7AAE
  8
1
  6
CONTINUOUS
 10
1168.710106522878
 20
3048.1453229214649
 30
0.0
 11
1168.710106522878
 21
3063.1453229214649
 31
0.0
  0
LINE
  5
7AAF
  8
1
  6
CONTINUOUS
 10
1168.710106522878
 20
3063.1453229214649
 30
0.0
 11
1183.0101065228771
 21
3097.945322921465
 31
0.0
  0
LINE
  5
7AB0
  8
1
  6
CONTINUOUS
 10
1428.710106522878
 20
3063.1453229214649
 30
0.0
 11
1414.410106522876
 21
3097.945322921465
 31
0.0
  0
LINE
  5
7AB1
  8
1
  6
CONTINUOUS
 10
1428.710106522878
 20
3048.1453229214649
 30
0.0
 11
1428.710106522878
 21
3063.1453229214649
 31
0.0
  0
ARC
  5
7AB2
  8
1
  6
CONTINUOUS
 10
1298.710106522878
 20
3180.1453229214649
 30
0.0
 40
142.0
 50
324.60000000000002
 51
215.39999999999989
  0
LINE
  5
7AB3
  8
1
  6
CONTINUOUS
 10
1123.710106522878
 20
3003.1453229214649
 30
0.0
 11
1123.710106522878
 21
2903.145322921464
 31
0.0
  0
LINE
  5
7AB4
  8
1
  6
CONTINUOUS
 10
2523.710106522878
 20
3003.1453229214649
 30
0.0
 11
2523.710106522878
 21
2903.145322921464
 31
0.0
  0
LINE
  5
7AB5
  8
1
  6
CONTINUOUS
 10
2523.710106522878
 20
3003.1453229214649
 30
0.0
 11
1123.710106522878
 21
3003.1453229214649
 31
0.0
  0
LINE
  5
7AB6
  8
1
  6
CONTINUOUS
 10
2543.710106522878
 20
3675.145322921464
 30
0.0
 11
2543.710106522878
 21
3025.1453229214649
 31
0.0
  0
ARC
  5
7AB7
  8
1
  6
CONTINUOUS
 10
2161.710106522878
 20
3741.1453229214649
 30
0.0
 40
341.39999999999992
 50
348.89999999999992
 51
0.0
  0
ARC
  5
7AB8
  8
1
  6
CONTINUOUS
 10
2085.710106522878
 20
3741.1453229214649
 30
0.0
 40
417.39999999999992
 50
0.0
 51
84.0
  0
ARC
  5
7AB9
  8
1
  6
CONTINUOUS
 10
2076.710106522878
 20
3656.1453229214649
 30
0.0
 40
502.89999999999992
 50
84.0
 51
180.0
  0
ARC
  5
7ABA
  8
1
  6
CONTINUOUS
 10
2170.710106522878
 20
3656.1453229214649
 30
0.0
 40
596.89999999999998
 50
180.0
 51
265.5
  0
LINE
  5
7ABB
  8
1
  6
CONTINUOUS
 10
2583.710106522878
 20
3025.1453229214649
 30
0.0
 11
2123.710106522878
 21
3061.1453229214649
 31
0.0
  0
LINE
  5
7ABC
  8
1
  6
CONTINUOUS
 10
2523.710106522878
 20
2903.145322921464
 30
0.0
 11
1123.710106522878
 21
2903.145322921464
 31
0.0
  0
LINE
  5
7ABD
  8
1
  6
CONTINUOUS
 10
2583.710106522878
 20
3717.1453229214649
 30
0.0
 11
2583.710106522878
 21
2983.1453229214649
 31
0.0
  0
LINE
  5
7ABE
  8
1
  6
CONTINUOUS
 10
2496.6101065228781
 20
3675.145322921464
 30
0.0
 11
2583.710106522878
 21
3675.145322921464
 31
0.0
  0
LINE
  5
7ABF
  8
1
  6
CONTINUOUS
 10
4299.7636465941787
 20
3675.145322921464
 30
0.0
 11
4774.7636465941796
 21
3675.145322921464
 31
0.0
  0
LINE
  5
7AC0
  8
1
  6
CONTINUOUS
 10
2523.710106522878
 20
5777.7453229214661
 30
0.0
 11
2523.710106522878
 21
5615.2453229214671
 31
0.0
  0
LINE
  5
7AC1
  8
1
  6
CONTINUOUS
 10
1808.710106522878
 20
6305.2453229214661
 30
0.0
 11
1123.710106522878
 21
6305.2453229214661
 31
0.0
  0
LINE
  5
7AC2
  8
1
  6
CONTINUOUS
 10
2033.710106522878
 20
5615.2453229214671
 30
0.0
 11
1368.710106522878
 21
5615.2453229214671
 31
0.0
  0
LINE
  5
7AC3
  8
1
  6
CONTINUOUS
 10
1228.710106522878
 20
5615.2453229214671
 30
0.0
 11
1123.710106522878
 21
5615.2453229214671
 31
0.0
  0
LINE
  5
7AC4
  8
1
  6
CONTINUOUS
 10
1260.0101065228771
 20
3238.545322921465
 30
0.0
 11
2074.0101065228769
 21
3778.145322921464
 31
0.0
  0
LINE
  5
7AC5
  8
1
  6
CONTINUOUS
 10
1204.8101065228759
 20
3321.8453229214638
 30
0.0
 11
2018.710106522878
 21
3861.5453229214659
 31
0.0
  0
LINE
  5
7AC6
  8
1
  6
CONTINUOUS
 10
1335.0101065228771
 20
3120.3453229214651
 30
0.0
 11
2170.3101065228761
 21
3626.2453229214648
 31
0.0
  0
LINE
  5
7AC7
  8
1
  6
CONTINUOUS
 10
1386.8101065228759
 20
3034.7453229214648
 30
0.0
 11
2222.1101065228768
 21
3540.6453229214649
 31
0.0
  0
LINE
  5
7AC8
  8
4
  6
CONTINUOUS
 10
5550.0
 20
1500.0
 30
0.0
 11
5550.0
 21
900.0
 31
0.0
  0
LINE
  5
7AC9
  8
4
  6
CONTINUOUS
 10
3450.0
 20
1500.0
 30
0.0
 11
3450.0
 21
900.0
 31
0.0
  0
LINE
  5
7ACA
  8
4
  6
CONTINUOUS
 10
1950.0
 20
1500.0
 30
0.0
 11
1950.0
 21
900.0
 31
0.0
  0
LINE
  5
7ACD
  8
4
  6
CONTINUOUS
 10
1950.0
 20
900.0
 30
0.0
 11
5550.0
 21
900.0
 31
0.0
  0
LINE
  5
7ACE
  8
4
  6
CONTINUOUS
 10
1950.0
 20
1200.0
 30
0.0
 11
5550.0
 21
1200.0
 31
0.0
  0
TEXT
  5
7ACF
  8
4
  6
CONTINUOUS
 10
2065.50624225
 20
1294.6290779999999
 30
0.0
 40
150.0
  1
機器名称
  0
TEXT
  5
7AD0
  8
4
  6
CONTINUOUS
 10
2058.7743179999989
 20
964.93547024999998
 30
0.0
 40
150.0
  1
機器型番
  0
TEXT
  5
7AD1
  8
4
  6
CONTINUOUS
 10
3533.0362365000001
 20
1267.715306249999
 30
0.0
 40
120.0
  1
ミツヤリミットロードファン
  0
TEXT
  5
7AD2
  8
4
  6
CONTINUOUS
 10
3559.9634872500001
 20
951.4787527499999
 30
0.0
 40
150.0
  1
LLE#4-4
  0
TEXT
  5
7AD4
  8
4
  6
CONTINUOUS
 10
2714.3572964999998
 20
7150.2865245000012
 30
0.0
 40
162.0
  1
床置ベット
  0
TEXT
  5
7AD5
  8
4
  6
CONTINUOUS
 10
948.50278049999986
 20
7601.6429287499996
 30
0.0
 40
171.42857175
  1
ベルト駆動式片吸込両持排煙ファン
  0
LINE
  5
7AD6
  8
4
  6
CONTINUOUS
 10
750.0
 20
7408.2262627500004
 30
0.0
 11
5550.0
 21
7408.2262627500004
 31
0.0
  0
LINE
  5
7AD7
  8
4
  6
CONTINUOUS
 10
750.0
 20
8008.2262627500004
 30
0.0
 11
5550.0
 21
8008.2262627500004
 31
0.0
  0
LINE
  5
7AD8
  8
4
  6
CONTINUOUS
 10
1950.0
 20
1500.0
 30
0.0
 11
5550.0
 21
1500.0
 31
0.0
  0
LINE
  5
7AD9
  8
4
  6
CONTINUOUS
 10
750.0
 20
8008.2262627500004
 30
0.0
 11
750.0
 21
7408.2262627500004
 31
0.0
  0
TEXT
  5
7ADA
  8
4
  6
CONTINUOUS
 10
1406.780799749999
 20
7146.9584324999987
 30
0.0
 40
162.0
  1
左回転右横向
  0
TEXT
  5
7ADB
  8
4
  6
CONTINUOUS
 10
4406.9086777499988
 20
8118.1832445
 30
0.0
 40
168.0
  1
No.
  0
TEXT
  5
7ADC
  8
4
  6
CONTINUOUS
 10
3933.8881875000002
 20
7150.2865245000012
 30
0.0
 40
162.0
  1
縮尺：1/30
  0
LINE
  5
7ADD
  8
4
  6
CONTINUOUS
 10
5550.0
 20
8008.2262627500004
 30
0.0
 11
5550.0
 21
7408.2262627500004
 31
0.0
  0
LINE
  5
7ADF
  8
4
  6
CONTINUOUS
 10
4321.8522667500001
 20
8043.79074975
 30
0.0
 11
4321.8522667500001
 21
8359.9567845000001
 31
0.0
  0
LINE
  5
7AE0
  8
4
  6
CONTINUOUS
 10
4321.8522667500001
 20
8359.9567845000001
 30
0.0
 11
5550.0
 21
8359.9567845000001
 31
0.0
  0
LINE
  5
7AE1
  8
4
  6
CONTINUOUS
 10
5550.0
 20
8359.9567845000001
 30
0.0
 11
5550.0
 21
8043.79074975
 31
0.0
  0
LINE
  5
7AE2
  8
4
  6
CONTINUOUS
 10
5550.0
 20
8043.79074975
 30
0.0
 11
4321.8522667500001
 21
8043.79074975
 31
0.0
  0
DIMENSION
  5
7AFA
  8
3
  6
CONTINUOUS
  2
*D1
 10
2123.710106522878
 20
2656.2385571657601
 30
0.0
 11
1629.2268975228781
 21
2656.2385571657601
 31
0.0
 70
   128
 13
1123.710106522878
 23
2903.145322921464
 33
0.0
 14
2123.710106522878
 24
2811.807844921464
 34
0.0
1001
ACAD
1000
DSTYLE
1002
{
1070
   287
1070
     3
1070
   287
1070
     3
1070
    40
1040
30.0
1070
   143
1040
0.039
1070
   172
1070
     1
1070
   271
1070
     0
1070
   279
1070
     0
1070
   288
1070
     1
1002
}
  0
DIMENSION
  5
7B08
  8
3
  6
CONTINUOUS
  2
*D2
 10
2523.710106522878
 20
2655.55162116576
 30
0.0
 11
2323.710106522878
 21
2732.7662343095321
 31
0.0
 70
   128
 13
2123.710106522878
 23
2811.807844921464
 33
0.0
 14
2523.710106522878
 24
2903.145322921464
 34
0.0
1001
ACAD
1000
DSTYLE
1002
{
1070
   288
1070
     1
1070
   172
1070
     1
1070
    40
1040
30.0
1070
   271
1070
     0
1070
   143
1040
0.039
1002
}
  0
DIMENSION
  5
7B2B
  8
3
  6
CONTINUOUS
  2
*D3
 10
2849.3431465228769
 20
3025.1453229214649
 30
0.0
 11
2849.3431465228769
 21
3343.8559659214652
 31
0.0
 70
   128
 13
2583.710106522878
 23
3675.145322921464
 33
0.0
 14
2583.710106522878
 24
3025.1453229214649
 34
0.0
 50
90.0
1001
ACAD
1000
DSTYLE
1002
{
1070
   287
1070
     3
1070
   287
1070
     3
1070
    40
1040
30.0
1070
   143
1040
0.039
1070
   172
1070
     1
1070
   271
1070
     0
1070
   279
1070
     0
1070
   288
1070
     1
1002
}
  0
DIMENSION
  5
7B38
  8
3
  6
CONTINUOUS
  2
*D4
 10
3026.9680121001461
 20
3025.1453229214649
 30
0.0
 11
3026.9680121001452
 21
3361.1261809214661
 31
0.0
 70
   128
 13
2500.9886945228768
 23
3703.145322921464
 33
0.0
 14
2583.710106522878
 24
3025.1453229214649
 34
0.0
 50
90.0
1001
ACAD
1000
DSTYLE
1002
{
1070
   287
1070
     3
1070
   287
1070
     3
1070
    40
1040
30.0
1070
   143
1040
0.039
1070
   172
1070
     1
1070
   271
1070
     0
1070
   279
1070
     0
1070
   288
1070
     1
1002
}
  0
DIMENSION
  5
7B47
  8
3
  6
CONTINUOUS
  2
*D5
 10
3215.304586677421
 20
3703.145322921464
 30
0.0
 11
3215.304586677421
 21
3948.9871010643219
 31
0.0
 70
   128
 13
2123.710106522878
 23
4156.8442439214641
 33
0.0
 14
2500.9886945228768
 24
3703.145322921464
 34
0.0
 50
90.0
1001
ACAD
1000
DSTYLE
1002
{
1070
   287
1070
     3
1070
   287
1070
     3
1070
    40
1040
30.0
1070
   143
1040
0.039
1070
   172
1070
     1
1070
   271
1070
     0
1070
   279
1070
     0
1070
   288
1070
     1
1002
}
  0
DIMENSION
  5
7B53
  8
3
  6
CONTINUOUS
  2
*D6
 10
3215.304586677421
 20
2903.145322921464
 30
0.0
 11
3140.30458667742
 21
3303.1453229214649
 31
0.0
 70
     0
 13
2500.9886945228768
 23
3703.145322921464
 33
0.0
 14
2523.710106522878
 24
2903.145322921464
 34
0.0
 50
90.0
1001
ACAD
1000
DSTYLE
1002
{
1070
   287
1070
     3
1070
   287
1070
     3
1070
    40
1040
30.0
1070
   143
1040
0.039
1070
   172
1070
     1
1070
   271
1070
     0
1070
   279
1070
     0
1070
   288
1070
     1
1002
}
  0
DIMENSION
  5
7B60
  8
3
  6
CONTINUOUS
  2
*D7
 10
3413.0938432451221
 20
2903.145322921464
 30
0.0
 11
3413.0938432451221
 21
3537.625766921466
 31
0.0
 70
   128
 13
2123.710106522878
 23
4156.8442439214641
 33
0.0
 14
2523.710106522878
 24
2903.145322921464
 34
0.0
 50
90.0
1001
ACAD
1000
DSTYLE
1002
{
1070
   287
1070
     3
1070
   287
1070
     3
1070
    40
1040
30.0
1070
   143
1040
0.039
1070
   172
1070
     1
1070
   271
1070
     0
1070
   279
1070
     0
1070
   288
1070
     1
1002
}
  0
DIMENSION
  5
7B6D
  8
3
  6
CONTINUOUS
  2
*D8
 10
2123.710106522878
 20
4243.2806089214637
 30
0.0
 11
1883.710106522878
 21
4243.2806089214637
 31
0.0
 70
   128
 13
1576.011185522877
 23
3703.145322921464
 33
0.0
 14
2123.710106522878
 24
4156.8442439214641
 34
0.0
1001
ACAD
1000
DSTYLE
1002
{
1070
   287
1070
     3
1070
   287
1070
     3
1070
    40
1040
30.0
1070
   143
1040
0.039
1070
   172
1070
     1
1070
   271
1070
     0
1070
   279
1070
     0
1070
   288
1070
     1
1002
}
  0
DIMENSION
  5
7B7B
  8
3
  6
CONTINUOUS
  2
*D9
 10
2583.710106522878
 20
4243.2806089214637
 30
0.0
 11
2329.4243922371638
 21
4243.2806089214637
 31
0.0
 70
   128
 13
2123.710106522878
 23
4156.8442439214641
 33
0.0
 14
2583.710106522878
 24
3717.1453229214649
 34
0.0
1001
ACAD
1000
DSTYLE
1002
{
1070
   287
1070
     3
1070
   287
1070
     3
1070
    40
1040
30.0
1070
   143
1040
0.039
1070
   172
1070
     1
1070
   271
1070
     0
1070
   279
1070
     0
1070
   288
1070
     1
1002
}
  0
DIMENSION
  5
7B9E
  8
3
  6
CONTINUOUS
  2
*D10
 10
2523.710106522878
 20
5275.3454669214652
 30
0.0
 11
1733.262000522878
 21
5275.3454669214652
 31
0.0
 70
   128
 13
1123.710106522878
 23
5615.2453229214671
 33
0.0
 14
2523.710106522878
 24
5615.2453229214671
 34
0.0
1001
ACAD
1000
DSTYLE
1002
{
1070
   287
1070
     3
1070
   287
1070
     3
1070
    40
1040
30.0
1070
   143
1040
0.039
1070
   172
1070
     1
1070
   271
1070
     0
1070
   279
1070
     0
1070
   288
1070
     1
1002
}
  0
DIMENSION
  5
7BAB
  8
3
  6
CONTINUOUS
  2
*D11
 10
2891.1626785228768
 20
5615.2453229214671
 30
0.0
 11
2891.1626785228759
 21
5980.3133249214652
 31
0.0
 70
   128
 13
2523.710106522878
 23
6305.2453229214661
 33
0.0
 14
2523.710106522878
 24
5615.2453229214671
 34
0.0
 50
90.0
1001
ACAD
1000
DSTYLE
1002
{
1070
   287
1070
     3
1070
   287
1070
     3
1070
    40
1040
30.0
1070
   143
1040
0.039
1070
   172
1070
     1
1070
   271
1070
     0
1070
   279
1070
     0
1070
   288
1070
     1
1002
}
  0
LINE
  5
7BAC
  8
2
  6
CENTER
 10
1414.8147935228769
 20
6015.2453229214661
 30
0.0
 11
2638.2720568140498
 21
6015.2453229214661
 31
0.0
  0
LINE
  5
7BAD
  8
2
  6
CENTER
 10
2123.710106522878
 20
4189.7461699214637
 30
0.0
 11
2123.710106522878
 21
2811.807844921464
 31
0.0
  0
LINE
  5
7BAE
  8
2
  6
CENTER
 10
4537.2636465941787
 20
4273.410789921465
 30
0.0
 11
4537.2636465941787
 21
2816.0875649214649
 31
0.0
  0
DIMENSION
  5
7BBD
  8
3
  6
CONTINUOUS
  2
*D12
 10
4774.7636465941796
 20
4260.2201809214648
 30
0.0
 11
4537.2636465941787
 21
4260.2201809214648
 31
0.0
 70
   128
 13
4299.7636465941787
 23
4159.0453229214654
 33
0.0
 14
4774.7636465941796
 24
4159.0453229214654
 34
0.0
1001
ACAD
1000
DSTYLE
1002
{
1070
   287
1070
     3
1070
   287
1070
     3
1070
    40
1040
30.0
1070
   143
1040
0.039
1070
   172
1070
     1
1070
   271
1070
     0
1070
   279
1070
     0
1070
   288
1070
     1
1002
}
  0
DIMENSION
  5
7BCA
  8
3
  6
CONTINUOUS
  2
*D13
 10
4537.2636465941787
 20
4452.9853506242453
 30
0.0
 11
4275.835075165608
 21
4452.9853506242453
 31
0.0
 70
   128
  1
MAX\P550
 13
4057.2636465941791
 23
3893.145322921464
 33
0.0
 14
4537.2636465941787
 24
4396.7044187233187
 34
0.0
1001
ACAD
1000
DSTYLE
1002
{
1070
   287
1070
     3
1070
   287
1070
     3
1070
    40
1040
30.0
1070
   143
1040
0.039
1070
   172
1070
     1
1070
   271
1070
     0
1070
   279
1070
     0
1070
   288
1070
     1
1002
}
  0
DIMENSION
  5
7BD8
  8
3
  6
CONTINUOUS
  2
*D14
 10
4857.2636465941796
 20
4453.3288546242447
 30
0.0
 11
4694.8034355699119
 21
4540.6726528465879
 31
0.0
 70
   128
 13
4537.2636465941787
 23
4396.7044187233187
 33
0.0
 14
4857.2636465941796
 24
4058.1453229214649
 34
0.0
1001
ACAD
1000
DSTYLE
1002
{
1070
   288
1070
     1
1070
   172
1070
     1
1070
    40
1040
30.0
1070
   271
1070
     0
1070
   143
1040
0.039
1002
}
  0
DIMENSION
  5
7BFB
  8
3
  6
CONTINUOUS
  2
*D15
 10
5114.7784125941807
 20
3388.1453229214649
 30
0.0
 11
5114.7784125941798
 21
3722.0767699214639
 31
0.0
 70
   128
 13
4857.2636465941796
 23
4018.1453229214649
 33
0.0
 14
4857.2636465941796
 24
3388.1453229214649
 34
0.0
 50
90.0
1001
ACAD
1000
DSTYLE
1002
{
1070
   287
1070
     3
1070
   287
1070
     3
1070
     3
1000
φ<>
1070
    40
1040
30.0
1070
   143
1040
0.039
1070
   172
1070
     1
1070
   271
1070
     0
1070
   279
1070
     0
1070
   288
1070
     1
1002
}
  0
DIMENSION
  5
7C0A
  8
3
  6
CONTINUOUS
  2
*D16
 10
4537.2636465941787
 20
2684.834034921465
 30
0.0
 11
4337.2636465941796
 21
2757.3397749677279
 31
0.0
 70
   128
 13
4137.2636465941787
 23
2903.145322921464
 33
0.0
 14
4537.2636465941787
 24
2816.0875649214649
 34
0.0
1001
ACAD
1000
DSTYLE
1002
{
1070
   288
1070
     1
1070
   172
1070
     1
1070
    40
1040
30.0
1070
   271
1070
     0
1070
   143
1040
0.039
1002
}
  0
DIMENSION
  5
7C18
  8
3
  6
CONTINUOUS
  2
*D17
 10
4827.2636465941787
 20
2684.834034921465
 30
0.0
 11
4694.8034355699119
 21
2769.5963540172629
 31
0.0
 70
   128
 13
4537.2636465941787
 23
2816.0875649214649
 33
0.0
 14
4827.2636465941787
 24
2903.145322921464
 34
0.0
1001
ACAD
1000
DSTYLE
1002
{
1070
   288
1070
     1
1070
   172
1070
     1
1070
    40
1040
30.0
1070
   271
1070
     0
1070
   143
1040
0.039
1002
}
  0
LINE
  5
7C2F
  8
2
  6
CENTER
 10
3959.6492145941788
 20
3703.145322921464
 30
0.0
 11
4944.3919575941791
 21
3703.145322921464
 31
0.0
  0
DIMENSION
  5
7D91
  8
3
  2
*D18
 10
1123.710106522878
 20
4424.2350904866498
 30
0.0
 11
1854.4476944034029
 21
4424.2350904866498
 31
0.0
 70
   128
 13
2583.710106522878
 23
3732.145322921464
 33
0.0
 14
1123.710106522878
 24
3003.1453229214649
 34
0.0
1001
ACAD
1000
DSTYLE
1002
{
1070
   287
1070
     3
1070
   287
1070
     3
1070
    40
1040
30.0
1070
   143
1040
0.039
1070
   172
1070
     1
1070
   271
1070
     0
1070
   279
1070
     0
1070
   288
1070
     1
1002
}
  0
ENDSEC
  0
EOF
