  0
SECTION
  2
HEADER
  9
$ACADVER
  1
AC1009
  9
$INSBASE
 10
0.0
 20
0.0
 30
0.0
  9
$EXTMIN
 10
750.0
 20
900.0
 30
0.0
  9
$EXTMAX
 10
5550.0
 20
8359.9567845000001
 30
0.0
  9
$LIMMIN
 10
0.0
 20
0.0
  9
$LIMMAX
 10
297.0
 20
210.0
  9
$ORTHOMODE
 70
     0
  9
$REGENMODE
 70
     1
  9
$FILLMODE
 70
     0
  9
$QTEXTMODE
 70
     0
  9
$MIRRTEXT
 70
     1
  9
$DRAGMODE
 70
     2
  9
$LTSCALE
 40
100.0
  9
$OSMODE
 70
    37
  9
$ATTMODE
 70
     1
  9
$TEXTSIZE
 40
180.0
  9
$TRACEWID
 40
0.05
  9
$TEXTSTYLE
  7
STANDARD
  9
$CLAYER
  8
3
  9
$CELTYPE
  6
BYLAYER
  9
$CECOLOR
 62
   256
  9
$DIMSCALE
 40
30.0
  9
$DIMASZ
 40
2.0
  9
$DIMEXO
 40
0.5
  9
$DIMDLI
 40
10.0
  9
$DIMRND
 40
0.0
  9
$DIMDLE
 40
0.0
  9
$DIMEXE
 40
1.0
  9
$DIMTP
 40
1.0
  9
$DIMTM
 40
1.0
  9
$DIMTXT
 40
3.0
  9
$DIMCEN
 40
0.0
  9
$DIMTSZ
 40
0.0
  9
$DIMTOL
 70
     0
  9
$DIMLIM
 70
     0
  9
$DIMTIH
 70
     0
  9
$DIMTOH
 70
     0
  9
$DIMSE1
 70
     0
  9
$DIMSE2
 70
     0
  9
$DIMTAD
 70
     1
  9
$DIMZIN
 70
     8
  9
$DIMBLK
  1

  9
$DIMASO
 70
     1
  9
$DIMSHO
 70
     1
  9
$DIMPOST
  1

  9
$DIMAPOST
  1

  9
$DIMALT
 70
     0
  9
$DIMALTD
 70
     2
  9
$DIMALTF
 40
0.039
  9
$DIMLFAC
 40
1.0
  9
$DIMTOFL
 70
     1
  9
$DIMTVP
 40
0.0
  9
$DIMTIX
 70
     0
  9
$DIMSOXD
 70
     0
  9
$DIMSAH
 70
     1
  9
$DIMBLK1
  1
OPEN
  9
$DIMBLK2
  1
OPEN
  9
$DIMSTYLE
  2
IGA
  9
$DIMCLRD
 70
     0
  9
$DIMCLRE
 70
     0
  9
$DIMCLRT
 70
     0
  9
$DIMTFAC
 40
10.0
  9
$DIMGAP
 40
1.0
  9
$LUNITS
 70
     2
  9
$LUPREC
 70
     3
  9
$SKETCHINC
 40
0.1
  9
$FILLETRAD
 40
50.0
  9
$AUNITS
 70
     0
  9
$AUPREC
 70
     0
  9
$MENU
  1
acad
  9
$ELEVATION
 40
0.0
  9
$PELEVATION
 40
0.0
  9
$THICKNESS
 40
0.0
  9
$LIMCHECK
 70
     0
  9
$BLIPMODE
 70
     0
  9
$CHAMFERA
 40
0.5
  9
$CHAMFERB
 40
0.5
  9
$SKPOLY
 70
     0
  9
$TDCREATE
 40
2450754.6887084488
  9
$TDUPDATE
 40
2454953.6829888192
  9
$TDINDWG
 40
0.0404036806
  9
$TDUSRTIMER
 40
0.0404036806
  9
$USRTIMER
 70
     1
  9
$ANGBASE
 50
0.0
  9
$ANGDIR
 70
     0
  9
$PDMODE
 70
     0
  9
$PDSIZE
 40
0.0
  9
$PLINEWID
 40
0.0
  9
$COORDS
 70
     1
  9
$SPLFRAME
 70
     0
  9
$SPLINETYPE
 70
     6
  9
$SPLINESEGS
 70
     8
  9
$ATTDIA
 70
     0
  9
$ATTREQ
 70
     1
  9
$HANDLING
 70
 10241
  9
$HANDSEED
  5
7ED6
  9
$SURFTAB1
 70
     6
  9
$SURFTAB2
 70
     6
  9
$SURFTYPE
 70
     6
  9
$SURFU
 70
     6
  9
$SURFV
 70
     6
  9
$UCSNAME
  2

  9
$UCSORG
 10
0.0
 20
0.0
 30
0.0
  9
$UCSXDIR
 10
1.0
 20
0.0
 30
0.0
  9
$UCSYDIR
 10
0.0
 20
1.0
 30
0.0
  9
$PUCSNAME
  2

  9
$PUCSORG
 10
0.0
 20
0.0
 30
0.0
  9
$PUCSXDIR
 10
1.0
 20
0.0
 30
0.0
  9
$PUCSYDIR
 10
0.0
 20
1.0
 30
0.0
  9
$USERI1
 70
     0
  9
$USERI2
 70
     0
  9
$USERI3
 70
     0
  9
$USERI4
 70
     0
  9
$USERI5
 70
     0
  9
$USERR1
 40
0.0
  9
$USERR2
 40
0.0
  9
$USERR3
 40
0.0
  9
$USERR4
 40
0.0
  9
$USERR5
 40
0.0
  9
$WORLDVIEW
 70
     1
  9
$SHADEDGE
 70
     3
  9
$SHADEDIF
 70
    70
  9
$TILEMODE
 70
     1
  9
$MAXACTVP
 70
    16
  9
$PLIMCHECK
 70
     0
  9
$PEXTMIN
 10
1.0000000000000000E+020
 20
1.0000000000000000E+020
 30
1.0000000000000000E+020
  9
$PEXTMAX
 10
-1.0000000000000000E+020
 20
-1.0000000000000000E+020
 30
-1.0000000000000000E+020
  9
$PLIMMIN
 10
0.0
 20
0.0
  9
$PLIMMAX
 10
12.0
 20
9.0
  9
$UNITMODE
 70
     0
  9
$VISRETAIN
 70
     0
  9
$PLINEGEN
 70
     0
  9
$PSLTSCALE
 70
     1
  0
ENDSEC
  0
SECTION
  2
TABLES
  0
TABLE
  2
VPORT
 70
     2
  0
VPORT
  2
*ACTIVE
 70
     0
 10
0.0
 20
0.0
 11
1.0
 21
1.0
 12
15025.617617414229
 22
3891.254545098051
 13
0.0
 23
0.0
 14
10.0
 24
10.0
 15
10.0
 25
10.0
 16
0.0
 26
0.0
 36
1.0
 17
0.0
 27
0.0
 37
0.0
 40
10726.87042350095
 41
3.1666666666666661
 42
50.0
 43
0.0
 44
0.0
 50
0.0
 51
0.0
 71
     0
 72
   100
 73
     1
 74
     0
 75
     0
 76
     0
 77
     0
 78
     0
  0
ENDTAB
  0
TABLE
  2
LTYPE
 70
     2
  0
LTYPE
  2
CONTINUOUS
 70
     0
  3
Solid line
 72
    65
 73
     0
 40
0.0
  0
LTYPE
  2
CENTER
 70
     0
  3
____ _ ____ _ ____ _ ____ _ ____ _ ____ _ ____ 
 72
    65
 73
     4
 40
2.0
 49
1.25
 49
-0.25
 49
0.25
 49
-0.25
  0
ENDTAB
  0
TABLE
  2
LAYER
 70
     6
  0
LAYER
  2
0
 70
     0
 62
     7
  6
CONTINUOUS
  0
LAYER
  2
3
 70
     0
 62
     2
  6
CONTINUOUS
  0
LAYER
  2
2
 70
     0
 62
     3
  6
CENTER
  0
LAYER
  2
1
 70
     0
 62
     4
  6
CONTINUOUS
  0
LAYER
  2
4
 70
     0
 62
     7
  6
CONTINUOUS
  0
LAYER
  2
DEFPOINTS
 70
     0
 62
     7
  6
CONTINUOUS
  0
ENDTAB
  0
TABLE
  2
STYLE
 70
     1
  0
STYLE
  2
STANDARD
 70
     0
 40
0.0
 41
1.0
 50
0.0
 71
     0
 42
180.0
  3
simplex.shx
  4
extfont.shx
  0
ENDTAB
  0
TABLE
  2
VIEW
 70
     0
  0
ENDTAB
  0
TABLE
  2
UCS
 70
     0
  0
ENDTAB
  0
TABLE
  2
APPID
 70
     1
  0
APPID
  2
ACAD
 70
     0
  0
ENDTAB
  0
TABLE
  2
DIMSTYLE
 70
     1
  0
DIMSTYLE
  2
IGA
 70
     0
  3

  4

  5

  6
OPEN
  7
OPEN
 40
2.0
 41
2.0
 42
0.5
 43
10.0
 44
1.0
 45
0.0
 46
0.0
 47
1.0
 48
1.0
140
3.0
141
0.0
142
0.0
143
0.03937
144
1.0
145
0.0
146
10.0
147
1.0
 71
     0
 72
     0
 73
     0
 74
     0
 75
     0
 76
     0
 77
     1
 78
     8
170
     0
171
     2
172
     0
173
     1
174
     0
175
     0
176
     0
177
     0
178
     0
  0
ENDTAB
  0
ENDSEC
  0
SECTION
  2
BLOCKS
  0
BLOCK
  8
0
  2
$MODEL_SPACE
 70
     0
 10
0.0
 20
0.0
 30
0.0
  3
$MODEL_SPACE
  1

  0
ENDBLK
  5
1B
  8
0
  0
BLOCK
 67
     1
  8
0
  2
$PAPER_SPACE
 70
     0
 10
0.0
 20
0.0
 30
0.0
  3
$PAPER_SPACE
  1

  0
ENDBLK
  5
18
 67
     1
  8
0
  0
BLOCK
  8
0
  2
_OPEN
 70
     0
 10
0.0
 20
0.0
 30
0.0
  3
_OPEN
  1

  0
LINE
  5
7AE7
  8
0
  6
BYBLOCK
 62
     0
 10
-1.0
 20
0.166667
 30
0.0
 11
0.0
 21
0.0
 31
0.0
  0
LINE
  5
7AE8
  8
0
  6
BYBLOCK
 62
     0
 10
0.0
 20
0.0
 30
0.0
 11
-1.0
 21
-0.166667
 31
0.0
  0
LINE
  5
7AE9
  8
0
  6
BYBLOCK
 62
     0
 10
0.0
 20
0.0
 30
0.0
 11
-1.0
 21
0.0
 31
0.0
  0
ENDBLK
  5
7AEA
  8
0
  0
BLOCK
  8
0
  2
*D1
 70
     1
 10
0.0
 20
0.0
 30
0.0
  3
*D1
  1

  0
LINE
  5
7D13
  8
0
  6
BYBLOCK
 62
     0
 10
2019.3581300000001
 20
2844.5140881074371
 30
0.0
 11
2019.3581300000001
 21
2602.5445721074379
 31
0.0
  0
LINE
  5
7D14
  8
0
  6
BYBLOCK
 62
     0
 10
2419.3581300000001
 20
2733.6505721074382
 30
0.0
 11
2419.3581300000001
 21
2602.5445721074379
 31
0.0
  0
LINE
  5
7D15
  8
0
  6
BYBLOCK
 62
     0
 10
2079.3581300000001
 20
2632.5445721074379
 30
0.0
 11
2359.3581300000001
 21
2632.5445721074379
 31
0.0
  0
TEXT
  5
7D16
  8
3
 62
     0
 10
2103.6438442857138
 20
2662.6087336519449
 30
0.0
 40
90.0
  1
400
  0
INSERT
  5
7D17
  8
0
  6
BYBLOCK
 62
     0
  2
_OPEN
 10
2019.3581300000001
 20
2632.5445721074379
 30
0.0
 41
60.0
 42
60.0
 43
60.0
 50
180.0
  0
INSERT
  5
7D18
  8
0
  6
BYBLOCK
 62
     0
  2
_OPEN
 10
2419.3581300000001
 20
2632.5445721074379
 30
0.0
 41
60.0
 42
60.0
 43
60.0
  0
POINT
  5
7D19
  8
DEFPOINTS
  6
BYBLOCK
 62
     0
 10
2019.3581300000001
 20
2859.5140881074371
 30
0.0
  0
POINT
  5
7D1A
  8
DEFPOINTS
  6
BYBLOCK
 62
     0
 10
2419.3581300000001
 20
2748.6505721074382
 30
0.0
  0
POINT
  5
7D1B
  8
DEFPOINTS
  6
BYBLOCK
 62
     0
 10
2419.3581300000001
 20
2632.5445721074379
 30
0.0
  0
ENDBLK
  5
7D1C
  8
0
  0
BLOCK
  8
0
  2
*D2
 70
     1
 10
0.0
 20
0.0
 30
0.0
  3
*D2
  1

  0
LINE
  5
7E53
  8
3
  6
CONTINUOUS
 62
     0
 10
1806.6270918289299
 20
2733.6505721074382
 30
0.0
 11
1806.6270918289299
 21
2602.5445721074379
 31
0.0
  0
LINE
  5
7E54
  8
3
  6
CONTINUOUS
 62
     0
 10
2806.6270918289292
 20
2844.5140881074371
 30
0.0
 11
2806.6270918289292
 21
2602.5445721074379
 31
0.0
  0
LINE
  5
7E55
  8
3
  6
CONTINUOUS
 62
     0
 10
1866.6270918289299
 20
2632.5445721074379
 30
0.0
 11
2746.6270918289292
 21
2632.5445721074379
 31
0.0
  0
INSERT
  5
7E56
  8
3
  6
CONTINUOUS
 62
     0
  2
_OPEN
 10
1806.6270918289299
 20
2632.5445721074379
 30
0.0
 41
60.0
 42
60.0
 43
60.0
 50
180.0
  0
INSERT
  5
7E57
  8
3
  6
CONTINUOUS
 62
     0
  2
_OPEN
 10
2806.6270918289292
 20
2632.5445721074379
 30
0.0
 41
60.0
 42
60.0
 43
60.0
  0
TEXT
  8
3
  40
90
  5
7EC8
  62
0
  72
0
  71
0
 10
2126.63
 20
2548.24
 30
0.000000
  1
1000
  0
POINT
  5
7E59
  8
DEFPOINTS
  6
CONTINUOUS
 62
     0
 10
1806.6270918289299
 20
2748.6505721074382
 30
0.0
  0
POINT
  5
7E5A
  8
DEFPOINTS
  6
CONTINUOUS
 62
     0
 10
2806.6270918289292
 20
2859.5140881074371
 30
0.0
  0
POINT
  5
7E5B
  8
DEFPOINTS
  6
CONTINUOUS
 62
     0
 10
2806.6270918289292
 20
2632.5445721074379
 30
0.0
  0
ENDBLK
  5
7CCD
  8
0
  0
BLOCK
  8
0
  2
*D3
 70
     1
 10
0.0
 20
0.0
 30
0.0
  3
*D3
  1

  0
LINE
  5
7E5C
  8
3
  6
CONTINUOUS
 62
     0
 10
1834.6270918289299
 20
3914.5140881074371
 30
0.0
 11
1834.6270918289299
 21
4123.2493351074381
 31
0.0
  0
LINE
  5
7E5D
  8
3
  6
CONTINUOUS
 62
     0
 10
2484.6270918289301
 20
3914.5140881074371
 30
0.0
 11
2484.6270918289301
 21
4123.2493351074381
 31
0.0
  0
LINE
  5
7E5E
  8
3
  6
CONTINUOUS
 62
     0
 10
1894.6270918289299
 20
4093.2493351074381
 30
0.0
 11
2424.6270918289301
 21
4093.2493351074381
 31
0.0
  0
INSERT
  5
7E5F
  8
3
  6
CONTINUOUS
 62
     0
  2
_OPEN
 10
1834.6270918289299
 20
4093.2493351074381
 30
0.0
 41
60.0
 42
60.0
 43
60.0
 50
180.0
  0
INSERT
  5
7E60
  8
3
  6
CONTINUOUS
 62
     0
  2
_OPEN
 10
2484.6270918289301
 20
4093.2493351074381
 30
0.0
 41
60.0
 42
60.0
 43
60.0
  0
TEXT
  8
3
  40
90
  5
7EC9
  62
0
  72
0
  71
0
 10
1938.54
 20
4008.95
 30
0.000000
  1
650
  0
POINT
  5
7E62
  8
DEFPOINTS
  6
CONTINUOUS
 62
     0
 10
1834.6270918289299
 20
3899.5140881074371
 30
0.0
  0
POINT
  5
7E63
  8
DEFPOINTS
  6
CONTINUOUS
 62
     0
 10
2484.6270918289301
 20
3899.5140881074371
 30
0.0
  0
POINT
  5
7E64
  8
DEFPOINTS
  6
CONTINUOUS
 62
     0
 10
2484.6270918289301
 20
4093.2493351074381
 30
0.0
  0
ENDBLK
  5
7CC2
  8
0
  0
BLOCK
  8
0
  2
*D4
 70
     1
 10
0.0
 20
0.0
 30
0.0
  3
*D4
  1

  0
LINE
  5
7E65
  8
3
  6
CONTINUOUS
 62
     0
 10
2484.6270918289301
 20
3914.5140881074371
 30
0.0
 11
2484.6270918289301
 21
4301.9872341074379
 31
0.0
  0
LINE
  5
7E66
  8
3
  6
CONTINUOUS
 62
     0
 10
1806.6270918289299
 20
3831.7926761074368
 30
0.0
 11
1806.6270918289299
 21
4301.9872341074379
 31
0.0
  0
LINE
  5
7E67
  8
3
  6
CONTINUOUS
 62
     0
 10
2424.6270918289301
 20
4271.987234107437
 30
0.0
 11
1866.6270918289299
 21
4271.987234107437
 31
0.0
  0
INSERT
  5
7E68
  8
3
  6
CONTINUOUS
 62
     0
  2
_OPEN
 10
2484.6270918289301
 20
4271.987234107437
 30
0.0
 41
60.0
 42
60.0
 43
60.0
  0
INSERT
  5
7E69
  8
3
  6
CONTINUOUS
 62
     0
  2
_OPEN
 10
1806.6270918289299
 20
4271.987234107437
 30
0.0
 41
60.0
 42
60.0
 43
60.0
 50
180.0
  0
TEXT
  8
3
  40
90
  5
7ECA
  62
0
  72
0
  71
0
 10
1961.37
 20
4187.69
 30
0.000000
  1
678
  0
POINT
  5
7E6B
  8
DEFPOINTS
  6
CONTINUOUS
 62
     0
 10
2484.6270918289301
 20
3899.5140881074371
 30
0.0
  0
POINT
  5
7E6C
  8
DEFPOINTS
  6
CONTINUOUS
 62
     0
 10
1806.6270918289299
 20
3816.7926761074368
 30
0.0
  0
POINT
  5
7E6D
  8
DEFPOINTS
  6
CONTINUOUS
 62
     0
 10
1806.6270918289299
 20
4271.987234107437
 30
0.0
  0
ENDBLK
  5
7CB7
  8
0
  0
BLOCK
  8
0
  2
*D5
 70
     1
 10
0.0
 20
0.0
 30
0.0
  3
*D5
  1

  0
LINE
  5
7E6E
  8
3
  6
CONTINUOUS
 62
     0
 10
1806.6270918289299
 20
3831.7926761074368
 30
0.0
 11
1806.6270918289299
 21
4306.5465391074376
 31
0.0
  0
LINE
  5
7E6F
  8
3
  6
CONTINUOUS
 62
     0
 10
1352.9281708289291
 20
3454.5140881074371
 30
0.0
 11
1352.9281708289291
 21
4306.5465391074376
 31
0.0
  0
LINE
  5
7E70
  8
3
  6
CONTINUOUS
 62
     0
 10
1746.6270918289299
 20
4276.5465391074376
 30
0.0
 11
1412.9281708289291
 21
4276.5465391074376
 31
0.0
  0
INSERT
  5
7E71
  8
3
  6
CONTINUOUS
 62
     0
  2
_OPEN
 10
1806.6270918289299
 20
4276.5465391074376
 30
0.0
 41
60.0
 42
60.0
 43
60.0
  0
INSERT
  5
7E72
  8
3
  6
CONTINUOUS
 62
     0
  2
_OPEN
 10
1352.9281708289291
 20
4276.5465391074376
 30
0.0
 41
60.0
 42
60.0
 43
60.0
 50
180.0
  0
TEXT
  8
3
  40
90
  5
7ECB
  62
0
  72
0
  71
0
 10
1380.79
 20
4192.25
 30
0.000000
  1
454
  0
POINT
  5
7E74
  8
DEFPOINTS
  6
CONTINUOUS
 62
     0
 10
1806.6270918289299
 20
3816.7926761074368
 30
0.0
  0
POINT
  5
7E75
  8
DEFPOINTS
  6
CONTINUOUS
 62
     0
 10
1352.9281708289291
 20
3439.5140881074371
 30
0.0
  0
POINT
  5
7E76
  8
DEFPOINTS
  6
CONTINUOUS
 62
     0
 10
1352.9281708289291
 20
4276.5465391074376
 30
0.0
  0
ENDBLK
  5
7CAC
  8
0
  0
BLOCK
  8
0
  2
*D6
 70
     1
 10
0.0
 20
0.0
 30
0.0
  3
*D6
  1

  0
LINE
  5
7E77
  8
3
  6
CONTINUOUS
 62
     0
 10
2541.6270918289301
 20
3899.5140881074371
 30
0.0
 11
3088.5107068289299
 21
3899.5140881074371
 31
0.0
  0
LINE
  5
7E78
  8
3
  6
CONTINUOUS
 62
     0
 10
2463.6738218289302
 20
3439.5140881074371
 30
0.0
 11
3088.5107068289299
 21
3439.5140881074371
 31
0.0
  0
LINE
  5
7E79
  8
3
  6
CONTINUOUS
 62
     0
 10
3058.5107068289308
 20
3839.5140881074371
 30
0.0
 11
3058.5107068289308
 21
3499.5140881074371
 31
0.0
  0
INSERT
  5
7E7A
  8
3
  6
CONTINUOUS
 62
     0
  2
_OPEN
 10
3058.5107068289308
 20
3899.5140881074371
 30
0.0
 41
60.0
 42
60.0
 43
60.0
 50
90.0
  0
INSERT
  5
7E7B
  8
3
  6
CONTINUOUS
 62
     0
  2
_OPEN
 10
3058.5107068289308
 20
3439.5140881074371
 30
0.0
 41
60.0
 42
60.0
 43
60.0
 50
270.0
  0
TEXT
  8
3
  40
90
  5
7ECC
  62
0
  72
0
  71
0
 10
2803.51
 20
3534.50
 30
0.000000
  1
460
  0
POINT
  5
7E7D
  8
DEFPOINTS
  6
CONTINUOUS
 62
     0
 10
2526.6270918289301
 20
3899.5140881074371
 30
0.0
  0
POINT
  5
7E7E
  8
DEFPOINTS
  6
CONTINUOUS
 62
     0
 10
2448.6738218289302
 20
3439.5140881074371
 30
0.0
  0
POINT
  5
7E7F
  8
DEFPOINTS
  6
CONTINUOUS
 62
     0
 10
3058.5107068289308
 20
3439.5140881074371
 30
0.0
  0
ENDBLK
  5
7CA1
  8
0
  0
BLOCK
  8
0
  2
*D7
 70
     1
 10
0.0
 20
0.0
 30
0.0
  3
*D7
  1

  0
LINE
  5
7E80
  8
3
  6
CONTINUOUS
 62
     0
 10
2463.6738218289302
 20
3439.5140881074371
 30
0.0
 11
3088.5107068289299
 21
3439.5140881074371
 31
0.0
  0
LINE
  5
7E81
  8
3
  6
CONTINUOUS
 62
     0
 10
2821.6270918289292
 20
2859.5140881074371
 30
0.0
 11
3088.5107068289299
 21
2859.5140881074371
 31
0.0
  0
LINE
  5
7E82
  8
3
  6
CONTINUOUS
 62
     0
 10
3058.5107068289299
 20
3379.5140881074371
 30
0.0
 11
3058.5107068289299
 21
2919.5140881074371
 31
0.0
  0
INSERT
  5
7E83
  8
3
  6
CONTINUOUS
 62
     0
  2
_OPEN
 10
3058.5107068289299
 20
3439.5140881074371
 30
0.0
 41
60.0
 42
60.0
 43
60.0
 50
90.0
  0
INSERT
  5
7E84
  8
3
  6
CONTINUOUS
 62
     0
  2
_OPEN
 10
3058.5107068289299
 20
2859.5140881074371
 30
0.0
 41
60.0
 42
60.0
 43
60.0
 50
270.0
  0
TEXT
  8
3
  40
90
  5
7ECD
  62
0
  72
0
  71
0
 10
2803.51
 20
2990.21
 30
0.000000
  1
580
  0
POINT
  5
7E86
  8
DEFPOINTS
  6
CONTINUOUS
 62
     0
 10
2448.6738218289302
 20
3439.5140881074371
 30
0.0
  0
POINT
  5
7E87
  8
DEFPOINTS
  6
CONTINUOUS
 62
     0
 10
2806.6270918289292
 20
2859.5140881074371
 30
0.0
  0
POINT
  5
7E88
  8
DEFPOINTS
  6
CONTINUOUS
 62
     0
 10
3058.5107068289299
 20
2859.5140881074371
 30
0.0
  0
ENDBLK
  5
7C96
  8
0
  0
BLOCK
  8
0
  2
*D8
 70
     1
 10
0.0
 20
0.0
 30
0.0
  3
*D8
  1

  0
LINE
  5
7E89
  8
3
  6
CONTINUOUS
 62
     0
 10
1406.6270918289299
 20
5784.3714361074381
 30
0.0
 11
1406.6270918289299
 21
5322.391577107438
 31
0.0
  0
LINE
  5
7E8A
  8
3
  6
CONTINUOUS
 62
     0
 10
2806.6270918289292
 20
5784.3714361074381
 30
0.0
 11
2806.6270918289292
 21
5322.391577107438
 31
0.0
  0
LINE
  5
7E8B
  8
3
  6
CONTINUOUS
 62
     0
 10
1466.6270918289299
 20
5352.391577107438
 30
0.0
 11
2746.6270918289292
 21
5352.391577107438
 31
0.0
  0
INSERT
  5
7E8C
  8
3
  6
CONTINUOUS
 62
     0
  2
_OPEN
 10
1406.6270918289299
 20
5352.391577107438
 30
0.0
 41
60.0
 42
60.0
 43
60.0
 50
180.0
  0
INSERT
  5
7E8D
  8
3
  6
CONTINUOUS
 62
     0
  2
_OPEN
 10
2806.6270918289292
 20
5352.391577107438
 30
0.0
 41
60.0
 42
60.0
 43
60.0
  0
TEXT
  8
3
  40
90
  5
7ECE
  62
0
  72
0
  71
0
 10
1877.65
 20
5268.09
 30
0.000000
  1
1400
  0
POINT
  5
7E8F
  8
DEFPOINTS
  6
CONTINUOUS
 62
     0
 10
1406.6270918289299
 20
5799.3714361074381
 30
0.0
  0
POINT
  5
7E90
  8
DEFPOINTS
  6
CONTINUOUS
 62
     0
 10
2806.6270918289292
 20
5799.3714361074381
 30
0.0
  0
POINT
  5
7E91
  8
DEFPOINTS
  6
CONTINUOUS
 62
     0
 10
2806.6270918289292
 20
5352.391577107438
 30
0.0
  0
ENDBLK
  5
7C8B
  8
0
  0
BLOCK
  8
0
  2
*D9
 70
     1
 10
0.0
 20
0.0
 30
0.0
  3
*D9
  1

  0
LINE
  5
7E92
  8
3
  6
CONTINUOUS
 62
     0
 10
2821.6270918289292
 20
6489.371436107439
 30
0.0
 11
3134.1773538289308
 21
6489.371436107439
 31
0.0
  0
LINE
  5
7E93
  8
3
  6
CONTINUOUS
 62
     0
 10
2816.6270918289292
 20
5799.3714361074381
 30
0.0
 11
3134.1773538289308
 21
5799.3714361074381
 31
0.0
  0
LINE
  5
7E94
  8
3
  6
CONTINUOUS
 62
     0
 10
3104.1773538289308
 20
6429.3714361074371
 30
0.0
 11
3104.1773538289308
 21
5859.3714361074381
 31
0.0
  0
INSERT
  5
7E95
  8
3
  6
CONTINUOUS
 62
     0
  2
_OPEN
 10
3104.1773538289308
 20
6489.371436107439
 30
0.0
 41
60.0
 42
60.0
 43
60.0
 50
90.0
  0
INSERT
  5
7E96
  8
3
  6
CONTINUOUS
 62
     0
  2
_OPEN
 10
3104.1773538289308
 20
5799.3714361074381
 30
0.0
 41
60.0
 42
60.0
 43
60.0
 50
270.0
  0
TEXT
  8
3
  40
90
  5
7ECF
  62
0
  72
0
  71
0
 10
2849.18
 20
6006.92
 30
0.000000
  1
690
  0
POINT
  5
7E98
  8
DEFPOINTS
  6
CONTINUOUS
 62
     0
 10
2806.6270918289292
 20
6489.371436107439
 30
0.0
  0
POINT
  5
7E99
  8
DEFPOINTS
  6
CONTINUOUS
 62
     0
 10
2801.6270918289292
 20
5799.3714361074381
 30
0.0
  0
POINT
  5
7E9A
  8
DEFPOINTS
  6
CONTINUOUS
 62
     0
 10
3104.1773538289308
 20
5799.3714361074381
 30
0.0
  0
ENDBLK
  5
7C80
  8
0
  0
BLOCK
  8
0
  2
*D10
 70
     1
 10
0.0
 20
0.0
 30
0.0
  3
*D10
  1

  0
LINE
  5
7E9B
  8
3
  6
CONTINUOUS
 62
     0
 10
4855.8900502949018
 20
3754.5140881074371
 30
0.0
 11
5106.4392899204713
 21
3754.5140881074371
 31
0.0
  0
LINE
  5
7E9C
  8
3
  6
CONTINUOUS
 62
     0
 10
4855.8900502949018
 20
3124.5140881074371
 30
0.0
 11
5106.4392899204713
 21
3124.5140881074371
 31
0.0
  0
LINE
  5
7E9D
  8
3
  6
CONTINUOUS
 62
     0
 10
5076.4392899204722
 20
3694.5140881074381
 30
0.0
 11
5076.4392899204722
 21
3184.5140881074371
 31
0.0
  0
INSERT
  5
7E9E
  8
3
  6
CONTINUOUS
 62
     0
  2
_OPEN
 10
5076.4392899204722
 20
3754.5140881074371
 30
0.0
 41
60.0
 42
60.0
 43
60.0
 50
90.0
  0
INSERT
  5
7E9F
  8
3
  6
CONTINUOUS
 62
     0
  2
_OPEN
 10
5076.4392899204722
 20
3124.5140881074371
 30
0.0
 41
60.0
 42
60.0
 43
60.0
 50
270.0
  0
TEXT
  8
3
  40
90
  5
7ED0
  62
0
  72
0
  71
0
 10
4821.44
 20
3276.06
 30
0.000000
  1
φ630
  0
POINT
  5
7EA1
  8
DEFPOINTS
  6
CONTINUOUS
 62
     0
 10
4840.8900502949018
 20
3754.5140881074371
 30
0.0
  0
POINT
  5
7EA2
  8
DEFPOINTS
  6
CONTINUOUS
 62
     0
 10
4840.8900502949018
 20
3124.5140881074371
 30
0.0
  0
POINT
  5
7EA3
  8
DEFPOINTS
  6
CONTINUOUS
 62
     0
 10
5076.4392899204722
 20
3124.5140881074371
 30
0.0
  0
ENDBLK
  5
7D8D
  8
0
  0
BLOCK
  8
0
  2
*D11
 70
     1
 10
0.0
 20
0.0
 30
0.0
  3
*D11
  1

  0
LINE
  5
7D1E
  8
0
  6
BYBLOCK
 62
     0
 10
4733.6210884659722
 20
2844.5140881074371
 30
0.0
 11
4733.6210884659722
 21
2576.3162221074381
 31
0.0
  0
LINE
  5
7D1F
  8
0
  6
BYBLOCK
 62
     0
 10
5133.6210884659722
 20
2773.8570531074379
 30
0.0
 11
5133.6210884659722
 21
2576.3162221074381
 31
0.0
  0
LINE
  5
7D20
  8
0
  6
BYBLOCK
 62
     0
 10
4793.6210884659722
 20
2606.3162221074381
 30
0.0
 11
5073.6210884659731
 21
2606.3162221074381
 31
0.0
  0
TEXT
  5
7D21
  8
3
 62
     0
 10
4817.9068027516869
 20
2636.9528988524912
 30
0.0
 40
90.0
  1
400
  0
INSERT
  5
7D22
  8
0
  6
BYBLOCK
 62
     0
  2
_OPEN
 10
4733.6210884659722
 20
2606.3162221074381
 30
0.0
 41
60.0
 42
60.0
 43
60.0
 50
180.0
  0
INSERT
  5
7D23
  8
0
  6
BYBLOCK
 62
     0
  2
_OPEN
 10
5133.6210884659722
 20
2606.3162221074381
 30
0.0
 41
60.0
 42
60.0
 43
60.0
  0
POINT
  5
7D24
  8
DEFPOINTS
  6
BYBLOCK
 62
     0
 10
4733.6210884659722
 20
2859.5140881074371
 30
0.0
  0
POINT
  5
7D25
  8
DEFPOINTS
  6
BYBLOCK
 62
     0
 10
5133.6210884659722
 20
2788.8570531074379
 30
0.0
  0
POINT
  5
7D26
  8
DEFPOINTS
  6
BYBLOCK
 62
     0
 10
5133.6210884659722
 20
2606.3162221074381
 30
0.0
  0
ENDBLK
  5
7D27
  8
0
  0
BLOCK
  8
0
  2
*D12
 70
     1
 10
0.0
 20
0.0
 30
0.0
  3
*D12
  1

  0
LINE
  5
7D29
  8
0
  6
BYBLOCK
 62
     0
 10
5133.6210884659722
 20
2773.8570531074379
 30
0.0
 11
5133.6210884659722
 21
2576.3162221074381
 31
0.0
  0
LINE
  5
7D2A
  8
0
  6
BYBLOCK
 62
     0
 10
5423.6210884659731
 20
2844.5140881074371
 30
0.0
 11
5423.6210884659731
 21
2576.3162221074381
 31
0.0
  0
LINE
  5
7D2B
  8
0
  6
BYBLOCK
 62
     0
 10
5193.6210884659722
 20
2606.3162221074381
 30
0.0
 11
5363.6210884659722
 21
2606.3162221074381
 31
0.0
  0
TEXT
  5
7D2C
  8
3
 62
     0
 10
5169.2516010322552
 20
2643.3668575523552
 30
0.0
 40
90.0
  1
290
  0
INSERT
  5
7D2D
  8
0
  6
BYBLOCK
 62
     0
  2
_OPEN
 10
5133.6210884659722
 20
2606.3162221074381
 30
0.0
 41
60.0
 42
60.0
 43
60.0
 50
180.0
  0
INSERT
  5
7D2E
  8
0
  6
BYBLOCK
 62
     0
  2
_OPEN
 10
5423.6210884659731
 20
2606.3162221074381
 30
0.0
 41
60.0
 42
60.0
 43
60.0
  0
POINT
  5
7D2F
  8
DEFPOINTS
  6
BYBLOCK
 62
     0
 10
5133.6210884659722
 20
2788.8570531074379
 30
0.0
  0
POINT
  5
7D30
  8
DEFPOINTS
  6
BYBLOCK
 62
     0
 10
5423.6210884659731
 20
2859.5140881074371
 30
0.0
  0
POINT
  5
7D31
  8
DEFPOINTS
  6
BYBLOCK
 62
     0
 10
5423.6210884659731
 20
2606.3162221074381
 30
0.0
  0
ENDBLK
  5
7D32
  8
0
  0
BLOCK
  8
0
  2
*D13
 70
     1
 10
0.0
 20
0.0
 30
0.0
  3
*D13
  1

  0
LINE
  5
7EA4
  8
3
  6
CONTINUOUS
 62
     0
 10
4283.3900502949018
 20
3914.5140881074371
 30
0.0
 11
4283.3900502949018
 21
4031.9929781074379
 31
0.0
  0
LINE
  5
7EA5
  8
3
  6
CONTINUOUS
 62
     0
 10
4758.3900502949009
 20
3914.5140881074371
 30
0.0
 11
4758.3900502949009
 21
4031.9929781074379
 31
0.0
  0
LINE
  5
7EA6
  8
3
  6
CONTINUOUS
 62
     0
 10
4343.3900502949018
 20
4001.9929781074379
 30
0.0
 11
4698.3900502949018
 21
4001.9929781074379
 31
0.0
  0
INSERT
  5
7EA7
  8
3
  6
CONTINUOUS
 62
     0
  2
_OPEN
 10
4283.3900502949018
 20
4001.9929781074379
 30
0.0
 41
60.0
 42
60.0
 43
60.0
 50
180.0
  0
INSERT
  5
7EA8
  8
3
  6
CONTINUOUS
 62
     0
  2
_OPEN
 10
4758.3900502949009
 20
4001.9929781074379
 30
0.0
 41
60.0
 42
60.0
 43
60.0
  0
TEXT
  8
3
  40
90
  5
7ED1
  62
0
  72
0
  71
0
 10
4340.89
 20
3917.69
 30
0.000000
  1
475
  0
POINT
  5
7EAA
  8
DEFPOINTS
  6
CONTINUOUS
 62
     0
 10
4283.3900502949018
 20
3899.5140881074371
 30
0.0
  0
POINT
  5
7EAB
  8
DEFPOINTS
  6
CONTINUOUS
 62
     0
 10
4758.3900502949009
 20
3899.5140881074371
 30
0.0
  0
POINT
  5
7EAC
  8
DEFPOINTS
  6
CONTINUOUS
 62
     0
 10
4758.3900502949009
 20
4001.9929781074379
 30
0.0
  0
ENDBLK
  5
7C51
  8
0
  0
BLOCK
  8
0
  2
*D14
 70
     1
 10
0.0
 20
0.0
 30
0.0
  3
*D14
  1

  0
LINE
  5
7EAD
  8
3
  6
CONTINUOUS
 62
     0
 10
4040.8900502949009
 20
3644.5140881074381
 30
0.0
 11
4040.8900502949009
 21
4306.2586333066174
 31
0.0
  0
LINE
  5
7EAE
  8
3
  6
CONTINUOUS
 62
     0
 10
4520.8900502949018
 20
4152.7798397516362
 30
0.0
 11
4520.8900502949018
 21
4306.2586333066174
 31
0.0
  0
LINE
  5
7EAF
  8
3
  6
CONTINUOUS
 62
     0
 10
4100.8900502949018
 20
4276.2586333066174
 30
0.0
 11
4460.8900502949018
 21
4276.2586333066174
 31
0.0
  0
INSERT
  5
7EB0
  8
3
  6
CONTINUOUS
 62
     0
  2
_OPEN
 10
4040.8900502949009
 20
4276.2586333066174
 30
0.0
 41
60.0
 42
60.0
 43
60.0
 50
180.0
  0
INSERT
  5
7EB1
  8
3
  6
CONTINUOUS
 62
     0
  2
_OPEN
 10
4520.8900502949018
 20
4276.2586333066174
 30
0.0
 41
60.0
 42
60.0
 43
60.0
  0
TEXT
  8
3
  40
90
  5
7ED2
  62
0
  72
0
  71
0
 10
4079.46
 20
4266.96
 30
0.000000
  1
MAX
  0
TEXT
  8
3
  40
90
  5
7ED3
  62
0
  72
0
  71
0
 10
4079.46
 20
4149.96
 30
0.000000
  1
550
  0
POINT
  5
7EB3
  8
DEFPOINTS
  6
CONTINUOUS
 62
     0
 10
4040.8900502949009
 20
3629.5140881074371
 30
0.0
  0
POINT
  5
7EB4
  8
DEFPOINTS
  6
CONTINUOUS
 62
     0
 10
4520.8900502949018
 20
4137.7798397516362
 30
0.0
  0
POINT
  5
7EB5
  8
DEFPOINTS
  6
CONTINUOUS
 62
     0
 10
4520.8900502949018
 20
4276.2586333066174
 30
0.0
  0
ENDBLK
  5
7D69
  8
0
  0
BLOCK
  8
0
  2
*D15
 70
     1
 10
0.0
 20
0.0
 30
0.0
  3
*D15
  1

  0
LINE
  5
7D6B
  8
0
  6
BYBLOCK
 62
     0
 10
5133.6210884659722
 20
4152.7798397516362
 30
0.0
 11
5133.6210884659722
 21
4306.6367963066177
 31
0.0
  0
LINE
  5
7D6C
  8
0
  6
BYBLOCK
 62
     0
 10
5453.6210884659722
 20
3809.5140881074371
 30
0.0
 11
5453.6210884659722
 21
4306.6367963066177
 31
0.0
  0
LINE
  5
7D6D
  8
0
  6
BYBLOCK
 62
     0
 10
5193.6210884659722
 20
4276.6367963066168
 30
0.0
 11
5393.6210884659722
 21
4276.6367963066168
 31
0.0
  0
TEXT
  5
7D6E
  8
3
 62
     0
 10
5169.2516010322552
 20
4317.4097098806315
 30
0.0
 40
90.0
  1
320
  0
INSERT
  5
7D6F
  8
0
  6
BYBLOCK
 62
     0
  2
_OPEN
 10
5133.6210884659722
 20
4276.6367963066168
 30
0.0
 41
60.0
 42
60.0
 43
60.0
 50
180.0
  0
INSERT
  5
7D70
  8
0
  6
BYBLOCK
 62
     0
  2
_OPEN
 10
5453.6210884659722
 20
4276.6367963066168
 30
0.0
 41
60.0
 42
60.0
 43
60.0
  0
POINT
  5
7D71
  8
DEFPOINTS
  6
BYBLOCK
 62
     0
 10
5133.6210884659722
 20
4137.7798397516362
 30
0.0
  0
POINT
  5
7D72
  8
DEFPOINTS
  6
BYBLOCK
 62
     0
 10
5453.6210884659722
 20
3794.5140881074381
 30
0.0
  0
POINT
  5
7D73
  8
DEFPOINTS
  6
BYBLOCK
 62
     0
 10
5453.6210884659722
 20
4276.6367963066168
 30
0.0
  0
ENDBLK
  5
7D74
  8
0
  0
BLOCK
  8
0
  2
*D16
 70
     1
 10
0.0
 20
0.0
 30
0.0
  3
*D16
  1

  0
LINE
  5
7EB6
  8
3
  6
CONTINUOUS
 62
     0
 10
2541.6270918289301
 20
3899.5140881074371
 30
0.0
 11
3398.7881358289301
 21
3899.5140881074371
 31
0.0
  0
LINE
  5
7EB7
  8
3
  6
CONTINUOUS
 62
     0
 10
2821.6270918289292
 20
2859.5140881074371
 30
0.0
 11
3398.7881358289301
 21
2859.5140881074371
 31
0.0
  0
LINE
  5
7EB8
  8
3
  6
CONTINUOUS
 62
     0
 10
3368.7881358289301
 20
3839.5140881074371
 30
0.0
 11
3368.7881358289301
 21
2919.5140881074371
 31
0.0
  0
INSERT
  5
7EB9
  8
3
  6
CONTINUOUS
 62
     0
  2
_OPEN
 10
3368.7881358289301
 20
3899.5140881074371
 30
0.0
 41
60.0
 42
60.0
 43
60.0
 50
90.0
  0
INSERT
  5
7EBA
  8
3
  6
CONTINUOUS
 62
     0
  2
_OPEN
 10
3368.7881358289301
 20
2859.5140881074371
 30
0.0
 41
60.0
 42
60.0
 43
60.0
 50
270.0
  0
TEXT
  8
3
  40
90
  5
7ED4
  62
0
  72
0
  71
0
 10
3113.79
 20
3291.52
 30
0.000000
  1
1040
  0
POINT
  5
7EBC
  8
DEFPOINTS
  6
CONTINUOUS
 62
     0
 10
2526.6270918289301
 20
3899.5140881074371
 30
0.0
  0
POINT
  5
7EBD
  8
DEFPOINTS
  6
CONTINUOUS
 62
     0
 10
2806.6270918289292
 20
2859.5140881074371
 30
0.0
  0
POINT
  5
7EBE
  8
DEFPOINTS
  6
CONTINUOUS
 62
     0
 10
3368.7881358289301
 20
2859.5140881074371
 30
0.0
  0
ENDBLK
  5
7C2E
  8
0
  0
BLOCK
  8
0
  2
*D17
 70
     1
 10
0.0
 20
0.0
 30
0.0
  3
*D17
  1

  0
LINE
  5
7EBF
  8
3
 62
     0
 10
1352.9281708289291
 20
3469.5140881074371
 30
0.0
 11
1352.9281708289291
 21
4498.8689745393231
 31
0.0
  0
LINE
  5
7EC0
  8
3
 62
     0
 10
2806.6270918289292
 20
2974.5140881074371
 30
0.0
 11
2806.6270918289292
 21
4498.8689745393231
 31
0.0
  0
LINE
  5
7EC1
  8
3
 62
     0
 10
1412.9281708289291
 20
4468.868974539324
 30
0.0
 11
2746.6270918289292
 21
4468.868974539324
 31
0.0
  0
INSERT
  5
7EC2
  8
3
 62
     0
  2
_OPEN
 10
1352.9281708289291
 20
4468.868974539324
 30
0.0
 41
60.0
 42
60.0
 43
60.0
 50
180.0
  0
INSERT
  5
7EC3
  8
3
 62
     0
  2
_OPEN
 10
2806.6270918289292
 20
4468.868974539324
 30
0.0
 41
60.0
 42
60.0
 43
60.0
  0
TEXT
  8
3
  40
90
  5
7ED5
  62
0
  72
0
  71
0
 10
1960.93
 20
4384.57
 30
0.000000
  1
1454
  0
POINT
  5
7EC5
  8
DEFPOINTS
 62
     0
 10
1352.9281708289291
 20
3454.5140881074371
 30
0.0
  0
POINT
  5
7EC6
  8
DEFPOINTS
 62
     0
 10
2806.6270918289292
 20
2959.5140881074371
 30
0.0
  0
POINT
  5
7EC7
  8
DEFPOINTS
 62
     0
 10
2806.6270918289292
 20
4468.868974539324
 30
0.0
  0
ENDBLK
  5
7D81
  8
0
  0
ENDSEC
  0
SECTION
  2
ENTITIES
  0
LINE
  5
7A63
  8
1
  6
CONTINUOUS
 10
2701.6270918289301
 20
5799.3714361074381
 30
0.0
 11
2806.6270918289292
 21
5799.3714361074381
 31
0.0
  0
LINE
  5
7A64
  8
1
  6
CONTINUOUS
 10
2121.6270918289292
 20
6489.371436107439
 30
0.0
 11
2806.6270918289292
 21
6489.371436107439
 31
0.0
  0
LINE
  5
7A65
  8
1
  6
CONTINUOUS
 10
1406.6270918289299
 20
2859.5140881074371
 30
0.0
 11
2806.6270918289292
 21
2859.5140881074371
 31
0.0
  0
LINE
  5
7A66
  8
1
  6
CONTINUOUS
 10
1406.6270918289299
 20
2959.5140881074371
 30
0.0
 11
2806.6270918289292
 21
2959.5140881074371
 31
0.0
  0
LINE
  5
7A67
  8
1
  6
CONTINUOUS
 10
2466.6270918289301
 20
3004.5140881074381
 30
0.0
 11
2796.6270918289292
 21
3004.5140881074381
 31
0.0
  0
LINE
  5
7A68
  8
1
  6
CONTINUOUS
 10
1616.6270918289299
 20
5719.3714361074381
 30
0.0
 11
2801.6270918289292
 21
5719.3714361074381
 31
0.0
  0
LINE
  5
7A69
  8
1
  6
CONTINUOUS
 10
1616.6270918289299
 20
5879.3714361074381
 30
0.0
 11
2801.6270918289292
 21
5879.3714361074381
 31
0.0
  0
ARC
  5
7A6A
  8
1
  6
CONTINUOUS
 10
2631.6270918289301
 20
3136.5140881074371
 30
0.0
 40
170.0
 50
251.09999999999999
 51
68.5
  0
LINE
  5
7A6B
  8
1
  6
CONTINUOUS
 10
2576.6270918289301
 20
2975.714088107437
 30
0.0
 11
1745.2270918289289
 21
3259.714088107437
 31
0.0
  0
LINE
  5
7A6C
  8
1
  6
CONTINUOUS
 10
2609.0270918289302
 20
3070.3140881074369
 30
0.0
 11
1777.5270918289291
 21
3354.4140881074381
 31
0.0
  0
LINE
  5
7A6D
  8
1
  6
CONTINUOUS
 10
2693.827091828929
 20
3294.714088107437
 30
0.0
 11
1876.1270918289299
 21
3616.4140881074381
 31
0.0
  0
LINE
  5
7A6E
  8
1
  6
CONTINUOUS
 10
2657.2270918289291
 20
3201.714088107437
 30
0.0
 11
1839.5270918289291
 21
3523.3140881074369
 31
0.0
  0
LINE
  5
7A6F
  8
1
  6
CONTINUOUS
 10
1792.6270918289299
 20
3899.5140881074371
 30
0.0
 11
2526.6270918289301
 21
3899.5140881074371
 31
0.0
  0
ARC
  5
7A70
  8
1
  6
CONTINUOUS
 10
1853.6270918289299
 20
3486.5140881074371
 30
0.0
 40
596.89999999999998
 50
270.0
 51
355.5
  0
LINE
  5
7A71
  8
1
  6
CONTINUOUS
 10
1834.6270918289299
 20
3859.5140881074381
 30
0.0
 11
2484.6270918289301
 21
3859.5140881074381
 31
0.0
  0
CIRCLE
  5
7A72
  8
1
  6
CONTINUOUS
 10
1806.6270918289299
 20
3439.5140881074371
 30
0.0
 40
315.0
  0
CIRCLE
  5
7A73
  8
1
  6
CONTINUOUS
 10
1806.6270918289299
 20
3439.5140881074371
 30
0.0
 40
355.0
  0
CIRCLE
  5
7A74
  8
1
  6
CONTINUOUS
 10
1806.6270918289299
 20
3439.5140881074371
 30
0.0
 40
90.0
  0
ARC
  5
7A75
  8
1
  6
CONTINUOUS
 10
1806.6270918289299
 20
3439.5140881074371
 30
0.0
 40
190.0
 50
68.5
 51
251.09999999999999
  0
LINE
  5
7A76
  8
2
  6
CENTER
 10
1202.8774278289291
 20
3439.5140881074371
 30
0.0
 11
2512.773224828929
 21
3439.5140881074371
 31
0.0
  0
ARC
  5
7A77
  8
1
  6
CONTINUOUS
 10
1853.6270918289299
 20
3392.5140881074381
 30
0.0
 40
502.89999999999992
 50
174.0
 51
270.0
  0
ARC
  5
7A78
  8
1
  6
CONTINUOUS
 10
1768.6270918289299
 20
3401.5140881074371
 30
0.0
 40
417.39999999999992
 50
90.0
 51
174.0
  0
LINE
  5
7A79
  8
1
  6
CONTINUOUS
 10
1406.6270918289299
 20
2959.5140881074371
 30
0.0
 11
1406.6270918289299
 21
2859.5140881074371
 31
0.0
  0
LINE
  5
7A7A
  8
1
  6
CONTINUOUS
 10
1834.6270918289299
 20
3812.5140881074371
 30
0.0
 11
1834.6270918289299
 21
3899.5140881074371
 31
0.0
  0
ARC
  5
7A7B
  8
1
  6
CONTINUOUS
 10
1768.6270918289299
 20
3477.5140881074381
 30
0.0
 40
341.39999999999992
 50
78.900000000000006
 51
90.0
  0
LINE
  5
7A7C
  8
2
  6
CENTER
 10
1806.6270918289299
 20
2748.6505721074382
 30
0.0
 11
1806.6270918289299
 21
3848.3418161074369
 31
0.0
  0
ARC
  5
7A7D
  8
1
  6
CONTINUOUS
 10
2631.6270918289301
 20
3136.5140881074371
 30
0.0
 40
142.0
 50
324.60000000000002
 51
215.39999999999989
  0
CIRCLE
  5
7A7E
  8
1
  6
CONTINUOUS
 10
2631.6270918289301
 20
3136.5140881074371
 30
0.0
 40
70.0
  0
LINE
  5
7A7F
  8
2
  6
CENTER
 10
2701.6270918289301
 20
3136.5140881074371
 30
0.0
 11
2561.6270918289301
 21
3136.5140881074371
 31
0.0
  0
LINE
  5
7A80
  8
1
  6
CONTINUOUS
 10
2501.6270918289301
 20
3004.5140881074381
 30
0.0
 11
2501.6270918289301
 21
3019.5140881074371
 31
0.0
  0
LINE
  5
7A81
  8
1
  6
CONTINUOUS
 10
2501.6270918289301
 20
3019.5140881074371
 30
0.0
 11
2515.927091828929
 21
3054.3140881074369
 31
0.0
  0
LINE
  5
7A82
  8
1
  6
CONTINUOUS
 10
2456.6270918289301
 20
2959.5140881074371
 30
0.0
 11
2466.6270918289301
 21
3004.5140881074381
 31
0.0
  0
LINE
  5
7A83
  8
1
  6
CONTINUOUS
 10
2761.6270918289292
 20
3019.5140881074371
 30
0.0
 11
2747.327091828929
 21
3054.3140881074369
 31
0.0
  0
LINE
  5
7A84
  8
1
  6
CONTINUOUS
 10
2761.6270918289292
 20
3004.5140881074381
 30
0.0
 11
2761.6270918289292
 21
3019.5140881074371
 31
0.0
  0
LINE
  5
7A85
  8
2
  6
CENTER
 10
2631.6270918289301
 20
3066.5140881074371
 30
0.0
 11
2631.6270918289301
 21
3206.5140881074381
 31
0.0
  0
LINE
  5
7A86
  8
1
  6
CONTINUOUS
 10
2484.6270918289301
 20
3899.5140881074371
 30
0.0
 11
2448.6270918289301
 21
3439.5140881074371
 31
0.0
  0
LINE
  5
7A87
  8
1
  6
CONTINUOUS
 10
1834.6270918289299
 20
6436.8714361074381
 30
0.0
 11
2484.6270918289301
 21
5961.8714361074381
 31
0.0
  0
LINE
  5
7A88
  8
1
  6
CONTINUOUS
 10
2484.6270918289301
 20
6436.8714361074381
 30
0.0
 11
1834.6270918289299
 21
5961.8714361074381
 31
0.0
  0
LINE
  5
7A89
  8
1
  6
CONTINUOUS
 10
1350.7270918289289
 20
6436.8714361074381
 30
0.0
 11
2484.6270918289301
 21
6436.8714361074381
 31
0.0
  0
LINE
  5
7A8A
  8
1
  6
CONTINUOUS
 10
1350.7270918289289
 20
5961.8714361074381
 30
0.0
 11
2484.6270918289301
 21
5961.8714361074381
 31
0.0
  0
LINE
  5
7A8B
  8
1
  6
CONTINUOUS
 10
1896.6270918289299
 20
5759.3714361074381
 30
0.0
 11
1716.6270918289299
 21
5759.3714361074381
 31
0.0
  0
LINE
  5
7A8C
  8
1
  6
CONTINUOUS
 10
1896.6270918289299
 20
5839.3714361074381
 30
0.0
 11
1716.6270918289299
 21
5839.3714361074381
 31
0.0
  0
LINE
  5
7A8D
  8
1
  6
CONTINUOUS
 10
1451.6270918289299
 20
6519.3714361074381
 30
0.0
 11
2161.6270918289301
 21
6519.3714361074381
 31
0.0
  0
LINE
  5
7A8E
  8
1
  6
CONTINUOUS
 10
1406.6270918289299
 20
5799.3714361074381
 30
0.0
 11
1716.6270918289299
 21
5799.3714361074381
 31
0.0
  0
LINE
  5
7A8F
  8
1
  6
CONTINUOUS
 10
1406.6270918289299
 20
6489.371436107439
 30
0.0
 11
1491.6270918289299
 21
6489.371436107439
 31
0.0
  0
LINE
  5
7A90
  8
1
  6
CONTINUOUS
 10
1350.7270918289289
 20
5961.8714361074381
 30
0.0
 11
1350.7270918289289
 21
6436.8714361074381
 31
0.0
  0
LINE
  5
7A91
  8
1
  6
CONTINUOUS
 10
1406.6270918289299
 20
5961.8714361074381
 30
0.0
 11
1406.6270918289299
 21
5799.3714361074381
 31
0.0
  0
LINE
  5
7A92
  8
1
  6
CONTINUOUS
 10
1406.6270918289299
 20
6489.371436107439
 30
0.0
 11
1406.6270918289299
 21
6436.8714361074381
 31
0.0
  0
LINE
  5
7A93
  8
1
  6
CONTINUOUS
 10
1834.6270918289299
 20
5961.8714361074381
 30
0.0
 11
1834.6270918289299
 21
6436.8714361074381
 31
0.0
  0
LINE
  5
7A94
  8
1
  6
CONTINUOUS
 10
1616.6270918289299
 20
5719.3714361074381
 30
0.0
 11
1616.6270918289299
 21
5879.3714361074381
 31
0.0
  0
LINE
  5
7A95
  8
1
  6
CONTINUOUS
 10
1716.6270918289299
 20
5759.3714361074381
 30
0.0
 11
1716.6270918289299
 21
5839.3714361074381
 31
0.0
  0
LINE
  5
7A96
  8
1
  6
CONTINUOUS
 10
1787.6270918289299
 20
5839.3714361074381
 30
0.0
 11
1787.6270918289299
 21
5961.8714361074381
 31
0.0
  0
LINE
  5
7A97
  8
1
  6
CONTINUOUS
 10
1825.6270918289299
 20
5839.3714361074381
 30
0.0
 11
1825.6270918289299
 21
5961.8714361074381
 31
0.0
  0
LINE
  5
7A98
  8
1
  6
CONTINUOUS
 10
1491.6270918289299
 20
6519.3714361074381
 30
0.0
 11
1491.6270918289299
 21
6436.8714361074381
 31
0.0
  0
LINE
  5
7A99
  8
1
  6
CONTINUOUS
 10
1896.6270918289299
 20
5799.3714361074381
 30
0.0
 11
2561.6270918289301
 21
5799.3714361074381
 31
0.0
  0
LINE
  5
7A9A
  8
1
  6
CONTINUOUS
 10
1896.6270918289299
 20
5759.3714361074381
 30
0.0
 11
1896.6270918289299
 21
5839.3714361074381
 31
0.0
  0
LINE
  5
7A9B
  8
1
  6
CONTINUOUS
 10
2121.6270918289292
 20
6519.3714361074381
 30
0.0
 11
2121.6270918289292
 21
6436.8714361074381
 31
0.0
  0
LINE
  5
7A9C
  8
1
  6
CONTINUOUS
 10
2489.6270918289301
 20
5931.9714361074384
 30
0.0
 11
2489.6270918289301
 21
6331.9714361074384
 31
0.0
  0
LINE
  5
7A9D
  8
1
  6
CONTINUOUS
 10
2773.6270918289292
 20
5931.9714361074384
 30
0.0
 11
2773.6270918289292
 21
6331.9714361074384
 31
0.0
  0
LINE
  5
7A9E
  8
1
  6
CONTINUOUS
 10
2484.6270918289301
 20
5961.8714361074381
 30
0.0
 11
2484.6270918289301
 21
6436.8714361074381
 31
0.0
  0
LINE
  5
7A9F
  8
1
  6
CONTINUOUS
 10
2773.6270918289292
 20
5931.9714361074384
 30
0.0
 11
2489.6270918289301
 21
5931.9714361074384
 31
0.0
  0
LINE
  5
7AA0
  8
1
  6
CONTINUOUS
 10
2701.6270918289301
 20
5839.3714361074381
 30
0.0
 11
2561.6270918289301
 21
5839.3714361074381
 31
0.0
  0
LINE
  5
7AA1
  8
1
  6
CONTINUOUS
 10
2701.6270918289301
 20
5759.3714361074381
 30
0.0
 11
2561.6270918289301
 21
5759.3714361074381
 31
0.0
  0
LINE
  5
7AA2
  8
1
  6
CONTINUOUS
 10
2561.6270918289301
 20
5759.3714361074381
 30
0.0
 11
2561.6270918289301
 21
5839.3714361074381
 31
0.0
  0
LINE
  5
7AA3
  8
1
  6
CONTINUOUS
 10
2650.6270918289301
 20
5839.3714361074381
 30
0.0
 11
2650.6270918289301
 21
5931.9714361074384
 31
0.0
  0
LINE
  5
7AA4
  8
1
  6
CONTINUOUS
 10
2612.6270918289301
 20
5839.3714361074381
 30
0.0
 11
2612.6270918289301
 21
5931.9714361074384
 31
0.0
  0
LINE
  5
7AA5
  8
1
  6
CONTINUOUS
 10
2701.6270918289301
 20
5759.3714361074381
 30
0.0
 11
2701.6270918289301
 21
5839.3714361074381
 31
0.0
  0
LINE
  5
7AA6
  8
1
  6
CONTINUOUS
 10
2773.6270918289292
 20
6331.9714361074384
 30
0.0
 11
2489.6270918289301
 21
6331.9714361074384
 31
0.0
  0
LINE
  5
7AA7
  8
1
  6
CONTINUOUS
 10
2806.6270918289292
 20
2959.5140881074371
 30
0.0
 11
2806.6270918289292
 21
2859.5140881074371
 31
0.0
  0
LINE
  5
7AA8
  8
1
  6
CONTINUOUS
 10
2796.6270918289292
 20
3004.5140881074381
 30
0.0
 11
2806.6270918289292
 21
2959.5140881074371
 31
0.0
  0
LINE
  5
7AA9
  8
1
  6
CONTINUOUS
 10
2806.6270918289292
 20
6489.371436107439
 30
0.0
 11
2806.6270918289292
 21
5799.3714361074381
 31
0.0
  0
LINE
  5
7AAA
  8
1
  6
CONTINUOUS
 10
2801.6270918289292
 20
5719.3714361074381
 30
0.0
 11
2801.6270918289292
 21
5879.3714361074381
 31
0.0
  0
LINE
  5
7AAB
  8
1
  6
CONTINUOUS
 10
4040.8900502949009
 20
3629.5140881074371
 30
0.0
 11
4200.8900502949009
 21
3629.5140881074371
 31
0.0
  0
LINE
  5
7AAC
  8
1
  6
CONTINUOUS
 10
4283.3900502949018
 20
3458.5140881074371
 30
0.0
 11
4160.8900502949009
 21
3458.5140881074371
 31
0.0
  0
LINE
  5
7AAD
  8
1
  6
CONTINUOUS
 10
4283.3900502949018
 20
3420.5140881074381
 30
0.0
 11
4160.8900502949009
 21
3420.5140881074381
 31
0.0
  0
LINE
  5
7AAE
  8
1
  6
CONTINUOUS
 10
4283.3900502949018
 20
3155.5140881074371
 30
0.0
 11
4160.8900502949009
 21
3155.5140881074371
 31
0.0
  0
LINE
  5
7AAF
  8
1
  6
CONTINUOUS
 10
4283.3900502949018
 20
3117.5140881074371
 30
0.0
 11
4160.8900502949009
 21
3117.5140881074371
 31
0.0
  0
LINE
  5
7AB0
  8
1
  6
CONTINUOUS
 10
4040.8900502949009
 20
2966.5140881074371
 30
0.0
 11
4200.8900502949009
 21
2966.5140881074371
 31
0.0
  0
LINE
  5
7AB1
  8
1
  6
CONTINUOUS
 10
4810.8900502949018
 20
2859.5140881074371
 30
0.0
 11
4120.8900502949018
 21
2859.5140881074371
 31
0.0
  0
LINE
  5
7AB2
  8
1
  6
CONTINUOUS
 10
4810.8900502949018
 20
2959.5140881074371
 30
0.0
 11
4120.8900502949018
 21
2959.5140881074371
 31
0.0
  0
LINE
  5
7AB3
  8
1
  6
CONTINUOUS
 10
4040.8900502949009
 20
3629.5140881074371
 30
0.0
 11
4040.8900502949009
 21
2966.5140881074371
 31
0.0
  0
LINE
  5
7AB4
  8
1
  6
CONTINUOUS
 10
4160.8900502949009
 20
3206.5140881074381
 30
0.0
 11
4160.8900502949009
 21
3066.5140881074371
 31
0.0
  0
LINE
  5
7AB5
  8
1
  6
CONTINUOUS
 10
4080.8900502949018
 20
3206.5140881074381
 30
0.0
 11
4080.8900502949018
 21
3066.5140881074371
 31
0.0
  0
LINE
  5
7AB6
  8
1
  6
CONTINUOUS
 10
4080.8900502949018
 20
3066.5140881074371
 30
0.0
 11
4160.8900502949009
 21
3066.5140881074371
 31
0.0
  0
LINE
  5
7AB7
  8
1
  6
CONTINUOUS
 10
4080.8900502949018
 20
3206.5140881074381
 30
0.0
 11
4160.8900502949009
 21
3206.5140881074381
 31
0.0
  0
LINE
  5
7AB8
  8
1
  6
CONTINUOUS
 10
4120.8900502949018
 20
2959.5140881074371
 30
0.0
 11
4120.8900502949018
 21
2859.5140881074371
 31
0.0
  0
LINE
  5
7AB9
  8
1
  6
CONTINUOUS
 10
4080.8900502949018
 20
3529.5140881074371
 30
0.0
 11
4160.8900502949009
 21
3529.5140881074371
 31
0.0
  0
LINE
  5
7ABA
  8
1
  6
CONTINUOUS
 10
4080.8900502949018
 20
3349.5140881074371
 30
0.0
 11
4160.8900502949009
 21
3349.5140881074371
 31
0.0
  0
LINE
  5
7ABB
  8
1
  6
CONTINUOUS
 10
4080.8900502949018
 20
3529.5140881074371
 30
0.0
 11
4080.8900502949018
 21
3349.5140881074371
 31
0.0
  0
LINE
  5
7ABC
  8
1
  6
CONTINUOUS
 10
4160.8900502949009
 20
3529.5140881074371
 30
0.0
 11
4160.8900502949009
 21
3349.5140881074371
 31
0.0
  0
LINE
  5
7ABD
  8
1
  6
CONTINUOUS
 10
4243.3900502949018
 20
3899.5140881074371
 30
0.0
 11
4798.3900502949009
 21
3899.5140881074371
 31
0.0
  0
LINE
  5
7ABE
  8
1
  6
CONTINUOUS
 10
4283.3900502949018
 20
3859.5140881074381
 30
0.0
 11
4758.3900502949009
 21
3859.5140881074381
 31
0.0
  0
LINE
  5
7ABF
  8
1
  6
CONTINUOUS
 10
4200.8900502949009
 20
3629.5140881074371
 30
0.0
 11
4200.8900502949009
 21
2966.5140881074371
 31
0.0
  0
LINE
  5
7AC0
  8
1
  6
CONTINUOUS
 10
4283.3900502949018
 20
3899.5140881074371
 30
0.0
 11
4283.3900502949018
 21
2959.5140881074371
 31
0.0
  0
LINE
  5
7AC1
  8
1
  6
CONTINUOUS
 10
4840.8900502949018
 20
3794.5140881074381
 30
0.0
 11
4840.8900502949018
 21
3084.5140881074371
 31
0.0
  0
LINE
  5
7AC2
  8
1
  6
CONTINUOUS
 10
4758.3900502949009
 20
3899.5140881074371
 30
0.0
 11
4758.3900502949009
 21
2959.5140881074371
 31
0.0
  0
LINE
  5
7AC3
  8
1
  6
CONTINUOUS
 10
4758.3900502949009
 20
3124.5140881074371
 30
0.0
 11
4840.8900502949018
 21
3124.5140881074371
 31
0.0
  0
LINE
  5
7AC4
  8
1
  6
CONTINUOUS
 10
4810.8900502949018
 20
2959.5140881074371
 30
0.0
 11
4810.8900502949018
 21
2859.5140881074371
 31
0.0
  0
LINE
  5
7AC5
  8
1
  6
CONTINUOUS
 10
4758.3900502949009
 20
3754.5140881074371
 30
0.0
 11
4840.8900502949018
 21
3754.5140881074371
 31
0.0
  0
LINE
  5
7AC6
  8
4
  6
CONTINUOUS
 10
5550.0
 20
1500.0
 30
0.0
 11
5550.0
 21
900.0
 31
0.0
  0
LINE
  5
7AC7
  8
4
  6
CONTINUOUS
 10
3450.0
 20
1500.0
 30
0.0
 11
3450.0
 21
900.0
 31
0.0
  0
LINE
  5
7AC8
  8
4
  6
CONTINUOUS
 10
1950.0
 20
1500.0
 30
0.0
 11
1950.0
 21
900.0
 31
0.0
  0
LINE
  5
7ACB
  8
4
  6
CONTINUOUS
 10
1950.0
 20
900.0
 30
0.0
 11
5550.0
 21
900.0
 31
0.0
  0
LINE
  5
7ACC
  8
4
  6
CONTINUOUS
 10
1950.0
 20
1200.0
 30
0.0
 11
5550.0
 21
1200.0
 31
0.0
  0
TEXT
  5
7ACD
  8
4
  6
CONTINUOUS
 10
2065.50624225
 20
1294.6290779999999
 30
0.0
 40
150.0
  1
機器名称
  0
TEXT
  5
7ACE
  8
4
  6
CONTINUOUS
 10
2058.7743179999989
 20
964.93547024999998
 30
0.0
 40
150.0
  1
機器型番
  0
TEXT
  5
7ACF
  8
4
  6
CONTINUOUS
 10
3533.0362365000001
 20
1267.715306249999
 30
0.0
 40
120.0
  1
ミツヤリミットロードファン
  0
TEXT
  5
7AD0
  8
4
  6
CONTINUOUS
 10
3559.9634872500001
 20
951.4787527499999
 30
0.0
 40
150.0
  1
LLE#4-4
  0
TEXT
  5
7AD2
  8
4
  6
CONTINUOUS
 10
2714.3572964999998
 20
7150.2865245000012
 30
0.0
 40
162.0
  1
床置ベット
  0
TEXT
  5
7AD3
  8
4
  6
CONTINUOUS
 10
948.50278049999986
 20
7601.6429287499996
 30
0.0
 40
171.42857175
  1
ベルト駆動式片吸込両持排煙ファン
  0
LINE
  5
7AD4
  8
4
  6
CONTINUOUS
 10
750.0
 20
7408.2262627500004
 30
0.0
 11
5550.0
 21
7408.2262627500004
 31
0.0
  0
LINE
  5
7AD5
  8
4
  6
CONTINUOUS
 10
750.0
 20
8008.2262627500004
 30
0.0
 11
5550.0
 21
8008.2262627500004
 31
0.0
  0
LINE
  5
7AD6
  8
4
  6
CONTINUOUS
 10
1950.0
 20
1500.0
 30
0.0
 11
5550.0
 21
1500.0
 31
0.0
  0
LINE
  5
7AD7
  8
4
  6
CONTINUOUS
 10
750.0
 20
8008.2262627500004
 30
0.0
 11
750.0
 21
7408.2262627500004
 31
0.0
  0
TEXT
  5
7AD8
  8
4
  6
CONTINUOUS
 10
1406.780799749999
 20
7146.9584324999987
 30
0.0
 40
162.0
  1
左回転上向
  0
TEXT
  5
7AD9
  8
4
  6
CONTINUOUS
 10
4406.9086777499988
 20
8118.1832445
 30
0.0
 40
168.0
  1
No.
  0
TEXT
  5
7ADA
  8
4
  6
CONTINUOUS
 10
3933.8881875000002
 20
7150.2865245000012
 30
0.0
 40
162.0
  1
縮尺：1/30
  0
LINE
  5
7ADB
  8
4
  6
CONTINUOUS
 10
5550.0
 20
8008.2262627500004
 30
0.0
 11
5550.0
 21
7408.2262627500004
 31
0.0
  0
LINE
  5
7ADD
  8
4
  6
CONTINUOUS
 10
4321.8522667500001
 20
8043.79074975
 30
0.0
 11
4321.8522667500001
 21
8359.9567845000001
 31
0.0
  0
LINE
  5
7ADE
  8
4
  6
CONTINUOUS
 10
4321.8522667500001
 20
8359.9567845000001
 30
0.0
 11
5550.0
 21
8359.9567845000001
 31
0.0
  0
LINE
  5
7ADF
  8
4
  6
CONTINUOUS
 10
5550.0
 20
8359.9567845000001
 30
0.0
 11
5550.0
 21
8043.79074975
 31
0.0
  0
LINE
  5
7AE0
  8
4
  6
CONTINUOUS
 10
5550.0
 20
8043.79074975
 30
0.0
 11
4321.8522667500001
 21
8043.79074975
 31
0.0
  0
DIMENSION
  5
7AFA
  8
3
  6
CONTINUOUS
  2
*D1
 10
1806.6270918289299
 20
2632.5445721074379
 30
0.0
 11
1606.6270918289299
 21
2707.608733651944
 31
0.0
 12
-612.7310381710704
 22
0.0
 32
0.0
 70
   128
 13
1406.6270918289299
 23
2859.5140881074371
 33
0.0
 14
1806.6270918289299
 24
2748.6505721074382
 34
0.0
1001
ACAD
1000
DSTYLE
1002
{
1070
   288
1070
     1
1070
   172
1070
     1
1070
    40
1040
30.0
1070
   271
1070
     0
1070
   143
1040
0.039
1002
}
  0
DIMENSION
  5
7B06
  8
3
  6
CONTINUOUS
  2
*D2
 10
2806.6270918289292
 20
2632.5445721074379
 30
0.0
 11
2306.6270918289292
 21
2707.5445721074379
 31
0.0
 70
     0
 13
1806.6270918289299
 23
2748.6505721074382
 33
0.0
 14
2806.6270918289292
 24
2859.5140881074371
 34
0.0
1001
ACAD
1000
DSTYLE
1002
{
1070
   287
1070
     3
1070
   287
1070
     3
1070
    40
1040
30.0
1070
   143
1040
0.039
1070
   172
1070
     1
1070
   271
1070
     0
1070
   279
1070
     0
1070
   288
1070
     1
1002
}
  0
DIMENSION
  5
7B13
  8
3
  6
CONTINUOUS
  2
*D3
 10
2484.6270918289301
 20
4093.2493351074381
 30
0.0
 11
2118.5391048289289
 21
4093.2493351074381
 31
0.0
 70
   128
 13
1834.6270918289299
 23
3899.5140881074371
 33
0.0
 14
2484.6270918289301
 24
3899.5140881074371
 34
0.0
1001
ACAD
1000
DSTYLE
1002
{
1070
   287
1070
     3
1070
   287
1070
     3
1070
    40
1040
30.0
1070
   143
1040
0.039
1070
   172
1070
     1
1070
   271
1070
     0
1070
   279
1070
     0
1070
   288
1070
     1
1002
}
  0
DIMENSION
  5
7B20
  8
3
  6
CONTINUOUS
  2
*D4
 10
1806.6270918289299
 20
4271.987234107437
 30
0.0
 11
2141.37242882893
 21
4271.987234107437
 31
0.0
 70
   128
 13
2484.6270918289301
 23
3899.5140881074371
 33
0.0
 14
1806.6270918289299
 24
3816.7926761074368
 34
0.0
1001
ACAD
1000
DSTYLE
1002
{
1070
   287
1070
     3
1070
   287
1070
     3
1070
    40
1040
30.0
1070
   143
1040
0.039
1070
   172
1070
     1
1070
   271
1070
     0
1070
   279
1070
     0
1070
   288
1070
     1
1002
}
  0
DIMENSION
  5
7B2E
  8
3
  6
CONTINUOUS
  2
*D5
 10
1352.9281708289291
 20
4276.5465391074376
 30
0.0
 11
1560.785313686072
 21
4276.5465391074376
 31
0.0
 70
   128
 13
1806.6270918289299
 23
3816.7926761074368
 33
0.0
 14
1352.9281708289291
 24
3439.5140881074371
 34
0.0
1001
ACAD
1000
DSTYLE
1002
{
1070
   287
1070
     3
1070
   287
1070
     3
1070
    40
1040
30.0
1070
   143
1040
0.039
1070
   172
1070
     1
1070
   271
1070
     0
1070
   279
1070
     0
1070
   288
1070
     1
1002
}
  0
DIMENSION
  5
7B53
  8
3
  6
CONTINUOUS
  2
*D6
 10
3058.5107068289308
 20
3439.5140881074371
 30
0.0
 11
3058.5107068289299
 21
3693.7998023931518
 31
0.0
 70
   128
 13
2526.6270918289301
 23
3899.5140881074371
 33
0.0
 14
2448.6738218289302
 24
3439.5140881074371
 34
0.0
 50
90.0
1001
ACAD
1000
DSTYLE
1002
{
1070
   287
1070
     3
1070
   287
1070
     3
1070
    40
1040
30.0
1070
   143
1040
0.039
1070
   172
1070
     1
1070
   271
1070
     0
1070
   279
1070
     0
1070
   288
1070
     1
1002
}
  0
DIMENSION
  5
7B5F
  8
3
  6
CONTINUOUS
  2
*D7
 10
3058.5107068289299
 20
2859.5140881074371
 30
0.0
 11
2983.510706828929
 21
3149.5140881074381
 31
0.0
 70
     0
 13
2448.6738218289302
 23
3439.5140881074371
 33
0.0
 14
2806.6270918289292
 24
2859.5140881074371
 34
0.0
 50
90.0
1001
ACAD
1000
DSTYLE
1002
{
1070
   287
1070
     3
1070
   287
1070
     3
1070
    40
1040
30.0
1070
   143
1040
0.039
1070
   172
1070
     1
1070
   271
1070
     0
1070
   279
1070
     0
1070
   288
1070
     1
1002
}
  0
DIMENSION
  5
7B6C
  8
3
  6
CONTINUOUS
  2
*D8
 10
2806.6270918289292
 20
5352.391577107438
 30
0.0
 11
2057.6502678289289
 21
5352.391577107438
 31
0.0
 70
   128
 13
1406.6270918289299
 23
5799.3714361074381
 33
0.0
 14
2806.6270918289292
 24
5799.3714361074381
 34
0.0
1001
ACAD
1000
DSTYLE
1002
{
1070
   287
1070
     3
1070
   287
1070
     3
1070
    40
1040
30.0
1070
   143
1040
0.039
1070
   172
1070
     1
1070
   271
1070
     0
1070
   279
1070
     0
1070
   288
1070
     1
1002
}
  0
DIMENSION
  5
7B79
  8
3
  6
CONTINUOUS
  2
*D9
 10
3104.1773538289308
 20
5799.3714361074381
 30
0.0
 11
3104.1773538289299
 21
6166.2194041074372
 31
0.0
 70
   128
 13
2806.6270918289292
 23
6489.371436107439
 33
0.0
 14
2801.6270918289292
 24
5799.3714361074381
 34
0.0
 50
90.0
1001
ACAD
1000
DSTYLE
1002
{
1070
   287
1070
     3
1070
   287
1070
     3
1070
    40
1040
30.0
1070
   143
1040
0.039
1070
   172
1070
     1
1070
   271
1070
     0
1070
   279
1070
     0
1070
   288
1070
     1
1002
}
  0
LINE
  5
7B7A
  8
2
  6
CENTER
 10
1270.8104978289291
 20
6199.3714361074381
 30
0.0
 11
2639.8999038289289
 21
6199.3714361074381
 31
0.0
  0
LINE
  5
7B7B
  8
2
  6
CENTER
 10
1806.6270918289299
 20
5650.9324381074384
 30
0.0
 11
1806.6270918289299
 21
6575.6570131074377
 31
0.0
  0
LINE
  5
7B7C
  8
2
  6
CENTER
 10
4520.8900502949018
 20
4027.3404881074371
 30
0.0
 11
4520.8900502949018
 21
4019.9034431074379
 31
0.0
  0
DIMENSION
  5
7B89
  8
3
  6
CONTINUOUS
  2
*D10
 10
5076.4392899204722
 20
3124.5140881074371
 30
0.0
 11
5076.4392899204713
 21
3435.3558251074378
 31
0.0
 70
   128
 13
4840.8900502949018
 23
3754.5140881074371
 33
0.0
 14
4840.8900502949018
 24
3124.5140881074371
 34
0.0
 50
90.0
1001
ACAD
1000
DSTYLE
1002
{
1070
   287
1070
     3
1070
   287
1070
     3
1070
     3
1000
φ<>
1070
    40
1040
30.0
1070
   143
1040
0.039
1070
   172
1070
     1
1070
   271
1070
     0
1070
   279
1070
     0
1070
   288
1070
     1
1002
}
  0
DIMENSION
  5
7B98
  8
3
  6
CONTINUOUS
  2
*D11
 10
4520.8900502949018
 20
2606.3162221074381
 30
0.0
 11
4320.8900502949009
 21
2681.9528988524899
 31
0.0
 12
-612.7310381710704
 22
0.0
 32
0.0
 70
   128
 13
4120.8900502949018
 23
2859.5140881074371
 33
0.0
 14
4520.8900502949018
 24
2788.8570531074379
 34
0.0
1001
ACAD
1000
DSTYLE
1002
{
1070
   288
1070
     1
1070
   172
1070
     1
1070
    40
1040
30.0
1070
   271
1070
     0
1070
   143
1040
0.039
1002
}
  0
DIMENSION
  5
7BA6
  8
3
  6
CONTINUOUS
  2
*D12
 10
4810.8900502949018
 20
2606.3162221074381
 30
0.0
 11
4672.2348485754692
 21
2688.3668575523552
 31
0.0
 12
-612.7310381710704
 22
0.0
 32
0.0
 70
   128
 13
4520.8900502949018
 23
2788.8570531074379
 33
0.0
 14
4810.8900502949018
 24
2859.5140881074371
 34
0.0
1001
ACAD
1000
DSTYLE
1002
{
1070
   288
1070
     1
1070
   172
1070
     1
1070
    40
1040
30.0
1070
   271
1070
     0
1070
   143
1040
0.039
1002
}
  0
DIMENSION
  5
7BCB
  8
3
  6
CONTINUOUS
  2
*D13
 10
4758.3900502949009
 20
4001.9929781074379
 30
0.0
 11
4520.8900502949018
 21
4001.9929781074379
 31
0.0
 70
   128
 13
4283.3900502949018
 23
3899.5140881074371
 33
0.0
 14
4758.3900502949009
 24
3899.5140881074371
 34
0.0
1001
ACAD
1000
DSTYLE
1002
{
1070
   287
1070
     3
1070
   287
1070
     3
1070
    40
1040
30.0
1070
   143
1040
0.039
1070
   172
1070
     1
1070
   271
1070
     0
1070
   279
1070
     0
1070
   288
1070
     1
1002
}
  0
DIMENSION
  5
7BD8
  8
3
  6
CONTINUOUS
  2
*D14
 10
4520.8900502949018
 20
4276.2586333066174
 30
0.0
 11
4259.4614788663303
 21
4276.2586333066174
 31
0.0
 70
   128
  1
MAX\P550
 13
4040.8900502949009
 23
3629.5140881074371
 33
0.0
 14
4520.8900502949018
 24
4137.7798397516362
 34
0.0
1001
ACAD
1000
DSTYLE
1002
{
1070
   287
1070
     3
1070
   287
1070
     3
1070
    40
1040
30.0
1070
   143
1040
0.039
1070
   172
1070
     1
1070
   271
1070
     0
1070
   279
1070
     0
1070
   288
1070
     1
1002
}
  0
DIMENSION
  5
7BE6
  8
3
  6
CONTINUOUS
  2
*D15
 10
4840.8900502949018
 20
4276.6367963066168
 30
0.0
 11
4672.2348485754692
 21
4362.4097098806315
 31
0.0
 12
-612.7310381710704
 22
0.0
 32
0.0
 70
   128
 13
4520.8900502949018
 23
4137.7798397516362
 33
0.0
 14
4840.8900502949018
 24
3794.5140881074381
 34
0.0
1001
ACAD
1000
DSTYLE
1002
{
1070
   288
1070
     1
1070
   172
1070
     1
1070
    40
1040
30.0
1070
   271
1070
     0
1070
   143
1040
0.039
1002
}
  0
LINE
  5
7BFD
  8
2
  6
CENTER
 10
3942.784331294903
 20
3439.5140881074371
 30
0.0
 11
4782.244579294902
 21
3439.5140881074371
 31
0.0
  0
DIMENSION
  5
7C0A
  8
3
  6
CONTINUOUS
  2
*D16
 10
3368.7881358289301
 20
2859.5140881074371
 30
0.0
 11
3368.7881358289292
 21
3450.818782107438
 31
0.0
 70
   128
 13
2526.6270918289301
 23
3899.5140881074371
 33
0.0
 14
2806.6270918289292
 24
2859.5140881074371
 34
0.0
 50
90.0
1001
ACAD
1000
DSTYLE
1002
{
1070
   287
1070
     3
1070
   287
1070
     3
1070
    40
1040
30.0
1070
   143
1040
0.039
1070
   172
1070
     1
1070
   271
1070
     0
1070
   279
1070
     0
1070
   288
1070
     1
1002
}
  0
LINE
  5
7C10
  8
2
  6
CENTER
 10
4520.8900502949018
 20
4019.9034431074379
 30
0.0
 11
4520.8900502949018
 21
2788.8570531074379
 31
0.0
  0
DIMENSION
  5
7D82
  8
3
  2
*D17
 10
2806.6270918289292
 20
4468.868974539324
 30
0.0
 11
2140.926589127338
 21
4468.868974539324
 31
0.0
 70
   128
 13
1352.9281708289291
 23
3454.5140881074371
 33
0.0
 14
2806.6270918289292
 24
2959.5140881074371
 34
0.0
1001
ACAD
1000
DSTYLE
1002
{
1070
   287
1070
     3
1070
   287
1070
     3
1070
    40
1040
30.0
1070
   143
1040
0.039
1070
   172
1070
     1
1070
   271
1070
     0
1070
   279
1070
     0
1070
   288
1070
     1
1002
}
  0
ENDSEC
  0
EOF
